<?xml version="1.0" standalone="no"?>
<!DOCTYPE svg PUBLIC "-//W3C//DTD SVG 1.1//EN" "http://www.w3.org/Graphics/SVG/1.1/DTD/svg11.dtd" >
<svg xmlns="http://www.w3.org/2000/svg" xmlns:xlink="http://www.w3.org/1999/xlink" version="1.1">
<metadata>
Created by FontForge 20170731 at Tue Oct 31 15:00:59 2017
 By Aleksey,,,
Copyright 2016 The Merriweather Project Authors (https://github.com/EbenSorkin/Merriweather), with Reserved Font Name "Merriweather".
</metadata>
<defs>
<font id="Merriweather-BlackItalic" horiz-adv-x="0" >
  <font-face 
    font-family="Merriweather Black"
    font-weight="900"
    font-style="italic"
    font-stretch="normal"
    units-per-em="1000"
    panose-1="0 0 10 0 0 0 0 0 0 0"
    ascent="800"
    descent="-200"
    x-height="568"
    cap-height="743"
    bbox="-716 -273 1371 1061"
    underline-thickness="50"
    underline-position="-150"
    slope="-8"
    unicode-range="U+000D-FB02"
  />
<missing-glyph horiz-adv-x="914" 
d="M111 691h692v-691h-692v691zM456 287l176 -180l60 60l-177 179l177 175l-63 61l-171 -179l-175 180l-60 -62l175 -177l-174 -167l62 -70z" />
    <glyph glyph-name="fi" unicode="fi" horiz-adv-x="663" 
d="M208.5 755q59.5 60 153.5 60q55 0 86 -12l-30 -86q-31 23 -65 23q-25 0 -37.5 -12.5t-17.5 -32t-11 -59.5l-12 -81h101l-14 -83h-98l-48 -399q-10 -85 -40.5 -158.5t-82.5 -119.5t-124 -46q-45 0 -92 11l28 92q56 -24 76 -24q25 0 40.5 23t22.5 72l66 549h-61l10 50
l66 31l8 47q16 95 75.5 155zM553 97q0 -24 18 -24q8 0 17.5 5t27.5 17l13 -34q-17 -23 -52.5 -47t-89.5 -24q-46 0 -71.5 17.5t-25.5 45.5q0 6 1 10l26 197l28 209l-56 30l8 43l193 26l26 -12l-62 -446q-1 -5 -1 -13zM499.5 678q-23.5 24 -23.5 54q0 41 28 69.5t74 28.5
q35 0 56 -23t21 -53q0 -44 -26 -72t-76 -28q-30 0 -53.5 24z" />
    <glyph glyph-name="fl" unicode="fl" horiz-adv-x="646" 
d="M208.5 755q59.5 60 153.5 60q55 0 86 -12l-30 -86q-31 23 -65 23q-25 0 -37.5 -12.5t-17.5 -32t-11 -59.5l-12 -81h101l-14 -83h-98l-48 -399q-10 -85 -40.5 -158.5t-82.5 -119.5t-124 -46q-45 0 -92 11l28 92q56 -24 76 -24q25 0 40.5 23t22.5 72l66 549h-61l10 50
l66 31l8 47q16 95 75.5 155zM541 98q0 -25 19 -25q8 0 17.5 4.5t27.5 17.5l13 -34q-52 -71 -136 -71q-43 0 -72.5 16t-30.5 50q0 6 4 38l84 630l-65 21l10 40l196 21l25 -14l-91 -682q-1 -4 -1 -12z" />
    <glyph glyph-name="f_f" unicode="ff" horiz-adv-x="672" 
d="M208.5 755q59.5 60 153.5 60q55 0 86 -12l-30 -86q-31 23 -65 23q-25 0 -37.5 -12.5t-17.5 -32t-11 -59.5l-12 -81h101l-14 -83h-98l-48 -399q-10 -85 -40.5 -158.5t-82.5 -119.5t-124 -46q-45 0 -92 11l28 92q56 -24 76 -24q25 0 40.5 23t22.5 72l66 549h-61l10 50
l66 31l8 47q16 95 75.5 155zM544.5 755q59.5 60 153.5 60q55 0 86 -12l-30 -86q-31 23 -65 23q-25 0 -37.5 -12.5t-17.5 -32t-11 -59.5l-12 -81h101l-14 -83h-98l-48 -399q-10 -85 -40.5 -158.5t-82.5 -119.5t-124 -46q-45 0 -92 11l28 92q56 -24 76 -24q25 0 40.5 23
t22.5 72l66 549h-61l10 50l66 31l8 47q16 95 75.5 155z" />
    <glyph glyph-name="f_f_i" unicode="ffi" horiz-adv-x="999" 
d="M208.5 755q59.5 60 153.5 60q55 0 86 -12l-30 -86q-31 23 -65 23q-25 0 -37.5 -12.5t-17.5 -32t-11 -59.5l-12 -81h101l-14 -83h-98l-48 -399q-10 -85 -40.5 -158.5t-82.5 -119.5t-124 -46q-45 0 -92 11l28 92q56 -24 76 -24q25 0 40.5 23t22.5 72l66 549h-61l10 50
l66 31l8 47q16 95 75.5 155zM544.5 755q59.5 60 153.5 60q55 0 86 -12l-30 -86q-31 23 -65 23q-25 0 -37.5 -12.5t-17.5 -32t-11 -59.5l-12 -81h101l-14 -83h-98l-48 -399q-10 -85 -40.5 -158.5t-82.5 -119.5t-124 -46q-45 0 -92 11l28 92q56 -24 76 -24q25 0 40.5 23
t22.5 72l66 549h-61l10 50l66 31l8 47q16 95 75.5 155zM889 97q0 -24 18 -24q8 0 17.5 5t27.5 17l13 -34q-17 -23 -52.5 -47t-89.5 -24q-46 0 -71.5 17.5t-25.5 45.5q0 6 1 10l26 197l28 209l-56 30l8 43l193 26l26 -12l-62 -446q-1 -5 -1 -13zM835.5 678q-23.5 24 -23.5 54
q0 41 28 69.5t74 28.5q35 0 56 -23t21 -53q0 -44 -26 -72t-76 -28q-30 0 -53.5 24z" />
    <glyph glyph-name="f_f_l" unicode="ffl" horiz-adv-x="982" 
d="M208.5 755q59.5 60 153.5 60q55 0 86 -12l-30 -86q-31 23 -65 23q-25 0 -37.5 -12.5t-17.5 -32t-11 -59.5l-12 -81h101l-14 -83h-98l-48 -399q-10 -85 -40.5 -158.5t-82.5 -119.5t-124 -46q-45 0 -92 11l28 92q56 -24 76 -24q25 0 40.5 23t22.5 72l66 549h-61l10 50
l66 31l8 47q16 95 75.5 155zM544.5 755q59.5 60 153.5 60q55 0 86 -12l-30 -86q-31 23 -65 23q-25 0 -37.5 -12.5t-17.5 -32t-11 -59.5l-12 -81h101l-14 -83h-98l-48 -399q-10 -85 -40.5 -158.5t-82.5 -119.5t-124 -46q-45 0 -92 11l28 92q56 -24 76 -24q25 0 40.5 23
t22.5 72l66 549h-61l10 50l66 31l8 47q16 95 75.5 155zM877 98q0 -25 19 -25q8 0 17.5 4.5t27.5 17.5l13 -34q-52 -71 -136 -71q-43 0 -72.5 16t-30.5 50q0 6 4 38l84 630l-65 21l10 40l196 21l25 -14l-91 -682q-1 -4 -1 -12z" />
    <glyph glyph-name=".notdef" horiz-adv-x="914" 
d="M111 691h692v-691h-692v691zM456 287l176 -180l60 60l-177 179l177 175l-63 61l-171 -179l-175 180l-60 -62l175 -177l-174 -167l62 -70z" />
    <glyph glyph-name=".null" 
 />
    <glyph glyph-name="nonmarkingreturn" unicode="&#xd;" horiz-adv-x="237" 
 />
    <glyph glyph-name="NULL" 
 />
    <glyph glyph-name="NULL" 
 />
    <glyph glyph-name="space" unicode=" " horiz-adv-x="237" 
 />
    <glyph glyph-name="exclam" unicode="!" horiz-adv-x="350" 
d="M342 868l-126 -611h-98l62 611h162zM86 138q28 27 64 27q33 0 52 -23t19 -55q0 -46 -29.5 -71.5t-67.5 -25.5q-28 0 -47 22.5t-19 55.5q0 43 28 70z" />
    <glyph glyph-name="quotedbl" unicode="&#x22;" horiz-adv-x="540" 
d="M274 824l-81 -352h-97l40 352h138zM527 824l-81 -352h-97l40 352h138z" />
    <glyph glyph-name="numbersign" unicode="#" horiz-adv-x="686" 
d="M54 178l11 87h96l23 151h-96l8 84h99l26 163h109l-25 -163h124l28 163h108l-26 -163h99l-8 -84h-103l-24 -151h98l-11 -87h-102l-28 -178h-106l24 178h-125l-30 -178h-107l28 178h-90zM417 416h-125l-22 -151h125z" />
    <glyph glyph-name="dollar" unicode="$" horiz-adv-x="588" 
d="M203 -9q-62 5 -115.5 19t-68.5 27l31 154h97l5 -107q43 -33 103 -33q68 0 98 28.5t30 75.5q0 44 -29 76.5t-101 79.5q-76 49 -119 100.5t-43 121.5q0 96 68.5 153.5t179.5 64.5l14 93h88l-15 -94q90 -6 139 -34l-26 -146h-92l-14 96q-37 26 -86 26q-50 0 -76.5 -25
t-26.5 -66q0 -50 31.5 -85.5t108.5 -83.5q74 -45 115 -94.5t41 -120.5q0 -91 -62 -154.5t-186 -72.5l-17 -102h-88z" />
    <glyph glyph-name="percent" unicode="%" horiz-adv-x="933" 
d="M748 747l-463 -747h-105l463 747h105zM119 403.5q-40 44.5 -40 111.5q0 52 27.5 101.5t76 80.5t107.5 31q74 0 114 -41.5t40 -107.5q0 -54 -27.5 -105t-77 -83t-110.5 -32q-70 0 -110 44.5zM289 440.5q19 26.5 29 64t10 70.5q0 98 -52 98q-27 0 -46.5 -25t-29.5 -62
t-10 -70q0 -102 53 -102q27 0 46 26.5zM524.5 285.5q27.5 49.5 76 80t107.5 30.5q75 0 114.5 -41t39.5 -107q0 -54 -27.5 -105t-76.5 -83t-111 -32q-70 0 -110 44.5t-40 111.5q0 52 27.5 101.5zM661 83q27 0 46.5 26.5t29.5 64t10 70.5q0 47 -13 72.5t-40 25.5t-46.5 -25
t-29.5 -61.5t-10 -70.5q0 -102 53 -102z" />
    <glyph glyph-name="ampersand" unicode="&#x26;" horiz-adv-x="881" 
d="M176.5 4.5q-66.5 22.5 -104 64t-37.5 97.5q0 82 50 129.5t140 83.5q-39 91 -39 156q0 69 34 119.5t94 77t136 26.5q103 0 156 -42t53 -107q0 -59 -34.5 -100.5t-83 -67.5t-131.5 -61q84 -152 176 -236q35 45 35 107q0 10 -1.5 22.5t-1.5 18.5h-11q-24 0 -45 -5t-31 -14
v109q9 9 28 16.5t48 7.5q17 0 45 -4q32 -4 57 -4q41 0 57 15t23 60h54q11 -36 11 -70q0 -52 -22.5 -86t-64.5 -34h-16v-12q0 -105 -95 -182q12 -7 28 -11q31 -10 64 -10q12 0 17 1v-60q-26 -11 -56 -15t-83 -4q-67 0 -116 22q-90 -30 -182 -30q-85 0 -151.5 22.5zM471 507.5
q33 37.5 33 94.5q0 39 -13.5 68t-44.5 29q-53 0 -75 -35.5t-22 -97.5q0 -66 29 -126q60 30 93 67.5zM442 60q-51 47 -86 98t-90 145q-65 -50 -65 -116q0 -64 41 -100t110 -36q48 0 90 9z" />
    <glyph glyph-name="quotesingle" unicode="'" horiz-adv-x="288" 
d="M274 824l-81 -352h-97l40 352h138z" />
    <glyph glyph-name="parenleft" unicode="(" horiz-adv-x="432" 
d="M93 354q17 131 79 241t130 180t104 89l61 -43q-28 -18 -77 -77.5t-95 -154.5t-64 -212q-9 -60 -9 -127q0 -98 22 -178.5t51.5 -131.5t51.5 -69l-66 -41h-9q-28 19 -71.5 72t-79 142.5t-35.5 202.5q0 54 7 107z" />
    <glyph glyph-name="parenright" unicode=")" horiz-adv-x="436" 
d="M337 343q-17 -131 -79 -241t-130 -180t-104 -89l-61 43q28 18 77 77.5t95 154.5t64 212q9 60 9 127q0 98 -22 178.5t-51.5 131.5t-51.5 69l66 41h9q28 -19 71.5 -72t79 -142.5t35.5 -202.5q0 -54 -7 -107z" />
    <glyph glyph-name="asterisk" unicode="*" horiz-adv-x="667" 
d="M273 568l34 11l-29 11l-171 75l75 108l140 -117l23 -22l-3 36l-3 190l133 -2l-44 -191l-9 -29l192 136l52 -110l-184 -74l-33 -12l28 -10l172 -75l-75 -110l-142 117l-23 24l3 -36l4 -190h-134l44 193l9 29l-25 -21l-166 -116l-51 111z" />
    <glyph glyph-name="plus" unicode="+" horiz-adv-x="648" 
d="M286 333l-69 -3h-96l9 94h105l68 -4l7 80l13 113h105l-13 -113l-14 -80l57 4h110l-9 -94h-120l-54 3q0 -14 -2 -40l-3 -41l-14 -118h-106l13 118z" />
    <glyph glyph-name="comma" unicode="," horiz-adv-x="271" 
d="M112 144q54 -14 78.5 -54.5t24.5 -91.5q0 -80 -52 -147t-140 -105l-30 43l1 10q40 18 69.5 64.5t29.5 93.5q0 33 -14.5 57.5t-35.5 24.5l3 30z" />
    <glyph glyph-name="hyphen" unicode="-" horiz-adv-x="638" 
d="M544 368l-17 -94h-422l17 94h422z" />
    <glyph glyph-name="period" unicode="." horiz-adv-x="279" 
d="M54.5 143q27.5 28 63.5 28t57 -24.5t21 -56.5q0 -49 -29 -75t-68 -26q-29 0 -50.5 23.5t-21.5 57.5q0 45 27.5 73z" />
    <glyph glyph-name="slash" unicode="/" horiz-adv-x="417" 
d="M361 780h113l-421 -957h-113z" />
    <glyph glyph-name="zero" unicode="0" horiz-adv-x="624" 
d="M97.5 59.5q-58.5 67.5 -58.5 169.5q0 97 40 174t111 120.5t162 43.5q120 0 178.5 -67.5t58.5 -169.5q0 -97 -40 -174t-111.5 -120.5t-161.5 -43.5q-120 0 -178.5 67.5zM391.5 133.5q29.5 87.5 29.5 199.5q0 181 -83 181q-75 0 -104.5 -87.5t-29.5 -198.5q0 -82 19 -132
t64 -50q75 0 104.5 87.5z" />
    <glyph glyph-name="one" unicode="1" horiz-adv-x="454" 
d="M139 65l51 369q-76 -18 -118 -25l-9 60q49 11 117.5 41t108.5 57l79 -18l-70 -484l109 -14l-5 -51h-371l5 51z" />
    <glyph glyph-name="two" unicode="2" horiz-adv-x="609" 
d="M261.5 233q92.5 101 92.5 204q0 47 -23 73t-63 26q-49 0 -101.5 -23t-72.5 -46l-37 62q16 18 52.5 41.5t90.5 41.5t115 18q76 0 122 -29t65.5 -70.5t19.5 -82.5q0 -66 -53.5 -138t-134.5 -135t-163 -102l275 21l55 98l71 -23l-48 -169h-489l-16 51q150 81 242.5 182z" />
    <glyph glyph-name="three" unicode="3" horiz-adv-x="539" 
d="M-10 -144l20 72q30 -8 63 -8q81 0 136 25.5t81 66t26 86.5q0 27 -12.5 53.5t-40.5 44.5t-70 18q-14 0 -21 -1l-54 -15l10 70q57 12 99.5 40t65 65t22.5 76q0 32 -17.5 57t-53.5 25q-91 0 -161 -59l-28 58q18 20 56.5 43t89 39t101.5 16q80 0 126 -40.5t46 -109.5
q0 -63 -53 -123t-125 -91q8 1 24 1q49 0 85 -22.5t54.5 -59t18.5 -78.5q0 -77 -51 -137.5t-137 -94t-186 -33.5q-40 0 -114 16z" />
    <glyph glyph-name="four" unicode="4" horiz-adv-x="617" 
d="M310 0h-296l-33 41q48 59 113.5 173t125 236.5t90.5 200.5h18l152 -66q-54 -92 -151.5 -244t-143.5 -208l-21 -24l-42 -48l200 17l21 163l152 37l-21 -189l95 8l-13 -97h-99l-22 -183h-149z" />
    <glyph glyph-name="five" unicode="5" horiz-adv-x="552" 
d="M114 -85q78 0 130 28t76.5 71.5t24.5 90.5q0 57 -31 95t-89 38q-55 0 -113 -29l-30 23l78 387h301l12 14h76l-27 -117l-247 1l-54 -224q15 11 51.5 21t65.5 10q62 0 102.5 -26.5t59 -68.5t18.5 -90q0 -88 -48.5 -155.5t-132.5 -105t-188 -37.5q-21 0 -54 4.5t-45 7.5
l11 70q29 -8 53 -8z" />
    <glyph glyph-name="six" unicode="6" horiz-adv-x="591" 
d="M162.5 23q-54.5 33 -85.5 91t-31 130q0 121 56.5 230.5t155.5 186.5t221 106l26 -64q-61 -19 -119.5 -64.5t-101 -103t-57.5 -110.5q21 27 56.5 44t83.5 17q55 0 96.5 -24t64 -66.5t22.5 -96.5q0 -82 -35 -153t-95.5 -113.5t-134.5 -42.5q-68 0 -122.5 33zM347.5 88.5
q25.5 32.5 37.5 81t12 99.5q0 67 -24 97.5t-59 30.5t-60.5 -19t-42.5 -45q-13 -72 -13 -137q0 -67 19 -103.5t67 -36.5q38 0 63.5 32.5z" />
    <glyph glyph-name="seven" unicode="7" horiz-adv-x="535" 
d="M184 472l-46 -118h-104l37 206h462l17 -25l-285 -718l-147 46l302 609h-236z" />
    <glyph glyph-name="eight" unicode="8" horiz-adv-x="612" 
d="M94 291.5q51 57.5 128 87.5q-44 39 -70.5 80.5t-26.5 92.5q0 55 31.5 101t88 73t130.5 27q109 0 158.5 -35t49.5 -105q0 -58 -45 -114t-115 -92q134 -97 134 -200q0 -63 -41 -112.5t-106.5 -77t-135.5 -27.5q-99 0 -165 43t-66 137q0 64 51 121.5zM459 607
q0 46 -24.5 68.5t-60.5 22.5q-50 0 -79.5 -29t-29.5 -81q0 -36 24 -67t73 -65q97 56 97 151zM211 86.5q27 -35.5 81 -35.5q48 0 82.5 34t34.5 91q0 29 -11.5 51.5t-30.5 40t-56 45.5l-25 19q-101 -63 -102 -163q0 -47 27 -82.5z" />
    <glyph glyph-name="nine" unicode="9" horiz-adv-x="609" 
d="M447 539q54 -29 84.5 -85t30.5 -135q0 -121 -57.5 -231.5t-157.5 -189t-222 -107.5l-26 64q63 19 122.5 62t102.5 100t58 116q-22 -27 -57 -44t-83 -17q-55 0 -96.5 29t-64 80t-22.5 116q0 72 34.5 134t95 99.5t134.5 37.5q70 0 124 -29zM240.5 448.5
q-28.5 -53.5 -28.5 -121.5q0 -88 24 -127t59 -39q59 0 103 64q13 59 13 113q0 80 -19 122t-67 42q-56 0 -84.5 -53.5z" />
    <glyph glyph-name="colon" unicode=":" horiz-adv-x="277" 
d="M110.5 538q27.5 28 63.5 28t57 -24.5t21 -56.5q0 -49 -29 -75t-68 -26q-29 0 -50.5 23.5t-21.5 57.5q0 45 27.5 73zM51.5 143q27.5 28 63.5 28t57 -24.5t21 -56.5q0 -49 -29 -75t-68 -26q-29 0 -50.5 23.5t-21.5 57.5q0 45 27.5 73z" />
    <glyph glyph-name="semicolon" unicode=";" horiz-adv-x="271" 
d="M112 144q54 -14 78.5 -54.5t24.5 -91.5q0 -80 -52 -147t-140 -105l-30 43l1 10q40 18 69.5 64.5t29.5 93.5q0 33 -14.5 57.5t-35.5 24.5l3 30zM106.5 538q27.5 28 63.5 28t57 -24.5t21 -56.5q0 -49 -29 -75t-68 -26q-29 0 -50.5 23.5t-21.5 57.5q0 45 27.5 73z" />
    <glyph glyph-name="less" unicode="&#x3c;" horiz-adv-x="668" 
d="M596 646l-16 -125l-335 -156l297 -162l-12 -117l-435 249l8 62z" />
    <glyph glyph-name="equal" unicode="=" horiz-adv-x="519" 
d="M482 504l-11 -95h-398l11 95h398zM446 247l-11 -95h-398l11 95h398z" />
    <glyph glyph-name="greater" unicode="&#x3e;" horiz-adv-x="668" 
d="M121 88l16 125l335 156l-297 162l12 117l435 -249l-8 -62z" />
    <glyph glyph-name="question" unicode="?" horiz-adv-x="465" 
d="M114 291q-9 33 -9 60q0 34 18 59.5t43.5 43t77.5 48.5q41 21 72.5 42.5t45.5 37.5q5 10 7.5 28.5t2.5 34.5q0 60 -43.5 95.5t-119.5 35.5q-30 0 -62.5 -5t-52.5 -15l23 98q14 11 56.5 26t89.5 15q128 0 180.5 -61.5t52.5 -148.5q0 -82 -42 -141q-32 -43 -75.5 -75
t-90.5 -53q-28 -13 -47.5 -31.5t-21.5 -42.5q-1 -9 -1 -26q0 -35 6 -53l-83 -24l-7 1q-11 18 -20 51zM148.5 138q28.5 27 63.5 27q34 0 53 -23t19 -55q0 -46 -29.5 -71.5t-68.5 -25.5q-28 0 -47 22.5t-19 55.5q0 43 28.5 70z" />
    <glyph glyph-name="at" unicode="@" horiz-adv-x="961" 
d="M113 481.5q85 143.5 217.5 225.5t266.5 82q99 0 175.5 -44t118.5 -122t42 -177q0 -134 -42.5 -237t-112 -158.5t-146.5 -55.5q-61 0 -61 100q0 18 5.5 57t12.5 71q-38 -89 -90 -154.5t-102 -65.5q-42 0 -78 23.5t-58.5 71.5t-22.5 117q0 81 35 157t101.5 124.5
t157.5 48.5q22 0 51.5 -8.5t48.5 -22.5l99 24q-14 -56 -30 -155t-23 -173q-3 -34 -3 -54l1 -40q0 -17 4 -25t9 -8q39 0 73.5 47.5t55 122t20.5 149.5q0 97 -40 166t-105 104t-139 35q-119 0 -215 -76.5t-150 -194.5t-54 -237q0 -113 48 -197t125.5 -128.5t163.5 -44.5
q41 0 93.5 9.5t75.5 20.5l21 -52q-34 -26 -89 -41.5t-118 -15.5q-113 0 -211 50t-157 144t-59 221q0 173 85 316.5zM374.5 144q15.5 -35 42.5 -35q26 0 67.5 59t77 137t41.5 126q-8 15 -34 27.5t-47 12.5q-52 0 -89 -37t-55.5 -95t-18.5 -121q0 -39 15.5 -74z" />
    <glyph glyph-name="A" unicode="A" horiz-adv-x="660" 
d="M481 745l121 -679l78 -15l-3 -51h-333l2 51l77 14l-20 139h-239l-59 -139l92 -14l-4 -51h-271l4 51l68 14l320 680h167zM195 277h198l-39 270l-4 93z" />
    <glyph glyph-name="B" unicode="B" horiz-adv-x="684" 
d="M323 747q62 4 98 4q135 0 184 -47t49 -123q0 -75 -45.5 -121t-136.5 -68q54 1 94.5 -19t62 -54.5t21.5 -74.5q0 -134 -88.5 -194t-267.5 -60q-17 0 -43 2t-37 3q-47 5 -76 5h-143l4 51l68 14l82 613l-71 11l6 54h163q26 0 76 4zM297.5 417.5q9.5 0.5 16.5 0.5h24
q68 0 112.5 37t44.5 114q0 59 -28.5 89.5t-83.5 30.5q-46 0 -72 -6l-36 -265q13 -1 22.5 -0.5zM272 54.5q26 -3.5 43 -3.5q159 0 159 163q0 71 -33.5 104t-111.5 33q-39 0 -63 -2l-39 -286q19 -5 45 -8.5z" />
    <glyph glyph-name="C" unicode="C" horiz-adv-x="634" 
d="M435 689q-74 0 -124 -55.5t-73 -140.5t-21 -172q4 -126 36.5 -188.5t102.5 -62.5q69 0 107 36q19 24 39 99h96l-21 -140q-40 -31 -96 -52t-151 -21q-155 0 -227.5 89t-73.5 230q0 137 53.5 236.5t151 152t227.5 52.5q58 0 90.5 -4.5t65.5 -13.5l20 -5l16 -4l-30 -196
h-121l-19 152q-22 8 -48 8z" />
    <glyph glyph-name="D" unicode="D" horiz-adv-x="735" 
d="M316 747q66 4 98 4q165 0 240 -81.5t75 -219.5q0 -212 -107 -335t-329 -123q-19 0 -37 4q-44 4 -94 4h-178l6 51l77 14l82 613l-70 11l5 54h154q26 0 78 4zM270 57.5q20 -3.5 34 -3.5q84 0 139 57t80 143.5t25 178.5q0 137 -36.5 196.5t-116.5 59.5q-27 0 -49 -3.5
t-30 -7.5l-81 -612q15 -5 35 -8.5z" />
    <glyph glyph-name="E" unicode="E" horiz-adv-x="636" 
d="M625 743l-17 -179h-100l-20 109l-171 12l-34 -256l224 22l-18 -112l-216 15l-34 -281l228 17l53 137l102 -7l-35 -220h-604l7 51l78 14l80 613l-71 11l6 54h542z" />
    <glyph glyph-name="F" unicode="F" horiz-adv-x="597" 
d="M634 743l-19 -186h-107l-13 116l-177 11l-36 -265l235 13l-16 -108l-229 18l-35 -277l134 -14l-4 -51h-372l5 51l68 14l80 613l-71 11l7 54h550z" />
    <glyph glyph-name="G" unicode="G" horiz-adv-x="690" 
d="M522 25q-62 -16 -107 -24.5t-104 -8.5q-97 0 -160 44.5t-92 118.5t-29 165q0 131 47 228t138.5 150.5t222.5 53.5q67 0 108 -6t83 -17l21 -5l29 -6l-32 -161h-115l-4 111q-39 21 -88 21q-232 0 -232 -368q1 -114 35 -185t100 -71q70 0 110 15l26 208l-100 8l9 72h270
l-44 -327q-52 -5 -92 -16z" />
    <glyph glyph-name="H" unicode="H" horiz-adv-x="807" 
d="M413 743l-6 -54l-87 -11l-35 -266h271l35 266l-85 11l6 54h329l-6 -54l-75 -11l-80 -613l76 -14l-6 -51h-339l7 51l92 14l37 279h-272l-36 -279l84 -14l-4 -51h-322l4 51l69 14l81 613l-71 11l7 54h326z" />
    <glyph glyph-name="I" unicode="I" horiz-adv-x="374" 
d="M411 743l-6 -54l-84 -11l-80 -613l85 -14l-3 -51h-331l7 51l73 14l80 613l-71 11l5 54h325z" />
    <glyph glyph-name="J" unicode="J" horiz-adv-x="360" 
d="M319 655q-34 -279 -54.5 -433.5t-31.5 -184.5q-29 -84 -111 -137t-188 -68l-26 51q75 23 111 64t46 95q47 245 89 635l-71 12l7 54h307l-4 -54l-71 -11z" />
    <glyph glyph-name="K" unicode="K" horiz-adv-x="724" 
d="M537 307q30 -63 39 -81q42 -83 62 -117t36 -43l57 -14l-6 -52h-210q-15 2 -24.5 10.5t-19 28t-26.5 63.5q-13 31 -32 83q-37 104 -61 150l-92 -93l-23 -177l84 -14l-4 -51h-327l7 51l71 14l80 613l-70 11l6 54h326l-6 -54l-87 -11l-43 -326l306 326l-66 12l5 53h243
l-6 -54l-61 -11l-229 -229q17 -27 71 -142z" />
    <glyph glyph-name="L" unicode="L" horiz-adv-x="619" 
d="M412 743l-6 -54l-89 -11l-81 -616l178 10l102 219l87 -11l-51 -280h-557l6 51l67 14l80 613l-71 11l7 54h328z" />
    <glyph glyph-name="M" unicode="M" horiz-adv-x="985" 
d="M618 536l83 207h294l-7 -54l-86 -11l-19 -613l88 -14l-4 -51h-345l4 52l92 13l28 417l10 196l-70 -172l-215 -507l-82 -8l-66 503l-28 184l-42 -189l-102 -424l110 -14l-5 -51h-298l6 51l79 14l159 613l-95 11l8 54h332l51 -414l10 -84l27 84q27 69 83 207z" />
    <glyph glyph-name="N" unicode="N" horiz-adv-x="758" 
d="M352 743l183 -484l38 -112l67 531l-84 11l5 54h244l-5 -54l-60 -11l-104 -678h-172l-192 500l-38 123l-62 -558l93 -14l-5 -51h-268l4 51l72 14l90 613l-82 11l8 54h268z" />
    <glyph glyph-name="O" unicode="O" horiz-adv-x="713" 
d="M628 663.5q69 -89.5 69 -227.5q0 -118 -40.5 -219t-127 -164t-216.5 -63q-144 0 -213 87.5t-69 233.5q0 118 42.5 218.5t129.5 162t212 61.5q144 0 213 -89.5zM300.5 639q-42.5 -53 -65 -139t-22.5 -183q1 -118 25 -192.5t89 -74.5q61 0 103 49t63 134t21 192
q0 131 -26.5 199t-86.5 68q-58 0 -100.5 -53z" />
    <glyph glyph-name="P" unicode="P" horiz-adv-x="653" 
d="M323 747q50 4 73 4q147 0 209.5 -52.5t62.5 -158.5q0 -91 -42.5 -156t-121 -99t-184.5 -34q-38 0 -58 3l-22 -189l133 -14l-3 -51h-375l5 51l67 14l82 613l-72 11l7 54h152q31 0 87 4zM304.5 315h20.5q78 1 123.5 65t46.5 169q0 72 -33.5 106t-93.5 34q-25 0 -48 -4
l-50 -366q17 -4 34.5 -4z" />
    <glyph glyph-name="Q" unicode="Q" horiz-adv-x="714" 
d="M605.5 -196q-48.5 -17 -113.5 -17q-89 0 -135.5 36.5t-46.5 105.5q0 26 8 61q-144 0 -215.5 84.5t-71.5 236.5q0 118 42.5 218.5t129.5 161.5t212 61q145 0 213.5 -89t68.5 -227q0 -104 -32 -196t-99.5 -157t-168.5 -85q-1 -54 35 -70.5t107 -16.5q27 0 69.5 5.5
t70.5 14.5l1 -90q-26 -20 -74.5 -37zM301 639q-43 -53 -65.5 -139t-22.5 -184q1 -117 25 -192t89 -75q61 0 103 49.5t63 134.5t21 192q0 131 -26.5 199t-85.5 68q-58 0 -101 -53z" />
    <glyph glyph-name="R" unicode="R" horiz-adv-x="706" 
d="M310 747q54 4 102 4q144 0 202.5 -46.5t58.5 -139.5q0 -79 -44 -137t-122 -85q17 -19 34 -59.5t41 -103.5l10 -22q21 -45 32.5 -64.5t28 -30.5t43.5 -11l-5 -52h-199q-9 0 -18 21.5t-27 71.5l-17 47q-57 162 -73 183h-90l-32 -258l90 -14l-3 -51h-327l4 51l69 14l80 613
l-70 11l6 54h151q29 0 75 4zM314 388.5q21 -0.5 36 0.5q71 0 110.5 48t35.5 138q-2 57 -34 85.5t-89 28.5q-33 0 -57 -4l-40 -295q17 -1 38 -1.5z" />
    <glyph glyph-name="S" unicode="S" horiz-adv-x="564" 
d="M387 685.5q-17 5.5 -42 5.5q-52 0 -82 -24t-30 -64q0 -50 31 -86t108 -84q70 -45 111 -97t41 -120q1 -62 -31 -113.5t-96.5 -82.5t-157.5 -31q-75 0 -143.5 16t-87.5 32l28 154h100l5 -109q36 -31 94 -31q69 0 100.5 27.5t31.5 73.5q0 45 -28.5 79.5t-98.5 78.5
q-74 47 -116 101t-42 126q0 102 76.5 158.5t198.5 56.5q133 0 195 -36l-26 -147h-92l-14 98q-16 13 -33 18.5z" />
    <glyph glyph-name="T" unicode="T" horiz-adv-x="704" 
d="M748 743l-41 -283h-87l-8 213l-119 12l-82 -620l137 -13l-5 -52h-430l7 52l121 13l83 620l-119 -12l-80 -213h-90l48 283h665z" />
    <glyph glyph-name="U" unicode="U" horiz-adv-x="714" 
d="M554 63.5q-76 -73.5 -214 -73.5q-135 0 -199 60t-64 159q0 52 3 81l50 388l-70 11l6 54h334l-4 -53l-97 -12l-49 -374q-8 -78 -8 -98q0 -71 33 -113.5t95 -42.5q86 0 129 63t61 193l50 372l-72 12l5 53h226l-7 -53l-63 -12l-48 -372q-21 -169 -97 -242.5z" />
    <glyph glyph-name="V" unicode="V" horiz-adv-x="607" 
d="M318 743l-5 -54l-80 -11l53 -430l9 -111l44 111l197 430l-87 11l5 54h261l-9 -54l-74 -11l-320 -683h-144l-111 683l-68 12l7 53h322z" />
    <glyph glyph-name="W" unicode="W" horiz-adv-x="952" 
d="M302 743l-4 -54l-67 -13l46 -428l12 -103l39 102l149 360l-7 70l-77 13l5 53h317l-4 -54l-74 -12l42 -429l3 -103l42 102l184 430l-110 12l5 54h287l-5 -53l-77 -12l-319 -683h-149l-44 458l-190 -458h-148l-101 682l-67 13l7 53h305z" />
    <glyph glyph-name="X" unicode="X" horiz-adv-x="673" 
d="M386 743l-4 -53l-72 -12l82 -218l148 218l-66 11l3 54h253l-4 -54l-67 -11l-231 -290l162 -323l62 -14l-5 -51h-335l4 51l72 14l-87 221l-152 -221l74 -14l-5 -51h-255l6 51l55 14l243 297l-148 315l-59 12l5 54h321z" />
    <glyph glyph-name="Y" unicode="Y" horiz-adv-x="633" 
d="M357 743l-8 -54l-84 -11l80 -236l23 -72l31 59l147 249l-80 11l5 54h258l-7 -54l-64 -11l-251 -383l-30 -230l119 -14l-5 -51h-401l6 51l113 14l28 230l-163 383l-63 11l5 54h341z" />
    <glyph glyph-name="Z" unicode="Z" horiz-adv-x="599" 
d="M621 743l15 -42l-416 -585l-55 -50l240 11l95 157l84 -23l-49 -211h-544l-17 43l421 589l60 50l-219 -9l-69 -132l-84 11l31 191h507z" />
    <glyph glyph-name="bracketleft" unicode="[" horiz-adv-x="427" 
d="M89.5 -96q-34.5 16 -34.5 53v21.5t2 31.5q35 251 101 732q16 122 150 122q38 0 82.5 -11.5t45.5 -11.5l-10 -59h-134l-110 -809l135 -1l-7 -61q-40 -12 -69 -17.5t-64 -5.5q-53 0 -87.5 16z" />
    <glyph glyph-name="backslash" unicode="\" horiz-adv-x="417" 
d="M15 784h109l282 -961h-110z" />
    <glyph glyph-name="bracketright" unicode="]" horiz-adv-x="427" 
d="M347.5 856q34.5 -16 34.5 -53v-21.5t-2 -31.5q-35 -251 -101 -732q-16 -122 -150 -122q-38 0 -82.5 11.5t-45.5 11.5l10 59h134l110 809l-135 1l7 61q40 12 69 17.5t64 5.5q53 0 87.5 -16z" />
    <glyph glyph-name="asciicircum" unicode="^" horiz-adv-x="666" 
d="M381 748l194 -546h-123l-120 347l-119 -347h-123l192 546h99z" />
    <glyph glyph-name="underscore" unicode="_" horiz-adv-x="652" 
d="M618 -165h-673l10 74h672z" />
    <glyph glyph-name="grave" unicode="`" horiz-adv-x="264" 
d="M128 644q-40 29 -76.5 62.5t-50.5 59.5l98 85l141 -211l-51 -34q-21 9 -61 38z" />
    <glyph glyph-name="a" unicode="a" horiz-adv-x="592" 
d="M490 97q0 -24 20 -24q17 0 44 22l14 -34q-14 -22 -50 -46.5t-85 -24.5q-36 0 -58 15t-24 43v6q-62 -64 -149 -64t-130 58t-43 148q0 97 38.5 182.5t114.5 137.5t182 52q26 0 58.5 -6.5t56.5 -14.5l75 21l-63 -458q-1 -5 -1 -13zM353 501q-56 0 -91.5 -45t-50.5 -113
t-15 -141q0 -60 19.5 -94t53.5 -34q32 0 64 30l54 393q-22 4 -34 4z" />
    <glyph glyph-name="b" unicode="b" horiz-adv-x="587" 
d="M386 568q84 0 126 -54.5t42 -157.5q0 -102 -40.5 -185.5t-116 -132t-175.5 -48.5q-53 0 -118 21l-71 -21l92 735l-51 21l10 41l175 19l26 -14l-36 -276q62 52 137 52zM235 57q79 0 117.5 87.5t38.5 211.5q0 55 -18 91t-54 36q-44 0 -80 -45l-49 -375q20 -6 45 -6z" />
    <glyph glyph-name="c" unicode="c" horiz-adv-x="468" 
d="M344 465q-21 27 -35 27q-27 0 -54 -33t-44.5 -91t-17.5 -129q0 -85 20.5 -121t66.5 -36q43 0 72.5 16.5t51.5 45.5l31 -50q-25 -39 -82 -71.5t-135 -32.5q-89 0 -139 61t-50 176q0 85 35.5 163.5t106.5 128t172 49.5q33 0 67.5 -5t57.5 -14l-40 -155l-35 1q-28 43 -49 70
z" />
    <glyph glyph-name="d" unicode="d" horiz-adv-x="612" 
d="M503 97q0 -24 18 -24q16 0 45 22l14 -34q-23 -26 -54.5 -48.5t-81.5 -22.5q-39 0 -59 18.5t-25 54.5l-1 9q-24 -34 -65 -58t-97 -24q-86 0 -127 57.5t-41 148.5q0 98 37 183t111.5 137t182.5 52q23 0 51 -5l23 161l-76 21l9 40l209 21l26 -14l-98 -681q-1 -5 -1 -14z
M348 501q-82 0 -118 -90t-36 -209q0 -60 18.5 -94t51.5 -34q24 0 45.5 14.5t36.5 37.5l54 366q-27 9 -52 9z" />
    <glyph glyph-name="e" unicode="e" horiz-adv-x="527" 
d="M386 23.5q-59 -37.5 -142 -37.5q-74 0 -122 31.5t-70 82.5t-22 110q0 102 41.5 184t114 128.5t160.5 46.5q82 0 121 -36t39 -93q0 -73 -48 -121.5t-117.5 -71.5t-137.5 -25q-1 -74 23.5 -112t68.5 -38q51 0 85.5 23t60.5 58l31 -49q-27 -43 -86 -80.5zM233.5 434
q-25.5 -67 -30.5 -153q31 2 66 19.5t59 50.5t24 77q0 73 -41 73q-52 0 -77.5 -67z" />
    <glyph glyph-name="f" unicode="f" horiz-adv-x="336" 
d="M208.5 755q59.5 60 153.5 60q55 0 86 -12l-30 -86q-31 23 -65 23q-25 0 -37.5 -12.5t-17.5 -32t-11 -59.5l-12 -81h101l-14 -83h-98l-48 -399q-10 -85 -40.5 -158.5t-82.5 -119.5t-124 -46q-45 0 -92 11l28 92q56 -24 76 -24q25 0 40.5 23t22.5 72l66 549h-61l10 50
l66 31l8 47q16 95 75.5 155z" />
    <glyph glyph-name="g" unicode="g" horiz-adv-x="594" 
d="M380.5 -203.5q-85.5 -49.5 -200.5 -49.5q-33 0 -74 7.5t-56 14.5l25 104q7 -6 29.5 -17.5t52 -21t55.5 -9.5q53 0 77.5 21t31.5 83l12 108q-58 -47 -131 -47q-87 0 -130 58t-43 148q0 97 38.5 182.5t114.5 137.5t182 52q29 0 62.5 -7t57.5 -16l79 23l-82 -606
q-15 -116 -100.5 -165.5zM353 501q-56 0 -91.5 -45t-50.5 -113t-15 -141q0 -60 19.5 -94t53.5 -34q39 0 73 38l56 382q-23 7 -45 7z" />
    <glyph glyph-name="h" unicode="h" horiz-adv-x="632" 
d="M332.5 535q48.5 33 105.5 33q130 0 130 -148q0 -38 -25 -173l-7 -41q-14 -78 -14 -106q0 -27 19 -27q8 0 17.5 4.5t26.5 17.5l14 -34q-17 -23 -53 -47t-91 -24q-59 0 -79 22t-20 60q0 27 17 112l6 32q22 125 22 181q0 43 -9 59t-30 16q-30 0 -65 -37t-60 -90l-42 -345
h-159l87 724l-62 21l8 40l198 21l25 -14l-42 -346q34 56 82.5 89z" />
    <glyph glyph-name="i" unicode="i" horiz-adv-x="327" 
d="M217 97q0 -24 18 -24q8 0 17.5 5t27.5 17l13 -34q-17 -23 -52.5 -47t-89.5 -24q-46 0 -71.5 17.5t-25.5 45.5q0 6 1 10l26 197l28 209l-56 30l8 43l193 26l26 -12l-62 -446q-1 -5 -1 -13zM163.5 678q-23.5 24 -23.5 54q0 41 28 69.5t74 28.5q35 0 56 -23t21 -53
q0 -44 -26 -72t-76 -28q-30 0 -53.5 24z" />
    <glyph glyph-name="j" unicode="j" horiz-adv-x="319" 
d="M169.5 -138.5q-35.5 -58.5 -87.5 -89t-112 -30.5q-31 0 -56 4.5t-34 13.5l20 63q9 -3 21 -4.5t23 -1.5q39 0 62 28t33.5 73t18.5 114l51 447l-80 24l11 40l217 25l25 -12l-67 -556q-10 -80 -45.5 -138.5zM145.5 678q-23.5 24 -23.5 54q0 41 28 69.5t74 28.5q35 0 56 -23
t21 -53q0 -44 -26 -72t-76 -28q-30 0 -53.5 24z" />
    <glyph glyph-name="k" unicode="k" horiz-adv-x="564" 
d="M296 792l-105 -792h-159l95 724l-63 21l9 40l196 21zM310.5 347.5q30.5 23.5 69.5 74.5q26 35 26 80q0 36 24 51t55 15q30 0 46.5 -18t16.5 -45q0 -42 -28 -78q-45 -59 -151 -109l92 -185q12 -22 26 -33.5t26 -11.5q10 0 27 6t30 16l16 -34q-22 -28 -67 -56.5t-99 -28.5
q-40 0 -62.5 15t-33.5 43l-93 249q49 26 79.5 49.5z" />
    <glyph glyph-name="l" unicode="l" horiz-adv-x="310" 
d="M205 98q0 -25 19 -25q8 0 17.5 4.5t27.5 17.5l13 -34q-52 -71 -136 -71q-43 0 -72.5 16t-30.5 50q0 6 4 38l84 630l-65 21l10 40l196 21l25 -14l-91 -682q-1 -4 -1 -12z" />
    <glyph glyph-name="m" unicode="m" horiz-adv-x="956" 
d="M336.5 536.5q45.5 31.5 99.5 31.5q120 0 132 -121q33 58 82.5 89.5t111.5 31.5q60 0 94.5 -35t34.5 -113q0 -29 -24 -173q-2 -12 -4 -20q-17 -96 -17 -127q0 -16 5 -21.5t14 -5.5q8 0 17.5 4.5t26.5 17.5l14 -34q-17 -23 -53.5 -47t-92.5 -24q-58 0 -77.5 23t-19.5 59
q0 31 23 144q22 125 22 181q0 44 -9 59.5t-31 15.5q-29 0 -61.5 -28.5t-55.5 -73.5q-3 -54 -12 -123l-29 -247h-161l28 216q15 109 15 176q0 49 -10 64.5t-36 15.5t-60 -32t-57 -78l-50 -362h-155l64 471l-52 28l8 43l179 26l26 -12l-8 -104q33 53 78.5 84.5z" />
    <glyph glyph-name="n" unicode="n" horiz-adv-x="636" 
d="M339 537q47 31 103 31q130 0 130 -148q0 -29 -24 -173q-2 -15 -8 -47q-14 -74 -14 -100q0 -27 19 -27q8 0 17.5 4.5t26.5 17.5l14 -34q-17 -23 -53 -47t-92 -24q-58 0 -78 23t-20 59q0 27 17 112l6 32q22 125 22 181q0 43 -9 59t-30 16q-29 0 -63 -34.5t-58 -85.5
l-48 -352h-155l63 471l-52 28l8 43l180 26l25 -12l-8 -103q34 53 81 84z" />
    <glyph glyph-name="o" unicode="o" horiz-adv-x="603" 
d="M512.5 508.5q56.5 -60.5 56.5 -177.5q0 -95 -39 -174t-110 -125t-165 -46q-110 0 -166 61.5t-56 178.5q0 95 39 173.5t110 124t164 45.5q110 0 166.5 -60.5zM257 456.5q-28 -44.5 -40.5 -111.5t-10.5 -135q3 -87 19.5 -124t52.5 -37q59 0 87.5 82t28.5 192
q0 99 -15.5 138.5t-50.5 39.5q-43 0 -71 -44.5z" />
    <glyph glyph-name="p" unicode="p" horiz-adv-x="596" 
d="M396 568q84 0 127 -55t43 -157q0 -101 -41 -185t-116 -132.5t-172 -48.5q-22 0 -50 5l-35 -249h-152l98 725l-53 29l8 42l186 26l25 -12l-5 -42q60 54 137 54zM250 57q76 0 112.5 87t36.5 212q0 55 -18 91t-53 36q-43 0 -79 -49l-52 -369q22 -8 53 -8z" />
    <glyph glyph-name="q" unicode="q" horiz-adv-x="598" 
d="M467 -143q0 -11 5.5 -19t14.5 -8q16 0 44 23l14 -35q-17 -23 -53.5 -47t-92.5 -24q-52 0 -76 24.5t-21 58.5l31 212q-58 -52 -135 -52q-86 0 -127 57.5t-41 148.5q0 98 37 183t111 137t182 52q30 0 64.5 -7.5t58.5 -16.5l78 24l-93 -703zM349 501q-82 0 -118.5 -90.5
t-36.5 -208.5q0 -61 18.5 -94.5t52.5 -33.5q24 0 44.5 14t35.5 36l54 368q-24 9 -50 9z" />
    <glyph glyph-name="r" unicode="r" horiz-adv-x="416" 
d="M302 526q43 42 99 42q22 0 34 -10l-33 -171q-4 5 -19 11t-36 6q-31 0 -57.5 -6.5t-40.5 -18.5l-52 -379h-154l63 471l-52 28l8 43l160 26l26 -17l-5 -92l-2 -36q18 61 61 103z" />
    <glyph glyph-name="s" unicode="s" horiz-adv-x="428" 
d="M341.5 483.5q-25.5 15.5 -59.5 15.5q-33 0 -55.5 -15.5t-23.5 -43.5q0 -28 19.5 -50.5t67.5 -58.5q50 -36 75 -71t25 -91q0 -58 -31.5 -98.5t-84.5 -60.5t-117 -20q-45 0 -93 11t-63 23l23 97q22 -21 57 -39t73 -18q31 0 55 16t24 48q0 28 -22 52t-68 56q-42 29 -68.5 68
t-26.5 96q0 49 28.5 87t80 59.5t119.5 21.5q37 0 75 -6t52 -12l-21 -100q-15 18 -40.5 33.5z" />
    <glyph glyph-name="t" unicode="t" horiz-adv-x="354" 
d="M216 172q-1 -7 -2 -12q-4 -32 -4 -38q0 -40 37 -40q21 0 43.5 6.5t39.5 21.5l12 -38q-29 -32 -78.5 -57t-118.5 -25q-41 0 -67.5 20.5t-26.5 67.5q0 19 13 114l39 285h-59l12 53l60 23q32 27 78 138h91l-17 -136h112l-11 -78h-112l-39 -288q-1 -10 -2 -17z" />
    <glyph glyph-name="u" unicode="u" horiz-adv-x="624" 
d="M232 253q-13 -87 -13 -115q0 -36 11 -51.5t36 -15.5q27 0 52.5 14.5t44.5 36.5l60 442h157l-63 -454q-4 -37 20 -37q8 0 16.5 4.5t27.5 17.5l14 -34q-7 -12 -25 -28.5t-47 -29.5t-64 -13q-39 0 -61 13.5t-27 38.5q-1 3 -1 11q0 12 1 18l-1 1q-32 -36 -72 -59t-98 -23
q-53 0 -97 30.5t-45 94.5q0 41 16 147q4 20 5 30l26 179l-62 38l8 43l194 16l25 -12l-33 -268z" />
    <glyph glyph-name="v" unicode="v" horiz-adv-x="529" 
d="M53 474q-5 6 -13 7q-13 0 -25 -7l-15 37q15 16 50 36.5t77 20.5q43 0 65 -17t27 -50l46 -280l15 -106l26 40q42 65 60.5 121t19.5 118q0 20 -7 50q-1 5 -4 22.5t-3 31.5q0 30 20.5 50t55.5 20q44 0 65 -31.5t21 -76.5q0 -69 -57.5 -167.5t-158.5 -223.5l-58 -72l-102 -7
l-37 183l-60 281q-3 14 -8 20z" />
    <glyph glyph-name="w" unicode="w" horiz-adv-x="861" 
d="M52.5 475q-4.5 6 -12.5 6t-13.5 -2t-11.5 -5l-15 37q6 8 25 21.5t46 24.5t56 11q43 0 65 -17t27 -50l39 -289l12 -103l43 137l95 318h143l51 -369l8 -82l24 40q43 67 63.5 124t20.5 117q0 16 -8 50t-8 53q0 30 21.5 50.5t57.5 20.5q45 0 65.5 -30.5t20.5 -76.5
t-36.5 -121t-87.5 -150t-91 -121l-61 -73l-107 -5l-29 182l-15 134l-7 74l-20 -74l-40 -108l-81 -201l-129 -8l-39 183l-63 281q-4 15 -8.5 21z" />
    <glyph glyph-name="x" unicode="x" horiz-adv-x="503" 
d="M60 481q-14 0 -22 -2t-17 -8l-19 41q6 8 26 21.5t51.5 24t69.5 10.5q39 0 64.5 -13.5t31.5 -37.5l37 -145l115 192h146l-218 -274l73 -146q9 -19 23.5 -38.5t25.5 -19.5t21 3.5t27 15.5l22 -40q-7 -12 -27.5 -29t-55 -31.5t-80.5 -14.5q-68 0 -86 52l-42 156l-119 -198
h-154l227 278l-82 163q-20 40 -38 40z" />
    <glyph glyph-name="y" unicode="y" horiz-adv-x="539" 
d="M52.5 475q-4.5 6 -12.5 6q-13 0 -25 -8l-15 38q13 16 49.5 36.5t77.5 20.5q43 0 65 -17t27 -50l61 -384l14 -97l32 67q78 168 78 276q0 23 -3.5 39t-10.5 35q-7 17 -10 30.5t-3 33.5q0 29 20 48t57 19q41 0 64.5 -30.5t23.5 -70.5q0 -71 -18.5 -128.5t-60.5 -143.5
q-37 -82 -177 -308q-48 -80 -98 -110t-115 -30q-29 0 -61 7t-41 15l37 98q11 -11 39 -20t52 -9q47 0 85 29.5t80 97.5h-89l-114 489q-4 15 -8.5 21z" />
    <glyph glyph-name="z" unicode="z" horiz-adv-x="494" 
d="M193 434q-37 0 -59.5 -21.5t-24.5 -53.5h-43q-5 25 -5 65q0 48 9 86.5t29 46.5q19 11 49 11q34 0 88.5 -4t69.5 -5q102 -8 129 -8q38 0 56 17l25 -30l-314 -389l-39 -26h162q40 0 63 22.5t26 57.5h42q3 -42 3 -58q0 -50 -8.5 -91t-28.5 -55q-13 -10 -50 -10q-58 0 -170 9
q-26 1 -72 4t-66 3q-13 0 -28 -4t-23 -12l-31 30l316 387l46 27z" />
    <glyph glyph-name="braceleft" unicode="{" horiz-adv-x="510" 
d="M132 125q16 109 23 158q0 16 -25 32q-31 22 -81 34l9 60q60 15 94 32q29 16 32 31l41 267q11 67 50 94.5t101 27.5q20 0 48 -5t51 -10t29 -7q-1 -8 -5 -29.5t-4 -27.5h-135l-47 -308q-3 -19 -15 -33.5t-33 -27.5q-17 -9 -39.5 -19.5t-32.5 -14.5q54 -28 70 -45
q25 -25 21 -53l-47 -308h135q-2 -12 -4.5 -31.5t-3.5 -27.5q-42 -12 -70 -17.5t-65 -5.5q-52 0 -86 16t-34 52q7 57 23 166z" />
    <glyph glyph-name="bar" unicode="|" horiz-adv-x="417" 
d="M269 869v-960h-102v960h102z" />
    <glyph glyph-name="braceright" unicode="}" horiz-adv-x="510" 
d="M380 630q-16 -109 -23 -158q0 -16 25 -32q31 -22 81 -34l-9 -60q-60 -15 -94 -32q-29 -16 -32 -31l-41 -267q-11 -67 -50 -94.5t-101 -27.5q-20 0 -48 5t-51 10t-29 7q1 8 5 29.5t4 27.5h135l47 308q3 19 15 33.5t33 27.5q17 9 39.5 19.5t32.5 14.5q-54 28 -70 45
q-25 25 -21 53l47 308h-135q2 12 4.5 31.5t3.5 27.5q42 12 70 17.5t65 5.5q52 0 86 -16t34 -52q-7 -57 -23 -166z" />
    <glyph glyph-name="asciitilde" unicode="~" horiz-adv-x="555" 
d="M84.5 475.5q22.5 23.5 54.5 38.5t67 15q32 0 54.5 -10.5t51.5 -31.5q21 -16 36.5 -24t33.5 -8q32 0 54.5 13t40.5 39l49 -57q-7 -27 -30.5 -52.5t-57 -42t-69.5 -16.5q-34 0 -58 12t-52 34q-22 17 -37 25t-33 8q-28 0 -53.5 -11.5t-41.5 -36.5l-40 58q8 24 30.5 47.5z
" />
    <glyph glyph-name="uni00A0" unicode="&#xa0;" horiz-adv-x="237" 
 />
    <glyph glyph-name="exclamdown" unicode="&#xa1;" horiz-adv-x="350" 
d="M278.5 518q-28.5 -27 -63.5 -27q-34 0 -52.5 23t-18.5 55q0 46 29.5 71.5t67.5 25.5q27 0 46.5 -22.5t19.5 -55.5q0 -43 -28.5 -70zM23 -212l126 611h97l-61 -611h-162z" />
    <glyph glyph-name="cent" unicode="&#xa2;" horiz-adv-x="516" 
d="M197 -4q-67 15 -103.5 73.5t-36.5 155.5q0 75 28 146t84 122.5t135 67.5l29 125h72l-26 -118q73 -2 119 -19l-41 -155h-45q-15 48 -31 73t-44 25q-27 0 -54 -33t-44 -92t-17 -131q0 -83 20.5 -118.5t65.5 -35.5q44 0 73 16.5t51 45.5l31 -50q-23 -35 -74 -66.5
t-120 -36.5l-24 -110h-73z" />
    <glyph glyph-name="sterling" unicode="&#xa3;" horiz-adv-x="728" 
d="M314 4q-49 14 -110 40l-31 13q-22 -20 -64.5 -43.5t-73.5 -23.5q-23 0 -37 11t-14 31q0 18 16 35t44 28t63 11q24 13 40 102l3 21q16 92 22 125h-92l9 87h98l10 56q12 71 54 131t105.5 95t136.5 35q59 0 93 -9t62 -29l-55 -110q-8 20 -36.5 45.5t-74.5 25.5
q-39 0 -70.5 -29t-47.5 -112l-17 -99h137l-8 -87h-144l-13 -74q-11 -58 -36 -98t-44.5 -62t-24.5 -28q99 -18 167 -18q87 0 127.5 20t40.5 69q0 28 -16 52.5t-35 37.5l99 86q42 -26 69.5 -61.5t27.5 -88.5q0 -92 -69 -145.5t-195 -53.5q-67 0 -116 14z" />
    <glyph glyph-name="currency" unicode="&#xa4;" horiz-adv-x="754" 
d="M208 220q-34 55 -34 117t33 115l-102 102l69 69l102 -103q54 31 113 31q62 0 117 -34l101 99l67 -68l-101 -102q31 -52 31 -109q0 -61 -33 -113l102 -103l-68 -68l-103 102q-53 -32 -113 -32t-111 30l-102 -102l-69 68zM316 261q30 -32 73 -32t72.5 32t29.5 76
t-29.5 75.5t-72.5 31.5t-73 -31.5t-30 -75.5t30 -76z" />
    <glyph glyph-name="yen" unicode="&#xa5;" horiz-adv-x="736" 
d="M273 416l-132 265l-66 12l7 55h331l-8 -55l-104 -12l72 -195l20 -85l49 86l123 198l-59 8l7 55h271l-7 -55l-63 -13l-203 -264h114l-9 -73h-160l-12 -88h161l-7 -71h-163l-15 -119l142 -14l-5 -51h-421l5 51l136 14l15 119h-175l8 71h175l11 88h-176l9 73h129z" />
    <glyph glyph-name="brokenbar" unicode="&#xa6;" horiz-adv-x="417" 
d="M269 869v-422h-102v422h102zM269 331v-422h-102v422h102z" />
    <glyph glyph-name="section" unicode="&#xa7;" horiz-adv-x="583" 
d="M151 116l12 -101q27 -36 90 -36q47 1 80 18.5t33 63.5q0 30 -29.5 51.5t-91.5 51.5q-63 30 -101.5 54t-66.5 63.5t-28 94.5q0 50 24.5 86.5t64.5 68.5q-37 45 -37 101q0 55 38.5 97t101 65t130.5 23q61 0 116 -11.5t76 -25.5l-27 -160h-91l-13 102q-12 11 -32.5 18.5
t-45.5 7.5q-114 0 -114 -73q0 -28 17.5 -49t43.5 -35.5t71 -33.5q56 -24 91.5 -44.5t60 -54.5t24.5 -83q0 -61 -23.5 -104t-61.5 -74q42 -50 42 -108q0 -55 -37 -95.5t-98 -62.5t-131 -22q-59 0 -120 12.5t-86 24.5l28 170h90zM418 352.5q-18 20.5 -45 36t-76 38.5
q-70 33 -106 57q-13 -13 -19.5 -26.5t-6.5 -33.5q0 -25 18 -46t45 -37t76 -40q9 -5 44 -22.5t62 -36.5q13 15 19.5 29t6.5 35q0 26 -18 46.5z" />
    <glyph glyph-name="dieresis" unicode="&#xa8;" horiz-adv-x="395" 
d="M30 678.5q-21 24.5 -21 54.5q0 41 23 69t62 28q33 0 52.5 -23t19.5 -53q0 -44 -21.5 -72t-66.5 -28q-27 0 -48 24.5zM250.5 678q-20.5 24 -20.5 55q0 42 22.5 69.5t62.5 27.5q32 0 52 -23.5t20 -52.5q0 -44 -22 -72t-66 -28q-28 0 -48.5 24z" />
    <glyph glyph-name="copyright" unicode="&#xa9;" horiz-adv-x="1049" 
d="M188 702q57 97 154.5 153t212.5 56q116 0 213 -56t153 -152.5t56 -213.5t-56 -214t-153 -153t-213 -56q-115 0 -212.5 56t-154.5 153t-57 214q0 116 57 213zM252.5 308q46.5 -82 126.5 -130t176 -48t175.5 48.5t125.5 131t46 179.5q0 99 -46 181t-125.5 129.5
t-175.5 47.5q-97 0 -177 -48.5t-126 -130.5t-46 -179q0 -99 46.5 -181zM399 316.5q-56 65.5 -56 172.5q0 69 31.5 124.5t88 87.5t128.5 32q36 0 74.5 -8.5t51.5 -21.5l-3 -132h-70l-23 68q-10 7 -22 10.5t-38 3.5q-50 0 -75.5 -40t-25.5 -105q0 -70 37 -112.5t97 -42.5
q27 0 53.5 10t43.5 25l34 -61q-23 -29 -68.5 -52.5t-95.5 -23.5q-106 0 -162 65.5z" />
    <glyph glyph-name="ordfeminine" unicode="&#xaa;" horiz-adv-x="417" 
d="M386 438q0 -16 7 -16q9 0 27 11l16 -27q-4 -4 -23.5 -14t-44 -17.5t-44.5 -7.5q-33 0 -49 15t-13 43q-20 -27 -49 -42.5t-76 -15.5q-54 0 -85.5 45.5t-31.5 116.5q0 65 38 128.5t102 104t138 40.5q20 0 43 -4t40 -10l71 18l-65 -355q-1 -5 -1 -13zM286 750
q-42 0 -71.5 -31.5t-44 -80.5t-14.5 -101q0 -107 44 -107q16 0 32 8t28 21l53 282q-16 9 -27 9z" />
    <glyph glyph-name="guillemotleft" unicode="&#xab;" horiz-adv-x="718" 
d="M415 540l-173 -243l97 -236l-74 -26l-198 224l13 79l270 227zM689 540l-177 -243l101 -236l-74 -26l-203 224l13 79l275 227z" />
    <glyph glyph-name="logicalnot" unicode="&#xac;" horiz-adv-x="669" 
d="M590 425l-30 -268h-105l21 185h-374l9 83h479z" />
    <glyph glyph-name="uni00AD" unicode="&#xad;" horiz-adv-x="638" 
d="M544 368l-17 -94h-422l17 94h422z" />
    <glyph glyph-name="registered" unicode="&#xae;" horiz-adv-x="1049" 
d="M188 702q57 97 154.5 153t212.5 56q116 0 213 -56t153 -152.5t56 -213.5t-56 -214t-153 -153t-213 -56q-115 0 -212.5 56t-154.5 153t-57 214q0 116 57 213zM252.5 308q46.5 -82 126.5 -130t176 -48t175.5 48.5t125.5 131t46 179.5q0 99 -46 181t-125.5 129.5
t-175.5 47.5q-97 0 -177 -48.5t-126 -130.5t-46 -179q0 -99 46.5 -181zM392 656l-39 11v58h99q20 -1 33.5 -0.5t22.5 0.5q30 2 59 2q97 0 141.5 -35t44.5 -95q0 -49 -22.5 -86t-77.5 -47q41 -14 59 -39.5t32 -66.5q7 -24 14.5 -35.5t23.5 -12.5v-55h-114q-18 0 -27 18
t-20 58q-11 45 -23 70t-37 32h-46v-117l43 -10v-51h-205v51l39 13v337zM564 497q24 0 39.5 25t15.5 58q0 46 -14.5 65t-49.5 19q-28 0 -40 -5v-158q16 -4 49 -4z" />
    <glyph glyph-name="macron" unicode="&#xaf;" horiz-adv-x="300" 
d="M294 787l-10 -101h-278l9 101h279z" />
    <glyph glyph-name="degree" unicode="&#xb0;" horiz-adv-x="422" 
d="M170 487.5q-38 22.5 -59.5 60.5t-21.5 83q0 47 23 86t63 61.5t90 22.5q47 0 85.5 -22t60.5 -60t22 -82q0 -48 -23.5 -87.5t-64 -62t-90.5 -22.5q-47 0 -85 22.5zM322.5 568q25.5 27 25.5 67q0 37 -25.5 63t-60.5 26q-38 0 -63 -26.5t-25 -66.5q0 -37 25 -63.5t60 -26.5
q38 0 63.5 27z" />
    <glyph glyph-name="plusminus" unicode="&#xb1;" horiz-adv-x="650" 
d="M273 252l13 81l-69 -3h-96l9 94h105l68 -4l7 80l12 113h106l-13 -113l-14 -80l57 4h110l-9 -94h-120l-54 3q0 -14 -2 -40l-3 -41l-14 -118h-106zM96 88h415l-9 -88h-414z" />
    <glyph glyph-name="uni00B2" unicode="&#xb2;" horiz-adv-x="492" 
d="M178 471q62 45 111.5 102t49.5 108q0 75 -73 75q-35 0 -69 -15.5t-53 -34.5l-38 46q24 29 80 56t116 27q87 0 132.5 -31.5t45.5 -88.5q0 -78 -88 -157t-207 -138l224 29l29 50l53 -12l-32 -144h-369l-23 55q49 28 111 73z" />
    <glyph glyph-name="uni00B3" unicode="&#xb3;" horiz-adv-x="515" 
d="M175 341.5q-38 6.5 -69 21.5l7 65q23 -8 61 -13t68 -5q59 0 89 24t30 63q0 27 -20 46t-51 19h-7l-55 -17l-14 64q33 8 59 22q68 37 68 85q2 43 -57 43q-31 0 -57.5 -10.5t-53.5 -30.5l-29 55q31 27 83 44.5t110 17.5q64 0 102 -25.5t38 -66.5t-27 -74.5t-101 -59.5
q7 1 20 1q54 0 92.5 -29t38.5 -82q0 -46 -29.5 -83t-86.5 -59t-136 -22q-35 0 -73 6.5z" />
    <glyph glyph-name="acute" unicode="&#xb4;" horiz-adv-x="272" 
d="M233 876l90 -90q-9 -16 -47.5 -51t-84 -67.5t-72.5 -43.5l-44 42z" />
    <glyph glyph-name="uni00B5" unicode="&#xb5;" horiz-adv-x="666" 
d="M21 -182l53 357q9 65 16 103q2 14 10 68t13 106q0 28 -20 28q-18 0 -36 -16l-15 38q3 3 19.5 20t51 31.5t77.5 14.5q39 0 63.5 -15t23.5 -48q-3 -51 -22 -172l-6 -37q-7 -39 -10 -66.5t-3 -61.5q0 -47 17.5 -66.5t42.5 -19.5q27 0 43 12.5t26 27t14 19.5l59 423h156
l-63 -454q-4 -37 20 -37q12 0 27 10l18 12l13 -35q-13 -23 -50.5 -46.5t-84.5 -23.5q-71 0 -71 57l1 11q-5 -5 -21 -23t-42.5 -31.5t-61.5 -13.5q-31 0 -60 10t-40 27l-31 -209h-127z" />
    <glyph glyph-name="paragraph" unicode="&#xb6;" horiz-adv-x="706" 
d="M94 42l100 15l45 341q-48 0 -88.5 26t-64.5 70t-24 97q0 243 319 243q42 0 104 -4q55 -4 103 -5h145l-5 -50l-82 -17l-44 -344q-34 -256 -46 -357l76 -15l-5 -42h-213l96 757l-96 1l-97 -758h-227z" />
    <glyph glyph-name="periodcentered" unicode="&#xb7;" horiz-adv-x="97" 
d="M9.5 379.5q-21.5 23.5 -21.5 58.5q0 45 27.5 72.5t63.5 27.5q35 0 56.5 -24t21.5 -57q0 -49 -29 -75t-68 -26q-29 0 -50.5 23.5z" />
    <glyph glyph-name="cedilla" unicode="&#xb8;" horiz-adv-x="234" 
d="M193 15q10 -14 17 -47t7 -66q0 -60 -38.5 -99t-113.5 -39q-19 0 -46.5 5.5t-35.5 10.5l17 72q16 -8 39 -8q87 0 87 94q0 50 -5 77l36 2z" />
    <glyph glyph-name="uni00B9" unicode="&#xb9;" horiz-adv-x="458" 
d="M201 394l34 283q-19 -10 -55.5 -19t-67.5 -11l-9 64q36 5 111 39t105 62h1l64 -12l-49 -406l111 -11l-9 -63h-357l8 63z" />
    <glyph glyph-name="ordmasculine" unicode="&#xba;" horiz-adv-x="420" 
d="M413 752.5q47 -49.5 47 -130.5q0 -79 -33 -137t-87.5 -88t-118.5 -30q-50 0 -89.5 22.5t-62 63t-22.5 93.5q0 78 34 136t88.5 89t114.5 31q82 0 129 -49.5zM194.5 690q-27.5 -57 -27.5 -128q0 -62 19 -100t51 -38q57 0 75.5 51.5t18.5 137.5q0 61 -14.5 97.5t-41.5 36.5
q-53 0 -80.5 -57z" />
    <glyph glyph-name="guillemotright" unicode="&#xbb;" horiz-adv-x="678" 
d="M381 328l-13 -70l-274 -223l-65 26l176 236l-100 243l73 25zM631 328l-13 -70l-270 -223l-64 26l171 236l-96 243l74 25z" />
    <glyph glyph-name="onequarter" unicode="&#xbc;" horiz-adv-x="1126" 
d="M187 332l34 283q-20 -10 -55 -19t-65 -11l-9 64q35 5 109 39t103 62h1l65 -12l-49 -406l113 -11l-8 -63h-357l8 63zM799 747l-373 -747h-96l373 747h96zM909 546h28l79 -52l-225 -281l-42 -43l164 9l17 114l102 10l-18 -118l77 4l-11 -93h-78l-13 -96h-101l13 96h-239
l-25 66z" />
    <glyph glyph-name="onehalf" unicode="&#xbd;" horiz-adv-x="1125" 
d="M187 332l34 283q-20 -10 -55 -19t-65 -11l-9 64q35 5 109 39t103 62h1l65 -12l-49 -406l113 -11l-8 -63h-357l8 63zM799 747l-373 -747h-96l373 747h96zM763 128q62 45 111.5 102t49.5 108q0 75 -73 75q-35 0 -69 -15.5t-53 -34.5l-38 46q24 29 80 56t116 27
q87 0 132.5 -31.5t45.5 -88.5q0 -78 -88 -157t-207 -138l224 29l29 50l53 -12l-32 -144h-369l-23 55q49 28 111 73z" />
    <glyph glyph-name="threequarters" unicode="&#xbe;" horiz-adv-x="1172" 
d="M163 256.5q-38 6.5 -69 21.5l7 65q23 -8 61 -13t68 -5q59 0 89 24t30 63q0 27 -20 46t-51 19h-7l-55 -17l-14 64q33 8 59 22q68 37 68 85q2 43 -57 43q-31 0 -57.5 -10.5t-53.5 -30.5l-29 55q31 27 83 44.5t110 17.5q64 0 102 -25.5t38 -66.5t-27 -74.5t-101 -59.5
q7 1 20 1q54 0 92.5 -29t38.5 -82q0 -46 -29.5 -83t-86.5 -59t-136 -22q-35 0 -73 6.5zM845 747l-373 -747h-96l373 747h96zM955 546h28l79 -52l-225 -281l-42 -43l164 9l17 114l102 10l-18 -118l77 4l-11 -93h-78l-13 -96h-101l13 96h-239l-25 66z" />
    <glyph glyph-name="questiondown" unicode="&#xbf;" horiz-adv-x="495" 
d="M414 400q9 -33 9 -60q0 -34 -18 -59.5t-43.5 -43t-77.5 -48.5q-41 -21 -72.5 -42.5t-45.5 -37.5q-5 -10 -7.5 -28.5t-2.5 -34.5q0 -60 43.5 -95.5t119.5 -35.5q30 0 62.5 5t52.5 15l-23 -98q-14 -11 -56.5 -26t-89.5 -15q-128 0 -180.5 61.5t-52.5 148.5q0 82 42 141
q32 43 75.5 75t90.5 53q28 13 47.5 31.5t21.5 42.5q1 9 1 26q0 35 -6 53l83 24l7 -1q11 -18 20 -51zM379.5 553q-28.5 -27 -63.5 -27q-34 0 -53 23t-19 55q0 46 29.5 71.5t68.5 25.5q28 0 47 -22.5t19 -55.5q0 -43 -28.5 -70z" />
    <glyph glyph-name="Agrave" unicode="&#xc0;" horiz-adv-x="660" 
d="M481 745l121 -679l78 -15l-3 -51h-333l2 51l77 14l-20 139h-239l-59 -139l92 -14l-4 -51h-271l4 51l68 14l320 680h167zM195 277h198l-39 270l-4 93zM335 838.5q-50 37.5 -74 76.5l84 61l136 -146l-59 -38q-37 9 -87 46.5z" />
    <glyph glyph-name="Aacute" unicode="&#xc1;" horiz-adv-x="660" 
d="M481 745l121 -679l78 -15l-3 -51h-333l2 51l77 14l-20 139h-239l-59 -139l92 -14l-4 -51h-271l4 51l68 14l320 680h167zM195 277h198l-39 270l-4 93zM494 983l88 -70q-23 -29 -85.5 -70t-95.5 -50l-62 42z" />
    <glyph glyph-name="Acircumflex" unicode="&#xc2;" horiz-adv-x="660" 
d="M481 745l121 -679l78 -15l-3 -51h-333l2 51l77 14l-20 139h-239l-59 -139l92 -14l-4 -51h-271l4 51l68 14l320 680h167zM195 277h198l-39 270l-4 93zM383 983h87l102 -174l-59 -28l-99 102l-158 -102l-51 28z" />
    <glyph glyph-name="Atilde" unicode="&#xc3;" horiz-adv-x="660" 
d="M481 745l121 -679l78 -15l-3 -51h-333l2 51l77 14l-20 139h-239l-59 -139l92 -14l-4 -51h-271l4 51l68 14l320 680h167zM195 277h198l-39 270l-4 93zM271 945.5q34 24.5 78 24.5q28 0 46 -11t39 -32q15 -15 26 -22.5t25 -7.5q39 0 75 49l39 -54q-14 -35 -48.5 -62
t-74.5 -27q-31 0 -49.5 10.5t-39.5 30.5q-16 17 -28.5 24.5t-31.5 7.5q-20 0 -36 -10.5t-34 -29.5l-32 51q12 34 46 58.5z" />
    <glyph glyph-name="Adieresis" unicode="&#xc4;" horiz-adv-x="660" 
d="M481 745l121 -679l78 -15l-3 -51h-333l2 51l77 14l-20 139h-239l-59 -139l92 -14l-4 -51h-271l4 51l68 14l320 680h167zM195 277h198l-39 270l-4 93zM240 832q-19 20 -19 49q0 41 22 64t60 23q33 0 51 -18.5t18 -47.5q0 -42 -21.5 -66t-63.5 -24q-28 0 -47 20zM479 832
q-19 20 -19 49q0 41 22 64t60 23q32 0 50 -18.5t18 -47.5q0 -42 -21 -66t-63 -24q-28 0 -47 20z" />
    <glyph glyph-name="Aring" unicode="&#xc5;" horiz-adv-x="660" 
d="M254 777.5q-21 25.5 -21 62.5q0 77 60 110t133 33q67 0 109.5 -28t42.5 -80q0 -50 -26.5 -82.5t-71.5 -49.5l122 -677l78 -15l-3 -51h-333l2 51l77 14l-20 139h-239l-59 -139l92 -14l-4 -51h-271l4 51l68 14l318 675q-37 12 -58 37.5zM353 902.5q-26 -15.5 -26 -50.5
q0 -25 22.5 -41t49.5 -16q86 0 86 66q0 25 -22 41t-49 16q-35 0 -61 -15.5zM195 277h198l-39 270l-4 93z" />
    <glyph glyph-name="AE" unicode="&#xc6;" horiz-adv-x="979" 
d="M325 51l77 14l18 139h-232l-72 -139l93 -14l-3 -51h-306l4 51l77 14l355 608l-144 13l8 57h760l-18 -179h-106l-17 109l-167 12l-36 -262l222 20l-17 -110l-214 15l-38 -283l228 17l57 145l102 -7l-34 -220h-604zM226 277h204l53 408h-43z" />
    <glyph glyph-name="Ccedilla" unicode="&#xc7;" horiz-adv-x="634" 
d="M82.5 547.5q53.5 99.5 151 152t227.5 52.5q58 0 90.5 -4.5t65.5 -13.5l20 -5l16 -4l-30 -196h-121l-19 152q-22 8 -48 8q-74 0 -124 -55.5t-73 -140.5t-21 -172q4 -126 36.5 -188.5t102.5 -62.5q69 0 107 36q19 24 39 99h96l-21 -140q-33 -27 -81.5 -47t-126.5 -25
q16 -41 16 -98q0 -59 -38.5 -94.5t-114.5 -35.5q-21 0 -43 5.5t-36 15.5l20 80q12 -6 41 -6q33 0 49.5 8.5t22.5 28.5t4 58q0 17 -4 39q-132 13 -194 100t-63 217q0 137 53.5 236.5z" />
    <glyph glyph-name="Egrave" unicode="&#xc8;" horiz-adv-x="636" 
d="M625 743l-17 -179h-100l-20 109l-171 12l-34 -256l224 22l-18 -112l-216 15l-34 -281l228 17l53 137l102 -7l-35 -220h-604l7 51l78 14l80 613l-71 11l6 54h542zM317 838.5q-50 37.5 -74 76.5l84 61l136 -146l-59 -38q-37 9 -87 46.5z" />
    <glyph glyph-name="Eacute" unicode="&#xc9;" horiz-adv-x="636" 
d="M503 983l88 -70q-23 -29 -85.5 -70t-95.5 -50l-62 42zM625 743l-17 -179h-100l-20 109l-171 12l-34 -256l224 22l-18 -112l-216 15l-34 -281l228 17l53 137l102 -7l-35 -220h-604l7 51l78 14l80 613l-71 11l6 54h542z" />
    <glyph glyph-name="Ecircumflex" unicode="&#xca;" horiz-adv-x="636" 
d="M625 743l-17 -179h-100l-20 109l-171 12l-34 -256l224 22l-18 -112l-216 15l-34 -281l228 17l53 137l102 -7l-35 -220h-604l7 51l78 14l80 613l-71 11l6 54h542zM365 983h87l102 -174l-59 -28l-99 102l-158 -102l-51 28z" />
    <glyph glyph-name="Edieresis" unicode="&#xcb;" horiz-adv-x="636" 
d="M625 743l-17 -179h-100l-20 109l-171 12l-34 -256l224 22l-18 -112l-216 15l-34 -281l228 17l53 137l102 -7l-35 -220h-604l7 51l78 14l80 613l-71 11l6 54h542zM222 832q-19 20 -19 49q0 41 22 64t60 23q33 0 51 -18.5t18 -47.5q0 -42 -21.5 -66t-63.5 -24q-28 0 -47 20
zM461 832q-19 20 -19 49q0 41 22 64t60 23q32 0 50 -18.5t18 -47.5q0 -42 -21 -66t-63 -24q-28 0 -47 20z" />
    <glyph glyph-name="Igrave" unicode="&#xcc;" horiz-adv-x="374" 
d="M411 743l-6 -54l-84 -11l-80 -613l85 -14l-3 -51h-331l7 51l73 14l80 613l-71 11l5 54h325zM188 838.5q-50 37.5 -74 76.5l84 61l136 -146l-59 -38q-37 9 -87 46.5z" />
    <glyph glyph-name="Iacute" unicode="&#xcd;" horiz-adv-x="374" 
d="M411 743l-6 -54l-84 -11l-80 -613l85 -14l-3 -51h-331l7 51l73 14l80 613l-71 11l5 54h325zM347 983l88 -70q-23 -29 -85.5 -70t-95.5 -50l-62 42z" />
    <glyph glyph-name="Icircumflex" unicode="&#xce;" horiz-adv-x="374" 
d="M411 743l-6 -54l-84 -11l-80 -613l85 -14l-3 -51h-331l7 51l73 14l80 613l-71 11l5 54h325zM236 983h87l102 -174l-59 -28l-99 102l-158 -102l-51 28z" />
    <glyph glyph-name="Idieresis" unicode="&#xcf;" horiz-adv-x="374" 
d="M411 743l-6 -54l-84 -11l-80 -613l85 -14l-3 -51h-331l7 51l73 14l80 613l-71 11l5 54h325zM93 832q-19 20 -19 49q0 41 22 64t60 23q33 0 51 -18.5t18 -47.5q0 -42 -21.5 -66t-63.5 -24q-28 0 -47 20zM332 832q-19 20 -19 49q0 41 22 64t60 23q32 0 50 -18.5t18 -47.5
q0 -42 -21 -66t-63 -24q-28 0 -47 20z" />
    <glyph glyph-name="Eth" unicode="&#xd0;" horiz-adv-x="736" 
d="M321 748q62 4 94 4q165 0 240 -81.5t75 -219.5q0 -212 -107 -335t-329 -123q-19 0 -37 4q-50 4 -107 4h-165l6 51l77 14l37 277h-67l12 82h66l34 254l-70 11l5 54h145q29 0 91 4zM305 55q84 0 139 57t80 143.5t25 178.5q0 137 -36.5 196.5t-116.5 59.5q-27 0 -48.5 -3.5
t-30.5 -7.5l-33 -254h146l-12 -82h-145l-37 -276q40 -12 69 -12z" />
    <glyph glyph-name="Ntilde" unicode="&#xd1;" horiz-adv-x="758" 
d="M352 743l183 -484l38 -112l67 531l-84 11l5 54h244l-5 -54l-60 -11l-104 -678h-172l-192 500l-38 123l-62 -558l93 -14l-5 -51h-268l4 51l72 14l90 613l-82 11l8 54h268zM336 945.5q34 24.5 78 24.5q28 0 46 -11t39 -32q15 -15 26 -22.5t25 -7.5q39 0 75 49l39 -54
q-14 -35 -48.5 -62t-74.5 -27q-31 0 -49.5 10.5t-39.5 30.5q-16 17 -28.5 24.5t-31.5 7.5q-20 0 -36 -10.5t-34 -29.5l-32 51q12 34 46 58.5z" />
    <glyph glyph-name="Ograve" unicode="&#xd2;" horiz-adv-x="713" 
d="M628 663.5q69 -89.5 69 -227.5q0 -118 -40.5 -219t-127 -164t-216.5 -63q-144 0 -213 87.5t-69 233.5q0 118 42.5 218.5t129.5 162t212 61.5q144 0 213 -89.5zM300.5 639q-42.5 -53 -65 -139t-22.5 -183q1 -118 25 -192.5t89 -74.5q61 0 103 49t63 134t21 192
q0 131 -26.5 199t-86.5 68q-58 0 -100.5 -53zM377 838.5q-50 37.5 -74 76.5l84 61l136 -146l-59 -38q-37 9 -87 46.5z" />
    <glyph glyph-name="Oacute" unicode="&#xd3;" horiz-adv-x="713" 
d="M519 983l88 -70q-23 -29 -85.5 -70t-95.5 -50l-62 42zM630 663.5q69 -89.5 69 -227.5q0 -118 -40.5 -219t-127 -164t-216.5 -63q-144 0 -213 87.5t-69 233.5q0 118 42.5 218.5t129.5 162t212 61.5q144 0 213 -89.5zM302.5 639q-42.5 -53 -65 -139t-22.5 -183
q1 -118 25 -192.5t89 -74.5q61 0 103 49t63 134t21 192q0 131 -26.5 199t-86.5 68q-58 0 -100.5 -53z" />
    <glyph glyph-name="Ocircumflex" unicode="&#xd4;" horiz-adv-x="713" 
d="M628 663.5q69 -89.5 69 -227.5q0 -118 -40.5 -219t-127 -164t-216.5 -63q-144 0 -213 87.5t-69 233.5q0 118 42.5 218.5t129.5 162t212 61.5q144 0 213 -89.5zM300.5 639q-42.5 -53 -65 -139t-22.5 -183q1 -118 25 -192.5t89 -74.5q61 0 103 49t63 134t21 192
q0 131 -26.5 199t-86.5 68q-58 0 -100.5 -53zM425 983h87l102 -174l-59 -28l-99 102l-158 -102l-51 28z" />
    <glyph glyph-name="Otilde" unicode="&#xd5;" horiz-adv-x="713" 
d="M628 663.5q69 -89.5 69 -227.5q0 -118 -40.5 -219t-127 -164t-216.5 -63q-144 0 -213 87.5t-69 233.5q0 118 42.5 218.5t129.5 162t212 61.5q144 0 213 -89.5zM300.5 639q-42.5 -53 -65 -139t-22.5 -183q1 -118 25 -192.5t89 -74.5q61 0 103 49t63 134t21 192
q0 131 -26.5 199t-86.5 68q-58 0 -100.5 -53zM313 945.5q34 24.5 78 24.5q28 0 46 -11t39 -32q15 -15 26 -22.5t25 -7.5q39 0 75 49l39 -54q-14 -35 -48.5 -62t-74.5 -27q-31 0 -49.5 10.5t-39.5 30.5q-16 17 -28.5 24.5t-31.5 7.5q-20 0 -36 -10.5t-34 -29.5l-32 51
q12 34 46 58.5z" />
    <glyph glyph-name="Odieresis" unicode="&#xd6;" horiz-adv-x="713" 
d="M628 663.5q69 -89.5 69 -227.5q0 -118 -40.5 -219t-127 -164t-216.5 -63q-144 0 -213 87.5t-69 233.5q0 118 42.5 218.5t129.5 162t212 61.5q144 0 213 -89.5zM300.5 639q-42.5 -53 -65 -139t-22.5 -183q1 -118 25 -192.5t89 -74.5q61 0 103 49t63 134t21 192
q0 131 -26.5 199t-86.5 68q-58 0 -100.5 -53zM282 832q-19 20 -19 49q0 41 22 64t60 23q33 0 51 -18.5t18 -47.5q0 -42 -21.5 -66t-63.5 -24q-28 0 -47 20zM521 832q-19 20 -19 49q0 41 22 64t60 23q32 0 50 -18.5t18 -47.5q0 -42 -21 -66t-63 -24q-28 0 -47 20z" />
    <glyph glyph-name="multiply" unicode="&#xd7;" horiz-adv-x="669" 
d="M342 311l-33 -32l-147 -138l-62 74l187 159l-147 160l78 73l137 -171l141 133l39 37l62 -74l-186 -159l147 -160l-79 -73z" />
    <glyph glyph-name="Oslash" unicode="&#xd8;" horiz-adv-x="713" 
d="M674.5 586q24.5 -67 24.5 -149q0 -118 -40.5 -219t-127 -164t-216.5 -63q-87 0 -151 35l-62 -91l-43 28l64 93q-45 42 -67.5 108t-22.5 148q0 118 42.5 218.5t129 162t211.5 61.5q83 0 142 -31l66 97l43 -27l-68 -98q51 -42 75.5 -109zM403 693q-58 0 -100.5 -53
t-65 -139t-22.5 -183q0 -74 10 -131l266 434q-28 72 -88 72zM329 51q91 0 139 106.5t48 273.5q0 84 -11 135l-266 -437q27 -78 90 -78z" />
    <glyph glyph-name="Ugrave" unicode="&#xd9;" horiz-adv-x="714" 
d="M554 63.5q-76 -73.5 -214 -73.5q-135 0 -199 60t-64 159q0 52 3 81l50 388l-70 11l6 54h334l-4 -53l-97 -12l-49 -374q-8 -78 -8 -98q0 -71 33 -113.5t95 -42.5q86 0 129 63t61 193l50 372l-72 12l5 53h226l-7 -53l-63 -12l-48 -372q-21 -169 -97 -242.5zM389 838.5
q-50 37.5 -74 76.5l84 61l136 -146l-59 -38q-37 9 -87 46.5z" />
    <glyph glyph-name="Uacute" unicode="&#xda;" horiz-adv-x="714" 
d="M554 63.5q-76 -73.5 -214 -73.5q-135 0 -199 60t-64 159q0 52 3 81l50 388l-70 11l6 54h334l-4 -53l-97 -12l-49 -374q-8 -78 -8 -98q0 -71 33 -113.5t95 -42.5q86 0 129 63t61 193l50 372l-72 12l5 53h226l-7 -53l-63 -12l-48 -372q-21 -169 -97 -242.5zM548 983l88 -70
q-23 -29 -85.5 -70t-95.5 -50l-62 42z" />
    <glyph glyph-name="Ucircumflex" unicode="&#xdb;" horiz-adv-x="714" 
d="M554 63.5q-76 -73.5 -214 -73.5q-135 0 -199 60t-64 159q0 52 3 81l50 388l-70 11l6 54h334l-4 -53l-97 -12l-49 -374q-8 -78 -8 -98q0 -71 33 -113.5t95 -42.5q86 0 129 63t61 193l50 372l-72 12l5 53h226l-7 -53l-63 -12l-48 -372q-21 -169 -97 -242.5zM437 983h87
l102 -174l-59 -28l-99 102l-158 -102l-51 28z" />
    <glyph glyph-name="Udieresis" unicode="&#xdc;" horiz-adv-x="714" 
d="M554 63.5q-76 -73.5 -214 -73.5q-135 0 -199 60t-64 159q0 52 3 81l50 388l-70 11l6 54h334l-4 -53l-97 -12l-49 -374q-8 -78 -8 -98q0 -71 33 -113.5t95 -42.5q86 0 129 63t61 193l50 372l-72 12l5 53h226l-7 -53l-63 -12l-48 -372q-21 -169 -97 -242.5zM294 832
q-19 20 -19 49q0 41 22 64t60 23q33 0 51 -18.5t18 -47.5q0 -42 -21.5 -66t-63.5 -24q-28 0 -47 20zM533 832q-19 20 -19 49q0 41 22 64t60 23q32 0 50 -18.5t18 -47.5q0 -42 -21 -66t-63 -24q-28 0 -47 20z" />
    <glyph glyph-name="Yacute" unicode="&#xdd;" horiz-adv-x="633" 
d="M357 743l-8 -54l-84 -11l80 -236l23 -72l31 59l147 249l-80 11l5 54h258l-7 -54l-64 -11l-251 -383l-30 -230l119 -14l-5 -51h-401l6 51l113 14l28 230l-163 383l-63 11l5 54h341zM517 983l88 -70q-23 -29 -85.5 -70t-95.5 -50l-62 42z" />
    <glyph glyph-name="Thorn" unicode="&#xde;" horiz-adv-x="638" 
d="M408 571q132 0 187.5 -45.5t55.5 -115.5q0 -102 -73.5 -172t-268.5 -70q-35 0 -55 2l-15 -105l85 -14l-4 -51h-323l4 51l69 14l81 613l-71 12l7 53h326l-6 -53l-87 -12l-14 -111q66 4 102 4zM318 234q69 0 112 38.5t43 117.5q0 57 -31 87.5t-87 30.5q-23 0 -58 -7
l-35 -267h56z" />
    <glyph glyph-name="germandbls" unicode="&#xdf;" horiz-adv-x="605" 
d="M146 660q51 71 113.5 92.5t139.5 21.5q53 0 98 -17.5t72.5 -51t27.5 -79.5q0 -40 -13.5 -67.5t-32 -44t-47.5 -33.5q-31 -20 -44 -33.5t-13 -36.5q0 -13 8 -27t22 -33t20 -27q10 -12 15 -17q32 -37 49.5 -68t17.5 -72q0 -82 -56.5 -128.5t-151.5 -46.5q-96 0 -140 23
l13 91q11 -16 38.5 -32.5t51.5 -16.5q41 0 62 15.5t21 66.5q0 46 -45 116q-22 31 -38.5 67t-16.5 65q0 32 12 51.5t41 49.5q69 69 69 140q0 38 -18 63t-50 25q-53 0 -87 -68t-52 -223l-52 -425h-160l55 453q20 136 71 207z" />
    <glyph glyph-name="agrave" unicode="&#xe0;" horiz-adv-x="592" 
d="M490 97q0 -24 20 -24q17 0 44 22l14 -34q-14 -22 -50 -46.5t-85 -24.5q-36 0 -58 15t-24 43v6q-62 -64 -149 -64t-130 58t-43 148q0 97 38.5 182.5t114.5 137.5t182 52q26 0 58.5 -6.5t56.5 -14.5l75 21l-63 -458q-1 -5 -1 -13zM353 501q-56 0 -91.5 -45t-50.5 -113
t-15 -141q0 -60 19.5 -94t53.5 -34q32 0 64 30l54 393q-22 4 -34 4zM324 676.5q-40 28.5 -76 62.5t-51 59l98 86l141 -211l-51 -34q-21 9 -61 37.5z" />
    <glyph glyph-name="aacute" unicode="&#xe1;" horiz-adv-x="592" 
d="M490 97q0 -24 20 -24q17 0 44 22l14 -34q-14 -22 -50 -46.5t-85 -24.5q-36 0 -58 15t-24 43v6q-62 -64 -149 -64t-130 58t-43 148q0 97 38.5 182.5t114.5 137.5t182 52q26 0 58.5 -6.5t56.5 -14.5l75 21l-63 -458q-1 -5 -1 -13zM353 501q-56 0 -91.5 -45t-50.5 -113
t-15 -141q0 -60 19.5 -94t53.5 -34q32 0 64 30l54 393q-22 4 -34 4zM461 884l93 -90q-9 -16 -48.5 -51t-85 -68t-73.5 -44l-44 43z" />
    <glyph glyph-name="acircumflex" unicode="&#xe2;" horiz-adv-x="592" 
d="M490 97q0 -24 20 -24q17 0 44 22l14 -34q-14 -22 -50 -46.5t-85 -24.5q-36 0 -58 15t-24 43v6q-62 -64 -149 -64t-130 58t-43 148q0 97 38.5 182.5t114.5 137.5t182 52q26 0 58.5 -6.5t56.5 -14.5l75 21l-63 -458q-1 -5 -1 -13zM353 501q-56 0 -91.5 -45t-50.5 -113
t-15 -141q0 -60 19.5 -94t53.5 -34q32 0 64 30l54 393q-22 4 -34 4zM375 861l72 -5l101 -204l-62 -25l-100 112l-153 -114l-47 32z" />
    <glyph glyph-name="atilde" unicode="&#xe3;" horiz-adv-x="592" 
d="M490 97q0 -24 20 -24q17 0 44 22l14 -34q-14 -22 -50 -46.5t-85 -24.5q-36 0 -58 15t-24 43v6q-62 -64 -149 -64t-130 58t-43 148q0 97 38.5 182.5t114.5 137.5t182 52q26 0 58.5 -6.5t56.5 -14.5l75 21l-63 -458q-1 -5 -1 -13zM353 501q-56 0 -91.5 -45t-50.5 -113
t-15 -141q0 -60 19.5 -94t53.5 -34q32 0 64 30l54 393q-22 4 -34 4zM250.5 771.5q33.5 24.5 68.5 24.5q28 0 45.5 -9t40.5 -26q16 -13 27 -19t25 -6q25 0 39.5 11t33.5 35l42 -50q-13 -33 -49.5 -60t-73.5 -27q-27 0 -44 8.5t-36 24.5q-16 14 -29 21t-32 7q-23 0 -37 -9.5
t-34 -30.5l-36 49q16 32 49.5 56.5z" />
    <glyph glyph-name="adieresis" unicode="&#xe4;" horiz-adv-x="592" 
d="M490 97q0 -24 20 -24q17 0 44 22l14 -34q-14 -22 -50 -46.5t-85 -24.5q-36 0 -58 15t-24 43v6q-62 -64 -149 -64t-130 58t-43 148q0 97 38.5 182.5t114.5 137.5t182 52q26 0 58.5 -6.5t56.5 -14.5l75 21l-63 -458q-1 -5 -1 -13zM353 501q-56 0 -91.5 -45t-50.5 -113
t-15 -141q0 -60 19.5 -94t53.5 -34q32 0 64 30l54 393q-22 4 -34 4zM220 674.5q-21 24.5 -21 54.5q0 42 23 69.5t62 27.5q33 0 52.5 -23.5t19.5 -54.5q0 -43 -22 -70.5t-66 -27.5q-27 0 -48 24.5zM440.5 674.5q-20.5 24.5 -20.5 54.5q0 42 22.5 69.5t62.5 27.5q32 0 52 -23
t20 -53q0 -44 -22 -72t-66 -28q-28 0 -48.5 24.5z" />
    <glyph glyph-name="aring" unicode="&#xe5;" horiz-adv-x="592" 
d="M490 97q0 -24 20 -24q17 0 44 22l14 -34q-14 -22 -50 -46.5t-85 -24.5q-36 0 -58 15t-24 43v6q-62 -64 -149 -64t-130 58t-43 148q0 97 38.5 182.5t114.5 137.5t182 52q26 0 58.5 -6.5t56.5 -14.5l75 21l-63 -458q-1 -5 -1 -13zM353 501q-56 0 -91.5 -45t-50.5 -113
t-15 -141q0 -60 19.5 -94t53.5 -34q32 0 64 30l54 393q-22 4 -34 4zM263 672q-42 31 -42 88q0 54 29 89t72.5 51t90.5 16q65 0 108.5 -34t43.5 -88q0 -74 -55 -113.5t-134 -39.5q-71 0 -113 31zM447 726q26 16 26 54q0 27 -22.5 48t-49.5 21q-32 0 -59.5 -20.5t-27.5 -57.5
q0 -25 23 -43t49 -18q35 0 61 16z" />
    <glyph glyph-name="ae" unicode="&#xe6;" horiz-adv-x="851" 
d="M670 568q80 0 120 -35t40 -92q0 -73 -48 -122t-118 -72t-138 -25q0 -145 93 -145q51 0 85.5 21.5t60.5 54.5l30 -49q-25 -42 -85 -78t-143 -36q-80 0 -128 35.5t-67 95.5q-36 -54 -85 -92.5t-105 -38.5q-84 0 -118.5 56t-34.5 145q0 97 44.5 183.5t128 140t195.5 53.5
q43 0 99 -15l44 15l-4 -32q64 32 134 32zM557.5 434.5q-25.5 -66.5 -31.5 -153.5q31 2 66.5 20t59.5 51.5t24 77.5q0 71 -42 71q-51 0 -76.5 -66.5zM384.5 500.5q-5.5 0.5 -9.5 -0.5q-58 -7 -98.5 -53t-60.5 -112.5t-20 -132.5q0 -48 10 -81.5t34 -33.5t50.5 22t50.5 56
l51 335q-2 0 -7.5 0.5z" />
    <glyph glyph-name="ccedilla" unicode="&#xe7;" horiz-adv-x="468" 
d="M64.5 390.5q35.5 78.5 106.5 128t172 49.5q33 0 67.5 -5t57.5 -14l-40 -155l-35 1q-28 43 -49 70t-35 27q-27 0 -54 -33t-44.5 -91t-17.5 -129q0 -85 20.5 -121t66.5 -36q43 0 72.5 16.5t51.5 45.5l31 -50q-19 -30 -59.5 -58t-95.5 -40q8 -22 13.5 -54t5.5 -57
q0 -121 -146 -121q-22 0 -55 4t-41 9l18 75q16 -8 38 -8q41 0 64 18.5t25 63.5q1 7 1 20q0 19 -4 45q-80 6 -125 66.5t-45 169.5q0 85 35.5 163.5z" />
    <glyph glyph-name="egrave" unicode="&#xe8;" horiz-adv-x="527" 
d="M386 23.5q-59 -37.5 -142 -37.5q-74 0 -122 31.5t-70 82.5t-22 110q0 102 41.5 184t114 128.5t160.5 46.5q82 0 121 -36t39 -93q0 -73 -48 -121.5t-117.5 -71.5t-137.5 -25q-1 -74 23.5 -112t68.5 -38q51 0 85.5 23t60.5 58l31 -49q-27 -43 -86 -80.5zM233.5 434
q-25.5 -67 -30.5 -153q31 2 66 19.5t59 50.5t24 77q0 73 -41 73q-52 0 -77.5 -67zM295 677.5q-40 28.5 -76 62.5t-51 59l98 86l141 -211l-51 -34q-21 9 -61 37.5z" />
    <glyph glyph-name="eacute" unicode="&#xe9;" horiz-adv-x="527" 
d="M386 23.5q-59 -37.5 -142 -37.5q-74 0 -122 31.5t-70 82.5t-22 110q0 102 41.5 184t114 128.5t160.5 46.5q82 0 121 -36t39 -93q0 -73 -48 -121.5t-117.5 -71.5t-137.5 -25q-1 -74 23.5 -112t68.5 -38q51 0 85.5 23t60.5 58l31 -49q-27 -43 -86 -80.5zM233.5 434
q-25.5 -67 -30.5 -153q31 2 66 19.5t59 50.5t24 77q0 73 -41 73q-52 0 -77.5 -67zM432 885l93 -90q-9 -16 -48.5 -51t-85 -68t-73.5 -44l-44 43z" />
    <glyph glyph-name="ecircumflex" unicode="&#xea;" horiz-adv-x="527" 
d="M386 23.5q-59 -37.5 -142 -37.5q-74 0 -122 31.5t-70 82.5t-22 110q0 102 41.5 184t114 128.5t160.5 46.5q82 0 121 -36t39 -93q0 -73 -48 -121.5t-117.5 -71.5t-137.5 -25q-1 -74 23.5 -112t68.5 -38q51 0 85.5 23t60.5 58l31 -49q-27 -43 -86 -80.5zM233.5 434
q-25.5 -67 -30.5 -153q31 2 66 19.5t59 50.5t24 77q0 73 -41 73q-52 0 -77.5 -67zM346 862l72 -5l101 -204l-62 -25l-100 112l-153 -114l-47 32z" />
    <glyph glyph-name="edieresis" unicode="&#xeb;" horiz-adv-x="527" 
d="M386 23.5q-59 -37.5 -142 -37.5q-74 0 -122 31.5t-70 82.5t-22 110q0 102 41.5 184t114 128.5t160.5 46.5q82 0 121 -36t39 -93q0 -73 -48 -121.5t-117.5 -71.5t-137.5 -25q-1 -74 23.5 -112t68.5 -38q51 0 85.5 23t60.5 58l31 -49q-27 -43 -86 -80.5zM233.5 434
q-25.5 -67 -30.5 -153q31 2 66 19.5t59 50.5t24 77q0 73 -41 73q-52 0 -77.5 -67zM191 675.5q-21 24.5 -21 54.5q0 42 23 69.5t62 27.5q33 0 52.5 -23.5t19.5 -54.5q0 -43 -22 -70.5t-66 -27.5q-27 0 -48 24.5zM411.5 675.5q-20.5 24.5 -20.5 54.5q0 42 22.5 69.5t62.5 27.5
q32 0 52 -23t20 -53q0 -44 -22 -72t-66 -28q-28 0 -48.5 24.5z" />
    <glyph glyph-name="igrave" unicode="&#xec;" horiz-adv-x="327" 
d="M217 97q0 -24 18 -24q8 0 17.5 5t27.5 17l13 -34q-17 -23 -52.5 -47t-89.5 -24q-46 0 -71.5 17.5t-25.5 45.5q0 6 1 10l26 197l28 209l-56 30l8 43l193 26l26 -12l-62 -446q-1 -5 -1 -13zM157 677.5q-40 28.5 -76 62.5t-51 59l98 86l141 -211l-51 -34q-21 9 -61 37.5z
" />
    <glyph glyph-name="iacute" unicode="&#xed;" horiz-adv-x="327" 
d="M217 97q0 -24 18 -24q8 0 17.5 5t27.5 17l13 -34q-17 -23 -52.5 -47t-89.5 -24q-46 0 -71.5 17.5t-25.5 45.5q0 6 1 10l26 197l28 209l-56 30l8 43l193 26l26 -12l-62 -446q-1 -5 -1 -13zM294 885l93 -90q-9 -16 -48.5 -51t-85 -68t-73.5 -44l-44 43z" />
    <glyph glyph-name="icircumflex" unicode="&#xee;" horiz-adv-x="327" 
d="M217 97q0 -24 18 -24q8 0 17.5 5t27.5 17l13 -34q-17 -23 -52.5 -47t-89.5 -24q-46 0 -71.5 17.5t-25.5 45.5q0 6 1 10l26 197l28 209l-56 30l8 43l193 26l26 -12l-62 -446q-1 -5 -1 -13zM208 862l72 -5l101 -204l-62 -25l-100 112l-153 -114l-47 32z" />
    <glyph glyph-name="idieresis" unicode="&#xef;" horiz-adv-x="327" 
d="M217 97q0 -24 18 -24q8 0 17.5 5t27.5 17l13 -34q-17 -23 -52.5 -47t-89.5 -24q-46 0 -71.5 17.5t-25.5 45.5q0 6 1 10l26 197l28 209l-56 30l8 43l193 26l26 -12l-62 -446q-1 -5 -1 -13zM53 675.5q-21 24.5 -21 54.5q0 42 23 69.5t62 27.5q33 0 52.5 -23.5t19.5 -54.5
q0 -43 -22 -70.5t-66 -27.5q-27 0 -48 24.5zM273.5 675.5q-20.5 24.5 -20.5 54.5q0 42 22.5 69.5t62.5 27.5q32 0 52 -23t20 -53q0 -44 -22 -72t-66 -28q-28 0 -48.5 24.5z" />
    <glyph glyph-name="eth" unicode="&#xf0;" horiz-adv-x="582" 
d="M179 798l26 77q31 -9 69 -27t74 -42q25 29 44.5 53.5t25.5 32.5l56 -48l-71 -82q75 -72 113.5 -170t38.5 -200q0 -116 -37.5 -207.5t-108.5 -143t-167 -51.5q-69 0 -117 34.5t-72 88.5t-24 112q0 97 35.5 168.5t97 110t139.5 38.5q36 0 55.5 -3t34.5 -12q0 32 -15.5 74.5
t-45.5 82.5l-66 -76l-56 48l72 78q-59 52 -101 64zM242.5 433q-25.5 -44 -38 -109.5t-12.5 -128.5t15 -103.5t49 -40.5q48 0 82.5 62.5t44.5 155.5q9 81 9 91q0 42 -18.5 79.5t-67.5 37.5q-38 0 -63.5 -44z" />
    <glyph glyph-name="ntilde" unicode="&#xf1;" horiz-adv-x="636" 
d="M339 537q47 31 103 31q130 0 130 -148q0 -29 -24 -173q-2 -15 -8 -47q-14 -74 -14 -100q0 -27 19 -27q8 0 17.5 4.5t26.5 17.5l14 -34q-17 -23 -53 -47t-92 -24q-58 0 -78 23t-20 59q0 27 17 112l6 32q22 125 22 181q0 43 -9 59t-30 16q-29 0 -63 -34.5t-58 -85.5
l-48 -352h-155l63 471l-52 28l8 43l180 26l25 -12l-8 -103q34 53 81 84zM224.5 772.5q33.5 24.5 68.5 24.5q28 0 45.5 -9t40.5 -26q16 -13 27 -19t25 -6q25 0 39.5 11t33.5 35l42 -50q-13 -33 -49.5 -60t-73.5 -27q-27 0 -44 8.5t-36 24.5q-16 14 -29 21t-32 7
q-23 0 -37 -9.5t-34 -30.5l-36 49q16 32 49.5 56.5z" />
    <glyph glyph-name="ograve" unicode="&#xf2;" horiz-adv-x="603" 
d="M512.5 508.5q56.5 -60.5 56.5 -177.5q0 -95 -39 -174t-110 -125t-165 -46q-110 0 -166 61.5t-56 178.5q0 95 39 173.5t110 124t164 45.5q110 0 166.5 -60.5zM257 456.5q-28 -44.5 -40.5 -111.5t-10.5 -135q3 -87 19.5 -124t52.5 -37q59 0 87.5 82t28.5 192
q0 99 -15.5 138.5t-50.5 39.5q-43 0 -71 -44.5zM311 687.5q-40 28.5 -76 62.5t-51 59l98 86l141 -211l-51 -34q-21 9 -61 37.5z" />
    <glyph glyph-name="oacute" unicode="&#xf3;" horiz-adv-x="583" 
d="M495 876l90 -90q-9 -16 -47.5 -51t-84 -67.5t-72.5 -43.5l-44 42zM512.5 508.5q56.5 -60.5 56.5 -177.5q0 -95 -39 -174t-110 -125t-165 -46q-110 0 -166 61.5t-56 178.5q0 95 39 173.5t110 124t164 45.5q110 0 166.5 -60.5zM257 456.5q-28 -44.5 -40.5 -111.5
t-10.5 -135q3 -87 19.5 -124t52.5 -37q59 0 87.5 82t28.5 192q0 99 -15.5 138.5t-50.5 39.5q-43 0 -71 -44.5z" />
    <glyph glyph-name="ocircumflex" unicode="&#xf4;" horiz-adv-x="603" 
d="M512.5 508.5q56.5 -60.5 56.5 -177.5q0 -95 -39 -174t-110 -125t-165 -46q-110 0 -166 61.5t-56 178.5q0 95 39 173.5t110 124t164 45.5q110 0 166.5 -60.5zM257 456.5q-28 -44.5 -40.5 -111.5t-10.5 -135q3 -87 19.5 -124t52.5 -37q59 0 87.5 82t28.5 192
q0 99 -15.5 138.5t-50.5 39.5q-43 0 -71 -44.5zM362 872l72 -5l101 -204l-62 -25l-100 112l-153 -114l-47 32z" />
    <glyph glyph-name="otilde" unicode="&#xf5;" horiz-adv-x="603" 
d="M512.5 508.5q56.5 -60.5 56.5 -177.5q0 -95 -39 -174t-110 -125t-165 -46q-110 0 -166 61.5t-56 178.5q0 95 39 173.5t110 124t164 45.5q110 0 166.5 -60.5zM257 456.5q-28 -44.5 -40.5 -111.5t-10.5 -135q3 -87 19.5 -124t52.5 -37q59 0 87.5 82t28.5 192
q0 99 -15.5 138.5t-50.5 39.5q-43 0 -71 -44.5zM237.5 782.5q33.5 24.5 68.5 24.5q28 0 45.5 -9t40.5 -26q16 -13 27 -19t25 -6q25 0 39.5 11t33.5 35l42 -50q-13 -33 -49.5 -60t-73.5 -27q-27 0 -44 8.5t-36 24.5q-16 14 -29 21t-32 7q-23 0 -37 -9.5t-34 -30.5l-36 49
q16 32 49.5 56.5z" />
    <glyph glyph-name="odieresis" unicode="&#xf6;" horiz-adv-x="603" 
d="M512.5 508.5q56.5 -60.5 56.5 -177.5q0 -95 -39 -174t-110 -125t-165 -46q-110 0 -166 61.5t-56 178.5q0 95 39 173.5t110 124t164 45.5q110 0 166.5 -60.5zM257 456.5q-28 -44.5 -40.5 -111.5t-10.5 -135q3 -87 19.5 -124t52.5 -37q59 0 87.5 82t28.5 192
q0 99 -15.5 138.5t-50.5 39.5q-43 0 -71 -44.5zM207 685.5q-21 24.5 -21 54.5q0 42 23 69.5t62 27.5q33 0 52.5 -23.5t19.5 -54.5q0 -43 -22 -70.5t-66 -27.5q-27 0 -48 24.5zM427.5 685.5q-20.5 24.5 -20.5 54.5q0 42 22.5 69.5t62.5 27.5q32 0 52 -23t20 -53
q0 -44 -22 -72t-66 -28q-28 0 -48.5 24.5z" />
    <glyph glyph-name="divide" unicode="&#xf7;" horiz-adv-x="669" 
d="M317.5 527.5q-19.5 22.5 -19.5 55.5q0 43 28.5 70t64.5 27q33 0 52 -23t19 -55q0 -46 -30 -71.5t-68 -25.5q-27 0 -46.5 22.5zM585 425l-8 -95h-458l9 95h457zM271.5 222q28.5 27 63.5 27t53.5 -23t18.5 -55q0 -46 -29.5 -71t-68.5 -25q-27 0 -46.5 22t-19.5 55
q0 43 28.5 70z" />
    <glyph glyph-name="oslash" unicode="&#xf8;" horiz-adv-x="584" 
d="M560 334q0 -95 -38.5 -174.5t-110 -126t-164.5 -46.5q-63 0 -113 22l-52 -73l-43 23l54 77q-68 60 -68 191q0 96 38.5 174t109 123.5t163.5 45.5q58 0 106 -19l60 85l43 -24l-60 -86q75 -60 75 -192zM320 501q-43 0 -71.5 -44t-40.5 -111t-10 -135q0 -19 1 -28l171 275
q-15 43 -50 43zM231.5 64q14.5 -14 37.5 -14q62 0 90.5 91t26.5 207l-3 38l-174 -277q8 -31 22.5 -45z" />
    <glyph glyph-name="ugrave" unicode="&#xf9;" horiz-adv-x="624" 
d="M232 253q-13 -87 -13 -115q0 -36 11 -51.5t36 -15.5q27 0 52.5 14.5t44.5 36.5l60 442h157l-63 -454q-4 -37 20 -37q8 0 16.5 4.5t27.5 17.5l14 -34q-7 -12 -25 -28.5t-47 -29.5t-64 -13q-39 0 -61 13.5t-27 38.5q-1 3 -1 11q0 12 1 18l-1 1q-32 -36 -72 -59t-98 -23
q-53 0 -97 30.5t-45 94.5q0 41 16 147q4 20 5 30l26 179l-62 38l8 43l194 16l25 -12l-33 -268zM308 677.5q-40 28.5 -76 62.5t-51 59l98 86l141 -211l-51 -34q-21 9 -61 37.5z" />
    <glyph glyph-name="uacute" unicode="&#xfa;" horiz-adv-x="624" 
d="M232 253q-13 -87 -13 -115q0 -36 11 -51.5t36 -15.5q27 0 52.5 14.5t44.5 36.5l60 442h157l-63 -454q-4 -37 20 -37q8 0 16.5 4.5t27.5 17.5l14 -34q-7 -12 -25 -28.5t-47 -29.5t-64 -13q-39 0 -61 13.5t-27 38.5q-1 3 -1 11q0 12 1 18l-1 1q-32 -36 -72 -59t-98 -23
q-53 0 -97 30.5t-45 94.5q0 41 16 147q4 20 5 30l26 179l-62 38l8 43l194 16l25 -12l-33 -268zM445 885l93 -90q-9 -16 -48.5 -51t-85 -68t-73.5 -44l-44 43z" />
    <glyph glyph-name="ucircumflex" unicode="&#xfb;" horiz-adv-x="624" 
d="M232 253q-13 -87 -13 -115q0 -36 11 -51.5t36 -15.5q27 0 52.5 14.5t44.5 36.5l60 442h157l-63 -454q-4 -37 20 -37q8 0 16.5 4.5t27.5 17.5l14 -34q-7 -12 -25 -28.5t-47 -29.5t-64 -13q-39 0 -61 13.5t-27 38.5q-1 3 -1 11q0 12 1 18l-1 1q-32 -36 -72 -59t-98 -23
q-53 0 -97 30.5t-45 94.5q0 41 16 147q4 20 5 30l26 179l-62 38l8 43l194 16l25 -12l-33 -268zM359 862l72 -5l101 -204l-62 -25l-100 112l-153 -114l-47 32z" />
    <glyph glyph-name="udieresis" unicode="&#xfc;" horiz-adv-x="624" 
d="M232 253q-13 -87 -13 -115q0 -36 11 -51.5t36 -15.5q27 0 52.5 14.5t44.5 36.5l60 442h157l-63 -454q-4 -37 20 -37q8 0 16.5 4.5t27.5 17.5l14 -34q-7 -12 -25 -28.5t-47 -29.5t-64 -13q-39 0 -61 13.5t-27 38.5q-1 3 -1 11q0 12 1 18l-1 1q-32 -36 -72 -59t-98 -23
q-53 0 -97 30.5t-45 94.5q0 41 16 147q4 20 5 30l26 179l-62 38l8 43l194 16l25 -12l-33 -268zM204 675.5q-21 24.5 -21 54.5q0 42 23 69.5t62 27.5q33 0 52.5 -23.5t19.5 -54.5q0 -43 -22 -70.5t-66 -27.5q-27 0 -48 24.5zM424.5 675.5q-20.5 24.5 -20.5 54.5
q0 42 22.5 69.5t62.5 27.5q32 0 52 -23t20 -53q0 -44 -22 -72t-66 -28q-28 0 -48.5 24.5z" />
    <glyph glyph-name="yacute" unicode="&#xfd;" horiz-adv-x="539" 
d="M52.5 475q-4.5 6 -12.5 6q-13 0 -25 -8l-15 38q13 16 49.5 36.5t77.5 20.5q43 0 65 -17t27 -50l61 -384l14 -97l32 67q78 168 78 276q0 23 -3.5 39t-10.5 35q-7 17 -10 30.5t-3 33.5q0 29 20 48t57 19q41 0 64.5 -30.5t23.5 -70.5q0 -71 -18.5 -128.5t-60.5 -143.5
q-37 -82 -177 -308q-48 -80 -98 -110t-115 -30q-29 0 -61 7t-41 15l37 98q11 -11 39 -20t52 -9q47 0 85 29.5t80 97.5h-89l-114 489q-4 15 -8.5 21zM407 885l93 -90q-9 -16 -48.5 -51t-85 -68t-73.5 -44l-44 43z" />
    <glyph glyph-name="thorn" unicode="&#xfe;" horiz-adv-x="587" 
d="M386 568q84 0 126 -54.5t42 -157.5q0 -102 -40.5 -185.5t-116 -132t-175.5 -48.5q-15 0 -45 4l-4 -63l-24 -185h-150l34 244l92 735l-51 21l10 41l175 19l26 -14l-36 -276q62 52 137 52zM235 57q79 0 117.5 87.5t38.5 211.5q0 55 -18 91t-54 36q-44 0 -80 -45l-49 -375
q20 -6 45 -6z" />
    <glyph glyph-name="ydieresis" unicode="&#xff;" horiz-adv-x="539" 
d="M52.5 475q-4.5 6 -12.5 6q-13 0 -25 -8l-15 38q13 16 49.5 36.5t77.5 20.5q43 0 65 -17t27 -50l61 -384l14 -97l32 67q78 168 78 276q0 23 -3.5 39t-10.5 35q-7 17 -10 30.5t-3 33.5q0 29 20 48t57 19q41 0 64.5 -30.5t23.5 -70.5q0 -71 -18.5 -128.5t-60.5 -143.5
q-37 -82 -177 -308q-48 -80 -98 -110t-115 -30q-29 0 -61 7t-41 15l37 98q11 -11 39 -20t52 -9q47 0 85 29.5t80 97.5h-89l-114 489q-4 15 -8.5 21zM166 675.5q-21 24.5 -21 54.5q0 42 23 69.5t62 27.5q33 0 52.5 -23.5t19.5 -54.5q0 -43 -22 -70.5t-66 -27.5
q-27 0 -48 24.5zM386.5 675.5q-20.5 24.5 -20.5 54.5q0 42 22.5 69.5t62.5 27.5q32 0 52 -23t20 -53q0 -44 -22 -72t-66 -28q-28 0 -48.5 24.5z" />
    <glyph glyph-name="Amacron" unicode="&#x100;" horiz-adv-x="660" 
d="M481 745l121 -679l78 -15l-3 -51h-333l2 51l77 14l-20 139h-239l-59 -139l92 -14l-4 -51h-271l4 51l68 14l320 680h167zM195 277h198l-39 270l-4 93zM558 935l-10 -101h-278l9 101h279z" />
    <glyph glyph-name="amacron" unicode="&#x101;" horiz-adv-x="592" 
d="M490 97q0 -24 20 -24q17 0 44 22l14 -34q-14 -22 -50 -46.5t-85 -24.5q-36 0 -58 15t-24 43v6q-62 -64 -149 -64t-130 58t-43 148q0 97 38.5 182.5t114.5 137.5t182 52q26 0 58.5 -6.5t56.5 -14.5l75 21l-63 -458q-1 -5 -1 -13zM353 501q-56 0 -91.5 -45t-50.5 -113
t-15 -141q0 -60 19.5 -94t53.5 -34q32 0 64 30l54 393q-22 4 -34 4zM528 751l-10 -100h-280l9 100h281z" />
    <glyph glyph-name="Abreve" unicode="&#x102;" horiz-adv-x="660" 
d="M481 745l121 -679l78 -15l-3 -51h-333l2 51l77 14l-20 139h-239l-59 -139l92 -14l-4 -51h-271l4 51l68 14l320 680h167zM195 277h198l-39 270l-4 93zM255 950q0 19 3 32h90q0 -28 3 -44t16.5 -26t43.5 -10q48 0 64.5 24t16.5 56h87q0 -83 -46 -134t-124 -51
q-154 0 -154 153z" />
    <glyph glyph-name="abreve" unicode="&#x103;" horiz-adv-x="592" 
d="M490 97q0 -24 20 -24q17 0 44 22l14 -34q-14 -22 -50 -46.5t-85 -24.5q-36 0 -58 15t-24 43v6q-62 -64 -149 -64t-130 58t-43 148q0 97 38.5 182.5t114.5 137.5t182 52q26 0 58.5 -6.5t56.5 -14.5l75 21l-63 -458q-1 -5 -1 -13zM353 501q-56 0 -91.5 -45t-50.5 -113
t-15 -141q0 -60 19.5 -94t53.5 -34q32 0 64 30l54 393q-22 4 -34 4zM292.5 660q-34.5 22 -51.5 57t-17 74q0 12 2 32h89v-21q0 -25 17 -42t52 -17q45 0 59 21t16 59h88v-17q-1 -41 -19 -79.5t-56.5 -63.5t-95.5 -25q-49 0 -83.5 22z" />
    <glyph glyph-name="Aogonek" unicode="&#x104;" horiz-adv-x="660" 
d="M470 -105q0 -20 8 -27.5t24 -7.5q19 0 35.5 9t39.5 27l18 -55q-32 -33 -74.5 -53.5t-91.5 -20.5q-46 0 -70.5 22.5t-24.5 61.5q0 12 6.5 29t15.5 31q23 33 48 53.5t55 35.5h-115l2 51l77 14l-20 139h-239l-59 -139l92 -14l-4 -51h-271l4 51l68 14l320 678h167l121 -677
l78 -15l-3 -51h-113q-94 -65 -94 -105zM195 277h198l-39 270l-4 93z" />
    <glyph glyph-name="aogonek" unicode="&#x105;" horiz-adv-x="592" 
d="M67.5 378.5q38.5 85.5 114.5 137.5t182 52q26 0 58.5 -6.5t56.5 -14.5l75 21l-63 -458q-1 -5 -1 -13q0 -24 20 -24q17 0 44 22l14 -34q-7 -12 -23 -27t-39 -26q-90 -64 -90 -103q-1 -20 7.5 -27.5t24.5 -7.5q18 0 33.5 8t41.5 28l17 -55q-31 -33 -74 -53.5t-92 -20.5
q-46 0 -69.5 22.5t-23.5 61.5q0 12 6 29.5t15 30.5q32 48 83 78q-31 16 -34 49v6q-62 -64 -149 -64t-130 58t-43 148q0 97 38.5 182.5zM215.5 108q19.5 -34 53.5 -34q32 0 64 30l54 393q-22 4 -34 4q-56 0 -91.5 -45t-50.5 -113t-15 -141q0 -60 19.5 -94z" />
    <glyph glyph-name="Cacute" unicode="&#x106;" horiz-adv-x="634" 
d="M435 689q-74 0 -124 -55.5t-73 -140.5t-21 -172q4 -126 36.5 -188.5t102.5 -62.5q69 0 107 36q19 24 39 99h96l-21 -140q-40 -31 -96 -52t-151 -21q-155 0 -227.5 89t-73.5 230q0 137 53.5 236.5t151 152t227.5 52.5q58 0 90.5 -4.5t65.5 -13.5l20 -5l16 -4l-30 -196
h-121l-19 152q-22 8 -48 8zM561 983l88 -70q-23 -29 -85.5 -70t-95.5 -50l-62 42z" />
    <glyph glyph-name="cacute" unicode="&#x107;" horiz-adv-x="468" 
d="M344 465q-21 27 -35 27q-27 0 -54 -33t-44.5 -91t-17.5 -129q0 -85 20.5 -121t66.5 -36q43 0 72.5 16.5t51.5 45.5l31 -50q-25 -39 -82 -71.5t-135 -32.5q-89 0 -139 61t-50 176q0 85 35.5 163.5t106.5 128t172 49.5q33 0 67.5 -5t57.5 -14l-40 -155l-35 1q-28 43 -49 70
zM430 886l93 -90q-9 -16 -48.5 -51t-85 -68t-73.5 -44l-44 43z" />
    <glyph glyph-name="Ccircumflex" unicode="&#x108;" horiz-adv-x="634" 
d="M435 689q-74 0 -124 -55.5t-73 -140.5t-21 -172q4 -126 36.5 -188.5t102.5 -62.5q69 0 107 36q19 24 39 99h96l-21 -140q-40 -31 -96 -52t-151 -21q-155 0 -227.5 89t-73.5 230q0 137 53.5 236.5t151 152t227.5 52.5q58 0 90.5 -4.5t65.5 -13.5l20 -5l16 -4l-30 -196
h-121l-19 152q-22 8 -48 8zM450 983h87l102 -174l-59 -28l-99 102l-158 -102l-51 28z" />
    <glyph glyph-name="ccircumflex" unicode="&#x109;" horiz-adv-x="468" 
d="M344 465q-21 27 -35 27q-27 0 -54 -33t-44.5 -91t-17.5 -129q0 -85 20.5 -121t66.5 -36q43 0 72.5 16.5t51.5 45.5l31 -50q-25 -39 -82 -71.5t-135 -32.5q-89 0 -139 61t-50 176q0 85 35.5 163.5t106.5 128t172 49.5q33 0 67.5 -5t57.5 -14l-40 -155l-35 1q-28 43 -49 70
zM344 863l72 -5l101 -204l-62 -25l-100 112l-153 -114l-47 32z" />
    <glyph glyph-name="Cdotaccent" unicode="&#x10a;" horiz-adv-x="634" 
d="M435 689q-74 0 -124 -55.5t-73 -140.5t-21 -172q4 -126 36.5 -188.5t102.5 -62.5q69 0 107 36q19 24 39 99h96l-21 -140q-40 -31 -96 -52t-151 -21q-155 0 -227.5 89t-73.5 230q0 137 53.5 236.5t151 152t227.5 52.5q58 0 90.5 -4.5t65.5 -13.5l20 -5l16 -4l-30 -196
h-121l-19 152q-22 8 -48 8zM416 826q-25 23 -25 51q0 39 27 65.5t69 26.5q35 0 59 -21.5t24 -49.5q0 -41 -26.5 -68t-73.5 -27q-29 0 -54 23z" />
    <glyph glyph-name="cdotaccent" unicode="&#x10b;" horiz-adv-x="468" 
d="M344 465q-21 27 -35 27q-27 0 -54 -33t-44.5 -91t-17.5 -129q0 -85 20.5 -121t66.5 -36q43 0 72.5 16.5t51.5 45.5l31 -50q-25 -39 -82 -71.5t-135 -32.5q-89 0 -139 61t-50 176q0 85 35.5 163.5t106.5 128t172 49.5q33 0 67.5 -5t57.5 -14l-40 -155l-35 1q-28 43 -49 70
zM295.5 678q-23.5 24 -23.5 54q0 42 26 70.5t70 28.5q36 0 59 -23.5t23 -52.5q0 -44 -25 -72.5t-75 -28.5q-31 0 -54.5 24z" />
    <glyph glyph-name="Ccaron" unicode="&#x10c;" horiz-adv-x="634" 
d="M435 689q-74 0 -124 -55.5t-73 -140.5t-21 -172q4 -126 36.5 -188.5t102.5 -62.5q69 0 107 36q19 24 39 99h96l-21 -140q-40 -31 -96 -52t-151 -21q-155 0 -227.5 89t-73.5 230q0 137 53.5 236.5t151 152t227.5 52.5q58 0 90.5 -4.5t65.5 -13.5l20 -5l16 -4l-30 -196
h-121l-19 152q-22 8 -48 8zM385 983l97 -97l149 97l52 -27l-174 -168h-81l-102 167z" />
    <glyph glyph-name="ccaron" unicode="&#x10d;" horiz-adv-x="468" 
d="M344 465q-21 27 -35 27q-27 0 -54 -33t-44.5 -91t-17.5 -129q0 -85 20.5 -121t66.5 -36q43 0 72.5 16.5t51.5 45.5l31 -50q-25 -39 -82 -71.5t-135 -32.5q-89 0 -139 61t-50 176q0 85 35.5 163.5t106.5 128t172 49.5q33 0 67.5 -5t57.5 -14l-40 -155l-35 1q-28 43 -49 70
zM259 842l99 -103l158 103l51 -27l-179 -183h-86l-103 183z" />
    <glyph glyph-name="Dcaron" unicode="&#x10e;" horiz-adv-x="735" 
d="M316 747q66 4 98 4q165 0 240 -81.5t75 -219.5q0 -212 -107 -335t-329 -123q-19 0 -37 4q-44 4 -94 4h-178l6 51l77 14l82 613l-70 11l5 54h154q26 0 78 4zM270 57.5q20 -3.5 34 -3.5q84 0 139 57t80 143.5t25 178.5q0 137 -36.5 196.5t-116.5 59.5q-27 0 -49 -3.5
t-30 -7.5l-81 -612q15 -5 35 -8.5zM333 983l97 -97l149 97l52 -27l-174 -168h-81l-102 167z" />
    <glyph glyph-name="dcaron" unicode="&#x10f;" horiz-adv-x="730" 
d="M503 97q0 -24 18 -24q16 0 45 22l14 -34q-23 -26 -54.5 -48.5t-81.5 -22.5q-39 0 -59 18.5t-25 54.5l-1 9q-24 -34 -65 -58t-97 -24q-86 0 -127 57.5t-41 148.5q0 98 37 183t111.5 137t182.5 52q23 0 51 -5l23 161l-76 21l9 40l209 21l26 -14l-98 -681q-1 -5 -1 -14z
M348 501q-82 0 -118 -90t-36 -209q0 -60 18.5 -94t51.5 -34q24 0 45.5 14.5t36.5 37.5l54 366q-27 9 -52 9zM654 564l-4 13q7 32 7 110q0 54 -14 92l4 23h135q9 -21 9 -78q0 -45 -8 -77.5t-16.5 -54.5t-10.5 -29z" />
    <glyph glyph-name="Dcroat" unicode="&#x110;" horiz-adv-x="736" 
d="M321 748q62 4 94 4q165 0 240 -81.5t75 -219.5q0 -212 -107 -335t-329 -123q-19 0 -37 4q-50 4 -107 4h-165l6 51l77 14l37 277h-67l12 82h66l34 254l-70 11l5 54h145q29 0 91 4zM305 55q84 0 139 57t80 143.5t25 178.5q0 137 -36.5 196.5t-116.5 59.5q-27 0 -48.5 -3.5
t-30.5 -7.5l-33 -254h146l-12 -82h-145l-37 -276q40 -12 69 -12z" />
    <glyph glyph-name="dcroat" unicode="&#x111;" horiz-adv-x="612" 
d="M66 379q37 85 111.5 137t182.5 52q23 0 51 -5l8 53h-139l8 64h140l6 44l-76 21l9 40l209 21l26 -14l-16 -112h62l-7 -64h-64l-73 -505q-1 -5 -1 -14q0 -24 18 -24q16 0 45 22l14 -34q-23 -26 -54.5 -48.5t-81.5 -22.5q-39 0 -59 18.5t-25 54.5l-1 9q-24 -34 -65 -58
t-97 -24q-86 0 -127 57.5t-41 148.5q0 98 37 183zM212.5 108q18.5 -34 51.5 -34q24 0 45.5 14.5t36.5 37.5l54 366q-27 9 -52 9q-82 0 -118 -90t-36 -209q0 -60 18.5 -94z" />
    <glyph glyph-name="Emacron" unicode="&#x112;" horiz-adv-x="636" 
d="M625 743l-17 -179h-100l-20 109l-171 12l-34 -256l224 22l-18 -112l-216 15l-34 -281l228 17l53 137l102 -7l-35 -220h-604l7 51l78 14l80 613l-71 11l6 54h542zM540 935l-10 -101h-278l9 101h279z" />
    <glyph glyph-name="emacron" unicode="&#x113;" horiz-adv-x="527" 
d="M386 23.5q-59 -37.5 -142 -37.5q-74 0 -122 31.5t-70 82.5t-22 110q0 102 41.5 184t114 128.5t160.5 46.5q82 0 121 -36t39 -93q0 -73 -48 -121.5t-117.5 -71.5t-137.5 -25q-1 -74 23.5 -112t68.5 -38q51 0 85.5 23t60.5 58l31 -49q-27 -43 -86 -80.5zM233.5 434
q-25.5 -67 -30.5 -153q31 2 66 19.5t59 50.5t24 77q0 73 -41 73q-52 0 -77.5 -67zM499 752l-10 -100h-280l9 100h281z" />
    <glyph glyph-name="Ebreve" unicode="&#x114;" horiz-adv-x="636" 
d="M625 743l-17 -179h-100l-20 109l-171 12l-34 -256l224 22l-18 -112l-216 15l-34 -281l228 17l53 137l102 -7l-35 -220h-604l7 51l78 14l80 613l-71 11l6 54h542zM237 950q0 19 3 32h90q0 -28 3 -44t16.5 -26t43.5 -10q48 0 64.5 24t16.5 56h87q0 -83 -46 -134t-124 -51
q-154 0 -154 153z" />
    <glyph glyph-name="ebreve" unicode="&#x115;" horiz-adv-x="527" 
d="M386 23.5q-59 -37.5 -142 -37.5q-74 0 -122 31.5t-70 82.5t-22 110q0 102 41.5 184t114 128.5t160.5 46.5q82 0 121 -36t39 -93q0 -73 -48 -121.5t-117.5 -71.5t-137.5 -25q-1 -74 23.5 -112t68.5 -38q51 0 85.5 23t60.5 58l31 -49q-27 -43 -86 -80.5zM233.5 434
q-25.5 -67 -30.5 -153q31 2 66 19.5t59 50.5t24 77q0 73 -41 73q-52 0 -77.5 -67zM263.5 661q-34.5 22 -51.5 57t-17 74q0 12 2 32h89v-21q0 -25 17 -42t52 -17q45 0 59 21t16 59h88v-17q-1 -41 -19 -79.5t-56.5 -63.5t-95.5 -25q-49 0 -83.5 22z" />
    <glyph glyph-name="Edotaccent" unicode="&#x116;" horiz-adv-x="636" 
d="M625 743l-17 -179h-100l-20 109l-171 12l-34 -256l224 22l-18 -112l-216 15l-34 -281l228 17l53 137l102 -7l-35 -220h-604l7 51l78 14l80 613l-71 11l6 54h542zM331 826q-25 23 -25 51q0 39 27 65.5t69 26.5q35 0 59 -21.5t24 -49.5q0 -41 -26.5 -68t-73.5 -27
q-29 0 -54 23z" />
    <glyph glyph-name="edotaccent" unicode="&#x117;" horiz-adv-x="527" 
d="M386 23.5q-59 -37.5 -142 -37.5q-74 0 -122 31.5t-70 82.5t-22 110q0 102 41.5 184t114 128.5t160.5 46.5q82 0 121 -36t39 -93q0 -73 -48 -121.5t-117.5 -71.5t-137.5 -25q-1 -74 23.5 -112t68.5 -38q51 0 85.5 23t60.5 58l31 -49q-27 -43 -86 -80.5zM233.5 434
q-25.5 -67 -30.5 -153q31 2 66 19.5t59 50.5t24 77q0 73 -41 73q-52 0 -77.5 -67zM297.5 677q-23.5 24 -23.5 54q0 42 26 70.5t70 28.5q36 0 59 -23.5t23 -52.5q0 -44 -25 -72.5t-75 -28.5q-31 0 -54.5 24z" />
    <glyph glyph-name="Eogonek" unicode="&#x118;" horiz-adv-x="645" 
d="M450 -105q0 -20 8 -27.5t24 -7.5q18 0 34.5 8.5t40.5 27.5l18 -55q-33 -33 -75.5 -53.5t-91.5 -20.5q-46 0 -70 22.5t-24 61.5q0 12 6.5 29t15.5 31q23 33 48 53.5t55 35.5h-456l7 51l78 14l80 613l-71 11l6 54h542l-17 -179h-107l-16 109l-168 12l-35 -261l224 21
l-17 -111l-217 14l-38 -283l228 17l58 145l102 -7l-35 -220h-43q-94 -64 -94 -105z" />
    <glyph glyph-name="eogonek" unicode="&#x119;" horiz-adv-x="527" 
d="M123.5 -220.5q-23.5 22.5 -23.5 61.5q0 12 6 29.5t15 30.5q39 56 99 86q-97 8 -143.5 71.5t-46.5 151.5q0 102 41.5 184t114 128.5t160.5 46.5q82 0 121 -36t39 -93q0 -73 -48 -121.5t-117.5 -71.5t-137.5 -25q-1 -74 23.5 -112t68.5 -38q51 0 85.5 23t60.5 58l31 -49
q-16 -25 -46 -51.5t-71 -44.5q-54 -34 -87 -67t-33 -57q-1 -35 33 -35q18 0 33.5 8t41.5 28l16 -54q-31 -33 -73.5 -53.5t-92.5 -20.5q-46 0 -69.5 22.5zM269 300.5q35 17.5 59 50.5t24 77q0 73 -41 73q-52 0 -77.5 -67t-30.5 -153q31 2 66 19.5z" />
    <glyph glyph-name="Ecaron" unicode="&#x11a;" horiz-adv-x="636" 
d="M625 743l-17 -179h-100l-20 109l-171 12l-34 -256l224 22l-18 -112l-216 15l-34 -281l228 17l53 137l102 -7l-35 -220h-604l7 51l78 14l80 613l-71 11l6 54h542zM300 983l97 -97l149 97l52 -27l-174 -168h-81l-102 167z" />
    <glyph glyph-name="ecaron" unicode="&#x11b;" horiz-adv-x="527" 
d="M386 23.5q-59 -37.5 -142 -37.5q-74 0 -122 31.5t-70 82.5t-22 110q0 102 41.5 184t114 128.5t160.5 46.5q82 0 121 -36t39 -93q0 -73 -48 -121.5t-117.5 -71.5t-137.5 -25q-1 -74 23.5 -112t68.5 -38q51 0 85.5 23t60.5 58l31 -49q-27 -43 -86 -80.5zM233.5 434
q-25.5 -67 -30.5 -153q31 2 66 19.5t59 50.5t24 77q0 73 -41 73q-52 0 -77.5 -67zM261 841l99 -103l158 103l51 -27l-179 -183h-86l-103 183z" />
    <glyph glyph-name="Gcircumflex" unicode="&#x11c;" horiz-adv-x="690" 
d="M522 25q-62 -16 -107 -24.5t-104 -8.5q-97 0 -160 44.5t-92 118.5t-29 165q0 131 47 228t138.5 150.5t222.5 53.5q67 0 108 -6t83 -17l21 -5l29 -6l-32 -161h-115l-4 111q-39 21 -88 21q-232 0 -232 -368q1 -114 35 -185t100 -71q70 0 110 15l26 208l-100 8l9 72h270
l-44 -327q-52 -5 -92 -16zM426 983h87l102 -174l-59 -28l-99 102l-158 -102l-51 28z" />
    <glyph glyph-name="gcircumflex" unicode="&#x11d;" horiz-adv-x="594" 
d="M380.5 -203.5q-85.5 -49.5 -200.5 -49.5q-33 0 -74 7.5t-56 14.5l25 104q7 -6 29.5 -17.5t52 -21t55.5 -9.5q53 0 77.5 21t31.5 83l12 108q-58 -47 -131 -47q-87 0 -130 58t-43 148q0 97 38.5 182.5t114.5 137.5t182 52q29 0 62.5 -7t57.5 -16l79 23l-82 -606
q-15 -116 -100.5 -165.5zM353 501q-56 0 -91.5 -45t-50.5 -113t-15 -141q0 -60 19.5 -94t53.5 -34q39 0 73 38l56 382q-23 7 -45 7zM353 863l72 -5l101 -204l-62 -25l-100 112l-153 -114l-47 32z" />
    <glyph glyph-name="Gbreve" unicode="&#x11e;" horiz-adv-x="690" 
d="M522 25q-62 -16 -107 -24.5t-104 -8.5q-97 0 -160 44.5t-92 118.5t-29 165q0 131 47 228t138.5 150.5t222.5 53.5q67 0 108 -6t83 -17l21 -5l29 -6l-32 -161h-115l-4 111q-39 21 -88 21q-232 0 -232 -368q1 -114 35 -185t100 -71q70 0 110 15l26 208l-100 8l9 72h270
l-44 -327q-52 -5 -92 -16zM298 950q0 19 3 32h90q0 -28 3 -44t16.5 -26t43.5 -10q48 0 64.5 24t16.5 56h87q0 -83 -46 -134t-124 -51q-154 0 -154 153z" />
    <glyph glyph-name="gbreve" unicode="&#x11f;" horiz-adv-x="594" 
d="M380.5 -203.5q-85.5 -49.5 -200.5 -49.5q-33 0 -74 7.5t-56 14.5l25 104q7 -6 29.5 -17.5t52 -21t55.5 -9.5q53 0 77.5 21t31.5 83l12 108q-58 -47 -131 -47q-87 0 -130 58t-43 148q0 97 38.5 182.5t114.5 137.5t182 52q29 0 62.5 -7t57.5 -16l79 23l-82 -606
q-15 -116 -100.5 -165.5zM353 501q-56 0 -91.5 -45t-50.5 -113t-15 -141q0 -60 19.5 -94t53.5 -34q39 0 73 38l56 382q-23 7 -45 7zM270.5 662q-34.5 22 -51.5 57t-17 74q0 12 2 32h89v-21q0 -25 17 -42t52 -17q45 0 59 21t16 59h88v-17q-1 -41 -19 -79.5t-56.5 -63.5
t-95.5 -25q-49 0 -83.5 22z" />
    <glyph glyph-name="Gdotaccent" unicode="&#x120;" horiz-adv-x="690" 
d="M522 25q-62 -16 -107 -24.5t-104 -8.5q-97 0 -160 44.5t-92 118.5t-29 165q0 131 47 228t138.5 150.5t222.5 53.5q67 0 108 -6t83 -17l21 -5l29 -6l-32 -161h-115l-4 111q-39 21 -88 21q-232 0 -232 -368q1 -114 35 -185t100 -71q70 0 110 15l26 208l-100 8l9 72h270
l-44 -327q-52 -5 -92 -16zM392 826q-25 23 -25 51q0 39 27 65.5t69 26.5q35 0 59 -21.5t24 -49.5q0 -41 -26.5 -68t-73.5 -27q-29 0 -54 23z" />
    <glyph glyph-name="gdotaccent" unicode="&#x121;" horiz-adv-x="594" 
d="M380.5 -203.5q-85.5 -49.5 -200.5 -49.5q-33 0 -74 7.5t-56 14.5l25 104q7 -6 29.5 -17.5t52 -21t55.5 -9.5q53 0 77.5 21t31.5 83l12 108q-58 -47 -131 -47q-87 0 -130 58t-43 148q0 97 38.5 182.5t114.5 137.5t182 52q29 0 62.5 -7t57.5 -16l79 23l-82 -606
q-15 -116 -100.5 -165.5zM353 501q-56 0 -91.5 -45t-50.5 -113t-15 -141q0 -60 19.5 -94t53.5 -34q39 0 73 38l56 382q-23 7 -45 7zM304.5 678q-23.5 24 -23.5 54q0 42 26 70.5t70 28.5q36 0 59 -23.5t23 -52.5q0 -44 -25 -72.5t-75 -28.5q-31 0 -54.5 24z" />
    <glyph glyph-name="Gcommaaccent" unicode="&#x122;" horiz-adv-x="690" 
d="M522 25q-62 -16 -107 -24.5t-104 -8.5q-97 0 -160 44.5t-92 118.5t-29 165q0 131 47 228t138.5 150.5t222.5 53.5q67 0 108 -6t83 -17l21 -5l29 -6l-32 -161h-115l-4 111q-39 21 -88 21q-232 0 -232 -368q1 -114 35 -185t100 -71q70 0 110 15l26 208l-100 8l9 72h270
l-44 -327q-52 -5 -92 -16zM236 -237q9 5 16 25t7 42q0 19 -7 36.5t-21 18.5v41l91 41q30 -13 45 -41.5t15 -64.5q0 -31 -14.5 -60t-35.5 -48.5t-40 -24.5l-57 23z" />
    <glyph glyph-name="gcommaaccent" unicode="&#x123;" horiz-adv-x="594" 
d="M380.5 -203.5q-85.5 -49.5 -200.5 -49.5q-33 0 -74 7.5t-56 14.5l25 104q7 -6 29.5 -17.5t52 -21t55.5 -9.5q53 0 77.5 21t31.5 83l12 108q-58 -47 -131 -47q-87 0 -130 58t-43 148q0 97 38.5 182.5t114.5 137.5t182 52q29 0 62.5 -7t57.5 -16l79 23l-82 -606
q-15 -116 -100.5 -165.5zM353 501q-56 0 -91.5 -45t-50.5 -113t-15 -141q0 -60 19.5 -94t53.5 -34q39 0 73 38l56 382q-23 7 -45 7zM302.5 651.5q-19.5 16.5 -19.5 48.5q0 10 1 16q5 34 25 66.5t44 55.5t40 28h1l57 -13l2 -8q-11 -4 -20.5 -27t-9.5 -41q0 -15 14 -27
q18 -14 18 -39q0 -40 -30.5 -58t-66.5 -18h-3q-33 0 -52.5 16.5z" />
    <glyph glyph-name="Hcircumflex" unicode="&#x124;" horiz-adv-x="807" 
d="M413 743l-6 -54l-87 -11l-35 -266h271l35 266l-85 11l6 54h329l-6 -54l-75 -11l-80 -613l76 -14l-6 -51h-339l7 51l92 14l37 279h-272l-36 -279l84 -14l-4 -51h-322l4 51l69 14l81 613l-71 11l7 54h326zM452 983h87l102 -174l-59 -28l-99 102l-158 -102l-51 28z" />
    <glyph glyph-name="hcircumflex" unicode="&#x125;" horiz-adv-x="632" 
d="M332.5 535q48.5 33 105.5 33q130 0 130 -148q0 -38 -25 -173l-7 -41q-14 -78 -14 -106q0 -27 19 -27q8 0 17.5 4.5t26.5 17.5l14 -34q-17 -23 -53 -47t-91 -24q-59 0 -79 22t-20 60q0 27 17 112l6 32q22 125 22 181q0 43 -9 59t-30 16q-30 0 -65 -37t-60 -90l-42 -345
h-159l87 724l-62 21l8 40l198 21l25 -14l-42 -346q34 56 82.5 89zM202 1023h87l102 -174l-59 -28l-99 102l-158 -102l-51 28z" />
    <glyph glyph-name="Hbar" unicode="&#x126;" horiz-adv-x="800" 
d="M411 747l-6 -54l-87 -12l-16 -126h271l16 126l-85 12l6 54h329l-6 -54l-75 -12l-16 -126h88l-7 -69h-89l-53 -421l76 -14l-6 -51h-339l7 51l92 14l31 239h-272l-30 -239l84 -14l-4 -51h-323l5 51l68 14l54 421h-85l6 69h88l16 126l-71 12l7 54h326zM279 373h271l15 113
h-272z" />
    <glyph glyph-name="hbar" unicode="&#x127;" horiz-adv-x="632" 
d="M332 535q49 33 106 33q130 0 130 -148q0 -38 -25 -173l-7 -41q-14 -78 -14 -106q0 -27 19 -27q8 0 17.5 4.5t26.5 17.5l14 -34q-17 -23 -53 -47t-91 -24q-59 0 -79 22t-20 60q0 27 17 112l6 32q22 125 22 181q0 43 -9 59t-30 16q-30 0 -65 -37t-60 -90l-42 -345h-159
l74 616h-65l8 64h65l5 44l-62 21l8 40l198 21l25 -14l-14 -112h106l-8 -64h-106l-20 -171q33 57 82 90z" />
    <glyph glyph-name="Itilde" unicode="&#x128;" horiz-adv-x="374" 
d="M411 743l-6 -54l-84 -11l-80 -613l85 -14l-3 -51h-331l7 51l73 14l80 613l-71 11l5 54h325zM124 945.5q34 24.5 78 24.5q28 0 46 -11t39 -32q15 -15 26 -22.5t25 -7.5q39 0 75 49l39 -54q-14 -35 -48.5 -62t-74.5 -27q-31 0 -49.5 10.5t-39.5 30.5q-16 17 -28.5 24.5
t-31.5 7.5q-20 0 -36 -10.5t-34 -29.5l-32 51q12 34 46 58.5z" />
    <glyph glyph-name="itilde" unicode="&#x129;" horiz-adv-x="327" 
d="M217 97q0 -24 18 -24q8 0 17.5 5t27.5 17l13 -34q-17 -23 -52.5 -47t-89.5 -24q-46 0 -71.5 17.5t-25.5 45.5q0 6 1 10l26 197l28 209l-56 30l8 43l193 26l26 -12l-62 -446q-1 -5 -1 -13zM83.5 772.5q33.5 24.5 68.5 24.5q28 0 45.5 -9t40.5 -26q16 -13 27 -19t25 -6
q25 0 39.5 11t33.5 35l42 -50q-13 -33 -49.5 -60t-73.5 -27q-27 0 -44 8.5t-36 24.5q-16 14 -29 21t-32 7q-23 0 -37 -9.5t-34 -30.5l-36 49q16 32 49.5 56.5z" />
    <glyph glyph-name="Imacron" unicode="&#x12a;" horiz-adv-x="374" 
d="M411 743l-6 -54l-84 -11l-80 -613l85 -14l-3 -51h-331l7 51l73 14l80 613l-71 11l5 54h325zM411 935l-10 -101h-278l9 101h279z" />
    <glyph glyph-name="imacron" unicode="&#x12b;" horiz-adv-x="327" 
d="M217 97q0 -24 18 -24q8 0 17.5 5t27.5 17l13 -34q-17 -23 -52.5 -47t-89.5 -24q-46 0 -71.5 17.5t-25.5 45.5q0 6 1 10l26 197l28 209l-56 30l8 43l193 26l26 -12l-62 -446q-1 -5 -1 -13zM361 752l-10 -100h-280l9 100h281z" />
    <glyph glyph-name="Ibreve" unicode="&#x12c;" horiz-adv-x="374" 
d="M411 743l-6 -54l-84 -11l-80 -613l85 -14l-3 -51h-331l7 51l73 14l80 613l-71 11l5 54h325zM108 950q0 19 3 32h90q0 -28 3 -44t16.5 -26t43.5 -10q48 0 64.5 24t16.5 56h87q0 -83 -46 -134t-124 -51q-154 0 -154 153z" />
    <glyph glyph-name="ibreve" unicode="&#x12d;" horiz-adv-x="327" 
d="M217 97q0 -24 18 -24q8 0 17.5 5t27.5 17l13 -34q-17 -23 -52.5 -47t-89.5 -24q-46 0 -71.5 17.5t-25.5 45.5q0 6 1 10l26 197l28 209l-56 30l8 43l193 26l26 -12l-62 -446q-1 -5 -1 -13zM125.5 661q-34.5 22 -51.5 57t-17 74q0 12 2 32h89v-21q0 -25 17 -42t52 -17
q45 0 59 21t16 59h88v-17q-1 -41 -19 -79.5t-56.5 -63.5t-95.5 -25q-49 0 -83.5 22z" />
    <glyph glyph-name="Iogonek" unicode="&#x12e;" horiz-adv-x="374" 
d="M149 -105q0 -20 8.5 -27.5t24.5 -7.5q20 0 46.5 10t47.5 26l17 -55q-30 -31 -82 -52.5t-104 -21.5q-46 0 -69.5 22.5t-23.5 61.5q0 13 6 30t16 30q23 33 48.5 53.5t54.5 35.5h-147l7 51l73 14l80 613l-71 11l5 54h325l-6 -54l-84 -11l-80 -613l85 -14l-3 -51h-79
q-95 -63 -95 -105z" />
    <glyph glyph-name="iogonek" unicode="&#x12f;" horiz-adv-x="327" 
d="M282.5 806.5q23.5 -23.5 23.5 -52.5q0 -44 -25.5 -72t-74.5 -28q-30 0 -54 24.5t-24 54.5q0 41 26 69t70 28q35 0 58.5 -23.5zM217 97q0 -24 18 -24q8 0 17.5 5t27.5 17l13 -34q-6 -9 -19.5 -22t-32.5 -24q-117 -76 -117 -120q0 -20 8.5 -27.5t24.5 -7.5q18 0 34.5 8.5
t40.5 27.5l17 -55q-32 -33 -74.5 -53.5t-91.5 -20.5q-46 0 -70 22.5t-24 61.5q0 12 6 29.5t15 30.5q22 32 45 51t50 34q-25 7 -38 22.5t-13 41.5q0 12 1 19l6 41q26 181 48 349l-56 30l8 43l193 26l26 -12l-62 -446q-1 -5 -1 -13z" />
    <glyph glyph-name="Idotaccent" unicode="&#x130;" horiz-adv-x="374" 
d="M411 743l-6 -54l-84 -11l-80 -613l85 -14l-3 -51h-331l7 51l73 14l80 613l-71 11l5 54h325zM202 826q-25 23 -25 51q0 39 27 65.5t69 26.5q35 0 59 -21.5t24 -49.5q0 -41 -26.5 -68t-73.5 -27q-29 0 -54 23z" />
    <glyph glyph-name="dotlessi" unicode="&#x131;" horiz-adv-x="327" 
d="M217 97q0 -24 18 -24q8 0 17.5 5t27.5 17l13 -34q-17 -23 -52.5 -47t-89.5 -24q-46 0 -71.5 17.5t-25.5 45.5q0 6 1 10l26 197l28 209l-56 30l8 43l193 26l26 -12l-62 -446q-1 -5 -1 -13z" />
    <glyph glyph-name="IJ" unicode="&#x132;" horiz-adv-x="734" 
d="M411 743l-6 -54l-84 -11l-80 -613l85 -14l-3 -51h-331l7 51l73 14l80 613l-71 11l5 54h325zM693 655q-34 -279 -54.5 -433.5t-31.5 -184.5q-29 -84 -111 -137t-188 -68l-26 51q75 23 111 64t46 95q47 245 89 635l-71 12l7 54h307l-4 -54l-71 -11z" />
    <glyph glyph-name="ij" unicode="&#x133;" horiz-adv-x="646" 
d="M217 97q0 -24 18 -24q8 0 17.5 5t27.5 17l13 -34q-17 -23 -52.5 -47t-89.5 -24q-46 0 -71.5 17.5t-25.5 45.5q0 6 1 10l26 197l28 209l-56 30l8 43l193 26l26 -12l-62 -446q-1 -5 -1 -13zM163.5 678q-23.5 24 -23.5 54q0 41 28 69.5t74 28.5q35 0 56 -23t21 -53
q0 -44 -26 -72t-76 -28q-30 0 -53.5 24zM496.5 -138.5q-35.5 -58.5 -87.5 -89t-112 -30.5q-31 0 -56 4.5t-34 13.5l20 63q9 -3 21 -4.5t23 -1.5q39 0 62 28t33.5 73t18.5 114l51 447l-80 24l11 40l217 25l25 -12l-67 -556q-10 -80 -45.5 -138.5zM472.5 678
q-23.5 24 -23.5 54q0 41 28 69.5t74 28.5q35 0 56 -23t21 -53q0 -44 -26 -72t-76 -28q-30 0 -53.5 24z" />
    <glyph glyph-name="Jcircumflex" unicode="&#x134;" horiz-adv-x="360" 
d="M319 655q-34 -279 -54.5 -433.5t-31.5 -184.5q-29 -84 -111 -137t-188 -68l-26 51q75 23 111 64t46 95q47 245 89 635l-71 12l7 54h307l-4 -54l-71 -11zM233 983h87l102 -174l-59 -28l-99 102l-158 -102l-51 28z" />
    <glyph glyph-name="jcircumflex" unicode="&#x135;" horiz-adv-x="319" 
d="M169.5 -138.5q-35.5 -58.5 -87.5 -89t-112 -30.5q-31 0 -56 4.5t-34 13.5l20 63q9 -3 21 -4.5t23 -1.5q39 0 62 28t33.5 73t18.5 114l51 447l-80 24l11 40l217 25l25 -12l-67 -556q-10 -80 -45.5 -138.5zM190 862l72 -5l101 -204l-62 -25l-100 112l-153 -114l-47 32z" />
    <glyph glyph-name="Kcommaaccent" unicode="&#x136;" horiz-adv-x="724" 
d="M537 307q30 -63 39 -81q42 -83 62 -117t36 -43l57 -14l-6 -52h-210q-15 2 -24.5 10.5t-19 28t-26.5 63.5q-13 31 -32 83q-37 104 -61 150l-92 -93l-23 -177l84 -14l-4 -51h-327l7 51l71 14l80 613l-70 11l6 54h326l-6 -54l-87 -11l-43 -326l306 326l-66 12l5 53h243
l-6 -54l-61 -11l-229 -229q17 -27 71 -142zM304 -237q9 5 16 25t7 42q0 19 -7 36.5t-21 18.5v41l91 41q30 -13 45 -41.5t15 -64.5q0 -31 -14.5 -60t-35.5 -48.5t-40 -24.5l-57 23z" />
    <glyph glyph-name="kcommaaccent" unicode="&#x137;" horiz-adv-x="564" 
d="M296 792l-105 -792h-159l95 724l-63 21l9 40l196 21zM310.5 347.5q30.5 23.5 69.5 74.5q26 35 26 80q0 36 24 51t55 15q30 0 46.5 -18t16.5 -45q0 -42 -28 -78q-45 -59 -151 -109l92 -185q12 -22 26 -33.5t26 -11.5q10 0 27 6t30 16l16 -34q-22 -28 -67 -56.5t-99 -28.5
q-40 0 -62.5 15t-33.5 43l-93 249q49 26 79.5 49.5zM176 -237q9 5 16 25t7 42q0 19 -7 36.5t-21 18.5v41l91 41q30 -13 45 -41.5t15 -64.5q0 -31 -14.5 -60t-35.5 -48.5t-40 -24.5l-57 23z" />
    <glyph glyph-name="kgreenlandic" unicode="&#x138;" horiz-adv-x="593" 
d="M266 556l-70 -556h-155l64 471l-52 28l8 43l180 26zM491 99.5q14 -11.5 27 -11.5q10 0 26 6t30 15l16 -33q-22 -28 -67 -56.5t-98 -28.5q-40 0 -62.5 15t-33.5 43l-92 249l205 257h141l-211 -231l94 -191q11 -22 25 -33.5z" />
    <glyph glyph-name="Lacute" unicode="&#x139;" horiz-adv-x="619" 
d="M412 743l-6 -54l-89 -11l-81 -616l178 10l102 219l87 -11l-51 -280h-557l6 51l67 14l80 613l-71 11l7 54h328zM349 983l88 -70q-23 -29 -85.5 -70t-95.5 -50l-62 42z" />
    <glyph glyph-name="lacute" unicode="&#x13a;" horiz-adv-x="310" 
d="M205 98q0 -25 19 -25q8 0 17.5 4.5t27.5 17.5l13 -34q-52 -71 -136 -71q-43 0 -72.5 16t-30.5 50q0 6 4 38l84 630l-65 21l10 40l196 21l25 -14l-91 -682q-1 -4 -1 -12zM303 983l88 -70q-23 -29 -85.5 -70t-95.5 -50l-62 42z" />
    <glyph glyph-name="Lcommaaccent" unicode="&#x13b;" horiz-adv-x="619" 
d="M412 743l-6 -54l-89 -11l-81 -616l178 10l102 219l87 -11l-51 -280h-557l6 51l67 14l80 613l-71 11l7 54h328zM202 -237q9 5 16 25t7 42q0 19 -7 36.5t-21 18.5v41l91 41q30 -13 45 -41.5t15 -64.5q0 -31 -14.5 -60t-35.5 -48.5t-40 -24.5l-57 23z" />
    <glyph glyph-name="lcommaaccent" unicode="&#x13c;" horiz-adv-x="310" 
d="M205 98q0 -25 19 -25q8 0 17.5 4.5t27.5 17.5l13 -34q-52 -71 -136 -71q-43 0 -72.5 16t-30.5 50q0 6 4 38l84 630l-65 21l10 40l196 21l25 -14l-91 -682q-1 -4 -1 -12zM28 -237q9 5 16 25t7 42q0 19 -7 36.5t-21 18.5v41l91 41q30 -13 45 -41.5t15 -64.5
q0 -31 -14.5 -60t-35.5 -48.5t-40 -24.5l-57 23z" />
    <glyph glyph-name="Lcaron" unicode="&#x13d;" horiz-adv-x="619" 
d="M412 743l-6 -54l-89 -11l-81 -616l178 10l102 219l87 -11l-51 -280h-557l6 51l67 14l80 613l-71 11l7 54h328zM476 564l-4 13q7 32 7 110q0 54 -14 92l4 23h135q9 -21 9 -78q0 -45 -8 -77.5t-16.5 -54.5t-10.5 -29z" />
    <glyph glyph-name="lcaron" unicode="&#x13e;" horiz-adv-x="425" 
d="M205 98q0 -25 19 -25q8 0 17.5 4.5t27.5 17.5l13 -34q-52 -71 -136 -71q-43 0 -72.5 16t-30.5 50q0 6 4 38l84 630l-65 21l10 40l196 21l25 -14l-91 -682q-1 -4 -1 -12zM353 597l-4 13q7 32 7 110q0 54 -14 92l4 23h135q9 -21 9 -78q0 -45 -8 -77.5t-16.5 -54.5
t-10.5 -29z" />
    <glyph glyph-name="Ldot" unicode="&#x13f;" horiz-adv-x="706" 
d="M412 743l-6 -54l-89 -11l-81 -616l178 10l102 181l87 -11l-51 -242h-557l6 51l67 14l80 613l-71 11l7 54h328zM630.5 510q27.5 28 63.5 28t57 -24t21 -57q0 -49 -29 -75t-68 -26q-29 0 -50.5 23.5t-21.5 57.5q0 45 27.5 73z" />
    <glyph glyph-name="ldot" unicode="&#x140;" horiz-adv-x="408" 
d="M205 98q0 -25 19 -25q8 0 17.5 4.5t27.5 17.5l13 -34q-52 -71 -136 -71q-43 0 -72.5 16t-30.5 50q0 6 4 38l84 630l-65 21l10 40l196 21l25 -14l-91 -682q-1 -4 -1 -12zM311.5 458q27.5 28 63.5 28t57 -24.5t21 -56.5q0 -49 -29 -75t-68 -26q-29 0 -50.5 23.5t-21.5 57.5
q0 45 27.5 73z" />
    <glyph glyph-name="Lslash" unicode="&#x141;" horiz-adv-x="619" 
d="M412 744l-6 -54l-89 -11l-25 -184l151 61l17 -62l-177 -70l-47 -361l178 10l102 219l87 -11l-51 -280h-557l6 51l67 14l37 287l-71 -28l-18 57l98 40l34 257l-71 11l7 54h328z" />
    <glyph glyph-name="lslash" unicode="&#x142;" horiz-adv-x="331" 
d="M213 98q0 -25 19 -25q8 0 17.5 4.5t27.5 17.5l13 -34q-17 -24 -51 -47.5t-85 -23.5q-43 0 -72.5 16t-30.5 50q0 6 4 38l41 289l-69 -27v67l78 32l34 269l-65 21l10 40l195 21l25 -14l-34 -270l87 35v-71l-96 -38l-47 -338q-1 -4 -1 -12z" />
    <glyph glyph-name="Nacute" unicode="&#x143;" horiz-adv-x="758" 
d="M352 743l183 -484l38 -112l67 531l-84 11l5 54h244l-5 -54l-60 -11l-104 -678h-172l-192 500l-38 123l-62 -558l93 -14l-5 -51h-268l4 51l72 14l90 613l-82 11l8 54h268zM559 983l88 -70q-23 -29 -85.5 -70t-95.5 -50l-62 42z" />
    <glyph glyph-name="nacute" unicode="&#x144;" horiz-adv-x="636" 
d="M339 537q47 31 103 31q130 0 130 -148q0 -29 -24 -173q-2 -15 -8 -47q-14 -74 -14 -100q0 -27 19 -27q8 0 17.5 4.5t26.5 17.5l14 -34q-17 -23 -53 -47t-92 -24q-58 0 -78 23t-20 59q0 27 17 112l6 32q22 125 22 181q0 43 -9 59t-30 16q-29 0 -63 -34.5t-58 -85.5
l-48 -352h-155l63 471l-52 28l8 43l180 26l25 -12l-8 -103q34 53 81 84zM435 885l93 -90q-9 -16 -48.5 -51t-85 -68t-73.5 -44l-44 43z" />
    <glyph glyph-name="Ncommaaccent" unicode="&#x145;" horiz-adv-x="758" 
d="M352 743l183 -484l38 -112l67 531l-84 11l5 54h244l-5 -54l-60 -11l-104 -678h-172l-192 500l-38 123l-62 -558l93 -14l-5 -51h-268l4 51l72 14l90 613l-82 11l8 54h268zM274 -237q9 5 16 25t7 42q0 19 -7 36.5t-21 18.5v41l91 41q30 -13 45 -41.5t15 -64.5
q0 -31 -14.5 -60t-35.5 -48.5t-40 -24.5l-57 23z" />
    <glyph glyph-name="ncommaaccent" unicode="&#x146;" horiz-adv-x="636" 
d="M339 537q47 31 103 31q130 0 130 -148q0 -29 -24 -173q-2 -15 -8 -47q-14 -74 -14 -100q0 -27 19 -27q8 0 17.5 4.5t26.5 17.5l14 -34q-17 -23 -53 -47t-92 -24q-58 0 -78 23t-20 59q0 27 17 112l6 32q22 125 22 181q0 43 -9 59t-30 16q-29 0 -63 -34.5t-58 -85.5
l-48 -352h-155l63 471l-52 28l8 43l180 26l25 -12l-8 -103q34 53 81 84zM210 -237q9 5 16 25t7 42q0 19 -7 36.5t-21 18.5v41l91 41q30 -13 45 -41.5t15 -64.5q0 -31 -14.5 -60t-35.5 -48.5t-40 -24.5l-57 23z" />
    <glyph glyph-name="Ncaron" unicode="&#x147;" horiz-adv-x="758" 
d="M352 743l183 -484l38 -112l67 531l-84 11l5 54h244l-5 -54l-60 -11l-104 -678h-172l-192 500l-38 123l-62 -558l93 -14l-5 -51h-268l4 51l72 14l90 613l-82 11l8 54h268zM383 983l97 -97l149 97l52 -27l-174 -168h-81l-102 167z" />
    <glyph glyph-name="ncaron" unicode="&#x148;" horiz-adv-x="636" 
d="M339 537q47 31 103 31q130 0 130 -148q0 -29 -24 -173q-2 -15 -8 -47q-14 -74 -14 -100q0 -27 19 -27q8 0 17.5 4.5t26.5 17.5l14 -34q-17 -23 -53 -47t-92 -24q-58 0 -78 23t-20 59q0 27 17 112l6 32q22 125 22 181q0 43 -9 59t-30 16q-29 0 -63 -34.5t-58 -85.5
l-48 -352h-155l63 471l-52 28l8 43l180 26l25 -12l-8 -103q34 53 81 84zM264 841l99 -103l158 103l51 -27l-179 -183h-86l-103 183z" />
    <glyph glyph-name="Eng" unicode="&#x14a;" horiz-adv-x="762" 
d="M357 -178q34 6 68.5 30.5t56.5 63t19 84.5l-229 503l-38 124l-59 -562l93 -14l-6 -51h-268l4 51l72 14l88 616l-82 12l8 54h268l193 -448l35 -121l60 503l-84 12l5 54h244l-5 -54l-60 -12l-101 -681q-9 -60 -42.5 -112t-89 -85.5t-127.5 -37.5z" />
    <glyph glyph-name="eng" unicode="&#x14b;" horiz-adv-x="630" 
d="M442 567q58 0 94.5 -29.5t36.5 -98.5l-1 -19q-13 -153 -24.5 -251t-25.5 -169q-21 -102 -51.5 -156.5t-77.5 -76t-123 -21.5q-28 0 -51.5 5t-31.5 13l19 58q5 -3 17 -4.5t19 -1.5q54 0 80 44.5t40 140.5q8 52 21 188q12 127 22 214q1 6 1 17q0 25 -10 38.5t-29 13.5
q-26 0 -59.5 -31t-62.5 -90l-48 -351h-155l63 470l-52 29l8 43l180 26l25 -12l-8 -103q72 114 184 114z" />
    <glyph glyph-name="Omacron" unicode="&#x14c;" horiz-adv-x="713" 
d="M628 663.5q69 -89.5 69 -227.5q0 -118 -40.5 -219t-127 -164t-216.5 -63q-144 0 -213 87.5t-69 233.5q0 118 42.5 218.5t129.5 162t212 61.5q144 0 213 -89.5zM300.5 639q-42.5 -53 -65 -139t-22.5 -183q1 -118 25 -192.5t89 -74.5q61 0 103 49t63 134t21 192
q0 131 -26.5 199t-86.5 68q-58 0 -100.5 -53zM600 935l-10 -101h-278l9 101h279z" />
    <glyph glyph-name="omacron" unicode="&#x14d;" horiz-adv-x="603" 
d="M512.5 508.5q56.5 -60.5 56.5 -177.5q0 -95 -39 -174t-110 -125t-165 -46q-110 0 -166 61.5t-56 178.5q0 95 39 173.5t110 124t164 45.5q110 0 166.5 -60.5zM257 456.5q-28 -44.5 -40.5 -111.5t-10.5 -135q3 -87 19.5 -124t52.5 -37q59 0 87.5 82t28.5 192
q0 99 -15.5 138.5t-50.5 39.5q-43 0 -71 -44.5zM515 762l-10 -100h-280l9 100h281z" />
    <glyph glyph-name="Obreve" unicode="&#x14e;" horiz-adv-x="713" 
d="M628 663.5q69 -89.5 69 -227.5q0 -118 -40.5 -219t-127 -164t-216.5 -63q-144 0 -213 87.5t-69 233.5q0 118 42.5 218.5t129.5 162t212 61.5q144 0 213 -89.5zM300.5 639q-42.5 -53 -65 -139t-22.5 -183q1 -118 25 -192.5t89 -74.5q61 0 103 49t63 134t21 192
q0 131 -26.5 199t-86.5 68q-58 0 -100.5 -53zM297 950q0 19 3 32h90q0 -28 3 -44t16.5 -26t43.5 -10q48 0 64.5 24t16.5 56h87q0 -83 -46 -134t-124 -51q-154 0 -154 153z" />
    <glyph glyph-name="obreve" unicode="&#x14f;" horiz-adv-x="603" 
d="M512.5 508.5q56.5 -60.5 56.5 -177.5q0 -95 -39 -174t-110 -125t-165 -46q-110 0 -166 61.5t-56 178.5q0 95 39 173.5t110 124t164 45.5q110 0 166.5 -60.5zM257 456.5q-28 -44.5 -40.5 -111.5t-10.5 -135q3 -87 19.5 -124t52.5 -37q59 0 87.5 82t28.5 192
q0 99 -15.5 138.5t-50.5 39.5q-43 0 -71 -44.5zM279.5 671q-34.5 22 -51.5 57t-17 74q0 12 2 32h89v-21q0 -25 17 -42t52 -17q45 0 59 21t16 59h88v-17q-1 -41 -19 -79.5t-56.5 -63.5t-95.5 -25q-49 0 -83.5 22z" />
    <glyph glyph-name="Ohungarumlaut" unicode="&#x150;" horiz-adv-x="713" 
d="M628 663.5q69 -89.5 69 -227.5q0 -118 -40.5 -219t-127 -164t-216.5 -63q-144 0 -213 87.5t-69 233.5q0 118 42.5 218.5t129.5 162t212 61.5q144 0 213 -89.5zM300.5 639q-42.5 -53 -65 -139t-22.5 -183q1 -118 25 -192.5t89 -74.5q61 0 103 49t63 134t21 192
q0 131 -26.5 199t-86.5 68q-58 0 -100.5 -53zM355 983l89 -44q-18 -41 -75 -89.5t-101 -62.5l-47 36zM607 983l88 -45q-26 -44 -79.5 -91t-96.5 -60l-44 36z" />
    <glyph glyph-name="ohungarumlaut" unicode="&#x151;" horiz-adv-x="603" 
d="M512.5 508.5q56.5 -60.5 56.5 -177.5q0 -95 -39 -174t-110 -125t-165 -46q-110 0 -166 61.5t-56 178.5q0 95 39 173.5t110 124t164 45.5q110 0 166.5 -60.5zM257 456.5q-28 -44.5 -40.5 -111.5t-10.5 -135q3 -87 19.5 -124t52.5 -37q59 0 87.5 82t28.5 192
q0 99 -15.5 138.5t-50.5 39.5q-43 0 -71 -44.5zM321 878l92 -65q-8 -24 -41 -59t-73 -67t-65 -45l-50 43zM560 878l91 -63q-9 -25 -42.5 -61t-73.5 -68t-66 -44l-50 43z" />
    <glyph glyph-name="OE" unicode="&#x152;" horiz-adv-x="1123" 
d="M318 -10q-147 0 -217 88.5t-70 235.5q0 118 43 217.5t130.5 160.5t214.5 61q151 0 212 -108l13 98h468l-16 -179h-100l-21 109l-170 12l-33 -256l223 23l-18 -114l-214 18l-38 -285l228 17l53 139l103 -7l-34 -220h-525l10 83q-90 -93 -242 -93zM300 639.5
q-45 -52.5 -68.5 -138.5t-23.5 -183q1 -118 27 -193t96 -75q97 0 147 106t50 274q0 129 -28.5 195.5t-93.5 66.5q-61 0 -106 -52.5z" />
    <glyph glyph-name="oe" unicode="&#x153;" horiz-adv-x="867" 
d="M727.5 26q-59.5 -36 -143.5 -36q-101 0 -158 60q-38 -29 -84.5 -44.5t-97.5 -15.5q-106 0 -160 61.5t-54 176.5q0 94 37.5 171.5t107 123t161.5 45.5q107 0 162 -67q83 67 189 67q82 0 121 -35.5t39 -92.5q0 -73 -48 -121.5t-118 -71.5t-138 -25q0 -73 24 -109t68 -36
q52 0 86.5 21.5t60.5 54.5l31 -49q-26 -42 -85.5 -78zM248.5 456.5q-26.5 -44.5 -38 -111.5t-9.5 -135q3 -83 16.5 -120.5t47.5 -37.5q42 0 68.5 43t37.5 115q-1 42 8 83q1 104 -12 156t-50 52q-42 0 -68.5 -44.5zM574 434q-26 -67 -31 -153q31 2 66 19.5t59 50.5t24 76
q0 74 -41 74q-51 0 -77 -67z" />
    <glyph glyph-name="Racute" unicode="&#x154;" horiz-adv-x="706" 
d="M310 747q54 4 102 4q144 0 202.5 -46.5t58.5 -139.5q0 -79 -44 -137t-122 -85q17 -19 34 -59.5t41 -103.5l10 -22q21 -45 32.5 -64.5t28 -30.5t43.5 -11l-5 -52h-199q-9 0 -18 21.5t-27 71.5l-17 47q-57 162 -73 183h-90l-32 -258l90 -14l-3 -51h-327l4 51l69 14l80 613
l-70 11l6 54h151q29 0 75 4zM314 388.5q21 -0.5 36 0.5q71 0 110.5 48t35.5 138q-2 57 -34 85.5t-89 28.5q-33 0 -57 -4l-40 -295q17 -1 38 -1.5zM481 983l88 -70q-23 -29 -85.5 -70t-95.5 -50l-62 42z" />
    <glyph glyph-name="racute" unicode="&#x155;" horiz-adv-x="416" 
d="M302 526q43 42 99 42q22 0 34 -10l-33 -171q-4 5 -19 11t-36 6q-31 0 -57.5 -6.5t-40.5 -18.5l-52 -379h-154l63 471l-52 28l8 43l160 26l26 -17l-5 -92l-2 -36q18 61 61 103zM357 885l93 -90q-9 -16 -48.5 -51t-85 -68t-73.5 -44l-44 43z" />
    <glyph glyph-name="Rcommaaccent" unicode="&#x156;" horiz-adv-x="706" 
d="M310 747q54 4 102 4q144 0 202.5 -46.5t58.5 -139.5q0 -79 -44 -137t-122 -85q17 -19 34 -59.5t41 -103.5l10 -22q21 -45 32.5 -64.5t28 -30.5t43.5 -11l-5 -52h-199q-9 0 -18 21.5t-27 71.5l-17 47q-57 162 -73 183h-90l-32 -258l90 -14l-3 -51h-327l4 51l69 14l80 613
l-70 11l6 54h151q29 0 75 4zM314 388.5q21 -0.5 36 0.5q71 0 110.5 48t35.5 138q-2 57 -34 85.5t-89 28.5q-33 0 -57 -4l-40 -295q17 -1 38 -1.5zM269 -237q9 5 16 25t7 42q0 19 -7 36.5t-21 18.5v41l91 41q30 -13 45 -41.5t15 -64.5q0 -31 -14.5 -60t-35.5 -48.5t-40 -24.5
l-57 23z" />
    <glyph glyph-name="rcommaaccent" unicode="&#x157;" horiz-adv-x="416" 
d="M302 526q43 42 99 42q22 0 34 -10l-33 -171q-4 5 -19 11t-36 6q-31 0 -57.5 -6.5t-40.5 -18.5l-52 -379h-154l63 471l-52 28l8 43l160 26l26 -17l-5 -92l-2 -36q18 61 61 103zM33 -237q9 5 16 25t7 42q0 19 -7 36.5t-21 18.5v41l91 41q30 -13 45 -41.5t15 -64.5
q0 -31 -14.5 -60t-35.5 -48.5t-40 -24.5l-57 23z" />
    <glyph glyph-name="Rcaron" unicode="&#x158;" horiz-adv-x="706" 
d="M310 747q54 4 102 4q144 0 202.5 -46.5t58.5 -139.5q0 -79 -44 -137t-122 -85q17 -19 34 -59.5t41 -103.5l10 -22q21 -45 32.5 -64.5t28 -30.5t43.5 -11l-5 -52h-199q-9 0 -18 21.5t-27 71.5l-17 47q-57 162 -73 183h-90l-32 -258l90 -14l-3 -51h-327l4 51l69 14l80 613
l-70 11l6 54h151q29 0 75 4zM314 388.5q21 -0.5 36 0.5q71 0 110.5 48t35.5 138q-2 57 -34 85.5t-89 28.5q-33 0 -57 -4l-40 -295q17 -1 38 -1.5zM305 983l97 -97l149 97l52 -27l-174 -168h-81l-102 167z" />
    <glyph glyph-name="rcaron" unicode="&#x159;" horiz-adv-x="416" 
d="M302 526q43 42 99 42q22 0 34 -10l-33 -171q-4 5 -19 11t-36 6q-31 0 -57.5 -6.5t-40.5 -18.5l-52 -379h-154l63 471l-52 28l8 43l160 26l26 -17l-5 -92l-2 -36q18 61 61 103zM186 841l99 -103l158 103l51 -27l-179 -183h-86l-103 183z" />
    <glyph glyph-name="Sacute" unicode="&#x15a;" horiz-adv-x="564" 
d="M387 685.5q-17 5.5 -42 5.5q-52 0 -82 -24t-30 -64q0 -50 31 -86t108 -84q70 -45 111 -97t41 -120q1 -62 -31 -113.5t-96.5 -82.5t-157.5 -31q-75 0 -143.5 16t-87.5 32l28 154h100l5 -109q36 -31 94 -31q69 0 100.5 27.5t31.5 73.5q0 45 -28.5 79.5t-98.5 78.5
q-74 47 -116 101t-42 126q0 102 76.5 158.5t198.5 56.5q133 0 195 -36l-26 -147h-92l-14 98q-16 13 -33 18.5zM455 983l88 -70q-23 -29 -85.5 -70t-95.5 -50l-62 42z" />
    <glyph glyph-name="sacute" unicode="&#x15b;" horiz-adv-x="428" 
d="M341.5 483.5q-25.5 15.5 -59.5 15.5q-33 0 -55.5 -15.5t-23.5 -43.5q0 -28 19.5 -50.5t67.5 -58.5q50 -36 75 -71t25 -91q0 -58 -31.5 -98.5t-84.5 -60.5t-117 -20q-45 0 -93 11t-63 23l23 97q22 -21 57 -39t73 -18q31 0 55 16t24 48q0 28 -22 52t-68 56q-42 29 -68.5 68
t-26.5 96q0 49 28.5 87t80 59.5t119.5 21.5q37 0 75 -6t52 -12l-21 -100q-15 18 -40.5 33.5zM363 885l93 -90q-9 -16 -48.5 -51t-85 -68t-73.5 -44l-44 43z" />
    <glyph glyph-name="Scircumflex" unicode="&#x15c;" horiz-adv-x="564" 
d="M387 685.5q-17 5.5 -42 5.5q-52 0 -82 -24t-30 -64q0 -50 31 -86t108 -84q70 -45 111 -97t41 -120q1 -62 -31 -113.5t-96.5 -82.5t-157.5 -31q-75 0 -143.5 16t-87.5 32l28 154h100l5 -109q36 -31 94 -31q69 0 100.5 27.5t31.5 73.5q0 45 -28.5 79.5t-98.5 78.5
q-74 47 -116 101t-42 126q0 102 76.5 158.5t198.5 56.5q133 0 195 -36l-26 -147h-92l-14 98q-16 13 -33 18.5zM344 983h87l102 -174l-59 -28l-99 102l-158 -102l-51 28z" />
    <glyph glyph-name="scircumflex" unicode="&#x15d;" horiz-adv-x="428" 
d="M341.5 483.5q-25.5 15.5 -59.5 15.5q-33 0 -55.5 -15.5t-23.5 -43.5q0 -28 19.5 -50.5t67.5 -58.5q50 -36 75 -71t25 -91q0 -58 -31.5 -98.5t-84.5 -60.5t-117 -20q-45 0 -93 11t-63 23l23 97q22 -21 57 -39t73 -18q31 0 55 16t24 48q0 28 -22 52t-68 56q-42 29 -68.5 68
t-26.5 96q0 49 28.5 87t80 59.5t119.5 21.5q37 0 75 -6t52 -12l-21 -100q-15 18 -40.5 33.5zM277 862l72 -5l101 -204l-62 -25l-100 112l-153 -114l-47 32z" />
    <glyph glyph-name="Scedilla" unicode="&#x15e;" horiz-adv-x="564" 
d="M36 191h100l5 -109q36 -31 94 -31q69 0 100.5 27.5t31.5 73.5q0 45 -28.5 79.5t-98.5 78.5q-74 47 -116 101t-42 126q0 102 76.5 158.5t198.5 56.5q133 0 195 -36l-26 -147h-92l-14 98q-16 13 -33 18.5t-42 5.5q-52 0 -82 -24t-30 -64q0 -50 31 -86t108 -84
q70 -45 111 -97t41 -120q1 -57 -26.5 -106t-83.5 -81t-136 -38q7 -22 11.5 -52t4.5 -54q0 -121 -146 -121q-22 0 -54.5 4t-40.5 9l17 75q16 -8 39 -8q42 0 65.5 21.5t23.5 73.5q0 29 -3 52q-64 4 -117.5 18.5t-69.5 27.5z" />
    <glyph glyph-name="scedilla" unicode="&#x15f;" horiz-adv-x="428" 
d="M45 -232q-33 4 -41 9l17 75q16 -8 39 -8q42 0 65.5 21.5t23.5 73.5q0 30 -3 51q-43 1 -87 12t-58 22l23 97q22 -21 57 -39t73 -18q31 0 55 16t24 48q0 28 -22 52t-68 56q-42 29 -68.5 68t-26.5 96q0 49 28.5 87t80 59.5t119.5 21.5q37 0 75 -6t52 -12l-21 -100
q-15 18 -40.5 33.5t-59.5 15.5q-33 0 -55.5 -15.5t-23.5 -43.5q0 -28 19.5 -50.5t67.5 -58.5q50 -36 75 -71t25 -91q0 -70 -45 -114t-118 -58q8 -22 13 -54t5 -58q0 -55 -39.5 -88t-105.5 -33q-22 0 -55 4z" />
    <glyph glyph-name="Scaron" unicode="&#x160;" horiz-adv-x="564" 
d="M387 685.5q-17 5.5 -42 5.5q-52 0 -82 -24t-30 -64q0 -50 31 -86t108 -84q70 -45 111 -97t41 -120q1 -62 -31 -113.5t-96.5 -82.5t-157.5 -31q-75 0 -143.5 16t-87.5 32l28 154h100l5 -109q36 -31 94 -31q69 0 100.5 27.5t31.5 73.5q0 45 -28.5 79.5t-98.5 78.5
q-74 47 -116 101t-42 126q0 102 76.5 158.5t198.5 56.5q133 0 195 -36l-26 -147h-92l-14 98q-16 13 -33 18.5zM279 983l97 -97l149 97l52 -27l-174 -168h-81l-102 167z" />
    <glyph glyph-name="scaron" unicode="&#x161;" horiz-adv-x="428" 
d="M341.5 483.5q-25.5 15.5 -59.5 15.5q-33 0 -55.5 -15.5t-23.5 -43.5q0 -28 19.5 -50.5t67.5 -58.5q50 -36 75 -71t25 -91q0 -58 -31.5 -98.5t-84.5 -60.5t-117 -20q-45 0 -93 11t-63 23l23 97q22 -21 57 -39t73 -18q31 0 55 16t24 48q0 28 -22 52t-68 56q-42 29 -68.5 68
t-26.5 96q0 49 28.5 87t80 59.5t119.5 21.5q37 0 75 -6t52 -12l-21 -100q-15 18 -40.5 33.5zM192 841l99 -103l158 103l51 -27l-179 -183h-86l-103 183z" />
    <glyph glyph-name="uni0162" unicode="&#x162;" horiz-adv-x="704" 
d="M83 743h665l-41 -283h-87l-8 213l-119 12l-82 -620l137 -13l-5 -52h-182q7 -19 12 -46t5 -52q0 -60 -39 -99t-114 -39q-19 0 -46.5 5.5t-35.5 10.5l18 72q16 -8 38 -8q87 0 87 94q0 39 -3 62h-170l7 52l121 13l83 620l-119 -12l-80 -213h-90z" />
    <glyph glyph-name="uni0163" unicode="&#x163;" horiz-adv-x="354" 
d="M-12 -148q16 -8 39 -8q87 0 87 94q0 28 -2 56q-28 6 -44.5 27t-16.5 57q0 19 13 114l39 285h-59l12 53l60 23q32 27 78 138h91l-17 -136h112l-11 -78h-112l-39 -288q-1 -10 -2 -17t-2 -12q-4 -32 -4 -38q0 -40 37 -40q21 0 43.5 6.5t39.5 21.5l12 -38q-23 -26 -61 -48.5
t-90 -30.5q14 -42 14 -91q0 -60 -38.5 -99t-113.5 -39q-19 0 -46.5 5.5t-35.5 10.5z" />
    <glyph glyph-name="Tcaron" unicode="&#x164;" horiz-adv-x="704" 
d="M748 743l-41 -283h-87l-8 213l-119 12l-82 -620l137 -13l-5 -52h-430l7 52l121 13l83 620l-119 -12l-80 -213h-90l48 283h665zM341 983l97 -97l149 97l52 -27l-174 -168h-81l-102 167z" />
    <glyph glyph-name="tcaron" unicode="&#x165;" horiz-adv-x="354" 
d="M216 172q-1 -7 -2 -12q-4 -32 -4 -38q0 -40 37 -40q21 0 43.5 6.5t39.5 21.5l12 -38q-29 -32 -78.5 -57t-118.5 -25q-41 0 -67.5 20.5t-26.5 67.5q0 19 13 114l39 285h-59l12 53l60 23q32 27 78 138h91l-17 -136h112l-11 -78h-112l-39 -288q-1 -10 -2 -17zM349 579l-4 13
q7 32 7 110q0 54 -14 92l4 23h135q9 -21 9 -78q0 -45 -8 -77.5t-16.5 -54.5t-10.5 -29z" />
    <glyph glyph-name="Tbar" unicode="&#x166;" horiz-adv-x="705" 
d="M748 743l-41 -283h-87l-8 213l-119 12l-38 -280h117l-8 -72h-118l-35 -268l137 -13l-5 -52h-430l7 52l121 13l36 268h-115l8 72h117l37 280l-119 -12l-80 -213h-90l48 283h665z" />
    <glyph glyph-name="tbar" unicode="&#x167;" horiz-adv-x="354" 
d="M210 122q0 -40 37 -40q21 0 43.5 6.5t39.5 21.5l12 -38q-29 -32 -78.5 -57t-118.5 -25q-41 0 -67.5 20.5t-26.5 67.5q0 19 13 114l15 111h-50l8 64h50l16 110h-59l12 53l60 23q32 27 78 138h91l-17 -136h112l-11 -78h-112l-15 -110h104l-8 -64h-105l-15 -114
q-8 -51 -8 -67z" />
    <glyph glyph-name="Utilde" unicode="&#x168;" horiz-adv-x="714" 
d="M554 63.5q-76 -73.5 -214 -73.5q-135 0 -199 60t-64 159q0 52 3 81l50 388l-70 11l6 54h334l-4 -53l-97 -12l-49 -374q-8 -78 -8 -98q0 -71 33 -113.5t95 -42.5q86 0 129 63t61 193l50 372l-72 12l5 53h226l-7 -53l-63 -12l-48 -372q-21 -169 -97 -242.5zM325 945.5
q34 24.5 78 24.5q28 0 46 -11t39 -32q15 -15 26 -22.5t25 -7.5q39 0 75 49l39 -54q-14 -35 -48.5 -62t-74.5 -27q-31 0 -49.5 10.5t-39.5 30.5q-16 17 -28.5 24.5t-31.5 7.5q-20 0 -36 -10.5t-34 -29.5l-32 51q12 34 46 58.5z" />
    <glyph glyph-name="utilde" unicode="&#x169;" horiz-adv-x="624" 
d="M232 253q-13 -87 -13 -115q0 -36 11 -51.5t36 -15.5q27 0 52.5 14.5t44.5 36.5l60 442h157l-63 -454q-4 -37 20 -37q8 0 16.5 4.5t27.5 17.5l14 -34q-7 -12 -25 -28.5t-47 -29.5t-64 -13q-39 0 -61 13.5t-27 38.5q-1 3 -1 11q0 12 1 18l-1 1q-32 -36 -72 -59t-98 -23
q-53 0 -97 30.5t-45 94.5q0 41 16 147q4 20 5 30l26 179l-62 38l8 43l194 16l25 -12l-33 -268zM234.5 772.5q33.5 24.5 68.5 24.5q28 0 45.5 -9t40.5 -26q16 -13 27 -19t25 -6q25 0 39.5 11t33.5 35l42 -50q-13 -33 -49.5 -60t-73.5 -27q-27 0 -44 8.5t-36 24.5
q-16 14 -29 21t-32 7q-23 0 -37 -9.5t-34 -30.5l-36 49q16 32 49.5 56.5z" />
    <glyph glyph-name="Umacron" unicode="&#x16a;" horiz-adv-x="714" 
d="M554 63.5q-76 -73.5 -214 -73.5q-135 0 -199 60t-64 159q0 52 3 81l50 388l-70 11l6 54h334l-4 -53l-97 -12l-49 -374q-8 -78 -8 -98q0 -71 33 -113.5t95 -42.5q86 0 129 63t61 193l50 372l-72 12l5 53h226l-7 -53l-63 -12l-48 -372q-21 -169 -97 -242.5zM612 935
l-10 -101h-278l9 101h279z" />
    <glyph glyph-name="umacron" unicode="&#x16b;" horiz-adv-x="624" 
d="M232 253q-13 -87 -13 -115q0 -36 11 -51.5t36 -15.5q27 0 52.5 14.5t44.5 36.5l60 442h157l-63 -454q-4 -37 20 -37q8 0 16.5 4.5t27.5 17.5l14 -34q-7 -12 -25 -28.5t-47 -29.5t-64 -13q-39 0 -61 13.5t-27 38.5q-1 3 -1 11q0 12 1 18l-1 1q-32 -36 -72 -59t-98 -23
q-53 0 -97 30.5t-45 94.5q0 41 16 147q4 20 5 30l26 179l-62 38l8 43l194 16l25 -12l-33 -268zM512 752l-10 -100h-280l9 100h281z" />
    <glyph glyph-name="Ubreve" unicode="&#x16c;" horiz-adv-x="714" 
d="M554 63.5q-76 -73.5 -214 -73.5q-135 0 -199 60t-64 159q0 52 3 81l50 388l-70 11l6 54h334l-4 -53l-97 -12l-49 -374q-8 -78 -8 -98q0 -71 33 -113.5t95 -42.5q86 0 129 63t61 193l50 372l-72 12l5 53h226l-7 -53l-63 -12l-48 -372q-21 -169 -97 -242.5zM309 950
q0 19 3 32h90q0 -28 3 -44t16.5 -26t43.5 -10q48 0 64.5 24t16.5 56h87q0 -83 -46 -134t-124 -51q-154 0 -154 153z" />
    <glyph glyph-name="ubreve" unicode="&#x16d;" horiz-adv-x="624" 
d="M232 253q-13 -87 -13 -115q0 -36 11 -51.5t36 -15.5q27 0 52.5 14.5t44.5 36.5l60 442h157l-63 -454q-4 -37 20 -37q8 0 16.5 4.5t27.5 17.5l14 -34q-7 -12 -25 -28.5t-47 -29.5t-64 -13q-39 0 -61 13.5t-27 38.5q-1 3 -1 11q0 12 1 18l-1 1q-32 -36 -72 -59t-98 -23
q-53 0 -97 30.5t-45 94.5q0 41 16 147q4 20 5 30l26 179l-62 38l8 43l194 16l25 -12l-33 -268zM276.5 661q-34.5 22 -51.5 57t-17 74q0 12 2 32h89v-21q0 -25 17 -42t52 -17q45 0 59 21t16 59h88v-17q-1 -41 -19 -79.5t-56.5 -63.5t-95.5 -25q-49 0 -83.5 22z" />
    <glyph glyph-name="Uring" unicode="&#x16e;" horiz-adv-x="714" 
d="M554 63.5q-76 -73.5 -214 -73.5q-135 0 -199 60t-64 159q0 52 3 81l50 388l-70 11l6 54h334l-4 -53l-97 -12l-49 -374q-8 -78 -8 -98q0 -71 33 -113.5t95 -42.5q86 0 129 63t61 193l50 372l-72 12l5 53h226l-7 -53l-63 -12l-48 -372q-21 -169 -97 -242.5zM337 781
q-46 27 -46 79q0 65 60 94t132 29q62 0 107 -25t45 -72q0 -69 -54 -100.5t-130 -31.5q-68 0 -114 27zM518.5 831.5q24.5 10.5 24.5 45.5q0 21 -21 31t-51 10q-87 0 -87 -51q0 -22 22 -34t50 -12q38 0 62.5 10.5z" />
    <glyph glyph-name="uring" unicode="&#x16f;" horiz-adv-x="624" 
d="M232 253q-13 -87 -13 -115q0 -36 11 -51.5t36 -15.5q27 0 52.5 14.5t44.5 36.5l60 442h157l-63 -454q-4 -37 20 -37q8 0 16.5 4.5t27.5 17.5l14 -34q-7 -12 -25 -28.5t-47 -29.5t-64 -13q-39 0 -61 13.5t-27 38.5q-1 3 -1 11q0 12 1 18l-1 1q-32 -36 -72 -59t-98 -23
q-53 0 -97 30.5t-45 94.5q0 41 16 147q4 20 5 30l26 179l-62 38l8 43l194 16l25 -12l-33 -268zM247 673q-42 31 -42 88q0 54 29 89t72.5 51t90.5 16q65 0 108.5 -34t43.5 -88q0 -74 -55 -113.5t-134 -39.5q-71 0 -113 31zM431 727q26 16 26 54q0 27 -22.5 48t-49.5 21
q-32 0 -59.5 -20.5t-27.5 -57.5q0 -25 23 -43t49 -18q35 0 61 16z" />
    <glyph glyph-name="Uhungarumlaut" unicode="&#x170;" horiz-adv-x="714" 
d="M554 63.5q-76 -73.5 -214 -73.5q-135 0 -199 60t-64 159q0 52 3 81l50 388l-70 11l6 54h334l-4 -53l-97 -12l-49 -374q-8 -78 -8 -98q0 -71 33 -113.5t95 -42.5q86 0 129 63t61 193l50 372l-72 12l5 53h226l-7 -53l-63 -12l-48 -372q-21 -169 -97 -242.5zM367 983l89 -44
q-18 -41 -75 -89.5t-101 -62.5l-47 36zM619 983l88 -45q-26 -44 -79.5 -91t-96.5 -60l-44 36z" />
    <glyph glyph-name="uhungarumlaut" unicode="&#x171;" horiz-adv-x="624" 
d="M232 253q-13 -87 -13 -115q0 -36 11 -51.5t36 -15.5q27 0 52.5 14.5t44.5 36.5l60 442h157l-63 -454q-4 -37 20 -37q8 0 16.5 4.5t27.5 17.5l14 -34q-7 -12 -25 -28.5t-47 -29.5t-64 -13q-39 0 -61 13.5t-27 38.5q-1 3 -1 11q0 12 1 18l-1 1q-32 -36 -72 -59t-98 -23
q-53 0 -97 30.5t-45 94.5q0 41 16 147q4 20 5 30l26 179l-62 38l8 43l194 16l25 -12l-33 -268zM318 868l92 -65q-8 -24 -41 -59t-73 -67t-65 -45l-50 43zM557 868l91 -63q-9 -25 -42.5 -61t-73.5 -68t-66 -44l-50 43z" />
    <glyph glyph-name="Uogonek" unicode="&#x172;" horiz-adv-x="714" 
d="M587.5 105.5q-47.5 -72.5 -128.5 -98.5q-30 -29 -49 -57.5t-19 -49.5q0 -20 9 -30t24 -10q19 0 36 9t38 27l18 -55q-30 -33 -73.5 -53.5t-93.5 -20.5q-46 0 -69.5 22.5t-23.5 61.5q0 12 4.5 28t12.5 27q27 45 73 84h-6q-135 0 -199 60t-64 159q0 52 3 81l50 388l-70 11
l6 54h334l-4 -53l-97 -12l-49 -374q-8 -78 -8 -98q0 -71 33 -113.5t95 -42.5q86 0 129 63t61 193l50 372l-72 12l5 53h226l-7 -53l-63 -12l-48 -372q-16 -128 -63.5 -200.5z" />
    <glyph glyph-name="uogonek" unicode="&#x173;" horiz-adv-x="624" 
d="M51 552l194 16l25 -12l-33 -268l-5 -35q-13 -87 -13 -115q0 -36 11 -51.5t36 -15.5q27 0 52.5 14.5t44.5 36.5l60 442h157l-63 -454q-4 -37 20 -37q8 0 16.5 4.5t27.5 17.5l14 -34q-6 -11 -24 -27.5t-43 -28.5q-87 -60 -87 -100q0 -20 8.5 -27.5t24.5 -7.5q18 0 33.5 8
t41.5 28l16 -55q-31 -33 -73.5 -53.5t-92.5 -20.5q-46 0 -69.5 22.5t-23.5 61.5q0 12 6 29.5t16 30.5q30 44 88 79q-40 17 -45 42q-1 3 -1 11q0 12 1 18l-1 1q-32 -36 -72 -59t-98 -23q-53 0 -97 30.5t-45 94.5q0 41 16 147q4 20 5 30l26 179l-62 38z" />
    <glyph glyph-name="Wcircumflex" unicode="&#x174;" horiz-adv-x="952" 
d="M302 743l-4 -54l-67 -13l46 -428l12 -103l39 102l149 360l-7 70l-77 13l5 53h317l-4 -54l-74 -12l42 -429l3 -103l42 102l184 430l-110 12l5 54h287l-5 -53l-77 -12l-319 -683h-149l-44 458l-190 -458h-148l-101 682l-67 13l7 53h305zM562 983h87l102 -174l-59 -28
l-99 102l-158 -102l-51 28z" />
    <glyph glyph-name="wcircumflex" unicode="&#x175;" horiz-adv-x="861" 
d="M52.5 475q-4.5 6 -12.5 6t-13.5 -2t-11.5 -5l-15 37q6 8 25 21.5t46 24.5t56 11q43 0 65 -17t27 -50l39 -289l12 -103l43 137l95 318h143l51 -369l8 -82l24 40q43 67 63.5 124t20.5 117q0 16 -8 50t-8 53q0 30 21.5 50.5t57.5 20.5q45 0 65.5 -30.5t20.5 -76.5
t-36.5 -121t-87.5 -150t-91 -121l-61 -73l-107 -5l-29 182l-15 134l-7 74l-20 -74l-40 -108l-81 -201l-129 -8l-39 183l-63 281q-4 15 -8.5 21zM487 862l72 -5l101 -204l-62 -25l-100 112l-153 -114l-47 32z" />
    <glyph glyph-name="Ycircumflex" unicode="&#x176;" horiz-adv-x="633" 
d="M357 743l-8 -54l-84 -11l80 -236l23 -72l31 59l147 249l-80 11l5 54h258l-7 -54l-64 -11l-251 -383l-30 -230l119 -14l-5 -51h-401l6 51l113 14l28 230l-163 383l-63 11l5 54h341zM406 983h87l102 -174l-59 -28l-99 102l-158 -102l-51 28z" />
    <glyph glyph-name="ycircumflex" unicode="&#x177;" horiz-adv-x="539" 
d="M52.5 475q-4.5 6 -12.5 6q-13 0 -25 -8l-15 38q13 16 49.5 36.5t77.5 20.5q43 0 65 -17t27 -50l61 -384l14 -97l32 67q78 168 78 276q0 23 -3.5 39t-10.5 35q-7 17 -10 30.5t-3 33.5q0 29 20 48t57 19q41 0 64.5 -30.5t23.5 -70.5q0 -71 -18.5 -128.5t-60.5 -143.5
q-37 -82 -177 -308q-48 -80 -98 -110t-115 -30q-29 0 -61 7t-41 15l37 98q11 -11 39 -20t52 -9q47 0 85 29.5t80 97.5h-89l-114 489q-4 15 -8.5 21zM321 862l72 -5l101 -204l-62 -25l-100 112l-153 -114l-47 32z" />
    <glyph glyph-name="Ydieresis" unicode="&#x178;" horiz-adv-x="633" 
d="M357 743l-8 -54l-84 -11l80 -236l23 -72l31 59l147 249l-80 11l5 54h258l-7 -54l-64 -11l-251 -383l-30 -230l119 -14l-5 -51h-401l6 51l113 14l28 230l-163 383l-63 11l5 54h341zM263 832q-19 20 -19 49q0 41 22 64t60 23q33 0 51 -18.5t18 -47.5q0 -42 -21.5 -66
t-63.5 -24q-28 0 -47 20zM502 832q-19 20 -19 49q0 41 22 64t60 23q32 0 50 -18.5t18 -47.5q0 -42 -21 -66t-63 -24q-28 0 -47 20z" />
    <glyph glyph-name="Zacute" unicode="&#x179;" horiz-adv-x="599" 
d="M621 743l15 -42l-416 -585l-55 -50l240 11l95 157l84 -23l-49 -211h-544l-17 43l421 589l60 50l-219 -9l-69 -132l-84 11l31 191h507zM458 986l88 -70q-23 -29 -85.5 -70t-95.5 -50l-62 42z" />
    <glyph glyph-name="zacute" unicode="&#x17a;" horiz-adv-x="494" 
d="M193 434q-37 0 -59.5 -21.5t-24.5 -53.5h-43q-5 25 -5 65q0 48 9 86.5t29 46.5q19 11 49 11q34 0 88.5 -4t69.5 -5q102 -8 129 -8q38 0 56 17l25 -30l-314 -389l-39 -26h162q40 0 63 22.5t26 57.5h42q3 -42 3 -58q0 -50 -8.5 -91t-28.5 -55q-13 -10 -50 -10q-58 0 -170 9
q-26 1 -72 4t-66 3q-13 0 -28 -4t-23 -12l-31 30l316 387l46 27zM382 885l93 -90q-9 -16 -48.5 -51t-85 -68t-73.5 -44l-44 43z" />
    <glyph glyph-name="Zdotaccent" unicode="&#x17b;" horiz-adv-x="599" 
d="M621 743l15 -42l-416 -585l-55 -50l240 11l95 157l84 -23l-49 -211h-544l-17 43l421 589l60 50l-219 -9l-69 -132l-84 11l31 191h507zM313 829q-25 23 -25 51q0 39 27 65.5t69 26.5q35 0 59 -21.5t24 -49.5q0 -41 -26.5 -68t-73.5 -27q-29 0 -54 23z" />
    <glyph glyph-name="zdotaccent" unicode="&#x17c;" horiz-adv-x="494" 
d="M193 434q-37 0 -59.5 -21.5t-24.5 -53.5h-43q-5 25 -5 65q0 48 9 86.5t29 46.5q19 11 49 11q34 0 88.5 -4t69.5 -5q102 -8 129 -8q38 0 56 17l25 -30l-314 -389l-39 -26h162q40 0 63 22.5t26 57.5h42q3 -42 3 -58q0 -50 -8.5 -91t-28.5 -55q-13 -10 -50 -10q-58 0 -170 9
q-26 1 -72 4t-66 3q-13 0 -28 -4t-23 -12l-31 30l316 387l46 27zM247.5 677q-23.5 24 -23.5 54q0 42 26 70.5t70 28.5q36 0 59 -23.5t23 -52.5q0 -44 -25 -72.5t-75 -28.5q-31 0 -54.5 24z" />
    <glyph glyph-name="Zcaron" unicode="&#x17d;" horiz-adv-x="599" 
d="M621 743l15 -42l-416 -585l-55 -50l240 11l95 157l84 -23l-49 -211h-544l-17 43l421 589l60 50l-219 -9l-69 -132l-84 11l31 191h507zM282 986l97 -97l149 97l52 -27l-174 -168h-81l-102 167z" />
    <glyph glyph-name="zcaron" unicode="&#x17e;" horiz-adv-x="494" 
d="M193 434q-37 0 -59.5 -21.5t-24.5 -53.5h-43q-5 25 -5 65q0 48 9 86.5t29 46.5q19 11 49 11q34 0 88.5 -4t69.5 -5q102 -8 129 -8q38 0 56 17l25 -30l-314 -389l-39 -26h162q40 0 63 22.5t26 57.5h42q3 -42 3 -58q0 -50 -8.5 -91t-28.5 -55q-13 -10 -50 -10q-58 0 -170 9
q-26 1 -72 4t-66 3q-13 0 -28 -4t-23 -12l-31 30l316 387l46 27zM211 841l99 -103l158 103l51 -27l-179 -183h-86l-103 183z" />
    <glyph glyph-name="uni018F" unicode="&#x18f;" horiz-adv-x="673" 
d="M138.5 710.5q14.5 3.5 29.5 8.5q44 15 90 23.5t124 8.5q75 0 133 -37t90 -105t32 -157q0 -131 -49 -237t-131 -166t-178 -60q-115 0 -180 64.5t-65 180.5q0 39 7 81t16 65h407l1 16q1 15 1 44q0 119 -33 187t-104 68q-41 0 -66 -12t-37 -38l-47 -100h-89l22 162
q12 0 26.5 3.5zM201.5 260q-3.5 -20 -3.5 -43q0 -80 23.5 -122t79.5 -42q57 0 99 61.5t58 199.5h-246q-7 -34 -10.5 -54z" />
    <glyph glyph-name="florin" unicode="&#x192;" horiz-adv-x="494" 
d="M238 710.5q40 54.5 94 84.5t102 30q72 0 96 -8l-7 -116q-4 2 -14 7.5t-28.5 9t-47.5 3.5q-87 0 -97 -94l-7 -63h125l-8 -92h-131l-79 -646h-143l83 646h-96l6 65l99 27l4 23q9 69 49 123.5z" />
    <glyph glyph-name="Ohorn" unicode="&#x1a0;" horiz-adv-x="723" 
d="M73.5 529.5q42.5 100.5 129.5 162t212 61.5q71 0 125 -23q62 4 97.5 34.5t35.5 71.5q0 15 -4 29h119q3 -9 3 -21q0 -75 -48.5 -117t-120.5 -57q75 -83 75 -234q0 -118 -40.5 -219t-127 -164t-216.5 -63q-144 0 -213 87.5t-69 233.5q0 118 42.5 218.5zM238 124.5
q24 -74.5 89 -74.5q61 0 103 49t63 134t21 192q0 131 -26.5 199t-86.5 68q-58 0 -100.5 -53t-65 -139t-22.5 -183q1 -118 25 -192.5z" />
    <glyph glyph-name="ohorn" unicode="&#x1a1;" horiz-adv-x="603" 
d="M89 47.5q-56 61.5 -56 178.5q0 95 39 173.5t110 124t164 45.5q49 0 87 -12q56 4 74.5 23t18.5 52v17h123l-3 -37q-8 -55 -39 -80.5t-84 -35.5q46 -61 46 -165q0 -95 -39 -174t-110 -125t-165 -46q-110 0 -166 61.5zM225.5 86q16.5 -37 52.5 -37q59 0 87.5 82t28.5 192
q0 99 -15.5 138.5t-50.5 39.5q-43 0 -71 -44.5t-40.5 -111.5t-10.5 -135q3 -87 19.5 -124z" />
    <glyph glyph-name="Uhorn" unicode="&#x1af;" horiz-adv-x="789" 
d="M66 743h334l-4 -53l-97 -12l-49 -374q-8 -78 -8 -98q0 -71 33 -113.5t95 -42.5q86 0 129 63t61 193l50 372l-72 12l5 53h101q56 0 78 30t22 75q0 13 -1 17h120q2 -16 2 -22q2 -73 -36.5 -111.5t-129.5 -53.5l-48 -372q-21 -169 -97 -242.5t-214 -73.5q-135 0 -199 60
t-64 159q0 52 3 81l50 388l-70 11z" />
    <glyph glyph-name="uhorn" unicode="&#x1b0;" horiz-adv-x="629" 
d="M103 20.5q-44 30.5 -45 94.5q0 41 16 147q4 20 5 30l26 179l-62 38l8 43l194 16l25 -12l-33 -268l-5 -35q-13 -87 -13 -115q0 -36 11 -51.5t36 -15.5q27 0 52.5 14.5t44.5 36.5l60 442h83q30 9 40 26t10 42v17h123l-3 -37q-7 -50 -33.5 -75.5t-71.5 -36.5l-54 -390
q-4 -37 20 -37q8 0 16.5 4.5t27.5 17.5l14 -34q-7 -12 -25 -28.5t-47 -29.5t-64 -13q-39 0 -61 13.5t-27 38.5q-1 3 -1 11q0 12 1 18l-1 1q-32 -36 -72 -59t-98 -23q-53 0 -97 30.5z" />
    <glyph glyph-name="uni01C4" unicode="&#x1c4;" horiz-adv-x="1334" 
d="M316 747q66 4 98 4q165 0 240 -81.5t75 -219.5q0 -212 -107 -335t-329 -123q-19 0 -37 4q-44 4 -94 4h-178l6 51l77 14l82 613l-70 11l5 54h154q26 0 78 4zM270 57.5q20 -3.5 34 -3.5q84 0 139 57t80 143.5t25 178.5q0 137 -36.5 196.5t-116.5 59.5q-27 0 -49 -3.5
t-30 -7.5l-81 -612q15 -5 35 -8.5zM1356 743l15 -42l-416 -585l-55 -50l240 11l95 157l84 -23l-49 -211h-544l-17 43l421 589l60 50l-219 -9l-69 -132l-84 11l31 191h507zM1017 986l97 -97l149 97l52 -27l-174 -168h-81l-102 167z" />
    <glyph glyph-name="uni01C5" unicode="&#x1c5;" horiz-adv-x="1229" 
d="M316 747q66 4 98 4q165 0 240 -81.5t75 -219.5q0 -212 -107 -335t-329 -123q-19 0 -37 4q-44 4 -94 4h-178l6 51l77 14l82 613l-70 11l5 54h154q26 0 78 4zM270 57.5q20 -3.5 34 -3.5q84 0 139 57t80 143.5t25 178.5q0 137 -36.5 196.5t-116.5 59.5q-27 0 -49 -3.5
t-30 -7.5l-81 -612q15 -5 35 -8.5zM928 434q-37 0 -59.5 -21.5t-24.5 -53.5h-43q-5 25 -5 65q0 48 9 86.5t29 46.5q19 11 49 11q34 0 88.5 -4t69.5 -5q102 -8 129 -8q38 0 56 17l25 -30l-314 -389l-39 -26h162q40 0 63 22.5t26 57.5h42q3 -42 3 -58q0 -50 -8.5 -91
t-28.5 -55q-13 -10 -50 -10q-58 0 -170 9q-26 1 -72 4t-66 3q-13 0 -28 -4t-23 -12l-31 30l316 387l46 27zM946 841l99 -103l158 103l51 -27l-179 -183h-86l-103 183z" />
    <glyph glyph-name="uni01C6" unicode="&#x1c6;" horiz-adv-x="1106" 
d="M503 97q0 -24 18 -24q16 0 45 22l14 -34q-23 -26 -54.5 -48.5t-81.5 -22.5q-39 0 -59 18.5t-25 54.5l-1 9q-24 -34 -65 -58t-97 -24q-86 0 -127 57.5t-41 148.5q0 98 37 183t111.5 137t182.5 52q23 0 51 -5l23 161l-76 21l9 40l209 21l26 -14l-98 -681q-1 -5 -1 -14z
M348 501q-82 0 -118 -90t-36 -209q0 -60 18.5 -94t51.5 -34q24 0 45.5 14.5t36.5 37.5l54 366q-27 9 -52 9zM805 434q-37 0 -59.5 -21.5t-24.5 -53.5h-43q-5 25 -5 65q0 48 9 86.5t29 46.5q19 11 49 11q34 0 88.5 -4t69.5 -5q102 -8 129 -8q38 0 56 17l25 -30l-314 -389
l-39 -26h162q40 0 63 22.5t26 57.5h42q3 -42 3 -58q0 -50 -8.5 -91t-28.5 -55q-13 -10 -50 -10q-58 0 -170 9q-26 1 -72 4t-66 3q-13 0 -28 -4t-23 -12l-31 30l316 387l46 27zM823 841l99 -103l158 103l51 -27l-179 -183h-86l-103 183z" />
    <glyph glyph-name="uni01C7" unicode="&#x1c7;" horiz-adv-x="979" 
d="M412 743l-6 -54l-89 -11l-81 -616l178 10l102 219l87 -11l-51 -280h-557l6 51l67 14l80 613l-71 11l7 54h328zM938 655q-34 -279 -54.5 -433.5t-31.5 -184.5q-29 -84 -111 -137t-188 -68l-26 51q75 23 111 64t46 95q47 245 89 635l-71 12l7 54h307l-4 -54l-71 -11z" />
    <glyph glyph-name="uni01C8" unicode="&#x1c8;" horiz-adv-x="938" 
d="M412 743l-6 -54l-89 -11l-81 -616l178 10l102 219l87 -11l-51 -280h-557l6 51l67 14l80 613l-71 11l7 54h328zM788.5 -138.5q-35.5 -58.5 -87.5 -89t-112 -30.5q-31 0 -56 4.5t-34 13.5l20 63q9 -3 21 -4.5t23 -1.5q39 0 62 28t33.5 73t18.5 114l51 447l-80 24l11 40
l217 25l25 -12l-67 -556q-10 -80 -45.5 -138.5zM764.5 678q-23.5 24 -23.5 54q0 41 28 69.5t74 28.5q35 0 56 -23t21 -53q0 -44 -26 -72t-76 -28q-30 0 -53.5 24z" />
    <glyph glyph-name="uni01C9" unicode="&#x1c9;" horiz-adv-x="629" 
d="M205 98q0 -25 19 -25q8 0 17.5 4.5t27.5 17.5l13 -34q-52 -71 -136 -71q-43 0 -72.5 16t-30.5 50q0 6 4 38l84 630l-65 21l10 40l196 21l25 -14l-91 -682q-1 -4 -1 -12zM479.5 -138.5q-35.5 -58.5 -87.5 -89t-112 -30.5q-31 0 -56 4.5t-34 13.5l20 63q9 -3 21 -4.5
t23 -1.5q39 0 62 28t33.5 73t18.5 114l51 447l-80 24l11 40l217 25l25 -12l-67 -556q-10 -80 -45.5 -138.5zM455.5 678q-23.5 24 -23.5 54q0 41 28 69.5t74 28.5q35 0 56 -23t21 -53q0 -44 -26 -72t-76 -28q-30 0 -53.5 24z" />
    <glyph glyph-name="uni01CA" unicode="&#x1ca;" horiz-adv-x="1118" 
d="M352 743l183 -484l38 -112l67 531l-84 11l5 54h244l-5 -54l-60 -11l-104 -678h-172l-192 500l-38 123l-62 -558l93 -14l-5 -51h-268l4 51l72 14l90 613l-82 11l8 54h268zM1077 655q-34 -279 -54.5 -433.5t-31.5 -184.5q-29 -84 -111 -137t-188 -68l-26 51q75 23 111 64
t46 95q47 245 89 635l-71 12l7 54h307l-4 -54l-71 -11z" />
    <glyph glyph-name="uni01CB" unicode="&#x1cb;" horiz-adv-x="1077" 
d="M352 743l183 -484l38 -112l67 531l-84 11l5 54h244l-5 -54l-60 -11l-104 -678h-172l-192 500l-38 123l-62 -558l93 -14l-5 -51h-268l4 51l72 14l90 613l-82 11l8 54h268zM927.5 -138.5q-35.5 -58.5 -87.5 -89t-112 -30.5q-31 0 -56 4.5t-34 13.5l20 63q9 -3 21 -4.5
t23 -1.5q39 0 62 28t33.5 73t18.5 114l51 447l-80 24l11 40l217 25l25 -12l-67 -556q-10 -80 -45.5 -138.5zM903.5 678q-23.5 24 -23.5 54q0 41 28 69.5t74 28.5q35 0 56 -23t21 -53q0 -44 -26 -72t-76 -28q-30 0 -53.5 24z" />
    <glyph glyph-name="uni01CC" unicode="&#x1cc;" horiz-adv-x="955" 
d="M339 537q47 31 103 31q130 0 130 -148q0 -29 -24 -173q-2 -15 -8 -47q-14 -74 -14 -100q0 -27 19 -27q8 0 17.5 4.5t26.5 17.5l14 -34q-17 -23 -53 -47t-92 -24q-58 0 -78 23t-20 59q0 27 17 112l6 32q22 125 22 181q0 43 -9 59t-30 16q-29 0 -63 -34.5t-58 -85.5
l-48 -352h-155l63 471l-52 28l8 43l180 26l25 -12l-8 -103q34 53 81 84zM805.5 -138.5q-35.5 -58.5 -87.5 -89t-112 -30.5q-31 0 -56 4.5t-34 13.5l20 63q9 -3 21 -4.5t23 -1.5q39 0 62 28t33.5 73t18.5 114l51 447l-80 24l11 40l217 25l25 -12l-67 -556
q-10 -80 -45.5 -138.5zM781.5 678q-23.5 24 -23.5 54q0 41 28 69.5t74 28.5q35 0 56 -23t21 -53q0 -44 -26 -72t-76 -28q-30 0 -53.5 24z" />
    <glyph glyph-name="uni01CD" unicode="&#x1cd;" horiz-adv-x="660" 
d="M481 745l121 -679l78 -15l-3 -51h-333l2 51l77 14l-20 139h-239l-59 -139l92 -14l-4 -51h-271l4 51l68 14l320 680h167zM195 277h198l-39 270l-4 93zM318 983l97 -97l149 97l52 -27l-174 -168h-81l-102 167z" />
    <glyph glyph-name="uni01CE" unicode="&#x1ce;" horiz-adv-x="592" 
d="M490 97q0 -24 20 -24q17 0 44 22l14 -34q-14 -22 -50 -46.5t-85 -24.5q-36 0 -58 15t-24 43v6q-62 -64 -149 -64t-130 58t-43 148q0 97 38.5 182.5t114.5 137.5t182 52q26 0 58.5 -6.5t56.5 -14.5l75 21l-63 -458q-1 -5 -1 -13zM353 501q-56 0 -91.5 -45t-50.5 -113
t-15 -141q0 -60 19.5 -94t53.5 -34q32 0 64 30l54 393q-22 4 -34 4zM290 840l99 -103l158 103l51 -27l-179 -183h-86l-103 183z" />
    <glyph glyph-name="uni01CF" unicode="&#x1cf;" horiz-adv-x="374" 
d="M411 743l-6 -54l-84 -11l-80 -613l85 -14l-3 -51h-331l7 51l73 14l80 613l-71 11l5 54h325zM171 983l97 -97l149 97l52 -27l-174 -168h-81l-102 167z" />
    <glyph glyph-name="uni01D0" unicode="&#x1d0;" horiz-adv-x="327" 
d="M217 97q0 -24 18 -24q8 0 17.5 5t27.5 17l13 -34q-17 -23 -52.5 -47t-89.5 -24q-46 0 -71.5 17.5t-25.5 45.5q0 6 1 10l26 197l28 209l-56 30l8 43l193 26l26 -12l-62 -446q-1 -5 -1 -13zM123 841l99 -103l158 103l51 -27l-179 -183h-86l-103 183z" />
    <glyph glyph-name="uni01D1" unicode="&#x1d1;" horiz-adv-x="713" 
d="M628 663.5q69 -89.5 69 -227.5q0 -118 -40.5 -219t-127 -164t-216.5 -63q-144 0 -213 87.5t-69 233.5q0 118 42.5 218.5t129.5 162t212 61.5q144 0 213 -89.5zM300.5 639q-42.5 -53 -65 -139t-22.5 -183q1 -118 25 -192.5t89 -74.5q61 0 103 49t63 134t21 192
q0 131 -26.5 199t-86.5 68q-58 0 -100.5 -53zM360 983l97 -97l149 97l52 -27l-174 -168h-81l-102 167z" />
    <glyph glyph-name="uni01D2" unicode="&#x1d2;" horiz-adv-x="603" 
d="M512.5 508.5q56.5 -60.5 56.5 -177.5q0 -95 -39 -174t-110 -125t-165 -46q-110 0 -166 61.5t-56 178.5q0 95 39 173.5t110 124t164 45.5q110 0 166.5 -60.5zM257 456.5q-28 -44.5 -40.5 -111.5t-10.5 -135q3 -87 19.5 -124t52.5 -37q59 0 87.5 82t28.5 192
q0 99 -15.5 138.5t-50.5 39.5q-43 0 -71 -44.5zM277 851l99 -103l158 103l51 -27l-179 -183h-86l-103 183z" />
    <glyph glyph-name="uni01D3" unicode="&#x1d3;" horiz-adv-x="714" 
d="M554 63.5q-76 -73.5 -214 -73.5q-135 0 -199 60t-64 159q0 52 3 81l50 388l-70 11l6 54h334l-4 -53l-97 -12l-49 -374q-8 -78 -8 -98q0 -71 33 -113.5t95 -42.5q86 0 129 63t61 193l50 372l-72 12l5 53h226l-7 -53l-63 -12l-48 -372q-21 -169 -97 -242.5zM372 983l97 -97
l149 97l52 -27l-174 -168h-81l-102 167z" />
    <glyph glyph-name="uni01D4" unicode="&#x1d4;" horiz-adv-x="624" 
d="M232 253q-13 -87 -13 -115q0 -36 11 -51.5t36 -15.5q27 0 52.5 14.5t44.5 36.5l60 442h157l-63 -454q-4 -37 20 -37q8 0 16.5 4.5t27.5 17.5l14 -34q-7 -12 -25 -28.5t-47 -29.5t-64 -13q-39 0 -61 13.5t-27 38.5q-1 3 -1 11q0 12 1 18l-1 1q-32 -36 -72 -59t-98 -23
q-53 0 -97 30.5t-45 94.5q0 41 16 147q4 20 5 30l26 179l-62 38l8 43l194 16l25 -12l-33 -268zM274 841l99 -103l158 103l51 -27l-179 -183h-86l-103 183z" />
    <glyph glyph-name="Gcaron" unicode="&#x1e6;" horiz-adv-x="690" 
d="M522 25q-62 -16 -107 -24.5t-104 -8.5q-97 0 -160 44.5t-92 118.5t-29 165q0 131 47 228t138.5 150.5t222.5 53.5q67 0 108 -6t83 -17l21 -5l29 -6l-32 -161h-115l-4 111q-39 21 -88 21q-232 0 -232 -368q1 -114 35 -185t100 -71q70 0 110 15l26 208l-100 8l9 72h270
l-44 -327q-52 -5 -92 -16zM361 983l97 -97l149 97l52 -27l-174 -168h-81l-102 167z" />
    <glyph glyph-name="gcaron" unicode="&#x1e7;" horiz-adv-x="594" 
d="M380.5 -203.5q-85.5 -49.5 -200.5 -49.5q-33 0 -74 7.5t-56 14.5l25 104q7 -6 29.5 -17.5t52 -21t55.5 -9.5q53 0 77.5 21t31.5 83l12 108q-58 -47 -131 -47q-87 0 -130 58t-43 148q0 97 38.5 182.5t114.5 137.5t182 52q29 0 62.5 -7t57.5 -16l79 23l-82 -606
q-15 -116 -100.5 -165.5zM353 501q-56 0 -91.5 -45t-50.5 -113t-15 -141q0 -60 19.5 -94t53.5 -34q39 0 73 38l56 382q-23 7 -45 7zM268 842l99 -103l158 103l51 -27l-179 -183h-86l-103 183z" />
    <glyph glyph-name="uni01F1" unicode="&#x1f1;" horiz-adv-x="1334" 
d="M316 747q66 4 98 4q165 0 240 -81.5t75 -219.5q0 -212 -107 -335t-329 -123q-19 0 -37 4q-44 4 -94 4h-178l6 51l77 14l82 613l-70 11l5 54h154q26 0 78 4zM270 57.5q20 -3.5 34 -3.5q84 0 139 57t80 143.5t25 178.5q0 137 -36.5 196.5t-116.5 59.5q-27 0 -49 -3.5
t-30 -7.5l-81 -612q15 -5 35 -8.5zM1356 743l15 -42l-416 -585l-55 -50l240 11l95 157l84 -23l-49 -211h-544l-17 43l421 589l60 50l-219 -9l-69 -132l-84 11l31 191h507z" />
    <glyph glyph-name="uni01F2" unicode="&#x1f2;" horiz-adv-x="1229" 
d="M316 747q66 4 98 4q165 0 240 -81.5t75 -219.5q0 -212 -107 -335t-329 -123q-19 0 -37 4q-44 4 -94 4h-178l6 51l77 14l82 613l-70 11l5 54h154q26 0 78 4zM270 57.5q20 -3.5 34 -3.5q84 0 139 57t80 143.5t25 178.5q0 137 -36.5 196.5t-116.5 59.5q-27 0 -49 -3.5
t-30 -7.5l-81 -612q15 -5 35 -8.5zM928 434q-37 0 -59.5 -21.5t-24.5 -53.5h-43q-5 25 -5 65q0 48 9 86.5t29 46.5q19 11 49 11q34 0 88.5 -4t69.5 -5q102 -8 129 -8q38 0 56 17l25 -30l-314 -389l-39 -26h162q40 0 63 22.5t26 57.5h42q3 -42 3 -58q0 -50 -8.5 -91
t-28.5 -55q-13 -10 -50 -10q-58 0 -170 9q-26 1 -72 4t-66 3q-13 0 -28 -4t-23 -12l-31 30l316 387l46 27z" />
    <glyph glyph-name="uni01F3" unicode="&#x1f3;" horiz-adv-x="1106" 
d="M503 97q0 -24 18 -24q16 0 45 22l14 -34q-23 -26 -54.5 -48.5t-81.5 -22.5q-39 0 -59 18.5t-25 54.5l-1 9q-24 -34 -65 -58t-97 -24q-86 0 -127 57.5t-41 148.5q0 98 37 183t111.5 137t182.5 52q23 0 51 -5l23 161l-76 21l9 40l209 21l26 -14l-98 -681q-1 -5 -1 -14z
M348 501q-82 0 -118 -90t-36 -209q0 -60 18.5 -94t51.5 -34q24 0 45.5 14.5t36.5 37.5l54 366q-27 9 -52 9zM805 434q-37 0 -59.5 -21.5t-24.5 -53.5h-43q-5 25 -5 65q0 48 9 86.5t29 46.5q19 11 49 11q34 0 88.5 -4t69.5 -5q102 -8 129 -8q38 0 56 17l25 -30l-314 -389
l-39 -26h162q40 0 63 22.5t26 57.5h42q3 -42 3 -58q0 -50 -8.5 -91t-28.5 -55q-13 -10 -50 -10q-58 0 -170 9q-26 1 -72 4t-66 3q-13 0 -28 -4t-23 -12l-31 30l316 387l46 27z" />
    <glyph glyph-name="uni01F4" unicode="&#x1f4;" horiz-adv-x="690" 
d="M522 25q-62 -16 -107 -24.5t-104 -8.5q-97 0 -160 44.5t-92 118.5t-29 165q0 131 47 228t138.5 150.5t222.5 53.5q67 0 108 -6t83 -17l21 -5l29 -6l-32 -161h-115l-4 111q-39 21 -88 21q-232 0 -232 -368q1 -114 35 -185t100 -71q70 0 110 15l26 208l-100 8l9 72h270
l-44 -327q-52 -5 -92 -16zM537 983l88 -70q-23 -29 -85.5 -70t-95.5 -50l-62 42z" />
    <glyph glyph-name="Aringacute" unicode="&#x1fa;" horiz-adv-x="660" 
d="M-74 51l68 14l307 650q-80 20 -80 84q0 57 38.5 82.5t106.5 32.5l70 67l120 -24q-5 -4 -19 -16.5t-24.5 -19.5t-20.5 -11q96 -13 96 -81q0 -9 -1 -14q-6 -43 -31.5 -66.5t-69.5 -33.5l116 -649l78 -15l-3 -51h-333l2 51l77 14l-20 139h-239l-59 -139l92 -14l-4 -51h-271z
M399 775q48 0 67 11.5t19 35.5q0 35 -76 35q-42 0 -61.5 -10.5t-22.5 -32.5q-6 -39 74 -39zM393 277l-39 270l-4 93l-155 -363h198z" />
    <glyph glyph-name="aringacute" unicode="&#x1fb;" horiz-adv-x="592" 
d="M490 97q0 -24 20 -24q17 0 44 22l14 -34q-14 -22 -50 -46.5t-85 -24.5q-36 0 -58 15t-24 43v6q-62 -64 -149 -64t-130 58t-43 148q0 97 38.5 182.5t114.5 137.5t182 52q26 0 58.5 -6.5t56.5 -14.5l75 21l-63 -458q-1 -5 -1 -13zM353 501q-56 0 -91.5 -45t-50.5 -113
t-15 -141q0 -60 19.5 -94t53.5 -34q32 0 64 30l54 393q-22 4 -34 4zM259.5 830q34.5 26 93.5 35l92 117l93 -48l-22 -21q-39 -38 -54 -47q52 -10 80.5 -37t28.5 -64q0 -11 -1 -16q-20 -127 -198 -127q-63 0 -110.5 30t-47.5 81q0 6 2 18q9 53 43.5 79zM332.5 708.5
q23.5 -15.5 53.5 -15.5q37 0 61.5 13t24.5 44q0 24 -20.5 37t-49.5 13q-34 0 -59.5 -12t-29.5 -39q-4 -25 19.5 -40.5z" />
    <glyph glyph-name="AEacute" unicode="&#x1fc;" horiz-adv-x="979" 
d="M325 51l77 14l18 139h-232l-72 -139l93 -14l-3 -51h-306l4 51l77 14l355 608l-144 13l8 57h760l-18 -179h-106l-17 109l-167 12l-36 -262l222 20l-17 -110l-214 15l-38 -283l228 17l57 145l102 -7l-34 -220h-604zM226 277h204l53 408h-43zM663 983l88 -70
q-23 -29 -85.5 -70t-95.5 -50l-62 42z" />
    <glyph glyph-name="aeacute" unicode="&#x1fd;" horiz-adv-x="851" 
d="M670 568q80 0 120 -35t40 -92q0 -73 -48 -122t-118 -72t-138 -25q0 -145 93 -145q51 0 85.5 21.5t60.5 54.5l30 -49q-25 -42 -85 -78t-143 -36q-80 0 -128 35.5t-67 95.5q-36 -54 -85 -92.5t-105 -38.5q-84 0 -118.5 56t-34.5 145q0 97 44.5 183.5t128 140t195.5 53.5
q43 0 99 -15l44 15l-4 -32q64 32 134 32zM557.5 434.5q-25.5 -66.5 -31.5 -153.5q31 2 66.5 20t59.5 51.5t24 77.5q0 71 -42 71q-51 0 -76.5 -66.5zM384.5 500.5q-5.5 0.5 -9.5 -0.5q-58 -7 -98.5 -53t-60.5 -112.5t-20 -132.5q0 -48 10 -81.5t34 -33.5t50.5 22t50.5 56
l51 335q-2 0 -7.5 0.5zM596 885l93 -90q-9 -16 -48.5 -51t-85 -68t-73.5 -44l-44 43z" />
    <glyph glyph-name="Oslashacute" unicode="&#x1fe;" horiz-adv-x="713" 
d="M674.5 586q24.5 -67 24.5 -149q0 -118 -40.5 -219t-127 -164t-216.5 -63q-87 0 -151 35l-62 -91l-43 28l64 93q-45 42 -67.5 108t-22.5 148q0 118 42.5 218.5t129 162t211.5 61.5q83 0 142 -31l66 97l43 -27l-68 -98q51 -42 75.5 -109zM403 693q-58 0 -100.5 -53
t-65 -139t-22.5 -183q0 -74 10 -131l266 434q-28 72 -88 72zM329 51q91 0 139 106.5t48 273.5q0 84 -11 135l-266 -437q27 -78 90 -78zM514 983l88 -70q-23 -29 -85.5 -70t-95.5 -50l-62 42z" />
    <glyph glyph-name="oslashacute" unicode="&#x1ff;" horiz-adv-x="584" 
d="M560 334q0 -95 -38.5 -174.5t-110 -126t-164.5 -46.5q-63 0 -113 22l-52 -73l-43 23l54 77q-68 60 -68 191q0 96 38.5 174t109 123.5t163.5 45.5q58 0 106 -19l60 85l43 -24l-60 -86q75 -60 75 -192zM320 501q-43 0 -71.5 -44t-40.5 -111t-10 -135q0 -19 1 -28l171 275
q-15 43 -50 43zM231.5 64q14.5 -14 37.5 -14q62 0 90.5 91t26.5 207l-3 38l-174 -277q8 -31 22.5 -45zM433 885l93 -90q-9 -16 -48.5 -51t-85 -68t-73.5 -44l-44 43z" />
    <glyph glyph-name="Scommaaccent" unicode="&#x218;" horiz-adv-x="564" 
d="M387 685.5q-17 5.5 -42 5.5q-52 0 -82 -24t-30 -64q0 -50 31 -86t108 -84q70 -45 111 -97t41 -120q1 -62 -31 -113.5t-96.5 -82.5t-157.5 -31q-75 0 -143.5 16t-87.5 32l28 154h100l5 -109q36 -31 94 -31q69 0 100.5 27.5t31.5 73.5q0 45 -28.5 79.5t-98.5 78.5
q-74 47 -116 101t-42 126q0 102 76.5 158.5t198.5 56.5q133 0 195 -36l-26 -147h-92l-14 98q-16 13 -33 18.5zM159 -237q9 5 16 25t7 42q0 19 -7 36.5t-21 18.5v41l91 41q30 -13 45 -41.5t15 -64.5q0 -31 -14.5 -60t-35.5 -48.5t-40 -24.5l-57 23z" />
    <glyph glyph-name="scommaaccent" unicode="&#x219;" horiz-adv-x="428" 
d="M341.5 483.5q-25.5 15.5 -59.5 15.5q-33 0 -55.5 -15.5t-23.5 -43.5q0 -28 19.5 -50.5t67.5 -58.5q50 -36 75 -71t25 -91q0 -58 -31.5 -98.5t-84.5 -60.5t-117 -20q-45 0 -93 11t-63 23l23 97q22 -21 57 -39t73 -18q31 0 55 16t24 48q0 28 -22 52t-68 56q-42 29 -68.5 68
t-26.5 96q0 49 28.5 87t80 59.5t119.5 21.5q37 0 75 -6t52 -12l-21 -100q-15 18 -40.5 33.5zM86 -237q9 5 16 25t7 42q0 19 -7 36.5t-21 18.5v41l91 41q30 -13 45 -41.5t15 -64.5q0 -31 -14.5 -60t-35.5 -48.5t-40 -24.5l-57 23z" />
    <glyph glyph-name="uni021A" unicode="&#x21a;" horiz-adv-x="704" 
d="M748 743l-41 -283h-87l-8 213l-119 12l-82 -620l137 -13l-5 -52h-430l7 52l121 13l83 620l-119 -12l-80 -213h-90l48 283h665zM239 -237q9 5 16 25t7 42q0 19 -7 36.5t-21 18.5v41l91 41q30 -13 45 -41.5t15 -64.5q0 -31 -14.5 -60t-35.5 -48.5t-40 -24.5l-57 23z" />
    <glyph glyph-name="uni021B" unicode="&#x21b;" horiz-adv-x="354" 
d="M216 172q-1 -7 -2 -12q-4 -32 -4 -38q0 -40 37 -40q21 0 43.5 6.5t39.5 21.5l12 -38q-29 -32 -78.5 -57t-118.5 -25q-41 0 -67.5 20.5t-26.5 67.5q0 19 13 114l39 285h-59l12 53l60 23q32 27 78 138h91l-17 -136h112l-11 -78h-112l-39 -288q-1 -10 -2 -17zM50 -237
q9 5 16 25t7 42q0 19 -7 36.5t-21 18.5v41l91 41q30 -13 45 -41.5t15 -64.5q0 -31 -14.5 -60t-35.5 -48.5t-40 -24.5l-57 23z" />
    <glyph glyph-name="uni0228" unicode="&#x228;" horiz-adv-x="636" 
d="M-10 51l78 14l80 613l-71 11l6 54h542l-17 -179h-100l-20 109l-171 12l-34 -256l224 22l-18 -112l-216 15l-34 -281l228 17l53 137l102 -7l-35 -220h-221q19 -44 19 -105q0 -59 -38.5 -94.5t-114.5 -35.5q-21 0 -43 5.5t-36 15.5l20 80q12 -6 41 -6q33 0 49.5 8.5
t22.5 28.5t4 58q0 21 -6 45h-301z" />
    <glyph glyph-name="uni0229" unicode="&#x229;" horiz-adv-x="527" 
d="M71.5 394q41.5 82 114 128.5t160.5 46.5q82 0 121 -36t39 -93q0 -73 -48 -121.5t-117.5 -71.5t-137.5 -25q-1 -74 23.5 -112t68.5 -38q51 0 85.5 23t60.5 58l31 -49q-23 -37 -72 -71.5t-117 -43.5q14 -39 14 -79q0 -39 -17.5 -73t-52.5 -55.5t-85 -21.5q-21 0 -43.5 5
t-36.5 14l11 84q6 -3 18.5 -5.5t24.5 -2.5q46 0 70.5 22.5t24.5 74.5q0 21 -3 36q-91 11 -134.5 74t-43.5 148q0 102 41.5 184zM269 300.5q35 17.5 59 50.5t24 77q0 73 -41 73q-52 0 -77.5 -67t-30.5 -153q31 2 66 19.5z" />
    <glyph glyph-name="uni0237" unicode="&#x237;" horiz-adv-x="319" 
d="M169.5 -138.5q-35.5 -58.5 -87.5 -89t-112 -30.5q-31 0 -56 4.5t-34 13.5l20 63q9 -3 21 -4.5t23 -1.5q39 0 62 28t33.5 73t18.5 114l51 447l-80 24l11 40l217 25l25 -12l-67 -556q-10 -80 -45.5 -138.5z" />
    <glyph glyph-name="uni0259" unicode="&#x259;" horiz-adv-x="528" 
d="M141.5 532.5q59.5 37.5 142.5 37.5q109 0 161 -65.5t52 -160.5q0 -101 -41.5 -182.5t-114 -128t-160.5 -46.5q-80 0 -120 36t-40 92q0 73 48 122t118 72t138 25q0 74 -24.5 112t-68.5 38q-51 0 -85 -23t-61 -58l-30 50q26 42 85.5 79.5zM258.5 255.5
q-35.5 -17.5 -59.5 -50.5t-24 -77q0 -73 42 -73q51 0 76.5 67t31.5 153q-31 -2 -66.5 -19.5z" />
    <glyph glyph-name="uni02BC" unicode="&#x2bc;" horiz-adv-x="197" 
d="M179 795.5q23 -41.5 23 -98.5q0 -90 -58.5 -155.5t-136.5 -97.5l-32 52l1 10q39 14 69 60t30 96q0 32 -13 52.5t-36 22.5l3 20l80 92q47 -12 70 -53.5z" />
    <glyph glyph-name="circumflex" unicode="&#x2c6;" horiz-adv-x="388" 
d="M204 815h86l102 -182l-59 -29l-99 96l-158 -95l-52 28z" />
    <glyph glyph-name="caron" unicode="&#x2c7;" horiz-adv-x="408" 
d="M152 815l99 -103l158 103l51 -28l-179 -183h-86l-103 183z" />
    <glyph glyph-name="uni02C9" unicode="&#x2c9;" horiz-adv-x="628" 
d="M532 815l-9 -96h-418l9 96h418z" />
    <glyph glyph-name="breve" unicode="&#x2d8;" horiz-adv-x="350" 
d="M61.5 679.5q-36.5 44.5 -36.5 108.5q0 11 2 33h89v-22q0 -28 12.5 -43.5t51.5 -15.5q48 0 63 21.5t17 59.5h87v-17q0 -42 -18 -80.5t-56.5 -63.5t-95.5 -25q-79 0 -115.5 44.5z" />
    <glyph glyph-name="dotaccent" unicode="&#x2d9;" horiz-adv-x="189" 
d="M7.5 678q-23.5 24 -23.5 54q0 41 28 69.5t74 28.5q35 0 56 -23t21 -53q0 -44 -26 -72t-76 -28q-30 0 -53.5 24z" />
    <glyph glyph-name="ring" unicode="&#x2da;" horiz-adv-x="353" 
d="M69 643q-40 31 -40 88q0 53 29.5 86.5t72 48.5t85.5 15q66 0 106.5 -31t40.5 -85q0 -49 -26.5 -84t-68.5 -52t-89 -17q-70 0 -110 31zM247.5 696.5q23.5 15.5 23.5 54.5q0 26 -20 44.5t-47 18.5q-32 0 -57 -18t-25 -54q0 -25 20.5 -43t46.5 -18q35 0 58.5 15.5z" />
    <glyph glyph-name="ogonek" unicode="&#x2db;" horiz-adv-x="313" 
d="M81 -29q28 20 69 40q11 4 23 11l30 7l57 -11q-121 -76 -121 -123q0 -20 8.5 -27.5t24.5 -7.5q18 0 33.5 8.5t40.5 27.5l17 -55q-31 -33 -74 -53.5t-92 -20.5q-46 0 -69.5 22.5t-23.5 61.5q0 12 6 29.5t16 30.5q27 40 55 60z" />
    <glyph glyph-name="tilde" unicode="&#x2dc;" horiz-adv-x="398" 
d="M63 793.5q37 25.5 72 25.5q28 0 46 -11t39 -32q16 -16 26.5 -23t24.5 -7q24 0 39 12t36 37l42 -63q-13 -34 -49 -61t-73 -27q-31 0 -49.5 10.5t-39.5 30.5q-17 16 -29 23.5t-29 8.5q-20 0 -37 -11t-35 -29l-37 60q16 31 53 56.5z" />
    <glyph glyph-name="hungarumlaut" unicode="&#x2dd;" horiz-adv-x="448" 
d="M-6 850l83 -57q-6 -24 -35.5 -65t-65.5 -78t-60 -49l-49 31zM232 850l79 -55q-6 -25 -35 -66.5t-64.5 -78.5t-60.5 -49l-49 31z" />
    <glyph glyph-name="gravecomb" unicode="&#x300;" 
d="M1 677.5q-40 28.5 -76 62.5t-51 59l98 86l141 -211l-51 -34q-21 9 -61 37.5z" />
    <glyph glyph-name="acutecomb" unicode="&#x301;" 
d="M138 885l93 -90q-9 -16 -48.5 -51t-85 -68t-73.5 -44l-44 43z" />
    <glyph glyph-name="uni0302" unicode="&#x302;" 
d="M51 862l72 -5l101 -204l-62 -25l-100 112l-153 -114l-47 32z" />
    <glyph glyph-name="tildecomb" unicode="&#x303;" 
d="M-73.5 772.5q33.5 24.5 68.5 24.5q28 0 45.5 -9t40.5 -26q16 -13 27 -19t25 -6q25 0 39.5 11t33.5 35l42 -50q-13 -33 -49.5 -60t-73.5 -27q-27 0 -44 8.5t-36 24.5q-16 14 -29 21t-32 7q-23 0 -37 -9.5t-34 -30.5l-36 49q16 32 49.5 56.5z" />
    <glyph glyph-name="uni0304" unicode="&#x304;" 
d="M205 752l-10 -100h-280l9 100h281z" />
    <glyph glyph-name="uni0306" unicode="&#x306;" 
d="M-30.5 662q-34.5 22 -51.5 57t-17 74q0 12 2 32h89v-21q0 -25 17 -42t52 -17q45 0 59 21t16 59h88v-17q-1 -41 -19 -79.5t-56.5 -63.5t-95.5 -25q-49 0 -83.5 22z" />
    <glyph glyph-name="uni0307" unicode="&#x307;" 
d="M3.5 677q-23.5 24 -23.5 54q0 42 26 70.5t70 28.5q36 0 59 -23.5t23 -52.5q0 -44 -25 -72.5t-75 -28.5q-31 0 -54.5 24z" />
    <glyph glyph-name="uni0308" unicode="&#x308;" 
d="M-103 675.5q-21 24.5 -21 54.5q0 42 23 69.5t62 27.5q33 0 52.5 -23.5t19.5 -54.5q0 -43 -22 -70.5t-66 -27.5q-27 0 -48 24.5zM117.5 675.5q-20.5 24.5 -20.5 54.5q0 42 22.5 69.5t62.5 27.5q32 0 52 -23t20 -53q0 -44 -22 -72t-66 -28q-28 0 -48.5 24.5z" />
    <glyph glyph-name="hookabovecomb" unicode="&#x309;" 
d="M-378 637.5q-6 15.5 -5 27.5q2 10 9.5 17t20.5 16q15 9 23.5 17.5t12.5 21.5v3q0 36 -44 36h-7q-15 0 -21 -2l15 94q2 1 15 3t23 2q62 0 98.5 -23.5t36.5 -69.5q0 -12 -3 -26q-4 -23 -20 -39t-34 -27.5t-25 -17.5q-12 -9 -17 -19.5t-4 -29.5l-62 -6q-6 7 -12 22.5z" />
    <glyph glyph-name="uni030A" unicode="&#x30a;" 
d="M-62 673q-42 31 -42 88q0 54 29 89t72.5 51t90.5 16q65 0 108.5 -34t43.5 -88q0 -74 -55 -113.5t-134 -39.5q-71 0 -113 31zM122 727q26 16 26 54q0 27 -22.5 48t-49.5 21q-32 0 -59.5 -20.5t-27.5 -57.5q0 -25 23 -43t49 -18q35 0 61 16z" />
    <glyph glyph-name="uni030B" unicode="&#x30b;" 
d="M10 868l92 -65q-8 -24 -41 -59t-73 -67t-65 -45l-50 43zM249 868l91 -63q-9 -25 -42.5 -61t-73.5 -68t-66 -44l-50 43z" />
    <glyph glyph-name="uni030C" unicode="&#x30c;" 
d="M-32 850l99 -103l158 103l51 -27l-179 -183h-86l-103 183z" />
    <glyph glyph-name="uni0312" unicode="&#x312;" 
d="M0.5 650.5q-19.5 16.5 -19.5 48.5q0 10 1 16q5 34 25 66.5t44 55.5t40 28h1l57 -13l2 -8q-11 -4 -20.5 -27t-9.5 -41q0 -15 14 -27q18 -14 18 -39q0 -40 -30.5 -58t-66.5 -18h-3q-33 0 -52.5 16.5z" />
    <glyph glyph-name="uni031B" unicode="&#x31b;" 
d="M251 666l-3 -38q-11 -72 -58.5 -101t-123.5 -29q-20 0 -66 4l13 61q68 0 91.5 24t23.5 62v17h123z" />
    <glyph glyph-name="dotbelowcomb" unicode="&#x323;" 
d="M-129 -220.5q-20 22.5 -20 59.5q0 42 28 69.5t72 27.5q38 0 57.5 -21t19.5 -57q0 -43 -26.5 -72t-75.5 -29q-35 0 -55 22.5z" />
    <glyph glyph-name="uni0326" unicode="&#x326;" 
d="M-122 -237q9 5 16 25t7 42q0 19 -7 36.5t-21 18.5v41l91 41q30 -13 45 -41.5t15 -64.5q0 -31 -14.5 -60t-35.5 -48.5t-40 -24.5l-57 23z" />
    <glyph glyph-name="uni0327" unicode="&#x327;" 
d="M-4 15q11 -16 19 -45.5t8 -59.5q0 -39 -17.5 -73t-52.5 -55.5t-85 -21.5q-21 0 -43.5 5t-36.5 14l11 84q6 -3 19 -5.5t25 -2.5q44 0 68.5 20t25.5 66q2 32 -3.5 51t-6.5 23l37 2z" />
    <glyph glyph-name="uni0328" unicode="&#x328;" 
d="M-294 -29q28 20 69 40q11 4 23 11l30 7l57 -11q-121 -76 -121 -123q0 -20 8.5 -27.5t24.5 -7.5q18 0 33.5 8.5t40.5 27.5l17 -55q-31 -33 -74 -53.5t-92 -20.5q-46 0 -69.5 22.5t-23.5 61.5q0 12 6 29.5t16 30.5q27 40 55 60z" />
    <glyph glyph-name="uni0335" unicode="&#x335;" 
d="M196 219h-410l19 120h410z" />
    <glyph glyph-name="uni0336" unicode="&#x336;" 
d="M256 219h-511v120h511v-120z" />
    <glyph glyph-name="uni0337" unicode="&#x337;" 
d="M213 557l-332 -655h-108l332 655h108z" />
    <glyph glyph-name="uni0338" unicode="&#x338;" 
d="M231 805l-333 -907l-108 4l332 903h109z" />
    <glyph glyph-name="uni0394" unicode="&#x394;" horiz-adv-x="687" 
d="M347 747h35l278 -734l-8 -13h-672l-6 11zM326 528l-197 -407h343z" />
    <glyph glyph-name="uni03A9" unicode="&#x3a9;" horiz-adv-x="822" 
d="M-36 214l87 -12l12 -115h142q-52 53 -90.5 134.5t-38.5 162.5q0 163 91 264.5t285 101.5q139 0 218.5 -71.5t79.5 -202.5q0 -65 -22.5 -136.5t-65 -136.5t-99.5 -111h132l38 122h91l-34 -214h-347l-19 72q75 47 116 149t41 232q0 55 -14.5 108.5t-48.5 89.5t-89 36
q-97 0 -145 -87.5t-48 -218.5q0 -59 14.5 -122t37 -113t44.5 -74l-23 -72h-345v214z" />
    <glyph glyph-name="uni03BC" unicode="&#x3bc;" horiz-adv-x="666" 
d="M21 -182l53 357q9 65 16 103q2 14 10 68t13 106q0 28 -20 28q-18 0 -36 -16l-15 38q3 3 19.5 20t51 31.5t77.5 14.5q39 0 63.5 -15t23.5 -48q-3 -51 -22 -172l-6 -37q-7 -39 -10 -66.5t-3 -61.5q0 -47 17.5 -66.5t42.5 -19.5q27 0 43 12.5t26 27t14 19.5l59 423h156
l-63 -454q-4 -37 20 -37q12 0 27 10l18 12l13 -35q-13 -23 -50.5 -46.5t-84.5 -23.5q-71 0 -71 57l1 11q-5 -5 -21 -23t-42.5 -31.5t-61.5 -13.5q-31 0 -60 10t-40 27l-31 -209h-127z" />
    <glyph glyph-name="pi" unicode="&#x3c0;" horiz-adv-x="792" 
d="M138 131q46 43 68 118l49 170h-63q-23 1 -40.5 -16.5t-24.5 -42.5l-66 6q0 41 2 67.5t10 46.5q18 42 56 62.5t82 20.5h391q71 0 80 56h76q0 -83 -36 -141.5t-118 -58.5h-33q-11 -107 -19 -251q-4 -55 36 -56q52 0 74 78h74q-13 -86 -62 -143t-139 -57q-58 0 -90 29.5
t-32 81.5q0 27 10 90t24 142l15 86h-96l-34 -199q-19 -122 -73 -176t-121 -54l-99 94q53 4 99 47z" />
    <glyph glyph-name="uni0400" unicode="&#x400;" horiz-adv-x="636" 
d="M625 743l-17 -179h-100l-20 109l-171 12l-34 -256l224 22l-18 -112l-216 15l-34 -281l228 17l53 137l102 -7l-35 -220h-604l7 51l78 14l80 613l-71 11l6 54h542zM314 838.5q-50 37.5 -74 76.5l84 61l136 -146l-59 -38q-37 9 -87 46.5z" />
    <glyph glyph-name="uni0401" unicode="&#x401;" horiz-adv-x="636" 
d="M625 743l-17 -179h-100l-20 109l-171 12l-34 -256l224 22l-18 -112l-216 15l-34 -281l228 17l53 137l102 -7l-35 -220h-604l7 51l78 14l80 613l-71 11l6 54h542zM219 832q-19 20 -19 49q0 41 22 64t60 23q33 0 51 -18.5t18 -47.5q0 -42 -21.5 -66t-63.5 -24q-28 0 -47 20
zM458 832q-19 20 -19 49q0 41 22 64t60 23q32 0 50 -18.5t18 -47.5q0 -42 -21 -66t-63 -24q-28 0 -47 20z" />
    <glyph glyph-name="uni0402" unicode="&#x402;" horiz-adv-x="850" 
d="M534.5 413q41.5 12 100.5 12q108 0 149 -53.5t41 -122.5q0 -54 -28.5 -113t-81 -98.5t-118.5 -39.5q-19 0 -35 2l4 52q9 -1 23.5 0t22.5 4q27 10 41 57.5t14 98.5q0 71 -28 103.5t-98 32.5q-25 0 -47.5 -8.5t-49.5 -22.5l-33 -252l76 -14l-5 -51h-368l7 51l121 14l82 621
l-119 -13l-80 -158h-90l48 228h722l-36 -227h-87l-14 157l-175 13l-40 -305q40 20 81.5 32z" />
    <glyph glyph-name="uni0403" unicode="&#x403;" horiz-adv-x="544" 
d="M581 743l-37 -283h-87l-16 213l-119 12l-83 -620l110 -14l-5 -51h-348l5 51l68 14l82 612l-72 12l7 54h495zM435 983l88 -70q-23 -29 -85.5 -70t-95.5 -50l-62 42z" />
    <glyph glyph-name="uni0404" unicode="&#x404;" horiz-adv-x="634" 
d="M435 689q-89 0 -143 -78.5t-69 -192.5l286 13l-16 -106q-6 0 -30 2q-130 6 -246 15v-21q4 -126 36.5 -188.5t102.5 -62.5q69 0 107 36q19 24 39 99h96l-21 -140q-40 -31 -96 -52t-151 -21q-155 0 -227.5 89t-73.5 230q0 137 53.5 236.5t151 152t227.5 52.5
q58 0 90.5 -4.5t65.5 -13.5l20 -5l16 -4l-30 -196h-121l-19 152q-22 8 -48 8z" />
    <glyph glyph-name="uni0405" unicode="&#x405;" horiz-adv-x="564" 
d="M387 685.5q-17 5.5 -42 5.5q-52 0 -82 -24t-30 -64q0 -50 31 -86t108 -84q70 -45 111 -97t41 -120q1 -62 -31 -113.5t-96.5 -82.5t-157.5 -31q-75 0 -143.5 16t-87.5 32l28 154h100l5 -109q36 -31 94 -31q69 0 100.5 27.5t31.5 73.5q0 45 -28.5 79.5t-98.5 78.5
q-74 47 -116 101t-42 126q0 102 76.5 158.5t198.5 56.5q133 0 195 -36l-26 -147h-92l-14 98q-16 13 -33 18.5z" />
    <glyph glyph-name="uni0406" unicode="&#x406;" horiz-adv-x="374" 
d="M411 743l-6 -54l-84 -11l-80 -613l85 -14l-3 -51h-331l7 51l73 14l80 613l-71 11l5 54h325z" />
    <glyph glyph-name="uni0407" unicode="&#x407;" horiz-adv-x="374" 
d="M411 743l-6 -54l-84 -11l-80 -613l85 -14l-3 -51h-331l7 51l73 14l80 613l-71 11l5 54h325zM93 832q-19 20 -19 49q0 41 22 64t60 23q33 0 51 -18.5t18 -47.5q0 -42 -21.5 -66t-63.5 -24q-28 0 -47 20zM332 832q-19 20 -19 49q0 41 22 64t60 23q32 0 50 -18.5t18 -47.5
q0 -42 -21 -66t-63 -24q-28 0 -47 20z" />
    <glyph glyph-name="uni0408" unicode="&#x408;" horiz-adv-x="360" 
d="M319 655q-34 -279 -54.5 -433.5t-31.5 -184.5q-29 -84 -111 -137t-188 -68l-26 51q75 23 111 64t46 95q47 245 89 635l-71 12l7 54h307l-4 -54l-71 -11z" />
    <glyph glyph-name="uni0409" unicode="&#x409;" horiz-adv-x="998" 
d="M673 451.5q16 2.5 40 2.5q125 0 189 -46.5t64 -137.5q0 -137 -89 -208t-243 -71l-55 3q-72 6 -104 6h-141l5 51l77 14l81 620h-177l-8 -69q-35 -311 -98 -467.5t-160 -156.5q-17 0 -40 6.5t-41 19.5l31 129q5 -7 40 -17t66 -10q20 0 46.5 66t51 180.5t38.5 253.5l6 57
l-106 12l7 54h608l-6 -54l-89 -11l-31 -235q22 6 38 8.5zM634 52q74 0 115 56t41 148q0 56 -30 91t-78 35q-33 0 -56 -5l-42 -324q12 -1 50 -1z" />
    <glyph glyph-name="uni040A" unicode="&#x40a;" horiz-adv-x="1097" 
d="M770 451q17 3 42 3q125 0 189 -46.5t64 -137.5q0 -137 -88.5 -208t-242.5 -71q-7 0 -63 4q-92 5 -103 5h-157l7 51l92 14l37 279h-272l-36 -279l84 -14l-4 -51h-322l4 51l69 14l81 613l-71 11l7 54h326l-6 -54l-87 -11l-35 -266h271l35 266l-85 11l6 54h329l-6 -54
l-75 -11l-31 -236q24 6 41 9zM734 52q73 0 114 56t41 148q0 56 -29.5 91t-78.5 35q-41 0 -59 -6l-44 -322q28 -2 56 -2z" />
    <glyph glyph-name="uni040B" unicode="&#x40b;" horiz-adv-x="918" 
d="M536.5 450.5q44.5 8.5 83.5 8.5q75 0 122.5 -12.5t73.5 -48t26 -102.5q0 -30 -4 -59l-22 -172l71 -13l-7 -52h-317l6 52l73 13l15 100q14 96 14 130q0 54 -21 75t-74 21q-32 0 -66.5 -4.5t-57.5 -13.5l-41 -308l89 -14l-4 -51h-383l7 51l122 14l82 620l-119 -12l-80 -158
h-90l48 228h670l-37 -227h-87l-13 157l-123 12l-34 -258q33 15 77.5 23.5z" />
    <glyph glyph-name="uni040C" unicode="&#x40c;" horiz-adv-x="706" 
d="M477.5 336.5q32.5 -51.5 75.5 -139.5q31 -64 49 -95t33 -36l37 -14l-6 -52h-177q-20 0 -39.5 38.5t-50.5 119.5q-33 88 -57 134.5t-50 46.5h-20l-36 -274l84 -14l-3 -51h-322l5 51l67 14l81 613l-70 11l6 54h326l-6 -54l-87 -11l-36 -274h56l214 273l-62 12l7 54h226
l-7 -54l-65 -12l-238 -276q33 -13 65.5 -64.5zM546 983l88 -70q-23 -29 -85.5 -70t-95.5 -50l-62 42z" />
    <glyph glyph-name="uni040D" unicode="&#x40d;" horiz-adv-x="817" 
d="M413 743l-6 -54l-87 -11l-61 -455l39 55l296 341l8 59l-71 11l7 54h326l-6 -54l-87 -11l-81 -613l84 -14l-4 -51h-322l5 51l68 14l61 454l-45 -64l-291 -337l-7 -53l84 -14l-4 -51h-322l4 51l69 14l81 613l-71 11l7 54h326zM411 838.5q-50 37.5 -74 76.5l84 61l136 -146
l-59 -38q-37 9 -87 46.5z" />
    <glyph glyph-name="uni040E" unicode="&#x40e;" horiz-adv-x="611" 
d="M293 32q-45 -43 -125 -43q-25 0 -53 5.5t-42 12.5l1 99h79q54 0 79.5 8t33.5 33l-169 531l-39 11l6 54h311l-5 -54l-81 -11l70 -286l19 -97l37 98l112 284l-74 12l5 54h210l-6 -54l-52 -11l-238 -536q-34 -67 -79 -110zM335 949q0 -7 -2 -25q-2 -16 -2 -26q0 -52 58 -52
q37 0 55.5 12t24.5 28t11 47q3 18 8 28.5t15 10.5h104q0 -11 -1 -16q-17 -86 -70 -124t-158 -38q-99 0 -146 33t-47 104q0 26 4 41h132q14 0 14 -23z" />
    <glyph glyph-name="uni040F" unicode="&#x40f;" horiz-adv-x="768" 
d="M385 743l-6 -54l-58 -11l-82 -613h235l82 613l-57 11l5 54h295l-5 -54l-69 -11l-81 -613l76 -14l-6 -51h-293l-57 -173h-76l3 173h-303l6 51l77 14l81 613l-77 11l7 54h303z" />
    <glyph glyph-name="uni0410" unicode="&#x410;" horiz-adv-x="660" 
d="M481 745l121 -679l78 -15l-3 -51h-333l2 51l77 14l-20 139h-239l-59 -139l92 -14l-4 -51h-271l4 51l68 14l320 680h167zM195 277h198l-39 270l-4 93z" />
    <glyph glyph-name="uni0411" unicode="&#x411;" horiz-adv-x="643" 
d="M363 455q125 0 188.5 -46.5t63.5 -137.5q0 -137 -88.5 -208.5t-242.5 -71.5q-7 0 -63 4q-92 5 -103 5h-122l4 51l70 14l81 613l-71 11l5 54h528l-16 -179h-91l-16 109l-177 12l-32 -242q40 12 82 12zM284 52q74 0 115 56.5t41 148.5q0 56 -30 91.5t-78 35.5
q-15 0 -32.5 -2t-27.5 -5l-43 -323q13 -2 55 -2z" />
    <glyph glyph-name="uni0412" unicode="&#x412;" horiz-adv-x="684" 
d="M323 747q62 4 98 4q135 0 184 -47t49 -123q0 -75 -45.5 -121t-136.5 -68q54 1 94.5 -19t62 -54.5t21.5 -74.5q0 -134 -88.5 -194t-267.5 -60q-17 0 -43 2t-37 3q-47 5 -76 5h-143l4 51l68 14l82 613l-71 11l6 54h163q26 0 76 4zM297.5 417.5q9.5 0.5 16.5 0.5h24
q68 0 112.5 37t44.5 114q0 59 -28.5 89.5t-83.5 30.5q-46 0 -72 -6l-36 -265q13 -1 22.5 -0.5zM272 54.5q26 -3.5 43 -3.5q159 0 159 163q0 71 -33.5 104t-111.5 33q-39 0 -63 -2l-39 -286q19 -5 45 -8.5z" />
    <glyph glyph-name="uni0413" unicode="&#x413;" horiz-adv-x="544" 
d="M581 743l-37 -283h-87l-16 213l-119 12l-83 -620l110 -14l-5 -51h-348l5 51l68 14l82 612l-72 12l7 54h495z" />
    <glyph glyph-name="uni0414" unicode="&#x414;" horiz-adv-x="704" 
d="M622 -145q-12 -36 -13 -40h-84l2 36q6 72 6 118q0 23 -1 31h-433q-9 -16 -32 -86t-28 -99h-84q0 68 6.5 144.5t11.5 105.5h70q24 26 58.5 90t71 182t56.5 283l6 57l-101 12l7 54h582l-6 -54l-73 -11l-82 -612h114q-16 -97 -54 -211zM255.5 354q-29.5 -116 -59.5 -189.5
t-51 -99.5h249l82 624h-166l-8 -75q-17 -144 -46.5 -260z" />
    <glyph glyph-name="uni0415" unicode="&#x415;" horiz-adv-x="636" 
d="M625 743l-17 -179h-100l-20 109l-171 12l-34 -256l224 22l-18 -112l-216 15l-34 -281l228 17l53 137l102 -7l-35 -220h-604l7 51l78 14l80 613l-71 11l6 54h542z" />
    <glyph glyph-name="uni0416" unicode="&#x416;" horiz-adv-x="1042" 
d="M813.5 336q33.5 -53 75.5 -140q34 -68 51 -97t32 -34l36 -14l-6 -51h-177q-20 0 -40.5 40t-49.5 118q-34 90 -58 135.5t-50 45.5h-21l-36 -274l82 -14l-4 -51h-325l6 51l76 14l35 269h-28q-34 0 -69 -51.5t-85 -148.5q-37 -71 -57 -102.5t-35 -31.5h-194l7 51l26 14
q15 7 37 35t60 84q69 100 118.5 156t97.5 63l-171 274l-77 12l6 54h249l-6 -54l-72 -12l146 -273h57l36 274l-80 11l7 54h326l-6 -54l-82 -11l-36 -274h58l214 274l-61 11l7 54h225l-7 -54l-66 -12l-238 -276q33 -12 66.5 -65z" />
    <glyph glyph-name="uni0417" unicode="&#x417;" horiz-adv-x="615" 
d="M186 730q59 11 94 16t65 5q122 0 181.5 -44.5t59.5 -114.5q0 -72 -30.5 -112t-69.5 -56t-96 -29q88 -1 140 -42t52 -109q0 -250 -321 -250q-70 0 -149.5 19.5t-116.5 42.5l43 156h114v-133q20 -12 43 -18t62 -6q61 0 95.5 52t34.5 130q0 53 -24 83t-66 30l-71 -7l7 71
l59 3q29 0 55.5 18.5t43.5 58t17 99.5q0 97 -92 97q-32 0 -52.5 -9.5t-31.5 -30.5l-23 -79h-103l10 147q15 1 70 12z" />
    <glyph glyph-name="uni0418" unicode="&#x418;" horiz-adv-x="817" 
d="M413 743l-6 -54l-87 -11l-61 -455l39 55l296 341l8 59l-71 11l7 54h326l-6 -54l-87 -11l-81 -613l84 -14l-4 -51h-322l5 51l68 14l61 454l-45 -64l-291 -337l-7 -53l84 -14l-4 -51h-322l4 51l69 14l81 613l-71 11l7 54h326z" />
    <glyph glyph-name="uni0419" unicode="&#x419;" horiz-adv-x="817" 
d="M413 743l-6 -54l-87 -11l-61 -455l39 55l296 341l8 59l-71 11l7 54h326l-6 -54l-87 -11l-81 -613l84 -14l-4 -51h-322l5 51l68 14l61 454l-45 -64l-291 -337l-7 -53l84 -14l-4 -51h-322l4 51l69 14l81 613l-71 11l7 54h326zM434 949q0 -7 -2 -25q-2 -16 -2 -26
q0 -52 58 -52q37 0 55.5 12t24.5 28t11 47q3 18 8 28.5t15 10.5h104q0 -11 -1 -16q-17 -86 -70 -124t-158 -38q-99 0 -146 33t-47 104q0 26 4 41h132q14 0 14 -23z" />
    <glyph glyph-name="uni041A" unicode="&#x41a;" horiz-adv-x="706" 
d="M477.5 336.5q32.5 -51.5 75.5 -139.5q31 -64 49 -95t33 -36l37 -14l-6 -52h-177q-20 0 -39.5 38.5t-50.5 119.5q-33 88 -57 134.5t-50 46.5h-20l-36 -274l84 -14l-3 -51h-322l5 51l67 14l81 613l-70 11l6 54h326l-6 -54l-87 -11l-36 -274h56l214 273l-62 12l7 54h226
l-7 -54l-65 -12l-238 -276q33 -13 65.5 -64.5z" />
    <glyph glyph-name="uni041B" unicode="&#x41b;" horiz-adv-x="710" 
d="M218 137q-21 -59 -39.5 -89.5t-42 -43t-59.5 -12.5q-22 0 -49.5 4t-39.5 13l36 148q35 -22 85 -22q18 0 27.5 8t18.5 26q26 55 50 172.5t40 278.5l6 57l-106 12l7 54h608l-6 -54l-89 -11l-81 -613l93 -23l-5 -42h-338l4 51l77 14l81 620h-177l-8 -69q-38 -326 -93 -479z
" />
    <glyph glyph-name="uni041C" unicode="&#x41c;" horiz-adv-x="985" 
d="M618 536l83 207h294l-7 -54l-86 -11l-19 -613l88 -14l-4 -51h-345l4 52l92 13l28 417l10 196l-70 -172l-215 -507l-82 -8l-66 503l-28 184l-42 -189l-102 -424l110 -14l-5 -51h-298l6 51l79 14l159 613l-95 11l8 54h332l51 -414l10 -84l27 84q27 69 83 207z" />
    <glyph glyph-name="uni041D" unicode="&#x41d;" horiz-adv-x="807" 
d="M413 743l-6 -54l-87 -11l-35 -266h271l35 266l-85 11l6 54h329l-6 -54l-75 -11l-80 -613l76 -14l-6 -51h-339l7 51l92 14l37 279h-272l-36 -279l84 -14l-4 -51h-322l4 51l69 14l81 613l-71 11l7 54h326z" />
    <glyph glyph-name="uni041E" unicode="&#x41e;" horiz-adv-x="713" 
d="M628 663.5q69 -89.5 69 -227.5q0 -118 -40.5 -219t-127 -164t-216.5 -63q-144 0 -213 87.5t-69 233.5q0 118 42.5 218.5t129.5 162t212 61.5q144 0 213 -89.5zM300.5 639q-42.5 -53 -65 -139t-22.5 -183q1 -118 25 -192.5t89 -74.5q61 0 103 49t63 134t21 192
q0 131 -26.5 199t-86.5 68q-58 0 -100.5 -53z" />
    <glyph glyph-name="uni041F" unicode="&#x41f;" horiz-adv-x="769" 
d="M798 743l-5 -54l-70 -11l-80 -613l76 -14l-6 -51h-316l6 51l70 13l83 619h-236l-81 -618l84 -14l-4 -51h-322l5 51l68 14l81 611l-78 13l7 54h718z" />
    <glyph glyph-name="uni0420" unicode="&#x420;" horiz-adv-x="653" 
d="M323 747q50 4 73 4q147 0 209.5 -52.5t62.5 -158.5q0 -91 -42.5 -156t-121 -99t-184.5 -34q-38 0 -58 3l-22 -189l133 -14l-3 -51h-375l5 51l67 14l82 613l-72 11l7 54h152q31 0 87 4zM304.5 315h20.5q78 1 123.5 65t46.5 169q0 72 -33.5 106t-93.5 34q-25 0 -48 -4
l-50 -366q17 -4 34.5 -4z" />
    <glyph glyph-name="uni0421" unicode="&#x421;" horiz-adv-x="634" 
d="M435 689q-74 0 -124 -55.5t-73 -140.5t-21 -172q4 -126 36.5 -188.5t102.5 -62.5q69 0 107 36q19 24 39 99h96l-21 -140q-40 -31 -96 -52t-151 -21q-155 0 -227.5 89t-73.5 230q0 137 53.5 236.5t151 152t227.5 52.5q58 0 90.5 -4.5t65.5 -13.5l20 -5l16 -4l-30 -196
h-121l-19 152q-22 8 -48 8z" />
    <glyph glyph-name="uni0422" unicode="&#x422;" horiz-adv-x="704" 
d="M748 743l-41 -283h-87l-8 213l-119 12l-82 -620l137 -13l-5 -52h-430l7 52l121 13l83 620l-119 -12l-80 -213h-90l48 283h665z" />
    <glyph glyph-name="uni0423" unicode="&#x423;" horiz-adv-x="611" 
d="M293 32q-45 -43 -125 -43q-25 0 -53 5.5t-42 12.5l1 99h79q54 0 79.5 8t33.5 33l-169 531l-39 11l6 54h311l-5 -54l-81 -11l70 -286l19 -97l37 98l112 284l-74 12l5 54h210l-6 -54l-52 -11l-238 -536q-34 -67 -79 -110z" />
    <glyph glyph-name="uni0424" unicode="&#x424;" horiz-adv-x="830" 
d="M768 593q61 -61 61 -161q0 -142 -85.5 -232t-269.5 -108l-8 -62l82 -15l-4 -52h-326l6 52l77 15l8 60q-161 11 -223 71.5t-62 163.5q0 142 86.5 232.5t272.5 107.5l7 51l-80 13l6 53h327l-6 -53l-82 -13l-6 -49q158 -13 219 -74zM227.5 513.5q-42.5 -80.5 -42.5 -189.5
q0 -63 29.5 -112t100.5 -68l61 473q-106 -23 -148.5 -103.5zM668 436q0 62 -28.5 111t-97.5 68l-61 -472q187 43 187 293z" />
    <glyph glyph-name="uni0425" unicode="&#x425;" horiz-adv-x="673" 
d="M386 743l-4 -53l-72 -12l82 -218l148 218l-66 11l3 54h253l-4 -54l-67 -11l-231 -290l162 -323l62 -14l-5 -51h-335l4 51l72 14l-87 221l-152 -221l74 -14l-5 -51h-255l6 51l55 14l243 297l-148 315l-59 12l5 54h321z" />
    <glyph glyph-name="uni0426" unicode="&#x426;" horiz-adv-x="809" 
d="M690 -146q-3 -12 -6.5 -21.5t-5.5 -17.5h-84q0 7 2 25q5 92 5 126q0 25 -1 34h-610l6 51l74 14l80 612l-71 12l6 54h325l-6 -54l-85 -12l-78 -619h231l81 620l-72 11l5 54h325l-6 -54l-84 -11l-80 -612h103q-15 -94 -54 -212z" />
    <glyph glyph-name="uni0427" unicode="&#x427;" horiz-adv-x="709" 
d="M366.5 294q-46.5 -11 -87.5 -11q-71 0 -115 12.5t-69 48.5t-25 104q0 30 4 58l22 172l-71 11l7 54h327l-6 -54l-83 -12l-15 -99q-9 -97 -9 -129q0 -55 16.5 -76t60.5 -21q95 0 130 25l40 301l-85 11l6 54h329l-6 -54l-75 -11l-81 -613l78 -14l-6 -51h-340l7 51l92 14
l34 258q-33 -18 -79.5 -29z" />
    <glyph glyph-name="uni0428" unicode="&#x428;" horiz-adv-x="1122" 
d="M414 743l-6 -54l-88 -12l-83 -619h215l82 619l-85 12l6 54h330l-5 -54l-76 -12l-82 -619h203l82 620l-86 11l6 54h331l-6 -54l-76 -11l-81 -612l78 -14l-6 -52h-1070l5 51l68 14l81 613l-71 11l7 54h327z" />
    <glyph glyph-name="uni0429" unicode="&#x429;" horiz-adv-x="1127" 
d="M1087.5 -43q-13.5 -47 -33.5 -108l-11 -34h-83l2 36q6 72 6 118q0 23 -1 31h-970l5 51l68 14l81 613l-71 11l7 54h327l-6 -54l-89 -12l-82 -619h215l82 619l-85 12l6 54h330l-5 -54l-76 -12l-82 -619h203l82 620l-85 11l5 54h331l-6 -54l-76 -11l-81 -613h116
q-10 -61 -23.5 -108z" />
    <glyph glyph-name="uni042A" unicode="&#x42a;" horiz-adv-x="827" 
d="M543 455q125 0 188.5 -46.5t63.5 -137.5q0 -137 -88.5 -208.5t-243.5 -71.5q-7 0 -63 4q-90 5 -102 5h-136l6 51l74 14l82 620l-117 -7l-81 -218h-90l48 283h498l-5 -49l-86 -17l-31 -234q42 12 83 12zM463 52q74 0 115.5 56.5t41.5 148.5q0 56 -30.5 91.5t-78.5 35.5
q-15 0 -32 -2t-27 -5l-42 -323q13 -2 53 -2z" />
    <glyph glyph-name="uni042B" unicode="&#x42b;" horiz-adv-x="1037" 
d="M373 454q125 0 188.5 -46.5t63.5 -137.5q0 -137 -89 -208t-243 -71q-7 0 -63 4q-90 5 -102 5h-135l6 51l73 14l81 613l-72 11l6 54h325l-6 -49l-85 -16l-31 -236q42 12 83 12zM1069 743l-6 -54l-84 -11l-80 -613l85 -14l-3 -51h-331l7 51l73 14l80 613l-71 11l5 54h325z
M294 52q73 0 114 56t41 148q0 56 -30 91t-78 35q-41 0 -59 -6l-43 -322q13 -2 55 -2z" />
    <glyph glyph-name="uni042C" unicode="&#x42c;" horiz-adv-x="656" 
d="M371 454q125 0 188.5 -46.5t63.5 -137.5q0 -137 -89 -208t-243 -71q-7 0 -63 4q-90 5 -102 5h-135l6 51l73 14l81 613l-72 11l6 54h325l-6 -49l-85 -16l-30 -236q40 12 82 12zM292 52q73 0 114 56t41 148q0 56 -29.5 91t-78.5 35q-41 0 -59 -6l-43 -322q13 -2 55 -2z" />
    <glyph glyph-name="uni042D" unicode="&#x42d;" horiz-adv-x="644" 
d="M160 725q48 12 87.5 19t91.5 7q92 0 158.5 -39.5t101.5 -111t35 -166.5q0 -131 -46 -231.5t-136.5 -157t-218.5 -56.5q-40 0 -70.5 6.5t-65.5 17.5q-40 14 -64 14l-14 173h82l40 -98q12 -15 23 -24.5t34.5 -17t61.5 -7.5q48 0 88 34.5t67 99.5t36 154q-104 -8 -211 -13
l-58 -3l-16 106l290 -14v15q0 114 -35 186t-108 72q-49 0 -72.5 -11.5t-44.5 -36.5l-41 -112h-91l33 182q21 1 63 13z" />
    <glyph glyph-name="uni042E" unicode="&#x42e;" horiz-adv-x="1089" 
d="M478 582.5q47 78.5 126.5 124.5t187.5 46q144 0 212.5 -89.5t68.5 -227.5q0 -118 -40.5 -219t-127 -164t-216.5 -63q-144 0 -213 87.5t-69 233.5q0 19 1 29h-134l-35 -275l84 -14l-3 -51h-330l7 51l73 14l80 613l-71 11l5 54h324l-6 -54l-83 -11l-35 -271h131
q16 97 63 175.5zM677.5 639q-42.5 -53 -65 -139t-22.5 -183q0 -117 24 -192t90 -75q91 0 139 106.5t48 273.5q-1 129 -27 195.5t-85 66.5t-101.5 -53z" />
    <glyph glyph-name="uni042F" unicode="&#x42f;" horiz-adv-x="724" 
d="M369 328q-24 -19 -47.5 -61.5t-60.5 -119.5q-36 -74 -57.5 -110.5t-38.5 -36.5h-215l6 42l36 15q16 4 38.5 33.5t59.5 87.5q45 70 73.5 108t56.5 54q-64 19 -96.5 64t-32.5 102q0 113 82.5 179t238.5 66q45 0 91 -4t93 -4h166l-5 -54l-79 -11l-80 -613l75 -14l-5 -51
h-321l4 51l76 14l35 265q-21 -2 -93 -2zM481.5 686q-18.5 3 -57.5 3q-69 0 -104 -48.5t-35 -128.5q0 -64 30.5 -96t82.5 -32q53 0 72 3l38 295q-8 1 -26.5 4z" />
    <glyph glyph-name="uni0430" unicode="&#x430;" horiz-adv-x="592" 
d="M490 97q0 -24 20 -24q17 0 44 22l14 -34q-14 -22 -50 -46.5t-85 -24.5q-36 0 -58 15t-24 43v6q-62 -64 -149 -64t-130 58t-43 148q0 97 38.5 182.5t114.5 137.5t182 52q26 0 58.5 -6.5t56.5 -14.5l75 21l-63 -458q-1 -5 -1 -13zM353 501q-56 0 -91.5 -45t-50.5 -113
t-15 -141q0 -60 19.5 -94t53.5 -34q32 0 64 30l54 393q-22 4 -34 4z" />
    <glyph glyph-name="uni0431" unicode="&#x431;" horiz-adv-x="569" 
d="M525.5 690q-7.5 -7 -29.5 -7q-138 0 -240.5 -76t-125.5 -246q27 77 91 128t152 51q101 0 142.5 -53t41.5 -145q0 -99 -39 -178.5t-109 -125.5t-158 -46q-110 0 -167 74.5t-57 193.5q0 174 69.5 293t163.5 177t164 58q10 0 20.5 7.5t17.5 18.5l24 48h74l-25 -144
q-2 -21 -9.5 -28zM253.5 426.5q-33.5 -31.5 -54 -83t-20.5 -107.5q0 -87 26.5 -135.5t64.5 -48.5q40 0 70 37.5t46 96t16 120.5q0 152 -77 152q-38 0 -71.5 -31.5z" />
    <glyph glyph-name="uni0432" unicode="&#x432;" horiz-adv-x="557" 
d="M474 533q40 -29 40 -70q0 -46 -28.5 -83t-100.5 -61q71 0 103.5 -31t32.5 -79q0 -57 -35 -107t-100.5 -80.5t-153.5 -30.5q-98 0 -154 59.5t-56 169.5q0 112 51.5 189.5t128 115t150.5 37.5q82 0 122 -29zM329 368q31 26 31 74q0 30 -11 45.5t-37 15.5q-21 0 -48 -19.5
t-48.5 -61t-24.5 -105.5l43 12q64 13 95 39zM178 226v-38q0 -66 20 -103t57 -37q26 0 50 17t39.5 47.5t15.5 69.5q0 45 -16 73t-53 28q-7 0 -27 -2l-84 -15q-2 -11 -2 -40z" />
    <glyph glyph-name="uni0433" unicode="&#x433;" horiz-adv-x="443" 
d="M154.5 551.5q47.5 16.5 107.5 16.5q86 0 130 -28.5t44 -81.5q0 -47 -24 -83t-57 -60.5t-83 -52.5l-20 -12q-46 -27 -67 -49t-21 -55q0 -31 18 -50.5t54 -19.5q38 0 65.5 11.5t59.5 33.5l15 -65q-30 -29 -86.5 -47.5t-109.5 -18.5q-84 0 -132 35.5t-48 89.5
q0 43 20.5 74.5t50.5 53.5t82 53l25 15q49 34 68.5 61.5t19.5 64.5q0 21 -16 32.5t-43 11.5q-38 0 -72 -13t-44 -23l-10 71q26 19 73.5 35.5z" />
    <glyph glyph-name="uni0434" unicode="&#x434;" horiz-adv-x="560" 
d="M209 805.5q50 15.5 92 15.5q136 0 196.5 -83t60.5 -226q0 -117 -31.5 -236t-105 -201.5t-192.5 -82.5q-61 0 -108 27.5t-73 78.5t-26 121q0 85 34.5 162t103.5 125.5t167 48.5q39 0 71 -16q-2 85 -15 130.5t-39.5 63.5t-72.5 18q-27 0 -53 -7t-56 -28l-39 44
q36 30 86 45.5zM251.5 455.5q-31.5 -39.5 -47 -102t-15.5 -131.5q0 -95 16.5 -132.5t44.5 -37.5q73 0 108.5 127.5t39.5 298.5q-28 17 -70 17q-45 0 -76.5 -39.5z" />
    <glyph glyph-name="uni0435" unicode="&#x435;" horiz-adv-x="527" 
d="M386 23.5q-59 -37.5 -142 -37.5q-74 0 -122 31.5t-70 82.5t-22 110q0 102 41.5 184t114 128.5t160.5 46.5q82 0 121 -36t39 -93q0 -73 -48 -121.5t-117.5 -71.5t-137.5 -25q-1 -74 23.5 -112t68.5 -38q51 0 85.5 23t60.5 58l31 -49q-27 -43 -86 -80.5zM233.5 434
q-25.5 -67 -30.5 -153q31 2 66 19.5t59 50.5t24 77q0 73 -41 73q-52 0 -77.5 -67z" />
    <glyph glyph-name="uni0436" unicode="&#x436;" horiz-adv-x="992" 
d="M726 437q40 56 92 89.5t107 33.5q44 0 63 -18l-44 -112l-47 48q-24 0 -47.5 -28.5t-39 -80.5t-15.5 -118q0 -73 21 -114t51 -41q46 0 80 35l29 -43q-23 -33 -69.5 -65.5t-107.5 -32.5q-71 0 -111.5 57t-40.5 163q0 26 4 47h-81l-35 -257h-156l35 257h-85
q-17 -69 -58 -130.5t-95.5 -99t-112.5 -37.5q-42 0 -64 17l46 113q14 -16 46 -48q24 0 47.5 28.5t39 80.5t15.5 118q0 73 -21 114t-51 41q-47 0 -79 -35l-29 42q21 33 68 66t108 33q71 0 111 -57t40 -163q0 -16 -1 -24h83l34 249h157l-35 -249h87q21 65 61 121z" />
    <glyph glyph-name="uni0437" unicode="&#x437;" horiz-adv-x="530" 
d="M153 551q29 8 55.5 12t64.5 4q102 0 160.5 -33t58.5 -89q0 -57 -34 -94t-87 -55q57 -2 88.5 -31.5t31.5 -80.5q0 -94 -84.5 -143t-212.5 -49q-63 0 -111.5 13.5t-71.5 29.5l76 141l59 -88q11 -14 30 -25t43 -11q53 0 82 32.5t29 87.5q0 43 -24.5 65t-86.5 22l-55 -10
l12 65l53 5q110 11 110 123q0 31 -23 48.5t-63 17.5q-20 0 -42 -10.5t-30 -20.5l-31 -82h-87l18 145q30 0 72 11z" />
    <glyph glyph-name="uni0438" unicode="&#x438;" horiz-adv-x="624" 
d="M232 253q-13 -87 -13 -115q0 -36 11 -51.5t36 -15.5q27 0 52.5 14.5t44.5 36.5l60 442h157l-63 -454q-4 -37 20 -37q8 0 16.5 4.5t27.5 17.5l14 -34q-7 -12 -25 -28.5t-47 -29.5t-64 -13q-39 0 -61 13.5t-27 38.5q-1 3 -1 11q0 12 1 18l-1 1q-32 -36 -72 -59t-98 -23
q-53 0 -97 30.5t-45 94.5q0 41 16 147q4 20 5 30l26 179l-62 38l8 43l194 16l25 -12l-33 -268z" />
    <glyph glyph-name="uni0439" unicode="&#x439;" horiz-adv-x="624" 
d="M232 253q-13 -87 -13 -115q0 -36 11 -51.5t36 -15.5q27 0 52.5 14.5t44.5 36.5l60 442h157l-63 -454q-4 -37 20 -37q8 0 16.5 4.5t27.5 17.5l14 -34q-7 -12 -25 -28.5t-47 -29.5t-64 -13q-39 0 -61 13.5t-27 38.5q-1 3 -1 11q0 12 1 18l-1 1q-32 -36 -72 -59t-98 -23
q-53 0 -97 30.5t-45 94.5q0 41 16 147q4 20 5 30l26 179l-62 38l8 43l194 16l25 -12l-33 -268zM313 815q0 -9 -2 -27t-2 -25q0 -62 60 -62q37 0 55 14t23 31t11 53q6 38 22 38h105q0 -10 -1 -16q-16 -93 -70 -133.5t-160 -40.5q-181 0 -181 149q0 22 4 41h122q14 0 14 -22z
" />
    <glyph glyph-name="uni043A" unicode="&#x43a;" horiz-adv-x="564" 
d="M368 356q33 41 33 67q0 8 -3 14.5t-4 9.5q-5 10 -8 18t-3 21q0 37 28 57t69 20q32 0 54 -19t22 -52q0 -59 -52 -108.5t-122 -86.5q14 -19 57 -98q34 -64 55 -98t38 -38l35 -18l-5 -45h-157q-28 0 -47.5 35t-43.5 104q-24 64 -39.5 94t-37.5 30h-5l-35 -263h-155l63 471
l-52 28l8 43l180 26l31 -15l-33 -241h87q24 21 42 44z" />
    <glyph glyph-name="uni043B" unicode="&#x43b;" horiz-adv-x="583" 
d="M476 99q0 -26 19 -26q16 0 45 22l14 -34q-17 -26 -59 -48.5t-86 -22.5t-69 19.5t-25 55.5q0 10 1 15l54 417h-89q-46 -169 -77.5 -269t-63.5 -158q-20 -40 -49.5 -59t-74.5 -19q-9 0 -29 4.5t-21 7.5l33 137q3 -3 34.5 -10t40.5 -7q11 0 25 24q29 45 65.5 148.5
t52.5 173.5l-120 28l10 66h431l-61 -454q-1 -4 -1 -11z" />
    <glyph glyph-name="uni043C" unicode="&#x43c;" horiz-adv-x="815" 
d="M731 83.5q4 -11.5 14 -11.5q23 0 47 26l18 -44q-5 -8 -30.5 -23.5t-62 -28t-75.5 -12.5q-68 0 -69 64l17 283l12 170l-72 -169l-143 -345h-97l-55 321l-25 153l-30 -182q-14 -85 -31 -135.5t-44 -107.5q-15 -31 -36 -40.5t-71 -9.5q-8 0 -24.5 4.5t-17.5 7.5l33 142
q4 -3 35.5 -10t40.5 -7q21 45 47 163t35 180l-79 26l7 66h271l44 -296l12 -98l36 98l117 296h206l-33 -442q-1 -27 3 -38.5z" />
    <glyph glyph-name="uni043D" unicode="&#x43d;" horiz-adv-x="645" 
d="M537 99q0 -26 20 -26q8 0 16.5 4t28.5 18l14 -34q-7 -12 -25 -28.5t-47 -29.5t-64 -13q-48 0 -76.5 19t-28.5 50q0 7 1 10l25 180h-171l-34 -249h-155l64 471l-52 28l8 43l179 26l32 -15l-32 -236h170l34 247h156l-62 -454q-1 -4 -1 -11z" />
    <glyph glyph-name="uni043E" unicode="&#x43e;" horiz-adv-x="603" 
d="M512.5 508.5q56.5 -60.5 56.5 -177.5q0 -95 -39 -174t-110 -125t-165 -46q-110 0 -166 61.5t-56 178.5q0 95 39 173.5t110 124t164 45.5q110 0 166.5 -60.5zM257 456.5q-28 -44.5 -40.5 -111.5t-10.5 -135q3 -87 19.5 -124t52.5 -37q59 0 87.5 82t28.5 192
q0 99 -15.5 138.5t-50.5 39.5q-43 0 -71 -44.5z" />
    <glyph glyph-name="uni043F" unicode="&#x43f;" horiz-adv-x="636" 
d="M339 537q47 31 103 31q130 0 130 -148q0 -29 -24 -173q-2 -15 -8 -47q-14 -74 -14 -100q0 -27 19 -27q8 0 17.5 4.5t26.5 17.5l14 -34q-17 -23 -53 -47t-92 -24q-58 0 -78 23t-20 59q0 27 17 112l6 32q22 125 22 181q0 43 -9 59t-30 16q-29 0 -63 -34.5t-58 -85.5
l-48 -352h-155l63 471l-52 28l8 43l180 26l25 -12l-8 -103q34 53 81 84z" />
    <glyph glyph-name="uni0440" unicode="&#x440;" horiz-adv-x="596" 
d="M396 568q84 0 127 -55t43 -157q0 -101 -41 -185t-116 -132.5t-172 -48.5q-22 0 -50 5l-35 -249h-152l98 725l-53 29l8 42l186 26l25 -12l-5 -42q60 54 137 54zM250 57q76 0 112.5 87t36.5 212q0 55 -18 91t-53 36q-43 0 -79 -49l-52 -369q22 -8 53 -8z" />
    <glyph glyph-name="uni0441" unicode="&#x441;" horiz-adv-x="468" 
d="M344 465q-21 27 -35 27q-27 0 -54 -33t-44.5 -91t-17.5 -129q0 -85 20.5 -121t66.5 -36q43 0 72.5 16.5t51.5 45.5l31 -50q-25 -39 -82 -71.5t-135 -32.5q-89 0 -139 61t-50 176q0 85 35.5 163.5t106.5 128t172 49.5q33 0 67.5 -5t57.5 -14l-40 -155l-35 1q-28 43 -49 70
z" />
    <glyph glyph-name="uni0442" unicode="&#x442;" horiz-adv-x="956" 
d="M336.5 536.5q45.5 31.5 99.5 31.5q120 0 132 -121q33 58 82.5 89.5t111.5 31.5q60 0 94.5 -35t34.5 -113q0 -29 -24 -173q-2 -12 -4 -20q-17 -96 -17 -127q0 -16 5 -21.5t14 -5.5q8 0 17.5 4.5t26.5 17.5l14 -34q-17 -23 -53.5 -47t-92.5 -24q-58 0 -77.5 23t-19.5 59
q0 31 23 144q22 125 22 181q0 44 -9 59.5t-31 15.5q-29 0 -61.5 -28.5t-55.5 -73.5q-3 -54 -12 -123l-29 -247h-161l28 216q15 109 15 176q0 49 -10 64.5t-36 15.5t-60 -32t-57 -78l-50 -362h-155l64 471l-52 28l8 43l179 26l26 -12l-8 -104q33 53 78.5 84.5z" />
    <glyph glyph-name="uni0443" unicode="&#x443;" horiz-adv-x="539" 
d="M52.5 475q-4.5 6 -12.5 6q-13 0 -25 -8l-15 38q13 16 49.5 36.5t77.5 20.5q43 0 65 -17t27 -50l61 -384l14 -97l32 67q78 168 78 276q0 23 -3.5 39t-10.5 35q-7 17 -10 30.5t-3 33.5q0 29 20 48t57 19q41 0 64.5 -30.5t23.5 -70.5q0 -71 -18.5 -128.5t-60.5 -143.5
q-37 -82 -177 -308q-48 -80 -98 -110t-115 -30q-29 0 -61 7t-41 15l37 98q11 -11 39 -20t52 -9q47 0 85 29.5t80 97.5h-89l-114 489q-4 15 -8.5 21z" />
    <glyph glyph-name="uni0444" unicode="&#x444;" horiz-adv-x="856" 
d="M658 568q86 0 127 -57.5t41 -148.5q0 -99 -35.5 -183.5t-107.5 -136.5t-177 -52q-17 0 -39 4l-18 -128q-1 -4 -1 -12q0 -25 18 -25q9 0 18 4t27 18l14 -35q-19 -24 -52 -47t-84 -23q-42 0 -68.5 16t-27.5 50q4 38 29 217q-52 -39 -125 -39q-86 0 -127 57.5t-41 148.5
q0 98 36 183t108.5 137t176.5 52q21 0 47 -6l24 162l-65 21l10 40l188 21l25 -14l-36 -256q48 32 115 32zM338 504q-75 0 -109.5 -92t-34.5 -210q0 -61 18.5 -97t51.5 -36q38 0 69 31l55 396q-20 8 -50 8zM518 54q76 0 110.5 91.5t34.5 210.5q0 61 -19 97t-53 36
q-30 0 -58 -22l-57 -408q16 -5 42 -5z" />
    <glyph glyph-name="uni0445" unicode="&#x445;" horiz-adv-x="503" 
d="M60 481q-14 0 -22 -2t-17 -8l-19 41q6 8 26 21.5t51.5 24t69.5 10.5q39 0 64.5 -13.5t31.5 -37.5l37 -145l115 192h146l-218 -274l73 -146q9 -19 23.5 -38.5t25.5 -19.5t21 3.5t27 15.5l22 -40q-7 -12 -27.5 -29t-55 -31.5t-80.5 -14.5q-68 0 -86 52l-42 156l-119 -198
h-154l227 278l-82 163q-20 40 -38 40z" />
    <glyph glyph-name="uni0446" unicode="&#x446;" horiz-adv-x="624" 
d="M232 253q-13 -87 -13 -115q0 -36 11 -51.5t36 -15.5q27 0 52.5 14.5t44.5 36.5l60 442h157l-63 -454q-4 -37 20 -37q8 0 16.5 4.5t27.5 17.5l14 -34q-7 -13 -27 -30.5t-48 -28.5q-43 -23 -43 -50q0 -9 8 -31q6 -16 9.5 -28t3.5 -28q0 -25 -21.5 -52.5t-54 -49
t-61.5 -28.5l-35 39q19 8 36 30t17 43q0 14 -5 29q-7 26 -7 43q0 46 63 74q-30 5 -45 21t-15 41q0 11 1 16l-2 1q-31 -36 -71 -59t-98 -23q-53 0 -97 30.5t-45 94.5q0 41 16 147q4 20 5 30l26 179l-62 38l8 43l194 16l25 -12l-33 -268z" />
    <glyph glyph-name="uni0447" unicode="&#x447;" horiz-adv-x="593" 
d="M209 309q0 -53 49 -53q58 0 93 20l38 288h159l-62 -454q-2 -18 3 -27.5t16 -9.5q18 0 45 22l14 -34q-15 -26 -53 -48.5t-83 -22.5q-49 0 -75.5 24t-26.5 58q0 8 1 12l16 124q-89 -41 -154 -41q-72 0 -103.5 31.5t-31.5 102.5q0 34 8 88l12 81l-62 39l8 43l194 16l25 -12
l-29 -231q-1 -5 -1 -16z" />
    <glyph glyph-name="uni0448" unicode="&#x448;" horiz-adv-x="933" 
d="M232 255q-2 -17 -7.5 -58.5t-5.5 -58.5q0 -36 11 -51.5t36 -15.5q52 0 97 51q16 120 25 180q11 88 35 262h157q-56 -402 -56 -426q0 -35 11.5 -51t35.5 -16q53 0 100 55l60 438h157l-63 -454q-4 -37 20 -37q8 0 16.5 4t28.5 18l13 -34q-6 -11 -24.5 -28t-47 -30
t-63.5 -13q-44 0 -67 17t-23 47q0 10 1 15l-4 5q-75 -84 -180 -84q-59 0 -87.5 22t-28.5 57q0 9 1 13h-2q-33 -40 -74.5 -66t-103.5 -26q-53 0 -97 30.5t-45 94.5q0 26 5.5 68.5t11.5 82.5l4 26l26 178l-62 39l8 43l194 16l25 -12l-33 -268z" />
    <glyph glyph-name="uni0449" unicode="&#x449;" horiz-adv-x="933" 
d="M233 259q-14 -96 -14 -121q0 -36 11 -51.5t36 -15.5q52 0 97 51q9 64 25 192l3 22q22 152 32 228h157q-31 -219 -43 -314q-13 -94 -13 -112q0 -35 11.5 -51t35.5 -16q53 0 100 55l24 176l36 262h157l-63 -454q-4 -37 20 -37q8 0 16.5 4t28.5 18l13 -34q-7 -12 -25.5 -29
t-45.5 -28q-46 -24 -46 -52q0 -9 8 -31q6 -16 9.5 -28t3.5 -28q0 -25 -21.5 -52.5t-54 -49t-61.5 -28.5l-35 39q19 8 36 30t17 43q0 14 -5 29q-7 26 -7 43q0 46 63 74q-61 9 -61 62q0 11 1 16l-4 4q-74 -85 -180 -85q-59 0 -87.5 22t-28.5 58q0 9 1 13h-2q-33 -41 -74.5 -67
t-103.5 -26q-53 0 -97 30.5t-45 94.5q0 26 5.5 68.5t11.5 82.5l4 26l26 179l-62 38l8 43l194 16l25 -12l-33 -268z" />
    <glyph glyph-name="uni044A" unicode="&#x44a;" horiz-adv-x="644" 
d="M6 423q0 50 8.5 88t29.5 46q19 11 49 11q33 0 82.5 -4t62.5 -5q94 -8 120 -8q40 0 76 17q4 2 12 -3t13 -13.5t3 -13.5q-50 -66 -80 -109.5t-51 -84.5q68 50 128 50q67 0 106.5 -33t39.5 -124q0 -68 -37.5 -125t-101.5 -90t-140 -33q-84 0 -140 44.5t-56 132.5
q0 66 31.5 135t92.5 133h-116q-44 0 -67 -28q-16 -21 -18 -47h-43q-4 28 -4 64zM302 274q-17 -53 -17 -107q0 -51 16 -83.5t37 -32.5q57 0 86 45.5t29 111.5q0 41 -19.5 68t-59.5 27q-33 0 -72 -29z" />
    <glyph glyph-name="uni044B" unicode="&#x44b;" horiz-adv-x="852" 
d="M301.5 376q36.5 18 79.5 18q146 0 146 -166q0 -68 -35 -122.5t-96.5 -85.5t-137.5 -31q-86 0 -140.5 45t-54.5 136q0 33 7 68l33 233l-52 28l8 43l179 26l26 -12l-27 -224q28 26 64.5 44zM739 99q0 -12 5.5 -19t14.5 -7q18 0 45 22l14 -34q-16 -26 -54 -48.5t-82 -22.5
q-49 0 -76 24t-27 58q0 8 1 12l62 480h160l-62 -454q-1 -4 -1 -11zM265 297.5q-18 -5.5 -35 -16.5l-11 -94q-5 -26 -5 -54q0 -44 16 -63t40 -19q55 0 78 47.5t23 113.5q0 39 -18.5 65t-57.5 26q-12 0 -30 -5.5z" />
    <glyph glyph-name="uni044C" unicode="&#x44c;" horiz-adv-x="568" 
d="M301.5 376q36.5 18 79.5 18q146 0 146 -166q0 -68 -35 -122.5t-96.5 -85.5t-137.5 -31q-86 0 -140.5 45t-54.5 136q0 33 7 68l33 233l-52 28l8 43l179 26l26 -12l-27 -224q28 26 64.5 44zM265 297.5q-18 -5.5 -35 -16.5q-9 -59 -14 -95q-5 -25 -5 -52q0 -45 17 -64
t42 -19q55 0 78 47.5t23 113.5q0 39 -18.5 65t-57.5 26q-12 0 -30 -5.5z" />
    <glyph glyph-name="uni044D" unicode="&#x44d;" horiz-adv-x="516" 
d="M247 573q119 0 181.5 -60.5t62.5 -177.5q0 -95 -38 -174t-111 -125.5t-174 -46.5q-76 0 -167 36l31 156h59q4 -9 18 -48q8 -26 14 -42t15 -27q15 -18 36 -18q52 0 91.5 59t53.5 155q-77 -12 -140 -15.5t-72 -3.5l-16 91h235v21q0 89 -29 127t-74 38q-36 0 -62 -25
l-33 -72h-85l15 127q130 25 189 25z" />
    <glyph glyph-name="uni044E" unicode="&#x44e;" horiz-adv-x="865" 
d="M372.5 447q41.5 57 104.5 89.5t141 32.5q109 0 165.5 -61.5t56.5 -178.5q0 -95 -39 -173t-110 -124t-164 -46q-106 0 -161.5 58t-60.5 168v37h-75l-34 -249h-155l64 471l-52 28l8 43l179 26l32 -12l-33 -240h76q16 74 57.5 131zM531.5 460.5q-27.5 -40.5 -40.5 -102.5
t-13 -128q0 -98 16.5 -139.5t55.5 -41.5q59 0 87.5 82t28.5 192q0 98 -16 138t-50 40q-41 0 -68.5 -40.5z" />
    <glyph glyph-name="uni044F" unicode="&#x44f;" horiz-adv-x="584" 
d="M33 71.5q6 9.5 16 31.5q23 50 51 86t76 51q-66 12 -98.5 47t-32.5 95q0 186 269 186q27 0 85 -2l60 -2h80q-10 -72 -31.5 -232.5t-30.5 -235.5q0 -10 6 -16.5t13 -6.5q16 0 46 22l14 -34q-6 -10 -27 -27t-52.5 -30.5t-66.5 -13.5q-47 0 -69 21t-22 51q3 29 10 86.5
t10 83.5h-51q-19 -15 -32 -44t-31 -83q-16 -53 -29 -79t-32 -26h-177l6 49l28 13q6 0 12 9.5zM322 506q-61 0 -90 -26.5t-29 -95.5q0 -45 27 -66t81 -21q32 0 37 2l27 204q-21 3 -53 3z" />
    <glyph glyph-name="uni0450" unicode="&#x450;" horiz-adv-x="527" 
d="M386 23.5q-59 -37.5 -142 -37.5q-74 0 -122 31.5t-70 82.5t-22 110q0 102 41.5 184t114 128.5t160.5 46.5q82 0 121 -36t39 -93q0 -73 -48 -121.5t-117.5 -71.5t-137.5 -25q-1 -74 23.5 -112t68.5 -38q51 0 85.5 23t60.5 58l31 -49q-27 -43 -86 -80.5zM233.5 434
q-25.5 -67 -30.5 -153q31 2 66 19.5t59 50.5t24 77q0 73 -41 73q-52 0 -77.5 -67zM295 677.5q-40 28.5 -76 62.5t-51 59l98 86l141 -211l-51 -34q-21 9 -61 37.5z" />
    <glyph glyph-name="uni0451" unicode="&#x451;" horiz-adv-x="527" 
d="M386 23.5q-59 -37.5 -142 -37.5q-74 0 -122 31.5t-70 82.5t-22 110q0 102 41.5 184t114 128.5t160.5 46.5q82 0 121 -36t39 -93q0 -73 -48 -121.5t-117.5 -71.5t-137.5 -25q-1 -74 23.5 -112t68.5 -38q51 0 85.5 23t60.5 58l31 -49q-27 -43 -86 -80.5zM233.5 434
q-25.5 -67 -30.5 -153q31 2 66 19.5t59 50.5t24 77q0 73 -41 73q-52 0 -77.5 -67zM191 675.5q-21 24.5 -21 54.5q0 42 23 69.5t62 27.5q33 0 52.5 -23.5t19.5 -54.5q0 -43 -22 -70.5t-66 -27.5q-27 0 -48 24.5zM411.5 675.5q-20.5 24.5 -20.5 54.5q0 42 22.5 69.5t62.5 27.5
q32 0 52 -23t20 -53q0 -44 -22 -72t-66 -28q-28 0 -48.5 24.5z" />
    <glyph glyph-name="uni0452" unicode="&#x452;" horiz-adv-x="608" 
d="M332.5 535q48.5 33 105.5 33q130 0 130 -148q0 -30 -47 -383l-5 -37q-13 -82 -49.5 -140.5t-89 -88t-113.5 -29.5q-65 0 -83 18l18 58q15 -5 37 -5q42 0 66 32t34 72t22 115q9 42 26 184.5t17 184.5q0 41 -9 56t-30 15q-30 0 -65 -36.5t-60 -89.5l-42 -346h-159l76 630
h-76l7 53h75l5 41l-62 21l8 40l198 21l25 -14l-13 -109h127l-7 -53h-127l-22 -184q34 56 82.5 89z" />
    <glyph glyph-name="uni0453" unicode="&#x453;" horiz-adv-x="443" 
d="M416 876l90 -90q-9 -16 -47.5 -51t-84 -67.5t-72.5 -43.5l-44 42zM154.5 551.5q47.5 16.5 107.5 16.5q86 0 130 -28.5t44 -81.5q0 -47 -24 -83t-57 -60.5t-83 -52.5l-20 -12q-46 -27 -67 -49t-21 -55q0 -31 18 -50.5t54 -19.5q38 0 65.5 11.5t59.5 33.5l15 -65
q-30 -29 -86.5 -47.5t-109.5 -18.5q-84 0 -132 35.5t-48 89.5q0 43 20.5 74.5t50.5 53.5t82 53l25 15q49 34 68.5 61.5t19.5 64.5q0 21 -16 32.5t-43 11.5q-38 0 -72 -13t-44 -23l-10 71q26 19 73.5 35.5z" />
    <glyph glyph-name="uni0454" unicode="&#x454;" horiz-adv-x="514" 
d="M378 502q-4 5 -14 9.5t-22 4.5q-51 0 -87.5 -50t-49.5 -140h216l-16 -92q-50 3 -184 26l-22 4q-1 -11 -1 -35q0 -91 27 -138.5t69 -47.5q33 0 61 26l33 71h86l-16 -126q-28 -7 -90 -16t-98 -9q-119 0 -180 60t-61 178q0 95 37 174t110 125.5t174 46.5q74 0 165 -36
l-31 -156h-59l-44 116z" />
    <glyph glyph-name="uni0455" unicode="&#x455;" horiz-adv-x="428" 
d="M341.5 483.5q-25.5 15.5 -59.5 15.5q-33 0 -55.5 -15.5t-23.5 -43.5q0 -28 19.5 -50.5t67.5 -58.5q50 -36 75 -71t25 -91q0 -58 -31.5 -98.5t-84.5 -60.5t-117 -20q-45 0 -93 11t-63 23l23 97q22 -21 57 -39t73 -18q31 0 55 16t24 48q0 28 -22 52t-68 56q-42 29 -68.5 68
t-26.5 96q0 49 28.5 87t80 59.5t119.5 21.5q37 0 75 -6t52 -12l-21 -100q-15 18 -40.5 33.5z" />
    <glyph glyph-name="uni0456" unicode="&#x456;" horiz-adv-x="327" 
d="M217 97q0 -24 18 -24q8 0 17.5 5t27.5 17l13 -34q-17 -23 -52.5 -47t-89.5 -24q-46 0 -71.5 17.5t-25.5 45.5q0 6 1 10l26 197l28 209l-56 30l8 43l193 26l26 -12l-62 -446q-1 -5 -1 -13zM163.5 678q-23.5 24 -23.5 54q0 41 28 69.5t74 28.5q35 0 56 -23t21 -53
q0 -44 -26 -72t-76 -28q-30 0 -53.5 24z" />
    <glyph glyph-name="uni0457" unicode="&#x457;" horiz-adv-x="327" 
d="M217 97q0 -24 18 -24q8 0 17.5 5t27.5 17l13 -34q-17 -23 -52.5 -47t-89.5 -24q-46 0 -71.5 17.5t-25.5 45.5q0 6 1 10l26 197l28 209l-56 30l8 43l193 26l26 -12l-62 -446q-1 -5 -1 -13zM53 675.5q-21 24.5 -21 54.5q0 42 23 69.5t62 27.5q33 0 52.5 -23.5t19.5 -54.5
q0 -43 -22 -70.5t-66 -27.5q-27 0 -48 24.5zM273.5 675.5q-20.5 24.5 -20.5 54.5q0 42 22.5 69.5t62.5 27.5q32 0 52 -23t20 -53q0 -44 -22 -72t-66 -28q-28 0 -48.5 24.5z" />
    <glyph glyph-name="uni0458" unicode="&#x458;" horiz-adv-x="319" 
d="M169.5 -138.5q-35.5 -58.5 -87.5 -89t-112 -30.5q-31 0 -56 4.5t-34 13.5l20 63q9 -3 21 -4.5t23 -1.5q39 0 62 28t33.5 73t18.5 114l51 447l-80 24l11 40l217 25l25 -12l-67 -556q-10 -80 -45.5 -138.5zM145.5 678q-23.5 24 -23.5 54q0 41 28 69.5t74 28.5q35 0 56 -23
t21 -53q0 -44 -26 -72t-76 -28q-30 0 -53.5 24z" />
    <glyph glyph-name="uni0459" unicode="&#x459;" horiz-adv-x="834" 
d="M570 377q36 17 77 17q65 0 105.5 -37.5t40.5 -128.5q0 -68 -35 -122.5t-96.5 -85.5t-137.5 -31q-87 0 -139 47.5t-52 148.5q0 24 3 52l34 260h-139l-7 -59q-13 -108 -39.5 -222t-51.5 -152q-23 -36 -48 -54t-69 -18q-9 0 -29 4.5t-21 7.5l33 137q3 -3 34.5 -10t40.5 -7
q10 0 23 27q18 40 36.5 127.5t32.5 191.5l-119 28l10 66h481l-32 -229q28 25 64 42zM482 136q0 -85 54 -85q55 0 78 47.5t23 113.5q0 39 -18.5 65t-57.5 26q-12 0 -28.5 -5.5t-33.5 -15.5l-13 -94q-4 -27 -4 -52z" />
    <glyph glyph-name="uni045A" unicode="&#x45a;" horiz-adv-x="898" 
d="M630.5 376q37.5 18 79.5 18q65 0 106 -37.5t41 -128.5q0 -68 -35.5 -122.5t-97 -85.5t-137.5 -31q-85 0 -140 44.5t-55 134.5q0 29 8 69l1 12h-171l-34 -249h-155l64 471l-52 28l8 43l179 26l32 -12l-33 -239h171l34 247h148l-27 -233q28 27 65.5 45zM559 282l-11 -95
q-5 -26 -5 -55q0 -44 15.5 -62.5t39.5 -18.5q56 0 78.5 47t22.5 114q0 39 -18 65t-57 26q-27 0 -65 -21z" />
    <glyph glyph-name="uni045B" unicode="&#x45b;" horiz-adv-x="632" 
d="M332 535q49 33 106 33q130 0 130 -148q0 -38 -25 -173l-7 -41q-14 -78 -14 -106q0 -27 19 -27q8 0 17.5 4.5t26.5 17.5l14 -34q-17 -23 -53 -47t-91 -24q-59 0 -79 22t-20 60q0 27 17 112l6 32q22 125 22 181q0 43 -9 59t-30 16q-30 0 -65 -37t-60 -90l-42 -345h-159
l74 620h-54l9 52h52l6 52l-62 21l8 40l198 21l25 -14l-14 -120h95l-9 -52h-93l-21 -175q33 57 82 90z" />
    <glyph glyph-name="uni045C" unicode="&#x45c;" horiz-adv-x="564" 
d="M368 356q33 41 33 67q0 8 -3 14.5t-4 9.5q-5 10 -8 18t-3 21q0 37 28 57t69 20q32 0 54 -19t22 -52q0 -59 -52 -108.5t-122 -86.5q14 -19 57 -98q34 -64 55 -98t38 -38l35 -18l-5 -45h-157q-28 0 -47.5 35t-43.5 104q-24 64 -39.5 94t-37.5 30h-5l-35 -263h-155l63 471
l-52 28l8 43l180 26l31 -15l-33 -241h87q24 21 42 44zM436 885l93 -90q-9 -16 -48.5 -51t-85 -68t-73.5 -44l-44 43z" />
    <glyph glyph-name="uni045D" unicode="&#x45d;" horiz-adv-x="624" 
d="M232 253q-13 -87 -13 -115q0 -36 11 -51.5t36 -15.5q27 0 52.5 14.5t44.5 36.5l60 442h157l-63 -454q-4 -37 20 -37q8 0 16.5 4.5t27.5 17.5l14 -34q-7 -12 -25 -28.5t-47 -29.5t-64 -13q-39 0 -61 13.5t-27 38.5q-1 3 -1 11q0 12 1 18l-1 1q-32 -36 -72 -59t-98 -23
q-53 0 -97 30.5t-45 94.5q0 41 16 147q4 20 5 30l26 179l-62 38l8 43l194 16l25 -12l-33 -268zM308 677.5q-40 28.5 -76 62.5t-51 59l98 86l141 -211l-51 -34q-21 9 -61 37.5z" />
    <glyph glyph-name="uni045E" unicode="&#x45e;" horiz-adv-x="539" 
d="M52.5 475q-4.5 6 -12.5 6q-13 0 -25 -8l-15 38q13 16 49.5 36.5t77.5 20.5q43 0 65 -17t27 -50l61 -384l14 -97l32 67q78 168 78 276q0 23 -3.5 39t-10.5 35q-7 17 -10 30.5t-3 33.5q0 29 20 48t57 19q41 0 64.5 -30.5t23.5 -70.5q0 -71 -18.5 -128.5t-60.5 -143.5
q-37 -82 -177 -308q-48 -80 -98 -110t-115 -30q-29 0 -61 7t-41 15l37 98q11 -11 39 -20t52 -9q47 0 85 29.5t80 97.5h-89l-114 489q-4 15 -8.5 21zM275 815q0 -9 -2 -27t-2 -25q0 -62 60 -62q37 0 55 14t23 31t11 53q6 38 22 38h105q0 -10 -1 -16q-16 -93 -70 -133.5
t-160 -40.5q-181 0 -181 149q0 22 4 41h122q14 0 14 -22z" />
    <glyph glyph-name="uni045F" unicode="&#x45f;" horiz-adv-x="625" 
d="M232 253q-13 -87 -13 -115q0 -36 11 -51.5t36 -15.5q27 0 52.5 14.5t44.5 36.5l60 442h157l-63 -454q-4 -37 20 -37q8 0 16.5 4.5t27.5 17.5l14 -34q-7 -12 -25 -28.5t-47 -29.5t-64 -13q-44 0 -66.5 17.5t-22.5 48.5q0 10 1 15q-14 -34 -66.5 -57.5t-104.5 -23.5
q-53 0 -97 30.5t-45 94.5q0 41 16 147q4 20 5 30l26 179l-62 38l8 43l194 16l25 -12l-33 -268zM350.5 -55.5q-7.5 -12.5 -7.5 -26.5q0 -5 2 -15q5 -18 7.5 -33t2.5 -41q0 -36 -36.5 -62.5t-86.5 -38.5l-36 40q24 9 35.5 18.5t11.5 30.5q0 14 -3 28q-4 22 -4 39q0 28 20 50.5
t46 36t43 15.5l26 -21q-13 -8 -20.5 -20.5z" />
    <glyph glyph-name="uni0462" unicode="&#x462;" horiz-adv-x="748" 
d="M473 419q116 0 179.5 -47t63.5 -136q0 -119 -89 -182t-243 -63q-7 0 -63 4q-90 5 -102 5h-136l7 52l73 14l65 497l-106 -8l-31 -75h-84l28 147h202l6 51l-71 12l6 53h324l-5 -49l-85 -16l-6 -51h273l-36 -147h-84l6 75l-168 8l-20 -154q54 10 96 10zM384 51
q74 0 115 47.5t41 123.5q0 58 -26 92t-83 34q-16 0 -34.5 -2t-28.5 -4l-38 -288q20 -3 54 -3z" />
    <glyph glyph-name="uni0463" unicode="&#x463;" horiz-adv-x="857" 
d="M336.5 537q46.5 31 102.5 31q129 0 129 -148q0 -22 -11 -79q63 53 134 53q65 0 105.5 -37.5t40.5 -128.5q0 -68 -35 -122.5t-96.5 -85.5t-137.5 -31q-86 0 -140 46t-54 138q0 30 6 64q11 57 16.5 90.5t5.5 69.5q0 43 -9 59t-30 16q-29 0 -63 -34.5t-58 -85.5l-49 -352
h-155l64 471l-52 28l8 43l180 26l25 -12l-8 -103q35 53 81.5 84zM525 133q0 -44 15.5 -63t39.5 -19q55 0 78 47.5t23 113.5q0 39 -18 65t-57 26q-27 0 -59 -19l-17 -96q-5 -26 -5 -55z" />
    <glyph glyph-name="uni046A" unicode="&#x46a;" horiz-adv-x="1042" 
d="M342.5 282.5q-35.5 -51.5 -84.5 -147.5q-35 -68 -56.5 -101.5t-36.5 -33.5h-194l8 51l26 14q15 7 34.5 32t61.5 86q50 74 86.5 121t74.5 74q22 16 41.5 20.5t52.5 4.5h56l-214 276l14 64h736l-4 -64l-300 -277h66q33 0 57.5 -16.5t53.5 -61.5q24 -38 70 -130
q30 -61 48 -92.5t32 -36.5l37 -14l-6 -51h-177q-20 0 -40.5 40t-49.5 118q-34 90 -58 135.5t-50 45.5h-21l-36 -274l82 -14l-4 -51h-325l6 51l76 14l35 269h-29q-33 0 -68.5 -51.5zM526 402l257 242h-433z" />
    <glyph glyph-name="uni046B" unicode="&#x46b;" horiz-adv-x="994" 
d="M966 75l-10 -75h-158q-30 0 -44 29.5t-28 91.5q-13 62 -28 94t-48 32h-66l-34 -247h-155l34 247h-69q-33 0 -58 -32.5t-54 -94.5q-31 -61 -52.5 -90.5t-51.5 -29.5h-158l10 75l49 10q9 4 20 19t30 46q30 49 56 83t64.5 59.5t85.5 25.5h72l-170 185l12 53h664l-2 -53
l-222 -185h70q49 0 80.5 -25.5t48.5 -59.5t33 -83q11 -31 18 -46.5t16 -19.5zM685 463h-301l128 -145h4z" />
    <glyph glyph-name="uni0472" unicode="&#x472;" horiz-adv-x="713" 
d="M630 663.5q69 -89.5 69 -227.5q0 -118 -40.5 -219t-127 -164t-216.5 -63q-144 0 -213 87.5t-69 233.5q0 118 42.5 218.5t129 162t211.5 61.5q145 0 214 -89.5zM282.5 611.5q-48.5 -80.5 -62.5 -203.5q20 26 45 41.5t53 15.5q22 0 39 -9t38 -26q16 -13 26.5 -19t21.5 -6
q43 0 73 36q-2 123 -28.5 187t-84.5 64q-72 0 -120.5 -80.5zM329 50q79 0 126.5 83t57.5 219q-42 -52 -95 -52q-22 0 -39 10t-39 29q-16 14 -25.5 20.5t-20.5 6.5q-25 0 -45.5 -11t-33.5 -28v-10q0 -267 114 -267z" />
    <glyph glyph-name="uni0473" unicode="&#x473;" horiz-adv-x="583" 
d="M502.5 509q57.5 -60 57.5 -175q0 -96 -39 -175.5t-110.5 -126t-164.5 -46.5q-110 0 -166 61.5t-56 178.5q0 95 38.5 173.5t109.5 124t164 45.5q109 0 166.5 -60zM367 466q-16 35 -48 35q-42 0 -70 -42.5t-41 -109.5q22 14 36 14q19 0 31 -10.5t27 -31.5q10 -15 18 -22.5
t18 -7.5q15 0 25 11t22 31v14q-2 84 -18 119zM197 242v-32q3 -87 19 -124t52 -37q43 0 70 45t38 118q-22 -20 -43 -20t-33 10t-27 30q-11 16 -19 23.5t-21 7.5q-20 0 -36 -21z" />
    <glyph glyph-name="uni0474" unicode="&#x474;" horiz-adv-x="631" 
d="M571 719q41 31 86 31q31 0 44 -8l-9 -100q-8 2 -12 2q-32 0 -63.5 -27t-56.5 -93l-209 -529h-182l-111 683l-68 12l7 53h321l-5 -54l-79 -11l55 -430l24 -164l45 124l149 413q23 67 64 98z" />
    <glyph glyph-name="uni0475" unicode="&#x475;" horiz-adv-x="510" 
d="M453 534.5q38 32.5 78 32.5q14 0 32.5 -2t20.5 -4l-13 -104q-3 1 -11 1q-26 0 -54 -21t-51 -72l-176 -375h-121l-97 463q-4 15 -8.5 21t-12.5 6q-16 0 -37 -16l-14 38q14 19 49.5 42.5t80.5 23.5q43 0 69 -17.5t31 -49.5l46 -280l10 -97l34 96l80 212q26 70 64 102.5z
" />
    <glyph glyph-name="uni048A" unicode="&#x48a;" horiz-adv-x="817" 
d="M331 827q-47 33 -47 104q0 26 4 41h132q14 0 14 -23q0 -7 -2 -25q-2 -16 -2 -26q0 -52 58 -52q37 0 55.5 12t24.5 28t11 47q3 18 8 28.5t15 10.5h104q0 -11 -1 -16q-17 -86 -70 -124t-158 -38q-99 0 -146 33zM771 678l-81 -612h99q-9 -59 -22 -108t-31 -103
q-12 -36 -13 -40h-84q0 7 2 25q5 92 5 126q0 25 -1 34h-197l5 51l65 13v2h3l61 453l-45 -64l-291 -337l-7 -53l84 -14l-4 -51h-322l4 51l69 14l81 613l-71 11l7 54h326l-6 -54l-87 -11l-61 -455l39 55l296 341l8 59l-71 11l7 54h326l-6 -54z" />
    <glyph glyph-name="uni048B" unicode="&#x48b;" horiz-adv-x="624" 
d="M232 253q-13 -87 -13 -115q0 -36 11 -51.5t36 -15.5q27 0 52.5 14.5t44.5 36.5l60 442h157l-63 -454q-4 -37 20 -37q8 0 16.5 4.5t27.5 17.5l14 -34q-7 -13 -27 -30.5t-48 -28.5q-43 -23 -43 -50q0 -9 8 -31q6 -16 9.5 -28t3.5 -28q0 -25 -21.5 -52.5t-54 -49
t-61.5 -28.5l-35 39q19 8 36 30t17 43q0 14 -5 29q-7 26 -7 43q0 46 63 74q-30 5 -45 21t-15 41q0 11 1 16l-2 1q-31 -36 -71 -59t-98 -23q-53 0 -97 30.5t-45 94.5q0 41 16 147q4 20 5 30l26 179l-62 38l8 43l194 16l25 -12l-33 -268zM320 815q0 -9 -2 -27t-2 -25
q0 -62 60 -62q37 0 55 14t23 31t11 53q6 38 22 38h105q0 -10 -1 -16q-16 -93 -70 -133.5t-160 -40.5q-181 0 -181 149q0 22 4 41h122q14 0 14 -22z" />
    <glyph glyph-name="uni048C" unicode="&#x48c;" horiz-adv-x="656" 
d="M371 454q125 0 188.5 -46.5t63.5 -137.5q0 -137 -89 -208t-243 -71q-7 0 -63 4q-90 5 -102 5h-135l6 51l73 14l61 463h-93l6 53h94l13 97l-72 11l6 54h325l-6 -49l-85 -16l-12 -97h137l-7 -53h-137l-11 -86q40 12 82 12zM292 52q73 0 114 56t41 148q0 56 -29.5 91
t-78.5 35q-41 0 -59 -6l-43 -322q13 -2 55 -2z" />
    <glyph glyph-name="uni048D" unicode="&#x48d;" horiz-adv-x="540" 
d="M379 394q63 0 102 -36t39 -121q0 -68 -35.5 -124.5t-97 -90t-137.5 -33.5q-87 0 -139 47.5t-52 146.5q0 16 4 54l34 264h-71l8 53h70l22 170l-62 21l8 40l198 21l26 -14l-33 -238h130l-8 -53h-130l-23 -168q72 61 147 61zM259 295.5q-17 -5.5 -34 -14.5l-13 -94
q-3 -25 -3 -46q0 -49 15.5 -69.5t37.5 -20.5q55 0 78 47.5t23 113.5q0 39 -18 64t-57 25q-12 0 -29 -5.5z" />
    <glyph glyph-name="uni048E" unicode="&#x48e;" horiz-adv-x="654" 
d="M323 747q50 4 73 4q146 0 209 -52t63 -158q0 -94 -45.5 -160t-129.5 -100l62 -94l-44 -29l-70 107q-58 -14 -121 -14q-38 0 -58 3l-22 -189l133 -14l-3 -51h-375l5 51l67 14l82 613l-72 11l7 54h152q31 0 87 4zM479.5 444.5q14.5 46.5 15.5 104.5q0 72 -33.5 106
t-93.5 34q-25 0 -48 -4l-50 -366q17 -4 34.5 -4h20.5q41 2 71 18l-61 95l44 29l59 -90q27 31 41.5 77.5z" />
    <glyph glyph-name="uni048F" unicode="&#x48f;" horiz-adv-x="596" 
d="M396 568q84 0 127 -55t43 -157q0 -95 -36.5 -175t-102.5 -129l67 -78l-40 -35l-72 85q-65 -34 -145 -34q-22 0 -50 5l-35 -249h-152l98 725l-53 29l8 42l186 26l25 -12l-5 -42q60 54 137 54zM399 356q0 55 -18 91t-53 36q-43 0 -79 -49l-52 -369q22 -8 53 -8q44 0 76 32
l-81 95l39 34l73 -86q42 81 42 224z" />
    <glyph glyph-name="uni0490" unicode="&#x490;" horiz-adv-x="488" 
d="M570 918l-42 -259l-208 19l-81 -613l138 -14l-4 -51h-377l5 51l68 14l82 612l-72 12l7 54h332l59 175h93z" />
    <glyph glyph-name="uni0491" unicode="&#x491;" horiz-adv-x="440" 
d="M479 714l-22 -216h-192l-68 -498h-156l63 472l-63 26l12 66h299l52 150h75z" />
    <glyph glyph-name="uni0492" unicode="&#x492;" horiz-adv-x="544" 
d="M581 743l-37 -283h-87l-16 213l-119 12l-36 -274h139l-8 -67h-141l-37 -279l110 -14l-5 -51h-348l5 51l68 14l37 279h-94l10 67h93l36 266l-72 12l7 54h495z" />
    <glyph glyph-name="uni0493" unicode="&#x493;" horiz-adv-x="468" 
d="M492 564l-46 -203h-79l8 122l-110 15l-33 -236h131l-6 -53h-132l-28 -209h-155l28 209h-72l6 53h73l28 210l-63 26l12 66h438z" />
    <glyph glyph-name="uni0494" unicode="&#x494;" horiz-adv-x="627" 
d="M341 412q33 13 68 13q110 0 156.5 -50t46.5 -146q0 -100 -40.5 -191.5t-112.5 -148t-162 -56.5q-12 0 -27.5 2.5t-21.5 5.5l6 57q9 -1 38 -1q48 0 86.5 40t60.5 112t22 164q0 73 -19.5 110.5t-63.5 37.5q-30 0 -55 -9.5t-50 -28.5l-34 -259l90 -13l-5 -51h-328l5 51
l68 14l82 612l-72 12l7 54h495l-38 -245h-87l-15 175l-119 12l-41 -307q27 21 60 34z" />
    <glyph glyph-name="uni0495" unicode="&#x495;" horiz-adv-x="599" 
d="M383 311q102 0 150.5 -47t48.5 -128t-40.5 -158t-113 -126t-162.5 -49q-12 0 -28 2t-22 5l7 57q8 -1 38 -1q45 0 82.5 33.5t59.5 90t22 121.5q0 68 -31 98.5t-93 30.5q-20 0 -41 -9t-35 -23l-28 -208h-155l63 472l-63 26l12 66h437l-45 -203h-80l9 122l-110 15l-32 -234
q56 47 150 47z" />
    <glyph glyph-name="uni0496" unicode="&#x496;" horiz-adv-x="1042" 
d="M813.5 336q33.5 -53 75.5 -140q34 -68 51 -97t32 -34h55q-10 -62 -23.5 -111.5t-32.5 -105.5l-11 -33h-84l2 36q6 72 6 118q0 23 -1 31h-58q-20 0 -40.5 40t-49.5 118q-34 90 -58 135.5t-50 45.5h-21l-36 -274l82 -14l-4 -51h-325l6 51l76 14l35 269h-28q-34 0 -69 -51.5
t-85 -148.5q-37 -71 -57 -102.5t-35 -31.5h-194l7 51l26 14q15 7 37 35t60 84q69 100 118.5 156t97.5 63l-171 274l-77 12l6 54h249l-6 -54l-72 -12l146 -273h57l36 274l-80 11l7 54h326l-6 -54l-82 -11l-36 -274h58l214 274l-61 11l7 54h225l-7 -54l-66 -12l-238 -276
q33 -12 66.5 -65z" />
    <glyph glyph-name="uni0497" unicode="&#x497;" horiz-adv-x="992" 
d="M671 -226q20 8 37 29.5t17 43.5q0 11 -6 29q-7 26 -7 43q0 47 63 73q-60 9 -94 65.5t-34 152.5q0 26 4 47h-81l-35 -257h-156l35 257h-85q-17 -69 -58 -130.5t-95.5 -99t-112.5 -37.5q-42 0 -64 17l46 113l46 -48q24 0 47.5 28.5t39 80.5t15.5 118q0 73 -21 114t-51 41
q-47 0 -79 -35l-29 42q21 33 68 66t108 33q71 0 111 -57t40 -163q0 -16 -1 -24h83l32 239h157l-33 -239h87q21 65 61 121t92 89.5t107 33.5q44 0 63 -18l-44 -112l-47 48q-24 0 -47.5 -28.5t-39 -80.5t-15.5 -118q0 -73 21 -114t51 -41q46 0 80 35l29 -43
q-17 -23 -45.5 -47.5t-65.5 -38.5q-18 -9 -30.5 -22t-12.5 -28q0 -11 9 -31q6 -16 9.5 -28t3.5 -28q0 -25 -21.5 -52.5t-54 -49t-61.5 -28.5z" />
    <glyph glyph-name="uni0498" unicode="&#x498;" horiz-adv-x="615" 
d="M135.5 -230.5q-27.5 5.5 -35.5 10.5q12 48 17 72q16 -8 39 -8q87 0 87 94q0 27 -2 57q-15 0 -25.5 1t-18.5 2q-59 7 -116 24t-86 34l43 156h114v-133q20 -12 43 -18t62 -6q61 0 95.5 52t34.5 130q0 53 -24 83t-66 30l-71 -7l7 71l59 3q29 0 55.5 18.5t43.5 58t17 99.5
q0 97 -92 97q-32 0 -52.5 -9.5t-31.5 -30.5l-23 -79h-103l10 147q15 1 70 12q59 11 94 16t65 5q122 0 181.5 -44.5t59.5 -114.5q0 -72 -30.5 -112t-69.5 -56t-96 -29q88 -1 140 -42t52 -109q0 -225 -263 -248q7 -19 11.5 -44.5t4.5 -49.5q0 -60 -39 -99t-114 -39
q-19 0 -46.5 5.5z" />
    </font>
</defs>
</svg>
