<?xml version="1.0" standalone="no"?>
<!DOCTYPE svg PUBLIC "-//W3C//DTD SVG 1.1//EN" "http://www.w3.org/Graphics/SVG/1.1/DTD/svg11.dtd" >
<svg xmlns="http://www.w3.org/2000/svg" xmlns:xlink="http://www.w3.org/1999/xlink" version="1.1">
<metadata>
Created by FontForge 20170731 at Tue Oct 31 15:01:07 2017
 By Aleksey,,,
Copyright 2016 The Merriweather Project Authors (https://github.com/EbenSorkin/Merriweather), with Reserved Font Name "Merriweather".
</metadata>
<defs>
<font id="Merriweather-Bold" horiz-adv-x="0" >
  <font-face 
    font-family="Merriweather"
    font-weight="700"
    font-stretch="normal"
    units-per-em="1000"
    panose-1="0 0 8 0 0 0 0 0 0 0"
    ascent="800"
    descent="-200"
    x-height="555"
    cap-height="743"
    bbox="-452 -273 1470 1056"
    underline-thickness="50"
    underline-position="-150"
    unicode-range="U+000D-FB02"
  />
<missing-glyph horiz-adv-x="864" 
d="M778 0h-692v691h692v-691zM596 123l55 55l-170 168l170 163l-58 56l-160 -171l-163 172l-56 -57l168 -165l-167 -155l58 -66l158 172z" />
    <glyph glyph-name="fi" unicode="fi" horiz-adv-x="755" 
d="M114 478h-84v56l84 20v44q0 65 34.5 119t92.5 85.5t123 31.5q34 0 64 -10v-128q-10 10 -39.5 20t-61.5 10q-39 0 -55.5 -19.5t-16.5 -66.5v-85h127v-77h-127v-410l105 -8v-60h-325v60l79 9v409zM515 668q-21 21 -21 54q0 38 24 63t64 25t61 -21.5t21 -53.5q0 -40 -24 -64
t-67 -24h-1q-36 0 -57 21zM519 461l-71 19v67l183 22h2l28 -20v-481l67 -8v-60h-279v60l70 9v392z" />
    <glyph glyph-name="fl" unicode="fl" horiz-adv-x="748" 
d="M114 478h-84v56l84 20v44q0 65 34.5 119t92.5 85.5t123 31.5q34 0 64 -10v-128q-10 10 -39.5 20t-61.5 10q-39 0 -55.5 -19.5t-16.5 -66.5v-85h127v-77h-127v-410l105 -8v-60h-325v60l79 9v409zM511 731l-74 13v54l185 22h2l27 -19v-733l73 -8v-60h-283v60l70 9v662z" />
    <glyph glyph-name="f_f" unicode="ff" horiz-adv-x="816" 
d="M114 478h-84v56l84 20v44q0 65 34.5 119t92.5 85.5t123 31.5q34 0 64 -10v-128q-10 10 -39.5 20t-61.5 10q-39 0 -55.5 -19.5t-16.5 -66.5v-85h127v-77h-127v-410l105 -8v-60h-325v60l79 9v409zM522 478h-84v56l84 20v44q0 65 34.5 119t92.5 85.5t123 31.5q34 0 64 -10
v-128q-10 10 -39.5 20t-61.5 10q-39 0 -55.5 -19.5t-16.5 -66.5v-85h127v-77h-127v-410l105 -8v-60h-325v60l79 9v409z" />
    <glyph glyph-name="f_f_i" unicode="ffi" horiz-adv-x="1163" 
d="M114 478h-84v56l84 20v44q0 65 34.5 119t92.5 85.5t123 31.5q34 0 64 -10v-128q-10 10 -39.5 20t-61.5 10q-39 0 -55.5 -19.5t-16.5 -66.5v-85h127v-77h-127v-410l105 -8v-60h-325v60l79 9v409zM522 478h-84v56l84 20v44q0 65 34.5 119t92.5 85.5t123 31.5q34 0 64 -10
v-128q-10 10 -39.5 20t-61.5 10q-39 0 -55.5 -19.5t-16.5 -66.5v-85h127v-77h-127v-410l105 -8v-60h-325v60l79 9v409zM923 668q-21 21 -21 54q0 38 24 63t64 25t61 -21.5t21 -53.5q0 -40 -24 -64t-67 -24h-1q-36 0 -57 21zM927 461l-71 19v67l183 22h2l28 -20v-481l67 -8
v-60h-279v60l70 9v392z" />
    <glyph glyph-name="f_f_l" unicode="ffl" horiz-adv-x="1156" 
d="M114 478h-84v56l84 20v44q0 65 34.5 119t92.5 85.5t123 31.5q34 0 64 -10v-128q-10 10 -39.5 20t-61.5 10q-39 0 -55.5 -19.5t-16.5 -66.5v-85h127v-77h-127v-410l105 -8v-60h-325v60l79 9v409zM522 478h-84v56l84 20v44q0 65 34.5 119t92.5 85.5t123 31.5q34 0 64 -10
v-128q-10 10 -39.5 20t-61.5 10q-39 0 -55.5 -19.5t-16.5 -66.5v-85h127v-77h-127v-410l105 -8v-60h-325v60l79 9v409zM919 731l-74 13v54l185 22h2l27 -19v-733l73 -8v-60h-283v60l70 9v662z" />
    <glyph glyph-name=".notdef" horiz-adv-x="864" 
d="M778 0h-692v691h692v-691zM596 123l55 55l-170 168l170 163l-58 56l-160 -171l-163 172l-56 -57l168 -165l-167 -155l58 -66l158 172z" />
    <glyph glyph-name=".null" 
 />
    <glyph glyph-name="nonmarkingreturn" unicode="&#xd;" horiz-adv-x="237" 
 />
    <glyph glyph-name="NULL" 
 />
    <glyph glyph-name="NULL" 
 />
    <glyph glyph-name="space" unicode=" " horiz-adv-x="237" 
 />
    <glyph glyph-name="exclam" unicode="!" horiz-adv-x="352" 
d="M216 250h-86l-38 635h161zM119 126q27 24 64 24t58.5 -22.5t21.5 -53.5q0 -38 -26.5 -60.5t-67.5 -22.5q-31 0 -54 21t-23 54q0 36 27 60z" />
    <glyph glyph-name="quotedbl" unicode="&#x22;" horiz-adv-x="632" 
d="M223 436h-85l-23 400h132zM494 436h-85l-23 400h132z" />
    <glyph glyph-name="numbersign" unicode="#" horiz-adv-x="744" 
d="M71 277h121l18 184h-115v74h127l23 208h107l-24 -208h150l24 208h107l-24 -208h113v-74h-124l-18 -184h120l1 -74h-131l-22 -203h-106l21 203h-151l-22 -203h-108l23 203h-110v74zM317 461l-19 -184h148l21 184h-150z" />
    <glyph glyph-name="dollar" unicode="$" horiz-adv-x="664" 
d="M535 62q-55 -59 -166 -70l-1 -118h-80l1 116q-61 4 -109 16t-96 27l8 178h82l24 -123q37 -35 118 -35q130 0 130 112q0 34 -22 61.5t-57 49t-98 53.5q-58 30 -95.5 59t-60.5 71.5t-23 101.5q0 73 55.5 125.5t149.5 63.5v110h82v-109q50 -3 88.5 -13t80.5 -23l-5 -164h-80
l-23 113q-12 11 -35 19t-51 8q-56 0 -90 -26.5t-34 -73.5q0 -38 22.5 -66t52 -46t90.5 -51q69 -38 107.5 -65.5t64 -66.5t25.5 -93q0 -82 -55 -141z" />
    <glyph glyph-name="percent" unicode="%" horiz-adv-x="1063" 
d="M643 751h93l-321 -751h-92zM134 343q-42 28 -64 76t-22 106q0 67 27 116.5t73.5 75.5t103.5 26q97 0 142.5 -58t45.5 -154q0 -67 -27.5 -116t-74.5 -74.5t-103 -25.5q-59 0 -101 28zM304.5 415.5q19.5 40.5 19.5 111.5q0 68 -18.5 111.5t-59.5 43.5t-61 -40t-20 -111
q0 -64 19 -110t59 -46q42 0 61.5 40.5zM707.5 42.5q-42.5 28.5 -64.5 76t-22 105.5q0 67 27 116.5t74 75.5t104 26q96 0 141.5 -58t45.5 -154q0 -67 -27.5 -116t-74.5 -74.5t-103 -25.5q-58 0 -100.5 28.5zM877.5 115q19.5 40 19.5 111q0 67 -18.5 111t-58.5 44
q-42 0 -62 -40t-20 -111q0 -64 19 -109.5t59 -45.5q42 0 61.5 40z" />
    <glyph glyph-name="ampersand" unicode="&#x26;" horiz-adv-x="762" 
d="M749 345l-74 -13q1 -63 -20 -117.5t-55 -91.5q31 -28 60.5 -42.5t65.5 -16.5v-56q-10 -7 -39.5 -11t-47.5 -4q-39 0 -68 10.5t-64 36.5q-67 -50 -183 -50q-129 0 -203 52.5t-74 146.5q0 64 43 110t108 71q-40 52 -62.5 98.5t-22.5 100.5q0 50 28.5 92.5t78.5 67t110 24.5
q63 0 106.5 -20.5t64.5 -53.5t21 -69q0 -54 -19.5 -92.5t-56 -67.5t-96.5 -62q40 -48 93.5 -108t87.5 -92l20 -19q35 57 35 141l-1 22l-77 13v66h241v-66zM265.5 507q20.5 -39 50.5 -76q49 42 69 83t20 94q0 35 -17 64.5t-59 29.5q-37 0 -60.5 -29.5t-23.5 -80.5
q0 -46 20.5 -85zM450 85q-40 34 -85 84.5t-105 123.5q-11 12 -24 29q-28 -23 -46 -54t-18 -67q0 -65 44.5 -105.5t123.5 -40.5q69 0 110 30z" />
    <glyph glyph-name="quotesingle" unicode="'" horiz-adv-x="362" 
d="M223 436h-85l-23 400h132z" />
    <glyph glyph-name="parenleft" unicode="(" horiz-adv-x="441" 
d="M106.5 578q49.5 106 110.5 168.5t102 85.5l51 -38q-31 -19 -73.5 -77.5t-76 -158.5t-33.5 -231t33 -232t76 -162t75 -83l-52 -38q-85 51 -173.5 173.5t-88.5 348.5q0 138 49.5 244z" />
    <glyph glyph-name="parenright" unicode=")" horiz-adv-x="441" 
d="M334.5 67q-49.5 -106 -110.5 -168.5t-102 -85.5l-51 38q31 19 73.5 77.5t76 159t33.5 232.5q0 130 -33 231t-75.5 161.5t-74.5 82.5l51 38q85 -51 173.5 -173.5t88.5 -348.5q0 -138 -49.5 -244z" />
    <glyph glyph-name="asterisk" unicode="*" horiz-adv-x="659" 
d="M292 573l-120 34l-104 49l55 97l95 -67l93 -84l-32 118l-12 119h117l-10 -116l-27 -118l90 84l95 67l58 -96l-102 -51l-122 -36l122 -34l104 -47l-59 -100l-91 66l-95 83l32 -118l12 -118h-116l9 118l26 119l-90 -86l-93 -68l-58 97l103 51z" />
    <glyph glyph-name="plus" unicode="+" horiz-adv-x="661" 
d="M287 361l-3 80v110h93v-110l-4 -80l77 6h109v-94h-109l-77 3l4 -78v-116h-93v116l3 78l-91 -3h-94v94h94z" />
    <glyph glyph-name="comma" unicode="," horiz-adv-x="334" 
d="M235.5 130.5q26.5 -37.5 26.5 -94.5q0 -60 -20.5 -118t-51 -100.5t-58.5 -57.5h-1l-43 29v15q23 19 42 73t19 101q0 15 -6 25t-19 23q-16 17 -24 31.5t-8 40.5q0 32 21 51t53 19h6q37 0 63.5 -37.5z" />
    <glyph glyph-name="hyphen" unicode="-" horiz-adv-x="631" 
d="M519 273h-407v94h407v-94z" />
    <glyph glyph-name="period" unicode="." horiz-adv-x="293" 
d="M85 12.5q-23 21.5 -23 54.5q0 37 26.5 60.5t64.5 23.5q36 0 57 -22.5t21 -53.5q0 -39 -25.5 -61.5t-66.5 -22.5q-31 0 -54 21.5z" />
    <glyph glyph-name="slash" unicode="/" horiz-adv-x="431" 
d="M135 -177h-101l262 958h101z" />
    <glyph glyph-name="zero" unicode="0" horiz-adv-x="657" 
d="M123.5 75.5q-67.5 85.5 -67.5 232.5q0 104 39 176.5t103.5 109t143.5 36.5q129 0 194 -81.5t65 -230.5q0 -103 -37.5 -177.5t-101.5 -112.5t-143 -38q-128 0 -195.5 85.5zM421.5 114.5q29.5 64.5 29.5 192.5q0 136 -27.5 199.5t-93.5 63.5q-124 0 -124 -251
q0 -134 29.5 -201.5t93.5 -67.5q63 0 92.5 64.5z" />
    <glyph glyph-name="one" unicode="1" horiz-adv-x="458" 
d="M178 490q-17 -6 -61 -15.5t-69 -12.5l-11 70q54 11 112.5 39.5t95.5 59.5h1l79 -11v-550l114 -11v-59h-381v59l120 10v421z" />
    <glyph glyph-name="two" unicode="2" horiz-adv-x="605" 
d="M266 235q89 99 89 191q0 49 -30.5 78.5t-85.5 29.5q-52 0 -87.5 -19.5t-69.5 -50.5l-38 55q20 25 57.5 51t87.5 43.5t101 17.5q73 0 122.5 -25t73.5 -66t24 -91q0 -96 -92 -193t-234 -178l290 27l38 84l63 -13l-29 -176h-487l-21 54q139 82 228 181z" />
    <glyph glyph-name="three" unicode="3" horiz-adv-x="566" 
d="M105.5 -155.5q-34.5 4.5 -56.5 10.5v74q42 -13 90 -13q70 0 121.5 23t78.5 62t27 86q0 64 -38 99t-113 37l-60 -15l-21 61q41 7 81 25q58 26 90 65.5t32 84.5q0 50 -30.5 73t-77.5 23q-44 0 -82.5 -15t-65.5 -37l-35 61q29 28 94.5 55t133.5 27q95 0 154.5 -40.5
t59.5 -122.5q0 -72 -56 -127t-137 -84q10 1 30 1q89 0 144.5 -45t55.5 -120q1 -72 -42.5 -129.5t-124.5 -90.5t-189 -33q-29 0 -63.5 4.5z" />
    <glyph glyph-name="four" unicode="4" horiz-adv-x="661" 
d="M392 0h-330l-32 52q86 163 284 629h30l113 -58l-255 -486l-44 -65l235 14l10 187l109 9v-188l128 7v-101h-128v-160h-120v160z" />
    <glyph glyph-name="five" unicode="5" horiz-adv-x="612" 
d="M148 -93q69 0 125.5 28t89.5 76.5t33 107.5q0 75 -36 108t-104 33q-33 0 -72.5 -9t-65.5 -21l-33 23l48 369h309l10 19h69l-21 -125h-274l-41 -208q29 15 69.5 26.5t86.5 11.5q102 0 156.5 -53t54.5 -150q0 -86 -50.5 -155.5t-140 -109t-201.5 -39.5q-38 0 -70 7v63
q38 -2 58 -2z" />
    <glyph glyph-name="six" unicode="6" horiz-adv-x="671" 
d="M193 29q-61 41 -92.5 112t-31.5 160q0 128 63 234.5t161 172t197 78.5l29 -54q-107 -32 -179.5 -110.5t-101.5 -181.5q25 24 65 40.5t92 16.5q99 0 156.5 -61.5t57.5 -168.5q0 -74 -32 -138t-93 -102.5t-145 -38.5q-85 0 -146 41zM272.5 403.5q-32.5 -17.5 -49.5 -38.5
q-3 -28 -3 -57q-2 -121 27.5 -190t96.5 -69q57 0 87.5 54.5t30.5 135.5q0 95 -31 138.5t-85 43.5q-41 0 -73.5 -17.5z" />
    <glyph glyph-name="seven" unicode="7" horiz-adv-x="594" 
d="M148 -140q101 208 252 581l39 94l-265 -4l-51 -147l-84 16l25 222h477l26 -33l-158 -453l-111 -316z" />
    <glyph glyph-name="eight" unicode="8" horiz-adv-x="641" 
d="M92 288.5q38 48.5 112 80.5q-56 36 -87 80.5t-31 110.5q0 60 32.5 103.5t87.5 66.5t121 23q70 0 121 -21t78 -59t27 -87q0 -55 -34 -100.5t-98 -77.5q79 -45 124 -94t45 -121q0 -62 -35.5 -108t-98 -71t-140.5 -25q-110 0 -186 47.5t-76 145.5q0 58 38 106.5z
M231.5 531.5q20.5 -26.5 51 -46t84.5 -48.5q37 23 57.5 56t20.5 71q0 63 -31.5 97t-87.5 34q-48 0 -81.5 -27.5t-33.5 -76.5q0 -33 20.5 -59.5zM428 226.5q-20 25.5 -49.5 44.5t-82.5 47q-28 14 -42 22q-37 -24 -59.5 -59t-22.5 -77q0 -69 39.5 -111t108.5 -42
q33 0 62.5 14.5t47.5 40.5t18 61q0 34 -20 59.5z" />
    <glyph glyph-name="nine" unicode="9" horiz-adv-x="661" 
d="M477.5 591.5q60.5 -39.5 90.5 -108t30 -157.5q0 -133 -58.5 -241.5t-152.5 -175t-195 -79.5l-29 54q107 33 174 111t93 185q-25 -25 -63 -41.5t-85 -16.5q-66 0 -117 30t-79.5 84t-28.5 126q0 73 32.5 134.5t94.5 98t146 36.5q87 0 147.5 -39.5zM396 216q33 18 48 40
q2 21 4 63q0 120 -28.5 185.5t-97.5 65.5q-56 0 -87 -53t-31 -129q0 -97 32 -143.5t87 -46.5q40 0 73 18z" />
    <glyph glyph-name="colon" unicode=":" horiz-adv-x="341" 
d="M108 420.5q-23 21.5 -23 54.5q0 37 26.5 60.5t64.5 23.5q36 0 57.5 -22.5t21.5 -53.5q0 -39 -26 -61.5t-67 -22.5q-31 0 -54 21.5zM108 12.5q-23 21.5 -23 54.5q0 37 26.5 60.5t64.5 23.5q36 0 57.5 -22.5t21.5 -53.5q0 -39 -26 -61.5t-67 -22.5q-31 0 -54 21.5z" />
    <glyph glyph-name="semicolon" unicode=";" horiz-adv-x="341" 
d="M109 420.5q-23 21.5 -23 54.5q0 37 26.5 60.5t64.5 23.5q36 0 57 -22.5t21 -53.5q0 -39 -25.5 -61.5t-66.5 -22.5q-31 0 -54 21.5zM235.5 130.5q26.5 -37.5 26.5 -94.5q0 -60 -20.5 -118t-51 -100.5t-58.5 -57.5h-1l-43 29v15q23 19 42 73t19 101q0 15 -6 25t-19 23
q-16 17 -24 31.5t-8 40.5q0 32 21 51t53 19h6q37 0 63.5 -37.5z" />
    <glyph glyph-name="less" unicode="&#x3c;" horiz-adv-x="669" 
d="M555 469l-345 -168l345 -170v-104l-473 244v59l473 245v-106z" />
    <glyph glyph-name="equal" unicode="=" horiz-adv-x="653" 
d="M556 392h-456v89h456v-89zM556 120h-456v89h456v-89z" />
    <glyph glyph-name="greater" unicode="&#x3e;" horiz-adv-x="669" 
d="M114 27v104l345 170l-345 168v106l473 -245v-59z" />
    <glyph glyph-name="question" unicode="?" horiz-adv-x="503" 
d="M135 388q0 31 20 58t50 51t84 60l36 25q4 10 9.5 32t5.5 43q0 41 -23 78t-69 60t-113 23q-41 0 -75 -17l-21 79q20 11 59.5 19t88.5 8q99 0 164.5 -32.5t95.5 -86.5t30 -120q0 -49 -20 -85t-47.5 -59t-70.5 -50q-31 -20 -49 -34t-29 -30q-5 -15 -4 -30q0 -79 8 -126h-87
q-40 73 -43 134zM151 12q-23 21 -23 54q0 36 27 60t64 24t58.5 -22.5t21.5 -53.5q0 -38 -26.5 -60.5t-67.5 -22.5q-31 0 -54 21z" />
    <glyph glyph-name="at" unicode="@" horiz-adv-x="1083" 
d="M150.5 475q69.5 138 194.5 218t284 80q107 0 191.5 -44.5t132.5 -129.5t48 -202q0 -126 -52 -217.5t-124 -139t-130 -47.5q-29 0 -49 25t-20 69q0 49 15 132q-36 -99 -87 -166t-110 -67q-34 0 -67 24.5t-53.5 70.5t-20.5 107q0 79 32.5 156.5t92 127t136.5 49.5
q28 0 59 -7.5t57 -20.5q3 10 11.5 18t17.5 6l32 -11l39 -13q-25 -116 -40.5 -201.5t-15.5 -145.5q0 -32 6.5 -51t14.5 -19q43 0 84.5 36t67.5 102t26 150q0 177 -95.5 255t-237.5 78q-121 0 -215.5 -65.5t-148 -181.5t-53.5 -264q0 -121 42.5 -205t114.5 -126.5t160 -42.5
q58 0 117.5 13t88.5 33l18 -42q-40 -34 -106 -54t-140 -20q-111 0 -199 52t-138 148.5t-50 224.5q0 170 69.5 308zM428.5 133q15.5 -41 44.5 -41q32 0 75.5 63t72.5 146q23 68 28 106q-12 13 -48 25.5t-57 12.5q-41 0 -71 -32t-45 -83.5t-15 -109.5q0 -46 15.5 -87z" />
    <glyph glyph-name="A" unicode="A" horiz-adv-x="702" 
d="M273 747h153l231 -677l58 -10v-60h-295v60l75 10l-39 130h-259l-39 -131l81 -9v-60h-255l-1 60l60 10zM342 578l-18 78l-19 -79l-89 -307h220z" />
    <glyph glyph-name="B" unicode="B" horiz-adv-x="705" 
d="M118 668l-78 13v62h149q34 0 88 4q13 1 31 2t42 1q151 0 211.5 -42.5t60.5 -126.5q0 -74 -44.5 -123.5t-116.5 -60.5q99 1 155.5 -45t56.5 -128q0 -104 -73 -167t-244 -63q-45 0 -83 3q-10 0 -34 1.5t-49 1.5h-151v60l79 10v598zM308 418h47q61 0 91 38t30 107
q0 66 -31 96t-103 30q-19 0 -79 -4v-266q11 -1 45 -1zM351 57q85 0 123 40t38 116q0 73 -34.5 104.5t-109.5 31.5q-84 0 -105 -2v-281q23 -9 88 -9z" />
    <glyph glyph-name="C" unicode="C" horiz-adv-x="658" 
d="M119 90.5q-90 101.5 -90 277.5q0 116 47.5 202.5t130.5 133.5t188 47q44 0 85 -5.5t97 -14.5q42 -7 46 -7l-11 -206h-92l-31 143q-11 11 -38 18t-69 7q-85 0 -136.5 -78.5t-51.5 -227.5q0 -144 49 -235t143 -91q45 0 69.5 8.5t41.5 24.5l44 103l84 -8l-20 -155
q-21 -2 -41.5 -7.5t-25.5 -6.5q-40 -11 -74.5 -17.5t-84.5 -6.5q-170 0 -260 101.5z" />
    <glyph glyph-name="D" unicode="D" horiz-adv-x="761" 
d="M118 668l-75 13v62h146q33 0 89 4q13 1 39.5 2t47.5 1q184 0 275.5 -92t91.5 -261q0 -118 -45.5 -210t-129.5 -143.5t-196 -51.5q-29 0 -91 4q-58 4 -79 4h-152v60l79 10v598zM358 58q100 2 157 80.5t57 235.5q0 149 -56 230.5t-174 81.5q-25 0 -47.5 -3t-31.5 -4v-612
q34 -9 95 -9z" />
    <glyph glyph-name="E" unicode="E" horiz-adv-x="655" 
d="M118 668l-80 13v62h533l13 -168h-70l-33 99l-216 9v-269l139 3l16 82h64v-242h-64l-16 86l-139 3v-282l242 12l58 128l75 -21l-26 -183h-575v60l79 10v598z" />
    <glyph glyph-name="F" unicode="F" horiz-adv-x="622" 
d="M118 668l-82 13v62h552l10 -181h-80l-37 110l-216 11v-283l149 3l19 88h64v-254h-63l-20 90l-149 4v-261l153 -10v-60h-377v60l77 10v598z" />
    <glyph glyph-name="G" unicode="G" horiz-adv-x="744" 
d="M196.5 37.5q-79.5 48.5 -120.5 133.5t-41 192q0 123 47.5 211t134.5 133t203 45q109 0 245 -31l-11 -186h-101l-27 128q-10 10 -38 18.5t-73 8.5q-98 0 -154 -79.5t-56 -229.5q0 -147 48 -237.5t146 -90.5q40 0 75 10t53 26v215l-106 10v67h304v-67l-53 -9v-265
q-21 -1 -76 -17q-64 -17 -109.5 -25.5t-100.5 -8.5q-110 0 -189.5 48.5z" />
    <glyph glyph-name="H" unicode="H" horiz-adv-x="835" 
d="M119 668l-74 13v62h304v-62l-84 -13v-251h304v251l-77 13v62h300v-62l-76 -13v-598l76 -10v-60h-301v60l78 10v271h-304v-271l84 -10v-60h-306v60l76 10v598z" />
    <glyph glyph-name="I" unicode="I" horiz-adv-x="411" 
d="M131 668l-85 13v62h320v-62l-88 -13v-598l88 -11v-59h-320v60l85 10v598z" />
    <glyph glyph-name="J" unicode="J" horiz-adv-x="391" 
d="M61.5 -90q34.5 33 50.5 83q11 34 16 81.5t5 133.5v459l-90 14v62h320v-62l-84 -13v-393q0 -107 -2.5 -165.5t-10.5 -93.5q-21 -81 -86 -134.5t-160 -69.5l-33 52q40 13 74.5 46z" />
    <glyph glyph-name="K" unicode="K" horiz-adv-x="746" 
d="M531 38.5q-24 38.5 -67 122.5q-37 72 -62 116t-48 73l-89 -102v-178l86 -11v-59h-311v60l79 10v598l-78 13v62h301v-62l-77 -13v-326l263 326l-82 13v62h270v-62l-83 -13l-194 -218q35 -32 74 -90.5t95 -152.5q41 -69 62 -100.5t32 -36.5l47 -11v-59h-179q-15 0 -39 38.5
z" />
    <glyph glyph-name="L" unicode="L" horiz-adv-x="638" 
d="M119 668l-77 13v62h320v-62l-96 -13v-597l214 9l63 187l81 -11l-31 -256h-553v60l79 10v598z" />
    <glyph glyph-name="M" unicode="M" horiz-adv-x="1017" 
d="M160 668l-108 13v62h312l119 -430l28 -117l24 117l118 430h309v-62l-109 -13l80 -597l81 -11v-60h-319v60l88 10l-44 438l-19 183l-37 -154l-145 -506h-106l-148 480l-51 180l-15 -183l-38 -438l101 -10v-60h-278v60l84 10z" />
    <glyph glyph-name="N" unicode="N" horiz-adv-x="803" 
d="M119 668l-79 13v62h227l298 -450l56 -114v489l-86 13v62h248v-62l-77 -13v-668h-121l-311 473l-70 132v-535l101 -10v-60h-265v60l79 10v598z" />
    <glyph glyph-name="O" unicode="O" horiz-adv-x="728" 
d="M111 91q-81 102 -81 278q0 115 42.5 202t119.5 134t177 47q165 0 247.5 -97.5t82.5 -272.5q0 -116 -43.5 -205.5t-121.5 -138.5t-179 -49q-163 0 -244 102zM237 610q-46 -81 -46 -240q0 -157 44.5 -238.5t127.5 -81.5q81 0 127 85.5t46 246.5q0 156 -44 232.5t-127 76.5
q-82 0 -128 -81z" />
    <glyph glyph-name="P" unicode="P" horiz-adv-x="661" 
d="M119 668l-75 13v62h151q21 0 65 2q58 4 105 4q104 0 164.5 -25.5t86 -73t25.5 -120.5q0 -126 -78.5 -196t-217.5 -70q-55 0 -79 3v-197l134 -10v-60h-360v60l79 10v598zM343 326q67 0 107.5 46.5t40.5 154.5q0 84 -36.5 122.5t-111.5 38.5q-28 0 -58 -4q-14 -2 -20 -2
v-351q23 -5 78 -5z" />
    <glyph glyph-name="Q" unicode="Q" horiz-adv-x="730" 
d="M718 -176.5q-40 14.5 -72 35.5t-80 56q-47 34 -76.5 53t-60.5 28q-42 -7 -73 -7q-162 0 -243.5 102t-81.5 278q0 115 42.5 202t119.5 134t177 47q166 0 248 -97.5t82 -272.5q0 -124 -49.5 -216.5t-136.5 -138.5q39 -5 76.5 -21t91.5 -44q59 -30 98.5 -45.5t77.5 -15.5
q27 0 45 4l13 -45q-22 -27 -49.5 -39t-64.5 -12q-44 0 -84 14.5zM491 135.5q46 85.5 46 246.5q0 156 -44 232.5t-127 76.5q-82 0 -128 -81t-46 -240q0 -157 45 -238.5t127 -81.5q81 0 127 85.5z" />
    <glyph glyph-name="R" unicode="R" horiz-adv-x="721" 
d="M39 60l79 10v598l-75 14v61h145q19 0 42 1t35 2q52 4 86 4q103 0 165 -21t90 -64t28 -113q0 -69 -37 -128t-107 -81q40 -17 71 -62t66 -117q25 -49 38.5 -70.5t26.5 -24.5l33 -10v-59h-170q-16 0 -33.5 32.5t-45.5 102.5q-33 82 -57 128t-51 57h-103v-250l92 -10v-60
h-318v60zM446 422q32 41 32 123q0 73 -31.5 108t-108.5 35q-28 0 -47.5 -2.5t-25.5 -2.5v-300q12 -2 58 -2h34q57 0 89 41z" />
    <glyph glyph-name="S" unicode="S" horiz-adv-x="603" 
d="M200 -2q-43 9 -96 24q-35 10 -47 11l9 185h81l22 -129q13 -14 46.5 -25t76.5 -11q67 0 100.5 29.5t33.5 82.5q0 35 -20 60.5t-55 46t-96 47.5q-83 38 -137.5 90.5t-54.5 142.5q0 56 29 101.5t86.5 72t140.5 26.5q49 0 86.5 -7t81.5 -19q26 -7 39 -9l-6 -175h-80l-21 123
q-9 9 -36 17.5t-60 8.5q-60 0 -90.5 -27.5t-30.5 -73.5q0 -37 22.5 -64t54.5 -45.5t101 -52.5q56 -27 96 -53t69 -67.5t29 -97.5q0 -55 -27.5 -105t-90 -83t-159.5 -33q-54 0 -97 9z" />
    <glyph glyph-name="T" unicode="T" horiz-adv-x="712" 
d="M282 677l-143 -5l-39 -218h-84l17 289h645l12 -289h-79l-39 218l-141 5v-607l140 -10v-60h-417v60l128 10v607z" />
    <glyph glyph-name="U" unicode="U" horiz-adv-x="743" 
d="M159 68q-74 76 -74 239v361l-66 13v62h302v-62l-85 -14v-373q0 -238 169 -238q83 0 123 61.5t40 172.5v377l-86 14v62h250v-62l-68 -13v-370q0 -156 -75.5 -231t-203.5 -75q-152 0 -226 76z" />
    <glyph glyph-name="V" unicode="V" horiz-adv-x="687" 
d="M-18 743h304v-62l-85 -13l149 -448l29 -101l25 102l140 447l-79 13v62h242v-62l-64 -13l-230 -675h-119l-252 675l-60 13v62z" />
    <glyph glyph-name="W" unicode="W" horiz-adv-x="1017" 
d="M-18 743h300v-62l-87 -13l126 -451l23 -111l23 111l107 366l-28 85l-66 13v62h313v-62l-96 -13l125 -451l27 -120l21 120l114 451l-90 13v62h241v-62l-64 -13l-190 -673h-132l-138 467l-132 -467h-130l-206 672l-61 14v62z" />
    <glyph glyph-name="X" unicode="X" horiz-adv-x="719" 
d="M288 363l-204 304l-69 14v62h327v-62l-85 -14l137 -227l141 228l-86 13v62h257v-62l-81 -14l-194 -272l218 -325l70 -10v-60h-326v60l84 10l-150 245l-144 -245l96 -10v-60h-273v60l84 10z" />
    <glyph glyph-name="Y" unicode="Y" horiz-adv-x="651" 
d="M255 295l-214 373l-57 13v62h294v-62l-71 -13l125 -245l28 -69l29 69l115 245l-78 13v62h244v-62l-62 -12l-199 -373v-226l109 -10v-60h-369v60l106 10v225z" />
    <glyph glyph-name="Z" unicode="Z" horiz-adv-x="655" 
d="M451 687l-260 -14l-54 -135l-74 10l23 197h507l24 -53l-362 -562l-69 -69l308 20l56 155l76 -15l-23 -221h-550l-31 53l370 565z" />
    <glyph glyph-name="bracketleft" unicode="[" horiz-adv-x="430" 
d="M102.5 765.5q12.5 22.5 36.5 30.5t64 8q62 0 146 -19v-51h-136v-800h136v-51q-75 -20 -146 -20q-40 0 -64 8t-36.5 30.5t-12.5 65.5v733q0 43 12.5 65.5z" />
    <glyph glyph-name="backslash" unicode="\" horiz-adv-x="431" 
d="M282 -177l-261 958h101l262 -958h-102z" />
    <glyph glyph-name="bracketright" unicode="]" horiz-adv-x="430" 
d="M327.5 -98.5q-12.5 -22.5 -36.5 -30.5t-64 -8q-70 0 -146 20v51h136v800h-136v51q84 19 146 19q40 0 64 -8t36.5 -30.5t12.5 -65.5v-733q0 -43 -12.5 -65.5z" />
    <glyph glyph-name="asciicircum" unicode="^" horiz-adv-x="666" 
d="M585 134h-111l-142 473l-141 -473h-110l199 614h103z" />
    <glyph glyph-name="underscore" unicode="_" horiz-adv-x="835" 
d="M-10 -192v70h855v-70h-855z" />
    <glyph glyph-name="grave" unicode="`" horiz-adv-x="333" 
d="M118.5 684q-42.5 32 -82 69t-54.5 63l86 77l172 -208l-53 -43h-1q-25 10 -67.5 42z" />
    <glyph glyph-name="a" unicode="a" horiz-adv-x="566" 
d="M125.5 293q91.5 46 236.5 47v23q0 41 -8.5 64t-31 34.5t-65.5 11.5q-49 0 -88 -12.5t-81 -32.5l-31 64q15 13 50.5 31t84.5 31.5t101 13.5q77 0 120.5 -20t62.5 -64t19 -118v-306h54v-56q-20 -5 -57 -10t-65 -5q-34 0 -45.5 10t-11.5 41v27q-27 -30 -70 -54t-97 -24
q-46 0 -84.5 19.5t-61.5 57t-23 90.5q0 91 91.5 137zM315 84.5q27 12.5 47 30.5v164q-90 0 -134.5 -30.5t-44.5 -78.5t22.5 -73t61.5 -25q21 0 48 12.5z" />
    <glyph glyph-name="b" unicode="b" horiz-adv-x="618" 
d="M0 798l183 22h2l28 -19v-295q27 27 66.5 45.5t85.5 18.5q96 0 156.5 -67.5t60.5 -206.5q0 -86 -36 -156t-103.5 -110.5t-156.5 -40.5q-79 0 -137 13.5t-74 24.5v707l-75 12v52zM255.5 468.5q-26.5 -13.5 -42.5 -30.5v-365q6 -11 28 -18t50 -7q64 0 102.5 59.5t38.5 176.5
q0 101 -33 149.5t-87 48.5q-30 0 -56.5 -13.5z" />
    <glyph glyph-name="c" unicode="c" horiz-adv-x="519" 
d="M66.5 428q34.5 67 99 104.5t150.5 37.5q40 0 69 -6t65 -16l29 -8l-6 -171h-87l-25 110q-6 26 -59 26q-56 0 -87.5 -49t-32.5 -153q0 -110 38 -168.5t101 -58.5q76 0 140 41l23 -52q-26 -28 -79.5 -52t-115.5 -24q-128 0 -192.5 79t-64.5 207q0 86 34.5 153z" />
    <glyph glyph-name="d" unicode="d" horiz-adv-x="626" 
d="M143 18.5q-49 29.5 -78 91.5t-29 155q0 84 34.5 153.5t101.5 110.5t161 41q38 0 72 -8v169l-98 14v55l206 20h3l28 -21v-738h54v-57q-72 -15 -119 -15q-32 0 -45.5 10.5t-13.5 41.5v28q-26 -35 -71 -57.5t-95 -22.5q-62 0 -111 29.5zM364.5 85.5q25.5 13.5 40.5 32.5v364
q-7 10 -29.5 17t-48.5 7q-64 0 -102.5 -55.5t-38.5 -177.5q0 -102 33 -151.5t87 -49.5q33 0 58.5 13.5z" />
    <glyph glyph-name="e" unicode="e" horiz-adv-x="550" 
d="M100.5 66.5q-64.5 77.5 -64.5 211.5q0 90 33.5 156t94.5 101t141 35q100 0 154 -52.5t56 -149.5q0 -66 -8 -98h-325q4 -91 43 -141.5t111 -50.5q39 0 80.5 13t65.5 31l25 -55q-27 -29 -87.5 -53.5t-122.5 -24.5q-132 0 -196.5 77.5zM375 330q2 28 2 43q0 133 -89 133
q-49 0 -76 -39t-30 -137h193z" />
    <glyph glyph-name="f" unicode="f" horiz-adv-x="408" 
d="M114 478h-84v56l84 20v44q0 65 34.5 119t92.5 85.5t123 31.5q34 0 64 -10v-128q-10 10 -39.5 20t-61.5 10q-39 0 -55.5 -19.5t-16.5 -66.5v-85h127v-77h-127v-410l105 -8v-60h-325v60l79 9v409z" />
    <glyph glyph-name="g" unicode="g" horiz-adv-x="622" 
d="M93 -228q-60 42 -60 114q0 41 27.5 77.5t66.5 54.5q-46 27 -46 86q0 34 22 64.5t57 47.5q-55 21 -82 64t-27 102q0 57 33.5 99.5t90 65.5t122.5 23q117 0 174 -45q13 17 44 32t64 15h35v-109h-103q15 -32 15 -68q1 -91 -64 -145.5t-178 -54.5q-47 0 -79 7
q-10 -13 -15.5 -27.5t-5.5 -25.5q0 -33 23.5 -45t84.5 -12h107q204 0 204 -148q0 -62 -44 -111t-117 -76t-155 -27q-134 0 -194 42zM387 384q0 65 -23.5 95.5t-71.5 30.5q-47 0 -72.5 -30.5t-25.5 -91.5q0 -131 100 -131q93 0 93 127zM411 -170.5q46 30.5 46 84.5
q0 43 -22.5 62t-80.5 19h-109q-25 0 -46 3q-27 -36 -27 -86q0 -55 30 -84t100 -29q63 0 109 30.5z" />
    <glyph glyph-name="h" unicode="h" horiz-adv-x="670" 
d="M92 731l-76 13v54l186 22h3l26 -19l1 -223l-7 -87q31 28 84.5 52t112.5 24q63 0 98 -23.5t49 -71.5t14 -128v-275l64 -9v-60h-263v60l58 9v275q0 52 -7 81t-25.5 43t-54.5 14q-31 0 -63.5 -14.5t-57.5 -34.5v-364l61 -9v-60h-259v60l56 8v663z" />
    <glyph glyph-name="i" unicode="i" horiz-adv-x="347" 
d="M107 668q-21 21 -21 54q0 38 24 63t64 25t61 -21.5t21 -53.5q0 -40 -24 -64t-67 -24h-1q-36 0 -57 21zM111 461l-71 19v67l183 22h2l28 -20v-481l67 -8v-60h-279v60l70 9v392z" />
    <glyph glyph-name="j" unicode="j" horiz-adv-x="330" 
d="M109.5 668q-20.5 21 -20.5 54q0 38 24 63t64 25t60.5 -21.5t20.5 -53.5q0 -40 -23.5 -64t-67.5 -24h-1q-36 0 -56.5 21zM38 547l181 22h2l27 -20v-540q0 -78 -29 -134.5t-73.5 -86t-90.5 -31.5q-50 0 -61 4l-7 57q26 0 52 11q38 16 54.5 68t16.5 140l-1 422l-71 19v69z
" />
    <glyph glyph-name="k" unicode="k" horiz-adv-x="629" 
d="M91 731l-72 13v54l184 22h2l27 -19v-475l-3 -53l204 214l-74 11v57h261v-57l-81 -13l-123 -118l175 -299l55 -8v-60h-264v60l51 9l-114 211l-90 -91l2 -51v-69l63 -9v-60h-261v60l58 9v662z" />
    <glyph glyph-name="l" unicode="l" horiz-adv-x="340" 
d="M103 731l-74 13v54l185 22h2l27 -19v-733l73 -8v-60h-283v60l70 9v662z" />
    <glyph glyph-name="m" unicode="m" horiz-adv-x="1013" 
d="M45 60l56 9v392l-64 18v69l166 21l12 -8l15 -33v-42q33 32 94.5 56.5t106.5 24.5q54 0 87.5 -18t50.5 -56q33 30 87 52t106 22q89 0 126 -52t37 -170v-276l65 -9v-60h-259v60l52 9v272q0 78 -18.5 109.5t-70.5 31.5q-28 0 -57.5 -12.5t-52.5 -30.5q7 -38 7 -95v-275
l62 -9v-60h-261v60l55 9v275q0 52 -6.5 81.5t-24.5 43t-52 13.5q-32 0 -63.5 -14.5t-56.5 -34.5v-364l59 -9v-60h-258v60z" />
    <glyph glyph-name="n" unicode="n" horiz-adv-x="681" 
d="M101 461l-64 18v69l166 21h3l25 -20v-39l-1 -24q35 33 91 57t113 24q61 0 95.5 -22.5t49.5 -70.5t15 -130v-276l61 -8v-60h-258v60l54 8v276q0 52 -7 81.5t-25.5 43t-52.5 13.5q-57 0 -122 -49v-364l60 -9v-60h-261v60l58 9v392z" />
    <glyph glyph-name="o" unicode="o" horiz-adv-x="629" 
d="M82.5 437q37.5 66 100.5 99.5t137 33.5q126 0 194.5 -77.5t68.5 -210.5q0 -95 -37.5 -161.5t-100 -99t-137.5 -32.5q-125 0 -194 77.5t-69 210.5q0 94 37.5 160zM429 272q0 114 -27 173.5t-88 59.5q-116 0 -116 -218q0 -114 28.5 -173.5t89.5 -59.5q113 0 113 218z" />
    <glyph glyph-name="p" unicode="p" horiz-adv-x="635" 
d="M563.5 142q-34.5 -70 -101 -111.5t-158.5 -41.5q-20 0 -41.5 3.5t-34.5 8.5l3 -83v-91l93 -12v-57h-297v57l65 12v634l-65 18v69l165 21h2l25 -20v-56q25 31 68 54t94 23q95 0 156 -67.5t61 -206.5q0 -84 -34.5 -154zM272 474q-27 -13 -41 -29v-371q7 -10 28.5 -17
t47.5 -7q65 0 103.5 56.5t38.5 177.5q0 102 -33 152.5t-87 50.5q-30 0 -57 -13z" />
    <glyph glyph-name="q" unicode="q" horiz-adv-x="615" 
d="M297 -186l109 12v151l3 76q-28 -28 -68.5 -46t-86.5 -18q-61 0 -110.5 29.5t-78.5 92t-29 155.5q0 84 34.5 153t102 110t160.5 41q54 0 118 -19l71 15l22 -17v-723l69 -12v-56h-316v56zM364.5 82.5q26.5 13.5 41.5 30.5v371q-6 9 -29.5 17t-49.5 8q-63 0 -101.5 -56.5
t-38.5 -178.5q0 -101 33.5 -153t87.5 -52q30 0 56.5 13.5z" />
    <glyph glyph-name="r" unicode="r" horiz-adv-x="471" 
d="M45 59l66 8v394l-64 18v69l155 21h3l25 -20v-22l-3 -81h3q7 20 33 49.5t65.5 52t85.5 22.5q22 0 38 -6v-150q-30 21 -73 21q-73 0 -127 -39v-328l116 -9v-59h-323v59z" />
    <glyph glyph-name="s" unicode="s" horiz-adv-x="519" 
d="M156 82q8 -12 36.5 -22.5t57.5 -10.5q47 0 70.5 19.5t23.5 51.5q0 33 -29 53.5t-98 50.5l-28 12q-69 29 -103 70t-34 106q0 45 27 80.5t76 55.5t113 20q47 0 80.5 -6t70.5 -16q20 -7 30 -8v-131h-79l-23 76q-6 10 -27 18t-48 8q-41 0 -65.5 -17.5t-24.5 -48.5
q0 -28 17 -46.5t37 -28.5t74 -33t89.5 -44t59 -54.5t23.5 -81.5q0 -74 -58 -120t-167 -46q-51 0 -91.5 9t-93.5 24l-22 7v132h83z" />
    <glyph glyph-name="t" unicode="t" horiz-adv-x="408" 
d="M120 20q-30 29 -30 92v367h-65v52q8 3 29 10.5t32 12.5q17 13 29 45q9 21 33 104h80l4 -147h153v-77h-152v-281q0 -56 3 -79t13 -29.5t35 -6.5t52 5.5t45 13.5l19 -56q-28 -21 -82 -38t-105 -17q-63 0 -93 29z" />
    <glyph glyph-name="u" unicode="u" horiz-adv-x="639" 
d="M448 4q-15 14 -15 42v27q-27 -33 -76 -58.5t-98 -25.5q-96 0 -137 49.5t-41 163.5v282l-50 14v57l170 13h1l20 -14v-352q0 -73 18 -102t67 -29q59 0 110 46v367l-67 15v56l181 13h2l24 -14v-492h56l-1 -57q-4 -1 -37 -8t-79 -7q-33 0 -48 14z" />
    <glyph glyph-name="v" unicode="v" horiz-adv-x="571" 
d="M-6 556h264v-58l-66 -13l91 -272l32 -106l27 103l89 275l-63 13v58h220v-58l-52 -13l-186 -493h-116l-199 493l-41 13v58z" />
    <glyph glyph-name="w" unicode="w" horiz-adv-x="840" 
d="M-14 555h258v-57l-70 -12l74 -266l24 -109l22 110l90 334h121l99 -334l24 -110l24 109l70 265l-73 13v57h214v-57l-51 -11l-152 -495h-115l-101 324l-23 119l-18 -119l-93 -324h-116l-160 495l-48 11v57z" />
    <glyph glyph-name="x" unicode="x" horiz-adv-x="605" 
d="M228 273l-165 213l-52 12v58h289v-58l-65 -12l79 -111l26 -42l26 42l81 111l-68 12v58h217v-58l-57 -12l-158 -194l173 -224l55 -9v-59h-289v59l59 10l-77 117l-30 44l-24 -43l-82 -118l77 -10v-59h-240v59l64 10z" />
    <glyph glyph-name="y" unicode="y" horiz-adv-x="573" 
d="M95.5 -246q-20.5 3 -29.5 7v107q7 -4 28 -8t38 -4q50 0 82.5 33t60.5 111h-54l-188 485l-45 13v58h275v-58l-73 -12l89 -277l36 -118l31 118l82 277l-63 12v58h217v-58l-49 -12q-55 -168 -109 -324t-63 -175q-32 -84 -61 -134t-69 -76t-97 -26q-18 0 -38.5 3z" />
    <glyph glyph-name="z" unicode="z" horiz-adv-x="558" 
d="M155 484l-23 -98h-72v170h441l23 -52l-266 -369l-70 -72l224 11l48 115l68 -8l-16 -181h-464l-25 55l273 361l72 75z" />
    <glyph glyph-name="braceleft" unicode="{" horiz-adv-x="519" 
d="M182 -106q-42 34 -42 98q0 31 7.5 57t23.5 65q14 34 21 57.5t7 50.5q0 26 -8.5 42.5t-37 25.5t-85.5 9v80q58 0 86 7t36.5 20.5t8.5 38.5q0 26 -7 49t-21 59q-16 40 -23.5 66.5t-7.5 57.5q0 64 42 97.5t134 33.5q32 0 59.5 -4.5t72.5 -15.5v-55q-17 1 -72 1
q-45 0 -72.5 -17t-27.5 -61q0 -18 5.5 -44t12.5 -52q11 -41 16 -65.5t5 -48.5q0 -47 -40.5 -74t-105.5 -36q64 -9 105 -37.5t41 -76.5q0 -24 -5 -47.5t-16 -65.5q-7 -25 -12.5 -50.5t-5.5 -44.5q0 -45 27 -61.5t73 -16.5q38 0 72 2v-57q-7 -2 -34 -8t-51 -9.5t-47 -3.5
q-92 0 -134 34z" />
    <glyph glyph-name="bar" unicode="|" horiz-adv-x="422" 
d="M261 -91h-100v960h100v-960z" />
    <glyph glyph-name="braceright" unicode="}" horiz-adv-x="519" 
d="M148.5 -135.5q-25.5 4.5 -48 9.5t-29.5 7v57q32 -2 72 -2q46 0 73 16.5t27 61.5q0 19 -5.5 44.5t-12.5 50.5q-11 42 -16 65.5t-5 47.5q0 48 41 76.5t104 37.5q-64 9 -104.5 36t-40.5 74q0 24 5 48.5t16 65.5q7 26 12.5 52t5.5 44q0 78 -100 78q-56 0 -72 -1v55
q45 11 72.5 15.5t59.5 4.5q91 0 133 -33.5t42 -97.5q0 -31 -7.5 -59t-22.5 -64q-14 -36 -21 -59t-7 -49q0 -25 8.5 -38.5t36.5 -20.5t86 -7v-82q-57 0 -85.5 -9t-37 -25.5t-8.5 -42.5t6.5 -49t21.5 -59q15 -35 22.5 -62t7.5 -59q0 -64 -42 -98t-133 -34q-29 0 -54.5 4.5z
" />
    <glyph glyph-name="asciitilde" unicode="~" horiz-adv-x="696" 
d="M163 356q44 31 95 31q34 0 59 -12.5t58 -37.5q22 -17 38 -26t33 -9q34 0 57 15t43 41l45 -51q-21 -41 -63.5 -71.5t-93.5 -30.5q-31 0 -55 12.5t-52 35.5q-24 19 -41 28.5t-36 9.5q-59 0 -104 -55l-45 51q18 38 62 69z" />
    <glyph glyph-name="uni00A0" unicode="&#xa0;" horiz-adv-x="237" 
 />
    <glyph glyph-name="exclamdown" unicode="&#xa1;" horiz-adv-x="352" 
d="M232 565q-27 -24 -64 -24t-58.5 22.5t-21.5 53.5q0 38 26.5 60.5t67.5 22.5q31 0 54 -21t23 -54q0 -36 -27 -60zM133 441h91l37 -626h-162z" />
    <glyph glyph-name="cent" unicode="&#xa2;" horiz-adv-x="582" 
d="M93 416.5q29 63.5 84 103t130 47.5l9 117h78l-9 -116q27 -2 47 -6.5t50 -13.5l30 -8l-7 -171h-87l-25 110q-3 14 -19.5 20t-39.5 6q-56 0 -87.5 -49.5t-31.5 -156.5q0 -108 37.5 -165.5t100.5 -57.5q76 0 140 41l24 -52q-23 -25 -71 -48t-104 -27l-6 -109h-77l7 113
q-99 17 -150 91.5t-52 187.5q0 80 29 143.5z" />
    <glyph glyph-name="sterling" unicode="&#xa3;" horiz-adv-x="766" 
d="M186 500q0 74 35 131.5t95 89t132 31.5q62 0 112 -17.5t83 -43.5l-63 -91q-7 12 -29.5 31.5t-54 34t-65.5 14.5q-42 0 -69.5 -31.5t-27.5 -117.5v-102h143v-66h-143v-102q0 -58 -16 -94.5t-45 -62.5q19 -2 43 -6.5t33 -6.5q72 -17 120 -17q62 0 86.5 23t24.5 73
q0 29 -8 55t-20 36h145q9 -10 16 -32t7 -50q0 -51 -27.5 -93.5t-77.5 -67.5t-116 -25q-47 0 -85.5 9t-94.5 26q-40 13 -64 19t-48 6q-51 -53 -103 -53q-25 0 -43 12t-18 36q0 32 38.5 54t83.5 21q8 12 14.5 46.5t6.5 72.5v121h-93v66h93v71z" />
    <glyph glyph-name="currency" unicode="&#xa4;" horiz-adv-x="755" 
d="M158 372q0 74 41 134l-109 109l59 60l111 -111q53 35 116 35q64 0 119 -33l111 110l59 -60l-108 -107q40 -56 40 -126q0 -75 -43 -134l109 -108l-59 -60l-110 110q-56 -35 -118 -35q-63 0 -117 32l-110 -109l-59 60l107 107q-39 55 -39 126zM461.5 289q29.5 34 29.5 86
q0 35 -16 63.5t-43 45t-57 16.5q-53 0 -83 -36.5t-30 -88.5q0 -50 34 -85t81 -35q55 0 84.5 34z" />
    <glyph glyph-name="yen" unicode="&#xa5;" horiz-adv-x="795" 
d="M120 671l-66 14v58h308v-58l-72 -13l114 -209l28 -60l30 61l108 208l-78 13v58h249v-58l-74 -14l-159 -269h189v-61h-220v-111h220v-62h-220v-100l111 -12v-56h-359v56l104 12v100h-217v62h217v111h-217v61h178z" />
    <glyph glyph-name="brokenbar" unicode="&#xa6;" horiz-adv-x="422" 
d="M261 464h-100v405h100v-405zM261 -91h-100v404h100v-404z" />
    <glyph glyph-name="section" unicode="&#xa7;" horiz-adv-x="681" 
d="M208 5q13 -15 49.5 -28t77.5 -13q62 0 93 21t31 57q0 29 -21.5 50t-52 35t-95.5 41q-100 43 -151 93t-51 133q0 42 20 80.5t56 64.5q-55 52 -55 120q0 48 31 85t86 58t125 21q45 0 84 -7.5t83 -20.5q30 -8 34 -9l-6 -154h-77l-26 96q-6 9 -34.5 19t-63.5 10
q-55 0 -84 -19t-29 -55q0 -31 17.5 -51t41.5 -32.5t83 -38.5q21 -10 31 -13q58 -25 97 -47.5t68 -59.5t29 -89t-20 -94.5t-54 -71.5q56 -49 56 -113q0 -45 -26.5 -84t-83 -63.5t-140.5 -24.5q-52 0 -95.5 9t-96.5 25q-37 11 -45 12l10 166h85zM406.5 258q36.5 -16 67.5 -34
q26 29 26 66q0 34 -21 60t-56.5 46.5t-98.5 48.5q-27 12 -59 27t-57 32q-28 -28 -28 -67q0 -49 45 -84t136 -75q9 -4 45.5 -20z" />
    <glyph glyph-name="dieresis" unicode="&#xa8;" horiz-adv-x="500" 
d="M73 678.5q-18 21.5 -18 51.5q0 38 19.5 62t58.5 24q35 0 54 -21t19 -52q0 -38 -21.5 -62t-64.5 -24q-29 0 -47 21.5zM313 679.5q-19 22.5 -19 50.5q0 37 20.5 61.5t58.5 24.5q35 0 53.5 -21t18.5 -52q0 -38 -21 -62t-64 -24q-28 0 -47 22.5z" />
    <glyph glyph-name="copyright" unicode="&#xa9;" horiz-adv-x="1040" 
d="M153 703.5q57 97.5 154.5 154t213.5 56.5t213 -56.5t153.5 -154t56.5 -214.5t-56.5 -214.5t-153.5 -154.5t-213 -57t-213.5 57t-154.5 154.5t-57 214.5t57 214.5zM209.5 304q47.5 -85 129.5 -134.5t182 -49.5q99 0 181 50t129 134.5t47 184.5q0 101 -47 185.5t-129 134
t-181 49.5q-100 0 -182.5 -50t-129.5 -134.5t-47 -184.5t47.5 -185zM363 316q-56 65 -56 171q0 68 32 124t88 88.5t127 32.5q36 0 74.5 -8.5t51.5 -21.5l-2 -120h-60l-21 66q-10 8 -26 12t-47 4q-56 0 -87 -43.5t-31 -115.5q0 -76 41 -123t108 -47q30 0 58 11.5t46 29.5
l27 -49q-23 -29 -67.5 -52.5t-93.5 -23.5q-106 0 -162 65z" />
    <glyph glyph-name="ordfeminine" unicode="&#xaa;" horiz-adv-x="541" 
d="M124.5 349.5q-32.5 14.5 -52.5 43.5t-20 69q0 73 69.5 108t217.5 40v21q0 52 -20.5 74t-71.5 22q-38 0 -82 -12t-74 -27l-28 60q33 21 90.5 38t112.5 17q92 0 142.5 -38t50.5 -124v-238h56v-55q-17 -4 -47.5 -8t-54.5 -4q-70 0 -70 45v32q-22 -36 -60.5 -57t-89.5 -21
q-36 0 -68.5 14.5zM339 450v118q-83 -2 -122.5 -26.5t-39.5 -73.5q0 -33 18 -52t47 -19q50 0 97 53z" />
    <glyph glyph-name="guillemotleft" unicode="&#xab;" horiz-adv-x="686" 
d="M335 528l-143 -230l143 -223l-58 -30l-221 217v73l221 222zM620 528l-157 -230l157 -223l-58 -30l-235 217v73l235 222z" />
    <glyph glyph-name="logicalnot" unicode="&#xac;" horiz-adv-x="688" 
d="M586 85h-98v187h-385v83h483v-270z" />
    <glyph glyph-name="uni00AD" unicode="&#xad;" horiz-adv-x="631" 
d="M519 273h-407v94h407v-94z" />
    <glyph glyph-name="registered" unicode="&#xae;" horiz-adv-x="1040" 
d="M153 703.5q57 97.5 154.5 154t213.5 56.5t213 -56.5t153.5 -154t56.5 -214.5t-56.5 -214.5t-153.5 -154.5t-213 -57t-213.5 57t-154.5 154.5t-57 214.5t57 214.5zM209.5 304q47.5 -85 129.5 -134.5t182 -49.5q99 0 181 50t129 134.5t47 184.5q0 101 -47 185.5t-129 134
t-181 49.5q-100 0 -182.5 -50t-129.5 -134.5t-47 -184.5t47.5 -185zM365 663l-42 11v50h88q24 -1 66 1q30 2 54 2q92 0 137 -34t45 -92q0 -53 -26 -90.5t-78 -48.5q35 -15 51 -37.5t31 -60.5q12 -31 22.5 -45.5t32.5 -15.5v-49h-92q-25 0 -36.5 20t-23.5 62q-12 44 -25.5 69
t-41.5 35h-64v-131l48 -10v-45h-188v45l42 12v352zM530 497q32 0 53.5 26t21.5 63q0 46 -21 65.5t-66 19.5q-35 0 -55 -5v-165q16 -4 67 -4z" />
    <glyph glyph-name="macron" unicode="&#xaf;" horiz-adv-x="333" 
d="M314 694h-297v86h297v-86z" />
    <glyph glyph-name="degree" unicode="&#xb0;" horiz-adv-x="489" 
d="M155 477q-41 24 -65.5 65t-24.5 89q0 50 24 90.5t65 64t90 23.5q51 0 92.5 -24t65 -65t23.5 -89q0 -50 -24.5 -90.5t-66 -64t-90.5 -23.5q-48 0 -89 24zM313 559q26 28 26 72q0 41 -27.5 71t-67.5 30q-41 0 -67.5 -29t-26.5 -72q0 -41 28 -70.5t67 -29.5q42 0 68 28z" />
    <glyph glyph-name="plusminus" unicode="&#xb1;" horiz-adv-x="661" 
d="M286 388l-2 80v111h93v-111l-4 -80l77 5h109v-91h-109l-77 3l4 -77v-108h-93v108l2 77l-90 -3h-94v91h94zM553 0h-446v88h446v-88z" />
    <glyph glyph-name="uni00B2" unicode="&#xb2;" horiz-adv-x="506" 
d="M162 442q59 50 101.5 109t42.5 112q0 40 -24 64t-64 24q-65 0 -126 -53l-40 44q27 32 78 59.5t118 27.5q82 0 128.5 -40.5t46.5 -110.5q0 -75 -79.5 -159.5t-188.5 -146.5l218 18l39 73l58 -11l-26 -144h-371l-21 54q51 30 110 80z" />
    <glyph glyph-name="uni00B3" unicode="&#xb3;" horiz-adv-x="490" 
d="M134.5 313.5q-43.5 8.5 -68.5 21.5v64q22 -9 55.5 -15.5t59.5 -6.5q145 0 145 90q0 32 -26.5 55.5t-79.5 23.5q-12 -4 -58 -18l-18 52q25 6 66 22q38 16 60.5 38t22.5 55q0 61 -83 61q-33 0 -67 -10.5t-54 -26.5l-32 53q24 23 76 41t109 18q79 0 123.5 -33.5t44.5 -87.5
q0 -43 -29 -75t-87 -55q50 2 86 -14t55 -43.5t19 -58.5q0 -71 -63 -115t-179 -44q-34 0 -77.5 8.5z" />
    <glyph glyph-name="acute" unicode="&#xb4;" horiz-adv-x="333" 
d="M85 685l172 208l86 -77q-24 -39 -94.5 -98t-111.5 -76z" />
    <glyph glyph-name="uni00B5" unicode="&#xb5;" horiz-adv-x="683" 
d="M104 483l-54 20v51l173 12l21 -12v-388q0 -21 12 -42.5t35 -36t54 -14.5q39 0 64 18.5t34 40.5v351l-62 20l-1 51l185 12l18 -12v-492h55v-57q-52 -18 -109 -18t-57 54v34q-15 -37 -51 -61t-78 -24q-33 0 -61.5 11t-46.5 30v-213h-131v665z" />
    <glyph glyph-name="paragraph" unicode="&#xb6;" horiz-adv-x="783" 
d="M276 390q-106 0 -159 58.5t-53 166.5q0 64 31 113.5t92 78t146 28.5q52 0 145 -5q64 -4 109 -4h122v-61l-81 -11v-685l69 -10v-59h-180v756q-46 6 -97 6q-24 0 -32 -2v-760h-210v59l98 10v321z" />
    <glyph glyph-name="periodcentered" unicode="&#xb7;" horiz-adv-x="215" 
d="M46 326.5q-23 21.5 -23 54.5q0 37 26.5 60.5t64.5 23.5q36 0 57 -22.5t21 -53.5q0 -39 -25.5 -61.5t-66.5 -22.5q-31 0 -54 21.5z" />
    <glyph glyph-name="cedilla" unicode="&#xb8;" horiz-adv-x="300" 
d="M50 -246.5q-20 4.5 -34 10.5l1 83q20 -7 42 -7q39 0 55 13t16 56q0 25 -11 52.5t-21 40.5l43 5l20 -5q23 -19 45.5 -58t22.5 -82q0 -62 -35.5 -87.5t-106.5 -25.5q-17 0 -37 4.5z" />
    <glyph glyph-name="uni00B9" unicode="&#xb9;" horiz-adv-x="490" 
d="M206 711q-34 -13 -74.5 -21t-46.5 -9l-19 64q55 16 101 35t84 49h2l67 -12v-439l115 -11v-59h-357v59l128 11v333z" />
    <glyph glyph-name="ordmasculine" unicode="&#xba;" horiz-adv-x="528" 
d="M104 396.5q-59 58.5 -59 171.5q0 77 32 129t83.5 77t109.5 25q103 0 158 -58t55 -167q0 -80 -32 -133t-82 -78t-107 -25q-99 0 -158 58.5zM314.5 405.5q19.5 12.5 29.5 49t10 107.5q0 88 -22.5 135.5t-65.5 47.5q-92 0 -92 -168q0 -87 24.5 -135.5t63.5 -48.5
q33 0 52.5 12.5z" />
    <glyph glyph-name="guillemotright" unicode="&#xbb;" horiz-adv-x="686" 
d="M359 335v-73l-235 -217l-58 30l157 223l-157 230l58 29zM630 335v-73l-220 -217l-58 30l142 223l-142 230l58 29z" />
    <glyph glyph-name="onequarter" unicode="&#xbc;" horiz-adv-x="1197" 
d="M206 661q-34 -13 -74.5 -21t-46.5 -9l-19 64q55 16 101 35t84 49h2l67 -12v-439l115 -11v-59h-357v59l128 11v333zM804 804l-349 -892l-87 5l350 893zM815 356.5q74 139.5 97 184.5h104l21 -24l-181 -292l-49 -64l177 8l13 129l87 5v-129l87 4v-77h-87v-100h-101l-1 100
h-241l-37 48q37 68 111 207.5z" />
    <glyph glyph-name="onehalf" unicode="&#xbd;" horiz-adv-x="1188" 
d="M206 661q-34 -13 -74.5 -21t-46.5 -9l-19 64q55 16 101 35t84 49h2l67 -12v-439l115 -11v-59h-357v59l128 11v333zM804 804l-349 -892l-87 5l350 893zM844 126q59 50 101.5 109t42.5 112q0 40 -24 64t-64 24q-65 0 -126 -53l-40 44q27 32 78 59.5t118 27.5
q82 0 128.5 -40.5t46.5 -110.5q0 -75 -79.5 -159.5t-188.5 -146.5l218 18l39 73l58 -11l-26 -144h-371l-21 54q51 30 110 80z" />
    <glyph glyph-name="threequarters" unicode="&#xbe;" horiz-adv-x="1197" 
d="M134.5 263.5q-43.5 8.5 -68.5 21.5v64q22 -9 55.5 -15.5t59.5 -6.5q145 0 145 90q0 32 -26.5 55.5t-79.5 23.5q-12 -4 -58 -18l-18 52q25 6 66 22q38 16 60.5 38t22.5 55q0 61 -83 61q-33 0 -67 -10.5t-54 -26.5l-32 53q24 23 76 41t109 18q79 0 123.5 -33.5t44.5 -87.5
q0 -43 -29 -75t-87 -55q50 2 86 -14t55 -43.5t19 -58.5q0 -71 -63 -115t-179 -44q-34 0 -77.5 8.5zM804 804l-349 -892l-87 5l350 893zM815 356.5q74 139.5 97 184.5h104l21 -24l-181 -292l-49 -64l177 8l13 129l87 5v-129l87 4v-77h-87v-100h-101l-1 100h-241l-37 48
q37 68 111 207.5z" />
    <glyph glyph-name="questiondown" unicode="&#xbf;" horiz-adv-x="503" 
d="M351.5 681q23.5 -21 23.5 -53q0 -37 -26.5 -60.5t-64.5 -23.5q-36 0 -58 22.5t-22 52.5q0 39 26 61t68 22q30 0 53.5 -21zM369 306q0 -30 -20 -57t-49.5 -50.5t-83.5 -60.5l-38 -26q-1 -2 -8 -25t-7 -50q0 -41 23 -78.5t69 -60.5t113 -23q40 0 76 18l20 -79
q-21 -11 -60 -19.5t-88 -8.5q-99 0 -164 32.5t-95 86.5t-30 120q0 50 19.5 85.5t47 58.5t71.5 51q30 19 48 33t29 30q5 12 4 30q0 78 -7 127h86q40 -74 44 -134z" />
    <glyph glyph-name="Agrave" unicode="&#xc0;" horiz-adv-x="702" 
d="M273 747h153l231 -677l58 -10v-60h-295v60l75 10l-39 130h-259l-39 -131l81 -9v-60h-255l-1 60l60 10zM342 578l-18 78l-19 -79l-89 -307h220zM276.5 846.5q-53.5 37.5 -82.5 72.5l96 63l135 -149l-58 -38q-37 14 -90.5 51.5z" />
    <glyph glyph-name="Aacute" unicode="&#xc1;" horiz-adv-x="702" 
d="M273 747h153l231 -677l58 -10v-60h-295v60l75 10l-39 130h-259l-39 -131l81 -9v-60h-255l-1 60l60 10zM342 578l-18 78l-19 -79l-89 -307h220zM267 833l130 149l101 -63q-34 -39 -83.5 -74.5t-84.5 -49.5z" />
    <glyph glyph-name="Acircumflex" unicode="&#xc2;" horiz-adv-x="702" 
d="M273 747h153l231 -677l58 -10v-60h-295v60l75 10l-39 130h-259l-39 -131l81 -9v-60h-255l-1 60l60 10zM342 578l-18 78l-19 -79l-89 -307h220zM394 981l144 -145l-49 -39l-140 98l-141 -98l-48 38l145 146h89z" />
    <glyph glyph-name="Atilde" unicode="&#xc3;" horiz-adv-x="702" 
d="M273 747h153l231 -677l58 -10v-60h-295v60l75 10l-39 130h-259l-39 -131l81 -9v-60h-255l-1 60l60 10zM342 578l-18 78l-19 -79l-89 -307h220zM374 817.5q-18 9.5 -42 29.5q-17 15 -29 22t-27 7q-24 0 -37 -15.5t-23 -44.5l-56 34q15 52 45.5 81.5t74.5 29.5
q29 0 48.5 -10.5t42.5 -30.5q18 -15 29 -21.5t25 -6.5q39 0 59 61l56 -34q-32 -111 -119 -111q-29 0 -47 9.5z" />
    <glyph glyph-name="Adieresis" unicode="&#xc4;" horiz-adv-x="702" 
d="M273 747h153l231 -677l58 -10v-60h-295v60l75 10l-39 130h-259l-39 -131l81 -9v-60h-255l-1 60l60 10zM342 578l-18 78l-19 -79l-89 -307h220zM165 830q-18 21 -18 50q0 37 19.5 60.5t57.5 23.5h1q34 0 52 -20.5t18 -50.5q0 -37 -21 -60.5t-62 -23.5h-1q-28 0 -46 21z
M419 830.5q-18 21.5 -18 49.5q0 37 19.5 60.5t57.5 23.5h1q35 0 52.5 -20.5t17.5 -50.5q0 -38 -21 -61t-63 -23q-28 0 -46 21.5z" />
    <glyph glyph-name="Aring" unicode="&#xc5;" horiz-adv-x="702" 
d="M-17 60l60 10l227 668q-48 14 -70.5 44t-22.5 72q0 61 48.5 95t124.5 34q85 0 127 -34.5t42 -91.5q0 -43 -24.5 -72.5t-66.5 -42.5l229 -672l58 -10v-60h-295v60l75 10l-39 130h-259l-39 -131l81 -9v-60h-255zM284.5 802q20.5 -22 63.5 -22q84 0 84 71q0 35 -19.5 57
t-63.5 22q-85 0 -85 -73q0 -33 20.5 -55zM436 270l-94 308l-18 78l-19 -79l-89 -307h220z" />
    <glyph glyph-name="AE" unicode="&#xc6;" horiz-adv-x="937" 
d="M400 209h-240l-54 -139l76 -11v-59h-266v59l72 11l256 599l-130 13v61h738l15 -170h-70l-34 102l-217 9v-270l138 4l16 81h64v-242h-64l-15 86l-139 3v-283l244 13l62 128l81 -22l-34 -182h-580v59l81 11v139zM400 677h-61l-52 -136l-100 -260h213v396z" />
    <glyph glyph-name="Ccedilla" unicode="&#xc7;" horiz-adv-x="658" 
d="M119 90.5q-90 101.5 -90 277.5q0 116 47.5 202.5t130.5 133.5t188 47q44 0 85 -5.5t97 -14.5q42 -7 46 -7l-11 -206h-92l-31 143q-11 11 -38 18t-69 7q-85 0 -136.5 -78.5t-51.5 -227.5q0 -144 49 -235t143 -91q45 0 69.5 8.5t41.5 24.5l44 103l84 -8l-20 -155
q-21 -2 -41.5 -7.5t-25.5 -6.5q-40 -11 -74.5 -17.5t-84.5 -6.5q-170 0 -260 101.5zM285 -246.5q-20 4.5 -34 10.5l1 83q20 -7 42 -7q39 0 55 13t16 56q0 25 -11 52.5t-21 40.5l43 5l20 -5q23 -19 45.5 -58t22.5 -82q0 -62 -35.5 -87.5t-106.5 -25.5q-17 0 -37 4.5z" />
    <glyph glyph-name="Egrave" unicode="&#xc8;" horiz-adv-x="655" 
d="M118 668l-80 13v62h533l13 -168h-70l-33 99l-216 9v-269l139 3l16 82h64v-242h-64l-16 86l-139 3v-282l242 12l58 128l75 -21l-26 -183h-575v60l79 10v598zM269.5 846.5q-53.5 37.5 -82.5 72.5l96 63l135 -149l-58 -38q-37 14 -90.5 51.5z" />
    <glyph glyph-name="Eacute" unicode="&#xc9;" horiz-adv-x="655" 
d="M118 668l-80 13v62h533l13 -168h-70l-33 99l-216 9v-269l139 3l16 82h64v-242h-64l-16 86l-139 3v-282l242 12l58 128l75 -21l-26 -183h-575v60l79 10v598zM260 833l130 149l101 -63q-34 -39 -83.5 -74.5t-84.5 -49.5z" />
    <glyph glyph-name="Ecircumflex" unicode="&#xca;" horiz-adv-x="655" 
d="M118 668l-80 13v62h533l13 -168h-70l-33 99l-216 9v-269l139 3l16 82h64v-242h-64l-16 86l-139 3v-282l242 12l58 128l75 -21l-26 -183h-575v60l79 10v598zM387 981l144 -145l-49 -39l-140 98l-141 -98l-48 38l145 146h89z" />
    <glyph glyph-name="Edieresis" unicode="&#xcb;" horiz-adv-x="655" 
d="M118 668l-80 13v62h533l13 -168h-70l-33 99l-216 9v-269l139 3l16 82h64v-242h-64l-16 86l-139 3v-282l242 12l58 128l75 -21l-26 -183h-575v60l79 10v598zM158 830q-18 21 -18 50q0 37 19.5 60.5t57.5 23.5h1q34 0 52 -20.5t18 -50.5q0 -37 -21 -60.5t-62 -23.5h-1
q-28 0 -46 21zM412 830.5q-18 21.5 -18 49.5q0 37 19.5 60.5t57.5 23.5h1q35 0 52.5 -20.5t17.5 -50.5q0 -38 -21 -61t-63 -23q-28 0 -46 21.5z" />
    <glyph glyph-name="Igrave" unicode="&#xcc;" horiz-adv-x="411" 
d="M131 668l-85 13v62h320v-62l-88 -13v-598l88 -11v-59h-320v60l85 10v598zM134.5 846.5q-53.5 37.5 -82.5 72.5l96 63l135 -149l-58 -38q-37 14 -90.5 51.5z" />
    <glyph glyph-name="Iacute" unicode="&#xcd;" horiz-adv-x="411" 
d="M131 668l-85 13v62h320v-62l-88 -13v-598l88 -11v-59h-320v60l85 10v598zM125 833l130 149l101 -63q-34 -39 -83.5 -74.5t-84.5 -49.5z" />
    <glyph glyph-name="Icircumflex" unicode="&#xce;" horiz-adv-x="411" 
d="M131 668l-85 13v62h320v-62l-88 -13v-598l88 -11v-59h-320v60l85 10v598zM252 981l144 -145l-49 -39l-140 98l-141 -98l-48 38l145 146h89z" />
    <glyph glyph-name="Idieresis" unicode="&#xcf;" horiz-adv-x="411" 
d="M131 668l-85 13v62h320v-62l-88 -13v-598l88 -11v-59h-320v60l85 10v598zM23 830q-18 21 -18 50q0 37 19.5 60.5t57.5 23.5h1q34 0 52 -20.5t18 -50.5q0 -37 -21 -60.5t-62 -23.5h-1q-28 0 -46 21zM277 830.5q-18 21.5 -18 49.5q0 37 19.5 60.5t57.5 23.5h1
q35 0 52.5 -20.5t17.5 -50.5q0 -38 -21 -61t-63 -23q-28 0 -46 21.5z" />
    <glyph glyph-name="Eth" unicode="&#xd0;" horiz-adv-x="761" 
d="M118 668l-75 13v62h146q33 0 89 4q13 1 39.5 2t47.5 1q184 0 275.5 -92t91.5 -261q0 -118 -45.5 -210t-129.5 -143.5t-196 -51.5q-29 0 -91 4q-58 4 -79 4h-152v60l79 10v284h-71v63h71v251zM416 354h-153v-287q34 -9 95 -9q100 2 157 80.5t57 235.5q0 149 -56 230.5
t-174 81.5q-25 0 -47.5 -3t-31.5 -4v-262h153v-63z" />
    <glyph glyph-name="Ntilde" unicode="&#xd1;" horiz-adv-x="803" 
d="M119 668l-79 13v62h227l298 -450l56 -114v489l-86 13v62h248v-62l-77 -13v-668h-121l-311 473l-70 132v-535l101 -10v-60h-265v60l79 10v598zM443 817.5q-18 9.5 -42 29.5q-17 15 -29 22t-27 7q-24 0 -37 -15.5t-23 -44.5l-56 34q15 52 45.5 81.5t74.5 29.5
q29 0 48.5 -10.5t42.5 -30.5q18 -15 29 -21.5t25 -6.5q39 0 59 61l56 -34q-32 -111 -119 -111q-29 0 -47 9.5z" />
    <glyph glyph-name="Ograve" unicode="&#xd2;" horiz-adv-x="728" 
d="M111 91q-81 102 -81 278q0 115 42.5 202t119.5 134t177 47q165 0 247.5 -97.5t82.5 -272.5q0 -116 -43.5 -205.5t-121.5 -138.5t-179 -49q-163 0 -244 102zM237 610q-46 -81 -46 -240q0 -157 44.5 -238.5t127.5 -81.5q81 0 127 85.5t46 246.5q0 156 -44 232.5t-127 76.5
q-82 0 -128 -81zM296.5 846.5q-53.5 37.5 -82.5 72.5l96 63l135 -149l-58 -38q-37 14 -90.5 51.5z" />
    <glyph glyph-name="Oacute" unicode="&#xd3;" horiz-adv-x="728" 
d="M111 91q-81 102 -81 278q0 115 42.5 202t119.5 134t177 47q165 0 247.5 -97.5t82.5 -272.5q0 -116 -43.5 -205.5t-121.5 -138.5t-179 -49q-163 0 -244 102zM237 610q-46 -81 -46 -240q0 -157 44.5 -238.5t127.5 -81.5q81 0 127 85.5t46 246.5q0 156 -44 232.5t-127 76.5
q-82 0 -128 -81zM287 833l130 149l101 -63q-34 -39 -83.5 -74.5t-84.5 -49.5z" />
    <glyph glyph-name="Ocircumflex" unicode="&#xd4;" horiz-adv-x="728" 
d="M111 91q-81 102 -81 278q0 115 42.5 202t119.5 134t177 47q165 0 247.5 -97.5t82.5 -272.5q0 -116 -43.5 -205.5t-121.5 -138.5t-179 -49q-163 0 -244 102zM237 610q-46 -81 -46 -240q0 -157 44.5 -238.5t127.5 -81.5q81 0 127 85.5t46 246.5q0 156 -44 232.5t-127 76.5
q-82 0 -128 -81zM414 981l144 -145l-49 -39l-140 98l-141 -98l-48 38l145 146h89z" />
    <glyph glyph-name="Otilde" unicode="&#xd5;" horiz-adv-x="728" 
d="M111 91q-81 102 -81 278q0 115 42.5 202t119.5 134t177 47q165 0 247.5 -97.5t82.5 -272.5q0 -116 -43.5 -205.5t-121.5 -138.5t-179 -49q-163 0 -244 102zM237 610q-46 -81 -46 -240q0 -157 44.5 -238.5t127.5 -81.5q81 0 127 85.5t46 246.5q0 156 -44 232.5t-127 76.5
q-82 0 -128 -81zM394 817.5q-18 9.5 -42 29.5q-17 15 -29 22t-27 7q-24 0 -37 -15.5t-23 -44.5l-56 34q15 52 45.5 81.5t74.5 29.5q29 0 48.5 -10.5t42.5 -30.5q18 -15 29 -21.5t25 -6.5q39 0 59 61l56 -34q-32 -111 -119 -111q-29 0 -47 9.5z" />
    <glyph glyph-name="Odieresis" unicode="&#xd6;" horiz-adv-x="728" 
d="M111 91q-81 102 -81 278q0 115 42.5 202t119.5 134t177 47q165 0 247.5 -97.5t82.5 -272.5q0 -116 -43.5 -205.5t-121.5 -138.5t-179 -49q-163 0 -244 102zM237 610q-46 -81 -46 -240q0 -157 44.5 -238.5t127.5 -81.5q81 0 127 85.5t46 246.5q0 156 -44 232.5t-127 76.5
q-82 0 -128 -81zM185 830q-18 21 -18 50q0 37 19.5 60.5t57.5 23.5h1q34 0 52 -20.5t18 -50.5q0 -37 -21 -60.5t-62 -23.5h-1q-28 0 -46 21zM439 830.5q-18 21.5 -18 49.5q0 37 19.5 60.5t57.5 23.5h1q35 0 52.5 -20.5t17.5 -50.5q0 -38 -21 -61t-63 -23q-28 0 -46 21.5z
" />
    <glyph glyph-name="multiply" unicode="&#xd7;" horiz-adv-x="615" 
d="M73 461l77 77l158 -173l157 173l76 -77l-167 -160l167 -160l-76 -76l-157 172l-158 -172l-74 76l166 160z" />
    <glyph glyph-name="Oslash" unicode="&#xd8;" horiz-adv-x="728" 
d="M70 156.5q-40 88.5 -40 212.5q0 115 42.5 202t119.5 134t177 47q58 0 106 -13l42 108l63 -19l-44 -111q82 -40 122.5 -126.5t40.5 -208.5q0 -115 -43 -204t-120 -138.5t-177 -50.5q-57 0 -105 12l-47 -112l-66 19l50 117q-81 43 -121 131.5zM237 610q-46 -81 -46 -240
q0 -76 14.5 -136.5t42.5 -98.5l200 527q-33 29 -83 29q-82 0 -128 -81zM481 611l-203 -527q35 -34 85 -34q81 0 127 85.5t46 246.5q0 153 -55 229z" />
    <glyph glyph-name="Ugrave" unicode="&#xd9;" horiz-adv-x="743" 
d="M159 68q-74 76 -74 239v361l-66 13v62h302v-62l-85 -14v-373q0 -238 169 -238q83 0 123 61.5t40 172.5v377l-86 14v62h250v-62l-68 -13v-370q0 -156 -75.5 -231t-203.5 -75q-152 0 -226 76zM329.5 846.5q-53.5 37.5 -82.5 72.5l96 63l135 -149l-58 -38q-37 14 -90.5 51.5
z" />
    <glyph glyph-name="Uacute" unicode="&#xda;" horiz-adv-x="743" 
d="M159 68q-74 76 -74 239v361l-66 13v62h302v-62l-85 -14v-373q0 -238 169 -238q83 0 123 61.5t40 172.5v377l-86 14v62h250v-62l-68 -13v-370q0 -156 -75.5 -231t-203.5 -75q-152 0 -226 76zM320 833l130 149l101 -63q-34 -39 -83.5 -74.5t-84.5 -49.5z" />
    <glyph glyph-name="Ucircumflex" unicode="&#xdb;" horiz-adv-x="743" 
d="M159 68q-74 76 -74 239v361l-66 13v62h302v-62l-85 -14v-373q0 -238 169 -238q83 0 123 61.5t40 172.5v377l-86 14v62h250v-62l-68 -13v-370q0 -156 -75.5 -231t-203.5 -75q-152 0 -226 76zM447 981l144 -145l-49 -39l-140 98l-141 -98l-48 38l145 146h89z" />
    <glyph glyph-name="Udieresis" unicode="&#xdc;" horiz-adv-x="743" 
d="M159 68q-74 76 -74 239v361l-66 13v62h302v-62l-85 -14v-373q0 -238 169 -238q83 0 123 61.5t40 172.5v377l-86 14v62h250v-62l-68 -13v-370q0 -156 -75.5 -231t-203.5 -75q-152 0 -226 76zM218 830q-18 21 -18 50q0 37 19.5 60.5t57.5 23.5h1q34 0 52 -20.5t18 -50.5
q0 -37 -21 -60.5t-62 -23.5h-1q-28 0 -46 21zM472 830.5q-18 21.5 -18 49.5q0 37 19.5 60.5t57.5 23.5h1q35 0 52.5 -20.5t17.5 -50.5q0 -38 -21 -61t-63 -23q-28 0 -46 21.5z" />
    <glyph glyph-name="Yacute" unicode="&#xdd;" horiz-adv-x="651" 
d="M255 295l-214 373l-57 13v62h294v-62l-71 -13l125 -245l28 -69l29 69l115 245l-78 13v62h244v-62l-62 -12l-199 -373v-226l109 -10v-60h-369v60l106 10v225zM261 833l130 149l101 -63q-34 -39 -83.5 -74.5t-84.5 -49.5z" />
    <glyph glyph-name="Thorn" unicode="&#xde;" horiz-adv-x="660" 
d="M117 668l-79 14v61h310l1 -61l-85 -14v-95l38 3q59 7 110 7q111 0 168 -49.5t57 -148.5q0 -113 -66.5 -169.5t-187.5 -56.5q-56 0 -119 5v-94l104 -11v-59h-331v59l80 11v598zM447 260.5q34 41.5 34 118.5q0 64 -31.5 102t-97.5 38q-46 0 -88 -8v-288q28 -4 58 -4h36
q55 0 89 41.5z" />
    <glyph glyph-name="germandbls" unicode="&#xdf;" horiz-adv-x="653" 
d="M83 470q0 93 38 165t106 111.5t155 39.5q91 0 140.5 -34t49.5 -99q0 -42 -16.5 -67.5t-49.5 -56.5q-24 -22 -35 -37.5t-11 -36.5q0 -22 15 -40.5t50 -50.5q34 -30 56.5 -54.5t38.5 -60t16 -79.5q0 -85 -62.5 -133t-176.5 -48q-17 0 -43 3.5t-41 7.5v79q14 -6 35.5 -10.5
t42.5 -4.5q45 0 69 24t24 61q0 43 -19 72.5t-56 66.5q-35 35 -52 61t-17 62q0 25 11 44.5t33 45.5q27 33 41.5 60.5t14.5 70.5q0 87 -81 87q-64 0 -98.5 -59t-34.5 -172v-488h-203v60l60 9v401z" />
    <glyph glyph-name="agrave" unicode="&#xe0;" horiz-adv-x="566" 
d="M125.5 293q91.5 46 236.5 47v23q0 41 -8.5 64t-31 34.5t-65.5 11.5q-49 0 -88 -12.5t-81 -32.5l-31 64q15 13 50.5 31t84.5 31.5t101 13.5q77 0 120.5 -20t62.5 -64t19 -118v-306h54v-56q-20 -5 -57 -10t-65 -5q-34 0 -45.5 10t-11.5 41v27q-27 -30 -70 -54t-97 -24
q-46 0 -84.5 19.5t-61.5 57t-23 90.5q0 91 91.5 137zM315 84.5q27 12.5 47 30.5v164q-90 0 -134.5 -30.5t-44.5 -78.5t22.5 -73t61.5 -25q21 0 48 12.5zM238.5 684q-42.5 32 -82 69t-54.5 63l86 77l169 -208l-50 -43h-1q-25 10 -67.5 42z" />
    <glyph glyph-name="aacute" unicode="&#xe1;" horiz-adv-x="566" 
d="M125.5 293q91.5 46 236.5 47v23q0 41 -8.5 64t-31 34.5t-65.5 11.5q-49 0 -88 -12.5t-81 -32.5l-31 64q15 13 50.5 31t84.5 31.5t101 13.5q77 0 120.5 -20t62.5 -64t19 -118v-306h54v-56q-20 -5 -57 -10t-65 -5q-34 0 -45.5 10t-11.5 41v27q-27 -30 -70 -54t-97 -24
q-46 0 -84.5 19.5t-61.5 57t-23 90.5q0 91 91.5 137zM315 84.5q27 12.5 47 30.5v164q-90 0 -134.5 -30.5t-44.5 -78.5t22.5 -73t61.5 -25q21 0 48 12.5zM184 686l169 208l88 -77q-24 -40 -93.5 -98t-112.5 -76z" />
    <glyph glyph-name="acircumflex" unicode="&#xe2;" horiz-adv-x="566" 
d="M125.5 293q91.5 46 236.5 47v23q0 41 -8.5 64t-31 34.5t-65.5 11.5q-49 0 -88 -12.5t-81 -32.5l-31 64q15 13 50.5 31t84.5 31.5t101 13.5q77 0 120.5 -20t62.5 -64t19 -118v-306h54v-56q-20 -5 -57 -10t-65 -5q-34 0 -45.5 10t-11.5 41v27q-27 -30 -70 -54t-97 -24
q-46 0 -84.5 19.5t-61.5 57t-23 90.5q0 91 91.5 137zM315 84.5q27 12.5 47 30.5v164q-90 0 -134.5 -30.5t-44.5 -78.5t22.5 -73t61.5 -25q21 0 48 12.5zM321 863l149 -195l-50 -38l-142 132l-146 -133l-47 38l149 196h87z" />
    <glyph glyph-name="atilde" unicode="&#xe3;" horiz-adv-x="566" 
d="M125.5 293q91.5 46 236.5 47v23q0 41 -8.5 64t-31 34.5t-65.5 11.5q-49 0 -88 -12.5t-81 -32.5l-31 64q15 13 50.5 31t84.5 31.5t101 13.5q77 0 120.5 -20t62.5 -64t19 -118v-306h54v-56q-20 -5 -57 -10t-65 -5q-34 0 -45.5 10t-11.5 41v27q-27 -30 -70 -54t-97 -24
q-46 0 -84.5 19.5t-61.5 57t-23 90.5q0 91 91.5 137zM315 84.5q27 12.5 47 30.5v164q-90 0 -134.5 -30.5t-44.5 -78.5t22.5 -73t61.5 -25q21 0 48 12.5zM121 784q36 32 84 32q29 0 49.5 -11.5t46.5 -32.5q17 -16 30 -23.5t27 -7.5q24 0 36 13.5t17 26t7 15.5l59 -33
q-9 -50 -41 -82.5t-81 -32.5q-28 0 -48 11.5t-47 33.5q-19 16 -32 24t-28 8q-22 0 -34.5 -11t-20.5 -25t-13 -20l-57 33q10 50 46 82z" />
    <glyph glyph-name="adieresis" unicode="&#xe4;" horiz-adv-x="566" 
d="M125.5 293q91.5 46 236.5 47v23q0 41 -8.5 64t-31 34.5t-65.5 11.5q-49 0 -88 -12.5t-81 -32.5l-31 64q15 13 50.5 31t84.5 31.5t101 13.5q77 0 120.5 -20t62.5 -64t19 -118v-306h54v-56q-20 -5 -57 -10t-65 -5q-34 0 -45.5 10t-11.5 41v27q-27 -30 -70 -54t-97 -24
q-46 0 -84.5 19.5t-61.5 57t-23 90.5q0 91 91.5 137zM315 84.5q27 12.5 47 30.5v164q-90 0 -134.5 -30.5t-44.5 -78.5t22.5 -73t61.5 -25q21 0 48 12.5zM103 669q-18 21 -18 52q0 38 19.5 62t57.5 24q35 0 52.5 -21t17.5 -52q0 -39 -18.5 -62.5t-60.5 -23.5q-32 0 -50 21z
M343 670q-18 22 -18 51q0 38 19.5 62t57.5 24q35 0 52.5 -21t17.5 -52q0 -39 -19 -62.5t-61 -23.5q-31 0 -49 22z" />
    <glyph glyph-name="aring" unicode="&#xe5;" horiz-adv-x="566" 
d="M125.5 293q91.5 46 236.5 47v23q0 41 -8.5 64t-31 34.5t-65.5 11.5q-49 0 -88 -12.5t-81 -32.5l-31 64q15 13 50.5 31t84.5 31.5t101 13.5q77 0 120.5 -20t62.5 -64t19 -118v-306h54v-56q-20 -5 -57 -10t-65 -5q-34 0 -45.5 10t-11.5 41v27q-27 -30 -70 -54t-97 -24
q-46 0 -84.5 19.5t-61.5 57t-23 90.5q0 91 91.5 137zM315 84.5q27 12.5 47 30.5v164q-90 0 -134.5 -30.5t-44.5 -78.5t22.5 -73t61.5 -25q21 0 48 12.5zM149 673q-42 39 -42 101q0 45 24.5 77.5t65 49.5t87.5 17q80 0 122.5 -39.5t42.5 -102.5q-1 -66 -50 -104t-123 -38
q-85 0 -127 39zM344 712.5q21 19.5 21 59.5q0 39 -21 62.5t-65 23.5t-66 -20.5t-22 -58.5q0 -37 22 -61.5t65 -24.5q45 0 66 19.5z" />
    <glyph glyph-name="ae" unicode="&#xe6;" horiz-adv-x="868" 
d="M81 31q-48 42 -48 120q0 93 88.5 140.5t237.5 48.5q0 55 -8 82.5t-30 38.5t-68 11q-45 0 -81.5 -10.5t-61 -21l-31.5 -13.5l-30 64q15 14 52.5 32t87.5 31.5t101 13.5q64 0 102 -15t57 -47q69 64 175 64q101 0 155 -52.5t56 -149.5q0 -64 -7 -98h-328q4 -91 43 -141.5
t111 -50.5q39 0 81.5 13t67.5 30l23 -54q-27 -29 -87 -53.5t-122 -24.5q-147 0 -214 103q-28 -42 -82.5 -72.5t-119.5 -30.5q-72 0 -120 42zM693 330q1 12 1 43q0 133 -87 133q-49 0 -76.5 -38.5t-31.5 -137.5h194zM332.5 91.5q31.5 19.5 47.5 46.5q-23 62 -23 145
q-86 -1 -128.5 -33t-42.5 -80q0 -51 21.5 -74.5t58.5 -23.5q35 0 66.5 19.5z" />
    <glyph glyph-name="ccedilla" unicode="&#xe7;" horiz-adv-x="519" 
d="M66.5 428q34.5 67 99 104.5t150.5 37.5q40 0 69 -6t65 -16l29 -8l-6 -171h-87l-25 110q-6 26 -59 26q-56 0 -87.5 -49t-32.5 -153q0 -110 38 -168.5t101 -58.5q76 0 140 41l23 -52q-21 -24 -66.5 -46t-98.5 -28q22 -24 39.5 -58t17.5 -70q0 -62 -35.5 -88t-106.5 -26
q-17 0 -37 4.5t-34 10.5l1 83q20 -7 42 -7q39 0 55.5 13t16.5 56q0 21 -8 43t-18 39q-110 12 -165 89t-55 195q0 86 34.5 153z" />
    <glyph glyph-name="egrave" unicode="&#xe8;" horiz-adv-x="550" 
d="M100.5 66.5q-64.5 77.5 -64.5 211.5q0 90 33.5 156t94.5 101t141 35q100 0 154 -52.5t56 -149.5q0 -66 -8 -98h-325q4 -91 43 -141.5t111 -50.5q39 0 80.5 13t65.5 31l25 -55q-27 -29 -87.5 -53.5t-122.5 -24.5q-132 0 -196.5 77.5zM375 330q2 28 2 43q0 133 -89 133
q-49 0 -76 -39t-30 -137h193zM255.5 684q-42.5 32 -82 69t-54.5 63l86 77l169 -208l-50 -43h-1q-25 10 -67.5 42z" />
    <glyph glyph-name="eacute" unicode="&#xe9;" horiz-adv-x="550" 
d="M100.5 66.5q-64.5 77.5 -64.5 211.5q0 90 33.5 156t94.5 101t141 35q100 0 154 -52.5t56 -149.5q0 -66 -8 -98h-325q4 -91 43 -141.5t111 -50.5q39 0 80.5 13t65.5 31l25 -55q-27 -29 -87.5 -53.5t-122.5 -24.5q-132 0 -196.5 77.5zM375 330q2 28 2 43q0 133 -89 133
q-49 0 -76 -39t-30 -137h193zM201 686l169 208l88 -77q-24 -40 -93.5 -98t-112.5 -76z" />
    <glyph glyph-name="ecircumflex" unicode="&#xea;" horiz-adv-x="550" 
d="M100.5 66.5q-64.5 77.5 -64.5 211.5q0 90 33.5 156t94.5 101t141 35q100 0 154 -52.5t56 -149.5q0 -66 -8 -98h-325q4 -91 43 -141.5t111 -50.5q39 0 80.5 13t65.5 31l25 -55q-27 -29 -87.5 -53.5t-122.5 -24.5q-132 0 -196.5 77.5zM375 330q2 28 2 43q0 133 -89 133
q-49 0 -76 -39t-30 -137h193zM338 863l149 -195l-50 -38l-142 132l-146 -133l-47 38l149 196h87z" />
    <glyph glyph-name="edieresis" unicode="&#xeb;" horiz-adv-x="550" 
d="M100.5 66.5q-64.5 77.5 -64.5 211.5q0 90 33.5 156t94.5 101t141 35q100 0 154 -52.5t56 -149.5q0 -66 -8 -98h-325q4 -91 43 -141.5t111 -50.5q39 0 80.5 13t65.5 31l25 -55q-27 -29 -87.5 -53.5t-122.5 -24.5q-132 0 -196.5 77.5zM375 330q2 28 2 43q0 133 -89 133
q-49 0 -76 -39t-30 -137h193zM120 669q-18 21 -18 52q0 38 19.5 62t57.5 24q35 0 52.5 -21t17.5 -52q0 -39 -18.5 -62.5t-60.5 -23.5q-32 0 -50 21zM360 670q-18 22 -18 51q0 38 19.5 62t57.5 24q35 0 52.5 -21t17.5 -52q0 -39 -19 -62.5t-61 -23.5q-31 0 -49 22z" />
    <glyph glyph-name="igrave" unicode="&#xec;" horiz-adv-x="347" 
d="M111 461l-71 19v67l183 22h2l28 -20v-481l67 -8v-60h-279v60l70 9v392zM134.5 684q-42.5 32 -82 69t-54.5 63l86 77l169 -208l-50 -43h-1q-25 10 -67.5 42z" />
    <glyph glyph-name="iacute" unicode="&#xed;" horiz-adv-x="347" 
d="M111 461l-71 19v67l183 22h2l28 -20v-481l67 -8v-60h-279v60l70 9v392zM80 686l169 208l88 -77q-24 -40 -93.5 -98t-112.5 -76z" />
    <glyph glyph-name="icircumflex" unicode="&#xee;" horiz-adv-x="347" 
d="M111 461l-71 19v67l183 22h2l28 -20v-481l67 -8v-60h-279v60l70 9v392zM217 863l149 -195l-50 -38l-142 132l-146 -133l-47 38l149 196h87z" />
    <glyph glyph-name="idieresis" unicode="&#xef;" horiz-adv-x="347" 
d="M111 461l-71 19v67l183 22h2l28 -20v-481l67 -8v-60h-279v60l70 9v392zM-1 669q-18 21 -18 52q0 38 19.5 62t57.5 24q35 0 52.5 -21t17.5 -52q0 -39 -18.5 -62.5t-60.5 -23.5q-32 0 -50 21zM239 670q-18 22 -18 51q0 38 19.5 62t57.5 24q35 0 52.5 -21t17.5 -52
q0 -39 -19 -62.5t-61 -23.5q-31 0 -49 22z" />
    <glyph glyph-name="eth" unicode="&#xf0;" horiz-adv-x="595" 
d="M102.5 64q-67.5 75 -67.5 201q0 99 36 168t94.5 103t126.5 34q53 0 93 -18q-17 53 -53 100t-87 81l-67 -86l-58 41l69 84q-27 18 -55.5 31.5t-48.5 18.5l25 60q72 -18 131 -48l63 81l56 -44l-59 -72q118 -80 190 -198.5t72 -271.5q0 -89 -26.5 -165.5t-86 -125.5
t-154.5 -49q-126 0 -193.5 75zM386.5 116q27.5 62 27.5 195q0 51 -6.5 95t-13.5 67q-10 13 -33.5 24.5t-56.5 11.5q-55 0 -85.5 -57.5t-30.5 -172.5q0 -97 27.5 -161t86.5 -64q57 0 84.5 62z" />
    <glyph glyph-name="ntilde" unicode="&#xf1;" horiz-adv-x="681" 
d="M101 461l-64 18v69l166 21h3l25 -20v-39l-1 -24q35 33 91 57t113 24q61 0 95.5 -22.5t49.5 -70.5t15 -130v-276l61 -8v-60h-258v60l54 8v276q0 52 -7 81.5t-25.5 43t-52.5 13.5q-57 0 -122 -49v-364l60 -9v-60h-261v60l58 9v392zM175 784q36 32 84 32q29 0 49.5 -11.5
t46.5 -32.5q17 -16 30 -23.5t27 -7.5q24 0 36 13.5t17 26t7 15.5l59 -33q-9 -50 -41 -82.5t-81 -32.5q-28 0 -48 11.5t-47 33.5q-19 16 -32 24t-28 8q-22 0 -34.5 -11t-20.5 -25t-13 -20l-57 33q10 50 46 82z" />
    <glyph glyph-name="ograve" unicode="&#xf2;" horiz-adv-x="629" 
d="M82.5 437q37.5 66 100.5 99.5t137 33.5q126 0 194.5 -77.5t68.5 -210.5q0 -95 -37.5 -161.5t-100 -99t-137.5 -32.5q-125 0 -194 77.5t-69 210.5q0 94 37.5 160zM429 272q0 114 -27 173.5t-88 59.5q-116 0 -116 -218q0 -114 28.5 -173.5t89.5 -59.5q113 0 113 218z
M277.5 684q-42.5 32 -82 69t-54.5 63l86 77l169 -208l-50 -43h-1q-25 10 -67.5 42z" />
    <glyph glyph-name="oacute" unicode="&#xf3;" horiz-adv-x="629" 
d="M82.5 437q37.5 66 100.5 99.5t137 33.5q126 0 194.5 -77.5t68.5 -210.5q0 -95 -37.5 -161.5t-100 -99t-137.5 -32.5q-125 0 -194 77.5t-69 210.5q0 94 37.5 160zM429 272q0 114 -27 173.5t-88 59.5q-116 0 -116 -218q0 -114 28.5 -173.5t89.5 -59.5q113 0 113 218z
M223 686l169 208l88 -77q-24 -40 -93.5 -98t-112.5 -76z" />
    <glyph glyph-name="ocircumflex" unicode="&#xf4;" horiz-adv-x="629" 
d="M82.5 437q37.5 66 100.5 99.5t137 33.5q126 0 194.5 -77.5t68.5 -210.5q0 -95 -37.5 -161.5t-100 -99t-137.5 -32.5q-125 0 -194 77.5t-69 210.5q0 94 37.5 160zM429 272q0 114 -27 173.5t-88 59.5q-116 0 -116 -218q0 -114 28.5 -173.5t89.5 -59.5q113 0 113 218z
M360 863l149 -195l-50 -38l-142 132l-146 -133l-47 38l149 196h87z" />
    <glyph glyph-name="otilde" unicode="&#xf5;" horiz-adv-x="629" 
d="M82.5 437q37.5 66 100.5 99.5t137 33.5q126 0 194.5 -77.5t68.5 -210.5q0 -95 -37.5 -161.5t-100 -99t-137.5 -32.5q-125 0 -194 77.5t-69 210.5q0 94 37.5 160zM429 272q0 114 -27 173.5t-88 59.5q-116 0 -116 -218q0 -114 28.5 -173.5t89.5 -59.5q113 0 113 218z
M160 784q36 32 84 32q29 0 49.5 -11.5t46.5 -32.5q17 -16 30 -23.5t27 -7.5q24 0 36 13.5t17 26t7 15.5l59 -33q-9 -50 -41 -82.5t-81 -32.5q-28 0 -48 11.5t-47 33.5q-19 16 -32 24t-28 8q-22 0 -34.5 -11t-20.5 -25t-13 -20l-57 33q10 50 46 82z" />
    <glyph glyph-name="odieresis" unicode="&#xf6;" horiz-adv-x="629" 
d="M82.5 437q37.5 66 100.5 99.5t137 33.5q126 0 194.5 -77.5t68.5 -210.5q0 -95 -37.5 -161.5t-100 -99t-137.5 -32.5q-125 0 -194 77.5t-69 210.5q0 94 37.5 160zM429 272q0 114 -27 173.5t-88 59.5q-116 0 -116 -218q0 -114 28.5 -173.5t89.5 -59.5q113 0 113 218z
M142 669q-18 21 -18 52q0 38 19.5 62t57.5 24q35 0 52.5 -21t17.5 -52q0 -39 -18.5 -62.5t-60.5 -23.5q-32 0 -50 21zM382 670q-18 22 -18 51q0 38 19.5 62t57.5 24q35 0 52.5 -21t17.5 -52q0 -39 -19 -62.5t-61 -23.5q-31 0 -49 22z" />
    <glyph glyph-name="divide" unicode="&#xf7;" horiz-adv-x="663" 
d="M279.5 482.5q-21.5 19.5 -21.5 50.5q0 32 25.5 54.5t59.5 22.5t54 -21t20 -50q0 -35 -24.5 -55.5t-61.5 -20.5q-30 0 -51.5 19.5zM561 278h-459v89h459v-89zM277 167q25 22 60 22t55 -20.5t20 -49.5q0 -35 -25 -56t-63 -21q-28 0 -50 19.5t-22 49.5q0 34 25 56z" />
    <glyph glyph-name="oslash" unicode="&#xf8;" horiz-adv-x="608" 
d="M72.5 437q37.5 66 100.5 99.5t137 33.5q34 0 64 -6l37 105l58 -16l-35 -108q68 -32 103.5 -100t35.5 -163q0 -96 -37.5 -162t-100.5 -98.5t-138 -32.5q-32 0 -59 6l-43 -116l-61 18l42 116q-69 31 -105 99.5t-36 164.5q0 94 37.5 160zM225 112l131 375q-21 18 -52 18
q-116 0 -116 -218q0 -119 37 -175zM419 272q0 117 -36 171l-130 -372q23 -17 53 -17q113 0 113 218z" />
    <glyph glyph-name="ugrave" unicode="&#xf9;" horiz-adv-x="639" 
d="M448 4q-15 14 -15 42v27q-27 -33 -76 -58.5t-98 -25.5q-96 0 -137 49.5t-41 163.5v282l-50 14v57l170 13h1l20 -14v-352q0 -73 18 -102t67 -29q59 0 110 46v367l-67 15v56l181 13h2l24 -14v-492h56l-1 -57q-4 -1 -37 -8t-79 -7q-33 0 -48 14zM267.5 684q-42.5 32 -82 69
t-54.5 63l86 77l169 -208l-50 -43h-1q-25 10 -67.5 42z" />
    <glyph glyph-name="uacute" unicode="&#xfa;" horiz-adv-x="639" 
d="M448 4q-15 14 -15 42v27q-27 -33 -76 -58.5t-98 -25.5q-96 0 -137 49.5t-41 163.5v282l-50 14v57l170 13h1l20 -14v-352q0 -73 18 -102t67 -29q59 0 110 46v367l-67 15v56l181 13h2l24 -14v-492h56l-1 -57q-4 -1 -37 -8t-79 -7q-33 0 -48 14zM213 686l169 208l88 -77
q-24 -40 -93.5 -98t-112.5 -76z" />
    <glyph glyph-name="ucircumflex" unicode="&#xfb;" horiz-adv-x="639" 
d="M448 4q-15 14 -15 42v27q-27 -33 -76 -58.5t-98 -25.5q-96 0 -137 49.5t-41 163.5v282l-50 14v57l170 13h1l20 -14v-352q0 -73 18 -102t67 -29q59 0 110 46v367l-67 15v56l181 13h2l24 -14v-492h56l-1 -57q-4 -1 -37 -8t-79 -7q-33 0 -48 14zM350 863l149 -195l-50 -38
l-142 132l-146 -133l-47 38l149 196h87z" />
    <glyph glyph-name="udieresis" unicode="&#xfc;" horiz-adv-x="639" 
d="M448 4q-15 14 -15 42v27q-27 -33 -76 -58.5t-98 -25.5q-96 0 -137 49.5t-41 163.5v282l-50 14v57l170 13h1l20 -14v-352q0 -73 18 -102t67 -29q59 0 110 46v367l-67 15v56l181 13h2l24 -14v-492h56l-1 -57q-4 -1 -37 -8t-79 -7q-33 0 -48 14zM132 669q-18 21 -18 52
q0 38 19.5 62t57.5 24q35 0 52.5 -21t17.5 -52q0 -39 -18.5 -62.5t-60.5 -23.5q-32 0 -50 21zM372 670q-18 22 -18 51q0 38 19.5 62t57.5 24q35 0 52.5 -21t17.5 -52q0 -39 -19 -62.5t-61 -23.5q-31 0 -49 22z" />
    <glyph glyph-name="yacute" unicode="&#xfd;" horiz-adv-x="573" 
d="M95.5 -246q-20.5 3 -29.5 7v107q7 -4 28 -8t38 -4q50 0 82.5 33t60.5 111h-54l-188 485l-45 13v58h275v-58l-73 -12l89 -277l36 -118l31 118l82 277l-63 12v58h217v-58l-49 -12q-55 -168 -109 -324t-63 -175q-32 -84 -61 -134t-69 -76t-97 -26q-18 0 -38.5 3zM213 686
l169 208l88 -77q-24 -40 -93.5 -98t-112.5 -76z" />
    <glyph glyph-name="thorn" unicode="&#xfe;" horiz-adv-x="621" 
d="M186 820h2l29 -19v-295q27 27 66.5 45.5t85.5 18.5q96 0 156.5 -67.5t60.5 -206.5q0 -86 -36 -156t-103.5 -110.5t-157.5 -40.5q-42 0 -75 6l3 -62v-108l99 -12v-55h-304v55l67 12v909l-76 12v52zM259 468.5q-27 -13.5 -42 -30.5v-365q5 -11 27.5 -18t50.5 -7
q64 0 102.5 59.5t38.5 176.5q0 101 -33 149.5t-88 48.5q-29 0 -56 -13.5z" />
    <glyph glyph-name="ydieresis" unicode="&#xff;" horiz-adv-x="573" 
d="M95.5 -246q-20.5 3 -29.5 7v107q7 -4 28 -8t38 -4q50 0 82.5 33t60.5 111h-54l-188 485l-45 13v58h275v-58l-73 -12l89 -277l36 -118l31 118l82 277l-63 12v58h217v-58l-49 -12q-55 -168 -109 -324t-63 -175q-32 -84 -61 -134t-69 -76t-97 -26q-18 0 -38.5 3zM132 669
q-18 21 -18 52q0 38 19.5 62t57.5 24q35 0 52.5 -21t17.5 -52q0 -39 -18.5 -62.5t-60.5 -23.5q-32 0 -50 21zM372 670q-18 22 -18 51q0 38 19.5 62t57.5 24q35 0 52.5 -21t17.5 -52q0 -39 -19 -62.5t-61 -23.5q-31 0 -49 22z" />
    <glyph glyph-name="Amacron" unicode="&#x100;" horiz-adv-x="702" 
d="M273 747h153l231 -677l58 -10v-60h-295v60l75 10l-39 130h-259l-39 -131l81 -9v-60h-255l-1 60l60 10zM342 578l-18 78l-19 -79l-89 -307h220zM505 843h-314v87h314v-87z" />
    <glyph glyph-name="amacron" unicode="&#x101;" horiz-adv-x="566" 
d="M125.5 293q91.5 46 236.5 47v23q0 41 -8.5 64t-31 34.5t-65.5 11.5q-49 0 -88 -12.5t-81 -32.5l-31 64q15 13 50.5 31t84.5 31.5t101 13.5q77 0 120.5 -20t62.5 -64t19 -118v-306h54v-56q-20 -5 -57 -10t-65 -5q-34 0 -45.5 10t-11.5 41v27q-27 -30 -70 -54t-97 -24
q-46 0 -84.5 19.5t-61.5 57t-23 90.5q0 91 91.5 137zM315 84.5q27 12.5 47 30.5v164q-90 0 -134.5 -30.5t-44.5 -78.5t22.5 -73t61.5 -25q21 0 48 12.5zM427 667h-297v86h297v-86z" />
    <glyph glyph-name="Abreve" unicode="&#x102;" horiz-adv-x="702" 
d="M273 747h153l231 -677l58 -10v-60h-295v60l75 10l-39 130h-259l-39 -131l81 -9v-60h-255l-1 60l60 10zM342 578l-18 78l-19 -79l-89 -307h220zM248 819.5q-41 21.5 -61.5 57t-20.5 79.5q0 15 1 22h70q0 -7 1 -12q17 -77 110 -77t110 77q1 5 1 12h70q1 -7 1 -21
q0 -44 -21.5 -80t-63 -57.5t-98.5 -21.5q-58 0 -99 21.5z" />
    <glyph glyph-name="abreve" unicode="&#x103;" horiz-adv-x="566" 
d="M125.5 293q91.5 46 236.5 47v23q0 41 -8.5 64t-31 34.5t-65.5 11.5q-49 0 -88 -12.5t-81 -32.5l-31 64q15 13 50.5 31t84.5 31.5t101 13.5q77 0 120.5 -20t62.5 -64t19 -118v-306h54v-56q-20 -5 -57 -10t-65 -5q-34 0 -45.5 10t-11.5 41v27q-27 -30 -70 -54t-97 -24
q-46 0 -84.5 19.5t-61.5 57t-23 90.5q0 91 91.5 137zM315 84.5q27 12.5 47 30.5v164q-90 0 -134.5 -30.5t-44.5 -78.5t22.5 -73t61.5 -25q21 0 48 12.5zM186.5 670.5q-40.5 21.5 -62.5 58t-22 82.5q0 31 2 41h67q0 -13 1 -20q3 -36 29.5 -60.5t78.5 -24.5t77.5 24.5
t29.5 59.5q2 15 1 21h65q2 -20 2 -40q0 -46 -22 -83t-62 -58.5t-91 -21.5q-53 0 -93.5 21.5z" />
    <glyph glyph-name="Aogonek" unicode="&#x104;" horiz-adv-x="698" 
d="M273 747h153l231 -677l58 -10v-60h-44q-47 -18 -77 -51.5t-30 -64.5q0 -26 20.5 -40t53.5 -14t66 15v-62q-20 -15 -54.5 -24t-66.5 -9q-61 0 -102.5 26t-41.5 72q0 43 44 87.5t105 64.5h-168v60l75 10l-39 130h-259l-39 -131l81 -9v-60h-255l-1 60l60 10zM343 578l-19 78
l-18 -79l-90 -307h220z" />
    <glyph glyph-name="aogonek" unicode="&#x105;" horiz-adv-x="566" 
d="M118.5 8.5q-38.5 19.5 -61.5 57t-23 90.5q0 91 91 137t237 47v23q0 41 -8.5 64t-31 34.5t-65.5 11.5q-51 0 -91 -13t-81 -32l-31 64q14 12 51 30.5t86.5 32t101.5 13.5q77 0 120.5 -20t62.5 -64t19 -118v-306h54v-56q-2 -1 -29 -6q-39 -20 -65.5 -50.5t-26.5 -55.5
q0 -28 17.5 -42t49.5 -14q18 0 33 5t27 11l18 9l4 -60q-23 -17 -60 -30t-78 -13q-52 0 -89 24.5t-37 73.5q0 34 28.5 71t74.5 62q-27 1 -36.5 12t-9.5 39v27q-27 -30 -70 -54t-97 -24q-46 0 -84.5 19.5zM205.5 97q22.5 -25 61.5 -25q21 0 48 12.5t47 30.5v164
q-90 0 -134.5 -30.5t-44.5 -78.5t22.5 -73z" />
    <glyph glyph-name="Cacute" unicode="&#x106;" horiz-adv-x="658" 
d="M119 90.5q-90 101.5 -90 277.5q0 116 47.5 202.5t130.5 133.5t188 47q44 0 85 -5.5t97 -14.5q42 -7 46 -7l-11 -206h-92l-31 143q-11 11 -38 18t-69 7q-85 0 -136.5 -78.5t-51.5 -227.5q0 -144 49 -235t143 -91q45 0 69.5 8.5t41.5 24.5l44 103l84 -8l-20 -155
q-21 -2 -41.5 -7.5t-25.5 -6.5q-40 -11 -74.5 -17.5t-84.5 -6.5q-170 0 -260 101.5zM294 833l130 149l101 -63q-34 -39 -83.5 -74.5t-84.5 -49.5z" />
    <glyph glyph-name="cacute" unicode="&#x107;" horiz-adv-x="519" 
d="M66.5 428q34.5 67 99 104.5t150.5 37.5q40 0 69 -6t65 -16l29 -8l-6 -171h-87l-25 110q-6 26 -59 26q-56 0 -87.5 -49t-32.5 -153q0 -110 38 -168.5t101 -58.5q76 0 140 41l23 -52q-26 -28 -79.5 -52t-115.5 -24q-128 0 -192.5 79t-64.5 207q0 86 34.5 153zM196 686
l169 208l88 -77q-24 -40 -93.5 -98t-112.5 -76z" />
    <glyph glyph-name="Ccircumflex" unicode="&#x108;" horiz-adv-x="658" 
d="M119 90.5q-90 101.5 -90 277.5q0 116 47.5 202.5t130.5 133.5t188 47q44 0 85 -5.5t97 -14.5q42 -7 46 -7l-11 -206h-92l-31 143q-11 11 -38 18t-69 7q-85 0 -136.5 -78.5t-51.5 -227.5q0 -144 49 -235t143 -91q45 0 69.5 8.5t41.5 24.5l44 103l84 -8l-20 -155
q-21 -2 -41.5 -7.5t-25.5 -6.5q-40 -11 -74.5 -17.5t-84.5 -6.5q-170 0 -260 101.5zM421 981l144 -145l-49 -39l-140 98l-141 -98l-48 38l145 146h89z" />
    <glyph glyph-name="ccircumflex" unicode="&#x109;" horiz-adv-x="519" 
d="M66.5 428q34.5 67 99 104.5t150.5 37.5q40 0 69 -6t65 -16l29 -8l-6 -171h-87l-25 110q-6 26 -59 26q-56 0 -87.5 -49t-32.5 -153q0 -110 38 -168.5t101 -58.5q76 0 140 41l23 -52q-26 -28 -79.5 -52t-115.5 -24q-128 0 -192.5 79t-64.5 207q0 86 34.5 153zM333 863
l149 -195l-50 -38l-142 132l-146 -133l-47 38l149 196h87z" />
    <glyph glyph-name="Cdotaccent" unicode="&#x10a;" horiz-adv-x="658" 
d="M119 90.5q-90 101.5 -90 277.5q0 116 47.5 202.5t130.5 133.5t188 47q44 0 85 -5.5t97 -14.5q42 -7 46 -7l-11 -206h-92l-31 143q-11 11 -38 18t-69 7q-85 0 -136.5 -78.5t-51.5 -227.5q0 -144 49 -235t143 -91q45 0 69.5 8.5t41.5 24.5l44 103l84 -8l-20 -155
q-21 -2 -41.5 -7.5t-25.5 -6.5q-40 -11 -74.5 -17.5t-84.5 -6.5q-170 0 -260 101.5zM314.5 837q-20.5 20 -20.5 50q0 36 22 59t61 23q36 0 57.5 -20.5t21.5 -50.5q0 -37 -22 -59t-66 -22q-33 0 -53.5 20z" />
    <glyph glyph-name="cdotaccent" unicode="&#x10b;" horiz-adv-x="519" 
d="M66.5 428q34.5 67 99 104.5t150.5 37.5q40 0 69 -6t65 -16l29 -8l-6 -171h-87l-25 110q-6 26 -59 26q-56 0 -87.5 -49t-32.5 -153q0 -110 38 -168.5t101 -58.5q76 0 140 41l23 -52q-26 -28 -79.5 -52t-115.5 -24q-128 0 -192.5 79t-64.5 207q0 86 34.5 153zM226 668.5
q-21 21.5 -21 53.5q0 38 24 63t65 25q40 0 61 -21.5t21 -53.5q0 -40 -24 -64t-68 -24h-1q-36 0 -57 21.5z" />
    <glyph glyph-name="Ccaron" unicode="&#x10c;" horiz-adv-x="658" 
d="M119 90.5q-90 101.5 -90 277.5q0 116 47.5 202.5t130.5 133.5t188 47q44 0 85 -5.5t97 -14.5q42 -7 46 -7l-11 -206h-92l-31 143q-11 11 -38 18t-69 7q-85 0 -136.5 -78.5t-51.5 -227.5q0 -144 49 -235t143 -91q45 0 69.5 8.5t41.5 24.5l44 103l84 -8l-20 -155
q-21 -2 -41.5 -7.5t-25.5 -6.5q-40 -11 -74.5 -17.5t-84.5 -6.5q-170 0 -260 101.5zM376 891l131 92l48 -39l-134 -138h-90l-136 138l50 39z" />
    <glyph glyph-name="ccaron" unicode="&#x10d;" horiz-adv-x="519" 
d="M66.5 428q34.5 67 99 104.5t150.5 37.5q40 0 69 -6t65 -16l29 -8l-6 -171h-87l-25 110q-6 26 -59 26q-56 0 -87.5 -49t-32.5 -153q0 -110 38 -168.5t101 -58.5q76 0 140 41l23 -52q-26 -28 -79.5 -52t-115.5 -24q-128 0 -192.5 79t-64.5 207q0 86 34.5 153zM289 735
l146 135l47 -38l-149 -196h-87l-148 196l48 37z" />
    <glyph glyph-name="Dcaron" unicode="&#x10e;" horiz-adv-x="761" 
d="M118 668l-75 13v62h146q33 0 89 4q13 1 39.5 2t47.5 1q184 0 275.5 -92t91.5 -261q0 -118 -45.5 -210t-129.5 -143.5t-196 -51.5q-29 0 -91 4q-58 4 -79 4h-152v60l79 10v598zM358 58q100 2 157 80.5t57 235.5q0 149 -56 230.5t-174 81.5q-25 0 -47.5 -3t-31.5 -4v-612
q34 -9 95 -9zM382 891l131 92l48 -39l-134 -138h-90l-136 138l50 39z" />
    <glyph glyph-name="dcaron" unicode="&#x10f;" horiz-adv-x="626" 
d="M143 18.5q-49 29.5 -78 91.5t-29 155q0 84 34.5 153.5t101.5 110.5t161 41q38 0 72 -8v169l-98 14v55l206 20h3l28 -21v-738h54v-57q-72 -15 -119 -15q-32 0 -45.5 10.5t-13.5 41.5v28q-26 -35 -71 -57.5t-95 -22.5q-62 0 -111 29.5zM364.5 85.5q25.5 13.5 40.5 32.5v364
q-7 10 -29.5 17t-48.5 7q-64 0 -102.5 -55.5t-38.5 -177.5q0 -102 33 -151.5t87 -49.5q33 0 58.5 13.5zM617 600l-3 10q6 36 6 105q0 60 -13 89l5 20h107q9 -22 9 -76q0 -38 -10 -79t-24 -70z" />
    <glyph glyph-name="Dcroat" unicode="&#x110;" horiz-adv-x="761" 
d="M118 668l-75 13v62h146q33 0 89 4q13 1 39.5 2t47.5 1q184 0 275.5 -92t91.5 -261q0 -118 -45.5 -210t-129.5 -143.5t-196 -51.5q-29 0 -91 4q-58 4 -79 4h-152v60l79 10v284h-71v63h71v251zM416 354h-153v-287q34 -9 95 -9q100 2 157 80.5t57 235.5q0 149 -56 230.5
t-174 81.5q-25 0 -47.5 -3t-31.5 -4v-262h153v-63z" />
    <glyph glyph-name="dcroat" unicode="&#x111;" horiz-adv-x="626" 
d="M404 731l-99 14v55l206 20h4l27 -21v-116h72v-60h-72v-562h55v-57q-75 -15 -119 -15q-32 0 -46 10.5t-14 41.5v28q-26 -35 -70.5 -57.5t-94.5 -22.5q-62 0 -111 29.5t-77.5 91.5t-28.5 155q0 84 34.5 153.5t101.5 110.5t160 41q38 0 72 -8v61h-132v60h132v48zM363.5 85.5
q25.5 13.5 40.5 32.5v364q-7 10 -29.5 17t-48.5 7q-64 0 -102.5 -54.5t-38.5 -174.5q0 -104 33 -154.5t87 -50.5q33 0 58.5 13.5z" />
    <glyph glyph-name="Emacron" unicode="&#x112;" horiz-adv-x="655" 
d="M118 668l-80 13v62h533l13 -168h-70l-33 99l-216 9v-269l139 3l16 82h64v-242h-64l-16 86l-139 3v-282l242 12l58 128l75 -21l-26 -183h-575v60l79 10v598zM498 843h-314v87h314v-87z" />
    <glyph glyph-name="emacron" unicode="&#x113;" horiz-adv-x="550" 
d="M100.5 66.5q-64.5 77.5 -64.5 211.5q0 90 33.5 156t94.5 101t141 35q100 0 154 -52.5t56 -149.5q0 -66 -8 -98h-325q4 -91 43 -141.5t111 -50.5q39 0 80.5 13t65.5 31l25 -55q-27 -29 -87.5 -53.5t-122.5 -24.5q-132 0 -196.5 77.5zM375 330q2 28 2 43q0 133 -89 133
q-49 0 -76 -39t-30 -137h193zM444 667h-297v86h297v-86z" />
    <glyph glyph-name="Ebreve" unicode="&#x114;" horiz-adv-x="655" 
d="M118 668l-80 13v62h533l13 -168h-70l-33 99l-216 9v-269l139 3l16 82h64v-242h-64l-16 86l-139 3v-282l242 12l58 128l75 -21l-26 -183h-575v60l79 10v598zM241 819.5q-41 21.5 -61.5 57t-20.5 79.5q0 15 1 22h70q0 -7 1 -12q17 -77 110 -77t110 77q1 5 1 12h70
q1 -7 1 -21q0 -44 -21.5 -80t-63 -57.5t-98.5 -21.5q-58 0 -99 21.5z" />
    <glyph glyph-name="ebreve" unicode="&#x115;" horiz-adv-x="550" 
d="M100.5 66.5q-64.5 77.5 -64.5 211.5q0 90 33.5 156t94.5 101t141 35q100 0 154 -52.5t56 -149.5q0 -66 -8 -98h-325q4 -91 43 -141.5t111 -50.5q39 0 80.5 13t65.5 31l25 -55q-27 -29 -87.5 -53.5t-122.5 -24.5q-132 0 -196.5 77.5zM375 330q2 28 2 43q0 133 -89 133
q-49 0 -76 -39t-30 -137h193zM203.5 670.5q-40.5 21.5 -62.5 58t-22 82.5q0 31 2 41h67q0 -13 1 -20q3 -36 29.5 -60.5t78.5 -24.5t77.5 24.5t29.5 59.5q2 15 1 21h65q2 -20 2 -40q0 -46 -22 -83t-62 -58.5t-91 -21.5q-53 0 -93.5 21.5z" />
    <glyph glyph-name="Edotaccent" unicode="&#x116;" horiz-adv-x="655" 
d="M118 668l-80 13v62h533l13 -168h-70l-33 99l-216 9v-269l139 3l16 82h64v-242h-64l-16 86l-139 3v-282l242 12l58 128l75 -21l-26 -183h-575v60l79 10v598zM280.5 837q-20.5 20 -20.5 50q0 36 22 59t61 23q36 0 57.5 -20.5t21.5 -50.5q0 -37 -22 -59t-66 -22
q-33 0 -53.5 20z" />
    <glyph glyph-name="edotaccent" unicode="&#x117;" horiz-adv-x="550" 
d="M100.5 66.5q-64.5 77.5 -64.5 211.5q0 90 33.5 156t94.5 101t141 35q100 0 154 -52.5t56 -149.5q0 -66 -8 -98h-325q4 -91 43 -141.5t111 -50.5q39 0 80.5 13t65.5 31l25 -55q-27 -29 -87.5 -53.5t-122.5 -24.5q-132 0 -196.5 77.5zM375 330q2 28 2 43q0 133 -89 133
q-49 0 -76 -39t-30 -137h193zM231 668.5q-21 21.5 -21 53.5q0 38 24 63t65 25q40 0 61 -21.5t21 -53.5q0 -40 -24 -64t-68 -24h-1q-36 0 -57 21.5z" />
    <glyph glyph-name="Eogonek" unicode="&#x118;" horiz-adv-x="655" 
d="M118 668l-80 13v62h533l13 -168h-70l-33 99l-216 9v-269l139 3l16 82h64v-242h-64l-16 86l-139 3v-282l242 12l58 128l75 -21l-26 -183h-9q-32 -7 -62 -26.5t-48 -43.5t-18 -43q0 -28 18 -42.5t49 -14.5q32 0 66 15v-62q-20 -15 -54 -24t-66 -9q-59 0 -95 25.5t-36 72.5
q0 44 40 86t105 66h-465v60l79 10v598z" />
    <glyph glyph-name="eogonek" unicode="&#x119;" horiz-adv-x="550" 
d="M215 -217q-38 25 -38 73q0 38 27.5 72.5t75.5 61.5q-123 4 -183.5 81.5t-60.5 206.5q0 90 33.5 156t94.5 101t141 35q100 0 154 -52.5t56 -149.5q0 -66 -8 -98h-325q4 -91 43 -141.5t111 -50.5q39 0 80.5 13t65.5 31l25 -55q-16 -15 -43.5 -31.5t-60.5 -27.5
q-44 -18 -77.5 -51.5t-33.5 -64.5q0 -56 66 -56q20 0 37.5 6t30 11.5t16.5 7.5l1 -57q-63 -46 -140 -46q-50 0 -88 25zM375 330q2 28 2 43q0 133 -89 133q-49 0 -76 -39t-30 -137h193z" />
    <glyph glyph-name="Ecaron" unicode="&#x11a;" horiz-adv-x="655" 
d="M118 668l-80 13v62h533l13 -168h-70l-33 99l-216 9v-269l139 3l16 82h64v-242h-64l-16 86l-139 3v-282l242 12l58 128l75 -21l-26 -183h-575v60l79 10v598zM342 891l131 92l48 -39l-134 -138h-90l-136 138l50 39z" />
    <glyph glyph-name="ecaron" unicode="&#x11b;" horiz-adv-x="550" 
d="M100.5 66.5q-64.5 77.5 -64.5 211.5q0 90 33.5 156t94.5 101t141 35q100 0 154 -52.5t56 -149.5q0 -66 -8 -98h-325q4 -91 43 -141.5t111 -50.5q39 0 80.5 13t65.5 31l25 -55q-27 -29 -87.5 -53.5t-122.5 -24.5q-132 0 -196.5 77.5zM375 330q2 28 2 43q0 133 -89 133
q-49 0 -76 -39t-30 -137h193zM294 735l146 135l47 -38l-149 -196h-87l-148 196l48 37z" />
    <glyph glyph-name="Gcircumflex" unicode="&#x11c;" horiz-adv-x="744" 
d="M196.5 37.5q-79.5 48.5 -120.5 133.5t-41 192q0 123 47.5 211t134.5 133t203 45q109 0 245 -31l-11 -186h-101l-27 128q-10 10 -38 18.5t-73 8.5q-98 0 -154 -79.5t-56 -229.5q0 -147 48 -237.5t146 -90.5q40 0 75 10t53 26v215l-106 10v67h304v-67l-53 -9v-265
q-21 -1 -76 -17q-64 -17 -109.5 -25.5t-100.5 -8.5q-110 0 -189.5 48.5zM448 981l144 -145l-49 -39l-140 98l-141 -98l-48 38l145 146h89z" />
    <glyph glyph-name="gcircumflex" unicode="&#x11d;" horiz-adv-x="622" 
d="M93 -228q-60 42 -60 114q0 41 27.5 77.5t66.5 54.5q-46 27 -46 86q0 34 22 64.5t57 47.5q-55 21 -82 64t-27 102q0 57 33.5 99.5t90 65.5t122.5 23q117 0 174 -45q13 17 44 32t64 15h35v-109h-103q15 -32 15 -68q1 -91 -64 -145.5t-178 -54.5q-47 0 -79 7
q-10 -13 -15.5 -27.5t-5.5 -25.5q0 -33 23.5 -45t84.5 -12h107q204 0 204 -148q0 -62 -44 -111t-117 -76t-155 -27q-134 0 -194 42zM387 384q0 65 -23.5 95.5t-71.5 30.5q-47 0 -72.5 -30.5t-25.5 -91.5q0 -131 100 -131q93 0 93 127zM411 -170.5q46 30.5 46 84.5
q0 43 -22.5 62t-80.5 19h-109q-25 0 -46 3q-27 -36 -27 -86q0 -55 30 -84t100 -29q63 0 109 30.5zM358 863l149 -195l-50 -38l-142 132l-146 -133l-47 38l149 196h87z" />
    <glyph glyph-name="Gbreve" unicode="&#x11e;" horiz-adv-x="744" 
d="M196.5 37.5q-79.5 48.5 -120.5 133.5t-41 192q0 123 47.5 211t134.5 133t203 45q109 0 245 -31l-11 -186h-101l-27 128q-10 10 -38 18.5t-73 8.5q-98 0 -154 -79.5t-56 -229.5q0 -147 48 -237.5t146 -90.5q40 0 75 10t53 26v215l-106 10v67h304v-67l-53 -9v-265
q-21 -1 -76 -17q-64 -17 -109.5 -25.5t-100.5 -8.5q-110 0 -189.5 48.5zM302 819.5q-41 21.5 -61.5 57t-20.5 79.5q0 15 1 22h70q0 -7 1 -12q17 -77 110 -77t110 77q1 5 1 12h70q1 -7 1 -21q0 -44 -21.5 -80t-63 -57.5t-98.5 -21.5q-58 0 -99 21.5z" />
    <glyph glyph-name="gbreve" unicode="&#x11f;" horiz-adv-x="622" 
d="M93 -228q-60 42 -60 114q0 41 27.5 77.5t66.5 54.5q-46 27 -46 86q0 34 22 64.5t57 47.5q-55 21 -82 64t-27 102q0 57 33.5 99.5t90 65.5t122.5 23q117 0 174 -45q13 17 44 32t64 15h35v-109h-103q15 -32 15 -68q1 -91 -64 -145.5t-178 -54.5q-47 0 -79 7
q-10 -13 -15.5 -27.5t-5.5 -25.5q0 -33 23.5 -45t84.5 -12h107q204 0 204 -148q0 -62 -44 -111t-117 -76t-155 -27q-134 0 -194 42zM387 384q0 65 -23.5 95.5t-71.5 30.5q-47 0 -72.5 -30.5t-25.5 -91.5q0 -131 100 -131q93 0 93 127zM411 -170.5q46 30.5 46 84.5
q0 43 -22.5 62t-80.5 19h-109q-25 0 -46 3q-27 -36 -27 -86q0 -55 30 -84t100 -29q63 0 109 30.5zM223.5 670.5q-40.5 21.5 -62.5 58t-22 82.5q0 31 2 41h67q0 -13 1 -20q3 -36 29.5 -60.5t78.5 -24.5t77.5 24.5t29.5 59.5q2 15 1 21h65q2 -20 2 -40q0 -46 -22 -83
t-62 -58.5t-91 -21.5q-53 0 -93.5 21.5z" />
    <glyph glyph-name="Gdotaccent" unicode="&#x120;" horiz-adv-x="744" 
d="M196.5 37.5q-79.5 48.5 -120.5 133.5t-41 192q0 123 47.5 211t134.5 133t203 45q109 0 245 -31l-11 -186h-101l-27 128q-10 10 -38 18.5t-73 8.5q-98 0 -154 -79.5t-56 -229.5q0 -147 48 -237.5t146 -90.5q40 0 75 10t53 26v215l-106 10v67h304v-67l-53 -9v-265
q-21 -1 -76 -17q-64 -17 -109.5 -25.5t-100.5 -8.5q-110 0 -189.5 48.5zM341.5 837q-20.5 20 -20.5 50q0 36 22 59t61 23q36 0 57.5 -20.5t21.5 -50.5q0 -37 -22 -59t-66 -22q-33 0 -53.5 20z" />
    <glyph glyph-name="gdotaccent" unicode="&#x121;" horiz-adv-x="622" 
d="M93 -228q-60 42 -60 114q0 41 27.5 77.5t66.5 54.5q-46 27 -46 86q0 34 22 64.5t57 47.5q-55 21 -82 64t-27 102q0 57 33.5 99.5t90 65.5t122.5 23q117 0 174 -45q13 17 44 32t64 15h35v-109h-103q15 -32 15 -68q1 -91 -64 -145.5t-178 -54.5q-47 0 -79 7
q-10 -13 -15.5 -27.5t-5.5 -25.5q0 -33 23.5 -45t84.5 -12h107q204 0 204 -148q0 -62 -44 -111t-117 -76t-155 -27q-134 0 -194 42zM387 384q0 65 -23.5 95.5t-71.5 30.5q-47 0 -72.5 -30.5t-25.5 -91.5q0 -131 100 -131q93 0 93 127zM411 -170.5q46 30.5 46 84.5
q0 43 -22.5 62t-80.5 19h-109q-25 0 -46 3q-27 -36 -27 -86q0 -55 30 -84t100 -29q63 0 109 30.5zM251 668.5q-21 21.5 -21 53.5q0 38 24 63t65 25q40 0 61 -21.5t21 -53.5q0 -40 -24 -64t-68 -24h-1q-36 0 -57 21.5z" />
    <glyph glyph-name="Gcommaaccent" unicode="&#x122;" horiz-adv-x="744" 
d="M196.5 37.5q-79.5 48.5 -120.5 133.5t-41 192q0 123 47.5 211t134.5 133t203 45q109 0 245 -31l-11 -186h-101l-27 128q-10 10 -38 18.5t-73 8.5q-98 0 -154 -79.5t-56 -229.5q0 -147 48 -237.5t146 -90.5q40 0 75 10t53 26v215l-106 10v67h304v-67l-53 -9v-265
q-21 -1 -76 -17q-64 -17 -109.5 -25.5t-100.5 -8.5q-110 0 -189.5 48.5zM433 -194.5q-15 -31.5 -35 -52.5t-32 -26h-1l-45 16l-1 7q12 6 19.5 25.5t7.5 39.5q0 14 -5 21t-15 15q-21 15 -21 44t21.5 42.5t45.5 13.5h3q33 0 53 -20.5t20 -58.5q0 -35 -15 -66.5z" />
    <glyph glyph-name="gcommaaccent" unicode="&#x123;" horiz-adv-x="622" 
d="M93 -228q-60 42 -60 114q0 41 27.5 77.5t66.5 54.5q-46 27 -46 86q0 34 22 64.5t57 47.5q-55 21 -82 64t-27 102q0 57 33.5 99.5t90 65.5t122.5 23q117 0 174 -45q13 17 44 32t64 15h35v-109h-103q15 -32 15 -68q1 -91 -64 -145.5t-178 -54.5q-47 0 -79 7
q-10 -13 -15.5 -27.5t-5.5 -25.5q0 -33 23.5 -45t84.5 -12h107q204 0 204 -148q0 -62 -44 -111t-117 -76t-155 -27q-134 0 -194 42zM387 384q0 65 -23.5 95.5t-71.5 30.5q-47 0 -72.5 -30.5t-25.5 -91.5q0 -131 100 -131q93 0 93 127zM411 -170.5q46 30.5 46 84.5
q0 43 -22.5 62t-80.5 19h-109q-25 0 -46 3q-27 -36 -27 -86q0 -55 30 -84t100 -29q63 0 109 30.5zM262 662q-20 21 -20 60q0 35 15.5 66t35 51.5t31.5 25.5h2l45 -16l1 -7q-12 -6 -19.5 -25.5t-7.5 -39.5q0 -14 5 -21t15 -15q21 -15 21 -44t-21.5 -42.5t-45.5 -13.5h-3
q-34 0 -54 21z" />
    <glyph glyph-name="Hcircumflex" unicode="&#x124;" horiz-adv-x="835" 
d="M119 668l-74 13v62h304v-62l-84 -13v-251h304v251l-77 13v62h300v-62l-76 -13v-598l76 -10v-60h-301v60l78 10v271h-304v-271l84 -10v-60h-306v60l76 10v598zM470 981l144 -145l-49 -39l-140 98l-141 -98l-48 38l145 146h89z" />
    <glyph glyph-name="hcircumflex" unicode="&#x125;" horiz-adv-x="670" 
d="M92 731l-76 13v54l186 22h3l26 -19l1 -223l-7 -87q31 28 84.5 52t112.5 24q63 0 98 -23.5t49 -71.5t14 -128v-275l64 -9v-60h-263v60l58 9v275q0 52 -7 81t-25.5 43t-54.5 14q-31 0 -63.5 -14.5t-57.5 -34.5v-364l61 -9v-60h-259v60l56 8v663zM194 1037l144 -145l-49 -39
l-140 98l-141 -98l-48 38l145 146h89z" />
    <glyph glyph-name="Hbar" unicode="&#x126;" horiz-adv-x="835" 
d="M119 668l-74 13v62h303v-62l-83 -13v-114h305v114l-78 13v62h300v-62l-76 -13v-114h101v-59h-101v-425l76 -11v-59h-300v59l77 12l1 222h-305l-1 -223l85 -10v-60h-306v60l76 10v425h-93v59h93v114zM265 495v-127h305v127h-305z" />
    <glyph glyph-name="hbar" unicode="&#x127;" horiz-adv-x="676" 
d="M91 731l-75 13v54l186 22h3l27 -19v-124h127v-62h-127v-37l-7 -87q33 29 85.5 52.5t111.5 23.5q63 0 98 -23.5t49 -71.5t14 -128v-275l64 -9v-60h-262v60l57 9v275q0 52 -7 81t-25 43t-54 14q-31 0 -64.5 -14.5t-57.5 -34.5v-364l62 -9v-60h-259v60l54 8v547h-82v62h82
v54z" />
    <glyph glyph-name="Itilde" unicode="&#x128;" horiz-adv-x="411" 
d="M131 668l-85 13v62h320v-62l-88 -13v-598l88 -11v-59h-320v60l85 10v598zM232 817.5q-18 9.5 -42 29.5q-17 15 -29 22t-27 7q-24 0 -37 -15.5t-23 -44.5l-56 34q15 52 45.5 81.5t74.5 29.5q29 0 48.5 -10.5t42.5 -30.5q18 -15 29 -21.5t25 -6.5q39 0 59 61l56 -34
q-32 -111 -119 -111q-29 0 -47 9.5z" />
    <glyph glyph-name="itilde" unicode="&#x129;" horiz-adv-x="347" 
d="M111 461l-71 19v67l183 22h2l28 -20v-481l67 -8v-60h-279v60l70 9v392zM17 784q36 32 84 32q29 0 49.5 -11.5t46.5 -32.5q17 -16 30 -23.5t27 -7.5q24 0 36 13.5t17 26t7 15.5l59 -33q-9 -50 -41 -82.5t-81 -32.5q-28 0 -48 11.5t-47 33.5q-19 16 -32 24t-28 8
q-22 0 -34.5 -11t-20.5 -25t-13 -20l-57 33q10 50 46 82z" />
    <glyph glyph-name="Imacron" unicode="&#x12a;" horiz-adv-x="411" 
d="M131 668l-85 13v62h320v-62l-88 -13v-598l88 -11v-59h-320v60l85 10v598zM363 843h-314v87h314v-87z" />
    <glyph glyph-name="imacron" unicode="&#x12b;" horiz-adv-x="347" 
d="M111 461l-71 19v67l183 22h2l28 -20v-481l67 -8v-60h-279v60l70 9v392zM323 667h-297v86h297v-86z" />
    <glyph glyph-name="Ibreve" unicode="&#x12c;" horiz-adv-x="411" 
d="M131 668l-85 13v62h320v-62l-88 -13v-598l88 -11v-59h-320v60l85 10v598zM106 819.5q-41 21.5 -61.5 57t-20.5 79.5q0 15 1 22h70q0 -7 1 -12q17 -77 110 -77t110 77q1 5 1 12h70q1 -7 1 -21q0 -44 -21.5 -80t-63 -57.5t-98.5 -21.5q-58 0 -99 21.5z" />
    <glyph glyph-name="ibreve" unicode="&#x12d;" horiz-adv-x="347" 
d="M111 461l-71 19v67l183 22h2l28 -20v-481l67 -8v-60h-279v60l70 9v392zM82.5 670.5q-40.5 21.5 -62.5 58t-22 82.5q0 31 2 41h67q0 -13 1 -20q3 -36 29.5 -60.5t78.5 -24.5t77.5 24.5t29.5 59.5q2 15 1 21h65q2 -20 2 -40q0 -46 -22 -83t-62 -58.5t-91 -21.5
q-53 0 -93.5 21.5z" />
    <glyph glyph-name="Iogonek" unicode="&#x12e;" horiz-adv-x="412" 
d="M132 668l-85 13v62h320v-62l-87 -13v-598l87 -11v-59h-45q-45 -18 -76 -51.5t-31 -61.5t19.5 -42.5t54.5 -14.5q31 0 65 15v-62q-20 -15 -55 -24t-67 -9q-59 0 -96.5 25.5t-37.5 72.5q0 42 40 84.5t98 67.5h-189v60l85 10v598z" />
    <glyph glyph-name="iogonek" unicode="&#x12f;" horiz-adv-x="347" 
d="M110 668q-21 21 -21 54q0 38 24 63t65 25q40 0 61 -21.5t21 -53.5q0 -40 -24 -64t-68 -24h-1q-36 0 -57 21zM94.5 -216.5q-37.5 25.5 -37.5 71.5q0 40 31 80t85 65h-132v60l70 9v392l-71 19v67l183 22h2l28 -20v-481l67 -8v-60h-60q-40 -19 -64 -50t-24 -58
q0 -26 16.5 -41t45.5 -15q18 0 33 5t27 11l18 9v-62q-23 -17 -57.5 -29t-75.5 -12q-47 0 -84.5 25.5z" />
    <glyph glyph-name="Idotaccent" unicode="&#x130;" horiz-adv-x="411" 
d="M131 668l-85 13v62h320v-62l-88 -13v-598l88 -11v-59h-320v60l85 10v598zM145.5 837q-20.5 20 -20.5 50q0 36 22 59t61 23q36 0 57.5 -20.5t21.5 -50.5q0 -37 -22 -59t-66 -22q-33 0 -53.5 20z" />
    <glyph glyph-name="dotlessi" unicode="&#x131;" horiz-adv-x="347" 
d="M111 461l-71 19v67l183 22h2l28 -20v-481l67 -8v-60h-279v60l70 9v392z" />
    <glyph glyph-name="IJ" unicode="&#x132;" horiz-adv-x="802" 
d="M131 668l-85 13v62h320v-62l-88 -13v-598l88 -11v-59h-320v60l85 10v598zM472.5 -90q34.5 33 50.5 83q11 34 16 81.5t5 133.5v459l-90 14v62h320v-62l-84 -13v-393q0 -107 -2.5 -165.5t-10.5 -93.5q-21 -81 -86 -134.5t-160 -69.5l-33 52q40 13 74.5 46z" />
    <glyph glyph-name="ij" unicode="&#x133;" horiz-adv-x="677" 
d="M107 668q-21 21 -21 54q0 38 24 63t64 25t61 -21.5t21 -53.5q0 -40 -24 -64t-67 -24h-1q-36 0 -57 21zM111 461l-71 19v67l183 22h2l28 -20v-481l67 -8v-60h-279v60l70 9v392zM456.5 668q-20.5 21 -20.5 54q0 38 24 63t64 25t60.5 -21.5t20.5 -53.5q0 -40 -23.5 -64
t-67.5 -24h-1q-36 0 -56.5 21zM385 547l181 22h2l27 -20v-540q0 -78 -29 -134.5t-73.5 -86t-90.5 -31.5q-50 0 -61 4l-7 57q26 0 52 11q38 16 54.5 68t16.5 140l-1 422l-71 19v69z" />
    <glyph glyph-name="Jcircumflex" unicode="&#x134;" horiz-adv-x="391" 
d="M61.5 -90q34.5 33 50.5 83q11 34 16 81.5t5 133.5v459l-90 14v62h320v-62l-84 -13v-393q0 -107 -2.5 -165.5t-10.5 -93.5q-21 -81 -86 -134.5t-160 -69.5l-33 52q40 13 74.5 46zM248 981l144 -145l-49 -39l-140 98l-141 -98l-48 38l145 146h89z" />
    <glyph glyph-name="jcircumflex" unicode="&#x135;" horiz-adv-x="330" 
d="M38 547l181 22h2l27 -20v-540q0 -78 -29 -134.5t-73.5 -86t-90.5 -31.5q-50 0 -61 4l-7 57q26 0 52 11q38 16 54.5 68t16.5 140l-1 422l-71 19v69zM215 863l149 -195l-50 -38l-142 132l-146 -133l-47 38l149 196h87z" />
    <glyph glyph-name="Kcommaaccent" unicode="&#x136;" horiz-adv-x="746" 
d="M531 38.5q-24 38.5 -67 122.5q-37 72 -62 116t-48 73l-89 -102v-178l86 -11v-59h-311v60l79 10v598l-78 13v62h301v-62l-77 -13v-326l263 326l-82 13v62h270v-62l-83 -13l-194 -218q35 -32 74 -90.5t95 -152.5q41 -69 62 -100.5t32 -36.5l47 -11v-59h-179q-15 0 -39 38.5
zM469 -194.5q-15 -31.5 -35 -52.5t-32 -26h-1l-45 16l-1 7q12 6 19.5 25.5t7.5 39.5q0 14 -5 21t-15 15q-21 15 -21 44t21.5 42.5t45.5 13.5h3q33 0 53 -20.5t20 -58.5q0 -35 -15 -66.5z" />
    <glyph glyph-name="kcommaaccent" unicode="&#x137;" horiz-adv-x="629" 
d="M91 731l-72 13v54l184 22h2l27 -19v-475l-3 -53l204 214l-74 11v57h261v-57l-81 -13l-123 -118l175 -299l55 -8v-60h-264v60l51 9l-114 211l-90 -91l2 -51v-69l63 -9v-60h-261v60l58 9v662zM401 -194.5q-15 -31.5 -35 -52.5t-32 -26h-1l-45 16l-1 7q12 6 19.5 25.5
t7.5 39.5q0 14 -5 21t-15 15q-21 15 -21 44t21.5 42.5t45.5 13.5h3q33 0 53 -20.5t20 -58.5q0 -35 -15 -66.5z" />
    <glyph glyph-name="kgreenlandic" unicode="&#x138;" horiz-adv-x="675" 
d="M111 461l-66 18v69l172 21h2l33 -20v-200l-3 -87l210 224l-82 11v58h268v-58l-77 -10l-132 -126l177 -293l58 -9v-59h-260v59l45 8l-116 204l-90 -89l3 -46v-68l65 -9v-59h-276v59l68 9z" />
    <glyph glyph-name="Lacute" unicode="&#x139;" horiz-adv-x="638" 
d="M119 668l-77 13v62h320v-62l-96 -13v-597l214 9l63 187l81 -11l-31 -256h-553v60l79 10v598zM117 833l130 149l101 -63q-34 -39 -83.5 -74.5t-84.5 -49.5z" />
    <glyph glyph-name="lacute" unicode="&#x13a;" horiz-adv-x="341" 
d="M80 829l155 153l89 -66q-33 -37 -94.5 -75t-98.5 -51zM33 59l70 9v591l-74 11v54l186 22l29 -20v-658l73 -9v-59h-284v59z" />
    <glyph glyph-name="Lcommaaccent" unicode="&#x13b;" horiz-adv-x="638" 
d="M119 668l-77 13v62h320v-62l-96 -13v-597l214 9l63 187l81 -11l-31 -256h-553v60l79 10v598zM391 -194.5q-15 -31.5 -35 -52.5t-32 -26h-1l-45 16l-1 7q12 6 19.5 25.5t7.5 39.5q0 14 -5 21t-15 15q-21 15 -21 44t21.5 42.5t45.5 13.5h3q33 0 53 -20.5t20 -58.5
q0 -35 -15 -66.5z" />
    <glyph glyph-name="lcommaaccent" unicode="&#x13c;" horiz-adv-x="340" 
d="M103 731l-74 13v54l185 22h2l27 -19v-733l73 -8v-60h-283v60l70 9v662zM235 -196q-15 -31 -35 -51.5t-32 -25.5h-1l-45 16l-2 7q12 6 20 25.5t8 39.5q0 23 -20 36q-22 15 -22 44t21.5 42.5t45.5 13.5h4q33 0 53 -21t20 -60q0 -35 -15 -66z" />
    <glyph glyph-name="Lcaron" unicode="&#x13d;" horiz-adv-x="638" 
d="M119 668l-77 13v62h320v-62l-96 -13v-597l214 9l63 187l81 -11l-31 -256h-553v60l79 10v598zM472 600l-3 10q6 36 6 105q0 60 -13 89l5 20h107q9 -22 9 -76q0 -38 -10 -79t-24 -70z" />
    <glyph glyph-name="lcaron" unicode="&#x13e;" horiz-adv-x="340" 
d="M103 731l-74 13v54l185 22h2l27 -19v-733l73 -8v-60h-283v60l70 9v662zM316 600l-3 10q6 36 6 105q0 60 -13 89l5 20h107q9 -22 9 -76q0 -38 -10 -79t-24 -70z" />
    <glyph glyph-name="Ldot" unicode="&#x13f;" horiz-adv-x="756" 
d="M119 668l-77 13v62h320v-62l-96 -13v-597l214 9l63 187l81 -11l-31 -256h-553v60l79 10v598zM589 362.5q-23 21.5 -23 54.5q0 37 26.5 60.5t64.5 23.5q36 0 57 -22.5t21 -53.5q0 -38 -26 -61t-66 -23q-31 0 -54 21.5z" />
    <glyph glyph-name="ldot" unicode="&#x140;" horiz-adv-x="534" 
d="M103 731l-74 13v54l185 22h2l27 -19v-733l73 -8v-60h-283v60l70 9v662zM367.5 326.5q-22.5 21.5 -22.5 54.5q0 37 26 60.5t64 23.5q36 0 57.5 -22.5t21.5 -53.5q0 -39 -26 -61.5t-66 -22.5q-32 0 -54.5 21.5z" />
    <glyph glyph-name="Lslash" unicode="&#x141;" horiz-adv-x="637" 
d="M119 668l-77 13v62h320v-62l-96 -13v-188l181 77v-72l-181 -75v-339l214 9l63 187l81 -11l-31 -256h-553v60l79 10v284l-96 -40v67l96 40v247z" />
    <glyph glyph-name="lslash" unicode="&#x142;" horiz-adv-x="378" 
d="M119 731l-75 13v54l186 22h2l27 -19v-293l106 50v-75l-106 -49v-366l72 -8v-60h-283v60l71 9v309l-98 -44v70l98 46v281z" />
    <glyph glyph-name="Nacute" unicode="&#x143;" horiz-adv-x="803" 
d="M119 668l-79 13v62h227l298 -450l56 -114v489l-86 13v62h248v-62l-77 -13v-668h-121l-311 473l-70 132v-535l101 -10v-60h-265v60l79 10v598zM336 833l130 149l101 -63q-34 -39 -83.5 -74.5t-84.5 -49.5z" />
    <glyph glyph-name="nacute" unicode="&#x144;" horiz-adv-x="681" 
d="M101 461l-64 18v69l166 21h3l25 -20v-39l-1 -24q35 33 91 57t113 24q61 0 95.5 -22.5t49.5 -70.5t15 -130v-276l61 -8v-60h-258v60l54 8v276q0 52 -7 81.5t-25.5 43t-52.5 13.5q-57 0 -122 -49v-364l60 -9v-60h-261v60l58 9v392zM238 686l169 208l88 -77
q-24 -40 -93.5 -98t-112.5 -76z" />
    <glyph glyph-name="Ncommaaccent" unicode="&#x145;" horiz-adv-x="803" 
d="M119 668l-79 13v62h227l298 -450l56 -114v489l-86 13v62h248v-62l-77 -13v-668h-121l-311 473l-70 132v-535l101 -10v-60h-265v60l79 10v598zM463 -194.5q-15 -31.5 -35 -52.5t-32 -26h-1l-45 16l-1 7q12 6 19.5 25.5t7.5 39.5q0 14 -5 21t-15 15q-21 15 -21 44
t21.5 42.5t45.5 13.5h3q33 0 53 -20.5t20 -58.5q0 -35 -15 -66.5z" />
    <glyph glyph-name="ncommaaccent" unicode="&#x146;" horiz-adv-x="681" 
d="M101 461l-64 18v69l166 21h3l25 -20v-39l-1 -24q35 33 91 57t113 24q61 0 95.5 -22.5t49.5 -70.5t15 -130v-276l61 -8v-60h-258v60l54 8v276q0 52 -7 81.5t-25.5 43t-52.5 13.5q-57 0 -122 -49v-364l60 -9v-60h-261v60l58 9v392zM406 -194.5q-15 -31.5 -35 -52.5t-32 -26
h-1l-45 16l-1 7q12 6 19.5 25.5t7.5 39.5q0 14 -5 21t-15 15q-21 15 -21 44t21.5 42.5t45.5 13.5h3q33 0 53 -20.5t20 -58.5q0 -35 -15 -66.5z" />
    <glyph glyph-name="Ncaron" unicode="&#x147;" horiz-adv-x="803" 
d="M119 668l-79 13v62h227l298 -450l56 -114v489l-86 13v62h248v-62l-77 -13v-668h-121l-311 473l-70 132v-535l101 -10v-60h-265v60l79 10v598zM418 891l131 92l48 -39l-134 -138h-90l-136 138l50 39z" />
    <glyph glyph-name="ncaron" unicode="&#x148;" horiz-adv-x="681" 
d="M101 461l-64 18v69l166 21h3l25 -20v-39l-1 -24q35 33 91 57t113 24q61 0 95.5 -22.5t49.5 -70.5t15 -130v-276l61 -8v-60h-258v60l54 8v276q0 52 -7 81.5t-25.5 43t-52.5 13.5q-57 0 -122 -49v-364l60 -9v-60h-261v60l58 9v392zM331 735l146 135l47 -38l-149 -196h-87
l-148 196l48 37z" />
    <glyph glyph-name="Eng" unicode="&#x14a;" horiz-adv-x="794" 
d="M123 673l-85 15v55h228l288 -450l69 -133v508l-88 14v61h254v-61l-82 -14v-477q0 -85 -13 -142.5t-31 -90t-42 -61.5q-74 -82 -182 -96l-30 48q94 37 139 108q13 17 24 46l-305 480l-59 116v-529l94 -11v-59h-264v59l85 11v603z" />
    <glyph glyph-name="eng" unicode="&#x14b;" horiz-adv-x="684" 
d="M108 462l-66 18v69l168 21h3l24 -21v-35l-1 -27q36 33 91.5 57t112.5 24q61 0 95.5 -22.5t49.5 -70t15 -128.5v-336q0 -125 -52 -194t-153 -73q-11 -1 -30.5 0t-23.5 4l-4 60q8 -2 25.5 1.5t27.5 8.5q41 15 54 65t13 139v325q0 75 -17.5 105t-68.5 30q-32 0 -64 -15
t-56 -34v-364l59 -9v-60h-261v60l59 9v393z" />
    <glyph glyph-name="Omacron" unicode="&#x14c;" horiz-adv-x="728" 
d="M111 91q-81 102 -81 278q0 115 42.5 202t119.5 134t177 47q165 0 247.5 -97.5t82.5 -272.5q0 -116 -43.5 -205.5t-121.5 -138.5t-179 -49q-163 0 -244 102zM237 610q-46 -81 -46 -240q0 -157 44.5 -238.5t127.5 -81.5q81 0 127 85.5t46 246.5q0 156 -44 232.5t-127 76.5
q-82 0 -128 -81zM525 843h-314v87h314v-87z" />
    <glyph glyph-name="omacron" unicode="&#x14d;" horiz-adv-x="629" 
d="M82.5 437q37.5 66 100.5 99.5t137 33.5q126 0 194.5 -77.5t68.5 -210.5q0 -95 -37.5 -161.5t-100 -99t-137.5 -32.5q-125 0 -194 77.5t-69 210.5q0 94 37.5 160zM429 272q0 114 -27 173.5t-88 59.5q-116 0 -116 -218q0 -114 28.5 -173.5t89.5 -59.5q113 0 113 218z
M466 667h-297v86h297v-86z" />
    <glyph glyph-name="Obreve" unicode="&#x14e;" horiz-adv-x="728" 
d="M111 91q-81 102 -81 278q0 115 42.5 202t119.5 134t177 47q165 0 247.5 -97.5t82.5 -272.5q0 -116 -43.5 -205.5t-121.5 -138.5t-179 -49q-163 0 -244 102zM237 610q-46 -81 -46 -240q0 -157 44.5 -238.5t127.5 -81.5q81 0 127 85.5t46 246.5q0 156 -44 232.5t-127 76.5
q-82 0 -128 -81zM268 819.5q-41 21.5 -61.5 57t-20.5 79.5q0 15 1 22h70q0 -7 1 -12q17 -77 110 -77t110 77q1 5 1 12h70q1 -7 1 -21q0 -44 -21.5 -80t-63 -57.5t-98.5 -21.5q-58 0 -99 21.5z" />
    <glyph glyph-name="obreve" unicode="&#x14f;" horiz-adv-x="629" 
d="M82.5 437q37.5 66 100.5 99.5t137 33.5q126 0 194.5 -77.5t68.5 -210.5q0 -95 -37.5 -161.5t-100 -99t-137.5 -32.5q-125 0 -194 77.5t-69 210.5q0 94 37.5 160zM429 272q0 114 -27 173.5t-88 59.5q-116 0 -116 -218q0 -114 28.5 -173.5t89.5 -59.5q113 0 113 218z
M225.5 670.5q-40.5 21.5 -62.5 58t-22 82.5q0 31 2 41h67q0 -13 1 -20q3 -36 29.5 -60.5t78.5 -24.5t77.5 24.5t29.5 59.5q2 15 1 21h65q2 -20 2 -40q0 -46 -22 -83t-62 -58.5t-91 -21.5q-53 0 -93.5 21.5z" />
    <glyph glyph-name="Ohungarumlaut" unicode="&#x150;" horiz-adv-x="728" 
d="M111 91q-81 102 -81 278q0 115 42.5 202t119.5 134t177 47q165 0 247.5 -97.5t82.5 -272.5q0 -116 -43.5 -205.5t-121.5 -138.5t-179 -49q-163 0 -244 102zM237 610q-46 -81 -46 -240q0 -157 44.5 -238.5t127.5 -81.5q81 0 127 85.5t46 246.5q0 156 -44 232.5t-127 76.5
q-82 0 -128 -81zM394 922q-27 -32 -74.5 -68t-86.5 -58l-53 45l137 142zM640 921q-26 -33 -74 -68.5t-89 -56.5l-54 46l144 140z" />
    <glyph glyph-name="ohungarumlaut" unicode="&#x151;" horiz-adv-x="629" 
d="M82.5 437q37.5 66 100.5 99.5t137 33.5q126 0 194.5 -77.5t68.5 -210.5q0 -95 -37.5 -161.5t-100 -99t-137.5 -32.5q-125 0 -194 77.5t-69 210.5q0 94 37.5 160zM429 272q0 114 -27 173.5t-88 59.5q-116 0 -116 -218q0 -114 28.5 -173.5t89.5 -59.5q113 0 113 218z
M146 693l157 196l81 -66q-22 -35 -85 -90t-102 -79zM378 694l162 194l77 -65q-19 -33 -84.5 -89.5t-104.5 -79.5z" />
    <glyph glyph-name="OE" unicode="&#x152;" horiz-adv-x="1036" 
d="M357 -8q-160 0 -243.5 102.5t-83.5 275.5q0 117 43.5 204t123 133.5t184.5 46.5q57 0 105 -21v10h456l14 -170h-70l-32 100l-219 9v-268l141 4l15 81h67v-242h-67l-15 86l-141 3v-283l249 13l67 126l71 -20l-34 -182h-502v25q-56 -33 -129 -33zM486 150v464
q-18 43 -47 61.5t-74 18.5q-83 0 -129 -83t-46 -241q0 -152 46.5 -235t129.5 -83q78 0 120 98z" />
    <glyph glyph-name="oe" unicode="&#x153;" horiz-adv-x="941" 
d="M104.5 64.5q-69.5 75.5 -69.5 211.5q0 94 38 160.5t101 100t138 33.5q130 0 189 -83q35 40 84 61.5t108 21.5q100 0 154.5 -52.5t56.5 -149.5q0 -64 -7 -98h-326q4 -90 43.5 -141t110.5 -51q38 0 80.5 13t67.5 30l23 -54q-28 -29 -88 -53.5t-122 -24.5q-132 0 -198 88
q-34 -42 -82.5 -65t-107.5 -23q-124 0 -193.5 75.5zM764 330q1 14 1 43q0 133 -88 133q-49 0 -76 -38.5t-31 -137.5h194zM390.5 107q28.5 53 28.5 166q0 117 -27.5 174.5t-87.5 57.5q-115 0 -115 -219q0 -119 29 -175.5t88 -56.5q56 0 84.5 53z" />
    <glyph glyph-name="Racute" unicode="&#x154;" horiz-adv-x="721" 
d="M39 60l79 10v598l-75 14v61h145q19 0 42 1t35 2q52 4 86 4q103 0 165 -21t90 -64t28 -113q0 -69 -37 -128t-107 -81q40 -17 71 -62t66 -117q25 -49 38.5 -70.5t26.5 -24.5l33 -10v-59h-170q-16 0 -33.5 32.5t-45.5 102.5q-33 82 -57 128t-51 57h-103v-250l92 -10v-60
h-318v60zM446 422q32 41 32 123q0 73 -31.5 108t-108.5 35q-28 0 -47.5 -2.5t-25.5 -2.5v-300q12 -2 58 -2h34q57 0 89 41zM280 833l130 149l101 -63q-34 -39 -83.5 -74.5t-84.5 -49.5z" />
    <glyph glyph-name="racute" unicode="&#x155;" horiz-adv-x="471" 
d="M45 59l66 8v394l-64 18v69l155 21h3l25 -20v-22l-3 -81h3q7 20 33 49.5t65.5 52t85.5 22.5q22 0 38 -6v-150q-30 21 -73 21q-73 0 -127 -39v-328l116 -9v-59h-323v59zM166 686l169 208l88 -77q-24 -40 -93.5 -98t-112.5 -76z" />
    <glyph glyph-name="Rcommaaccent" unicode="&#x156;" horiz-adv-x="721" 
d="M39 60l79 10v598l-75 14v61h145q19 0 42 1t35 2q52 4 86 4q103 0 165 -21t90 -64t28 -113q0 -69 -37 -128t-107 -81q40 -17 71 -62t66 -117q25 -49 38.5 -70.5t26.5 -24.5l33 -10v-59h-170q-16 0 -33.5 32.5t-45.5 102.5q-33 82 -57 128t-51 57h-103v-250l92 -10v-60
h-318v60zM446 422q32 41 32 123q0 73 -31.5 108t-108.5 35q-28 0 -47.5 -2.5t-25.5 -2.5v-300q12 -2 58 -2h34q57 0 89 41zM460 -194.5q-15 -31.5 -35 -52.5t-32 -26h-1l-45 16l-1 7q12 6 19.5 25.5t7.5 39.5q0 14 -5 21t-15 15q-21 15 -21 44t21.5 42.5t45.5 13.5h3
q33 0 53 -20.5t20 -58.5q0 -35 -15 -66.5z" />
    <glyph glyph-name="rcommaaccent" unicode="&#x157;" horiz-adv-x="471" 
d="M45 59l66 8v394l-64 18v69l155 21h3l25 -20v-22l-3 -81h3q7 20 33 49.5t65.5 52t85.5 22.5q22 0 38 -6v-150q-30 21 -73 21q-73 0 -127 -39v-328l116 -9v-59h-323v59zM256 -194.5q-15 -31.5 -35 -52.5t-32 -26h-1l-45 16l-1 7q12 6 19.5 25.5t7.5 39.5q0 14 -5 21t-15 15
q-21 15 -21 44t21.5 42.5t45.5 13.5h3q33 0 53 -20.5t20 -58.5q0 -35 -15 -66.5z" />
    <glyph glyph-name="Rcaron" unicode="&#x158;" horiz-adv-x="721" 
d="M39 60l79 10v598l-75 14v61h145q19 0 42 1t35 2q52 4 86 4q103 0 165 -21t90 -64t28 -113q0 -69 -37 -128t-107 -81q40 -17 71 -62t66 -117q25 -49 38.5 -70.5t26.5 -24.5l33 -10v-59h-170q-16 0 -33.5 32.5t-45.5 102.5q-33 82 -57 128t-51 57h-103v-250l92 -10v-60
h-318v60zM446 422q32 41 32 123q0 73 -31.5 108t-108.5 35q-28 0 -47.5 -2.5t-25.5 -2.5v-300q12 -2 58 -2h34q57 0 89 41zM362 891l131 92l48 -39l-134 -138h-90l-136 138l50 39z" />
    <glyph glyph-name="rcaron" unicode="&#x159;" horiz-adv-x="471" 
d="M45 59l66 8v394l-64 18v69l155 21h3l25 -20v-22l-3 -81h3q7 20 33 49.5t65.5 52t85.5 22.5q22 0 38 -6v-150q-30 21 -73 21q-73 0 -127 -39v-328l116 -9v-59h-323v59zM259 735l146 135l47 -38l-149 -196h-87l-148 196l48 37z" />
    <glyph glyph-name="Sacute" unicode="&#x15a;" horiz-adv-x="603" 
d="M200 -2q-43 9 -96 24q-35 10 -47 11l9 185h81l22 -129q13 -14 46.5 -25t76.5 -11q67 0 100.5 29.5t33.5 82.5q0 35 -20 60.5t-55 46t-96 47.5q-83 38 -137.5 90.5t-54.5 142.5q0 56 29 101.5t86.5 72t140.5 26.5q49 0 86.5 -7t81.5 -19q26 -7 39 -9l-6 -175h-80l-21 123
q-9 9 -36 17.5t-60 8.5q-60 0 -90.5 -27.5t-30.5 -73.5q0 -37 22.5 -64t54.5 -45.5t101 -52.5q56 -27 96 -53t69 -67.5t29 -97.5q0 -55 -27.5 -105t-90 -83t-159.5 -33q-54 0 -97 9zM250 833l130 149l101 -63q-34 -39 -83.5 -74.5t-84.5 -49.5z" />
    <glyph glyph-name="sacute" unicode="&#x15b;" horiz-adv-x="519" 
d="M156 82q8 -12 36.5 -22.5t57.5 -10.5q47 0 70.5 19.5t23.5 51.5q0 33 -29 53.5t-98 50.5l-28 12q-69 29 -103 70t-34 106q0 45 27 80.5t76 55.5t113 20q47 0 80.5 -6t70.5 -16q20 -7 30 -8v-131h-79l-23 76q-6 10 -27 18t-48 8q-41 0 -65.5 -17.5t-24.5 -48.5
q0 -28 17 -46.5t37 -28.5t74 -33t89.5 -44t59 -54.5t23.5 -81.5q0 -74 -58 -120t-167 -46q-51 0 -91.5 9t-93.5 24l-22 7v132h83zM166 686l169 208l88 -77q-24 -40 -93.5 -98t-112.5 -76z" />
    <glyph glyph-name="Scircumflex" unicode="&#x15c;" horiz-adv-x="603" 
d="M200 -2q-43 9 -96 24q-35 10 -47 11l9 185h81l22 -129q13 -14 46.5 -25t76.5 -11q67 0 100.5 29.5t33.5 82.5q0 35 -20 60.5t-55 46t-96 47.5q-83 38 -137.5 90.5t-54.5 142.5q0 56 29 101.5t86.5 72t140.5 26.5q49 0 86.5 -7t81.5 -19q26 -7 39 -9l-6 -175h-80l-21 123
q-9 9 -36 17.5t-60 8.5q-60 0 -90.5 -27.5t-30.5 -73.5q0 -37 22.5 -64t54.5 -45.5t101 -52.5q56 -27 96 -53t69 -67.5t29 -97.5q0 -55 -27.5 -105t-90 -83t-159.5 -33q-54 0 -97 9zM377 981l144 -145l-49 -39l-140 98l-141 -98l-48 38l145 146h89z" />
    <glyph glyph-name="scircumflex" unicode="&#x15d;" horiz-adv-x="519" 
d="M156 82q8 -12 36.5 -22.5t57.5 -10.5q47 0 70.5 19.5t23.5 51.5q0 33 -29 53.5t-98 50.5l-28 12q-69 29 -103 70t-34 106q0 45 27 80.5t76 55.5t113 20q47 0 80.5 -6t70.5 -16q20 -7 30 -8v-131h-79l-23 76q-6 10 -27 18t-48 8q-41 0 -65.5 -17.5t-24.5 -48.5
q0 -28 17 -46.5t37 -28.5t74 -33t89.5 -44t59 -54.5t23.5 -81.5q0 -74 -58 -120t-167 -46q-51 0 -91.5 9t-93.5 24l-22 7v132h83zM303 863l149 -195l-50 -38l-142 132l-146 -133l-47 38l149 196h87z" />
    <glyph glyph-name="Scedilla" unicode="&#x15e;" horiz-adv-x="603" 
d="M66 218h81l22 -129q13 -14 46.5 -25t76.5 -11q67 0 100.5 29.5t33.5 82.5q0 35 -20 60.5t-55 46t-96 47.5q-83 38 -137.5 90.5t-54.5 142.5q0 56 29 101.5t86.5 72t140.5 26.5q49 0 86.5 -7t81.5 -19q26 -7 39 -9l-6 -175h-80l-21 123q-9 9 -36 17.5t-60 8.5
q-60 0 -90.5 -27.5t-30.5 -73.5q0 -37 22.5 -64t54.5 -45.5t101 -52.5q56 -27 96 -53t69 -67.5t29 -97.5q0 -50 -23 -96.5t-74.5 -80.5t-131.5 -42q22 -24 39.5 -58t17.5 -70q0 -62 -35.5 -88t-106.5 -26q-17 0 -37.5 4.5t-33.5 10.5v83q20 -7 43 -7q38 0 54.5 13t16.5 56
q0 34 -24 80q-81 3 -175 33q-34 10 -47 11z" />
    <glyph glyph-name="scedilla" unicode="&#x15f;" horiz-adv-x="519" 
d="M181 -246.5q-20 4.5 -34 10.5l1 83q20 -7 42 -7q39 0 55.5 13t16.5 56q0 20 -7.5 42t-17.5 38q-47 2 -88 11.5t-66.5 18t-32.5 10.5v132h83l23 -79q8 -12 36.5 -22.5t57.5 -10.5q47 0 70.5 19.5t23.5 51.5q0 33 -29 53.5t-98 50.5l-28 12q-69 29 -103 70t-34 106
q0 45 27 80.5t76 55.5t113 20q47 0 80.5 -6t70.5 -16q20 -7 30 -8v-131h-79l-23 76q-6 10 -27 18t-48 8q-41 0 -65.5 -17.5t-24.5 -48.5q0 -28 17 -46.5t37 -28.5t74 -33t89.5 -44t59 -54.5t23.5 -81.5q0 -65 -46 -109.5t-133 -54.5q22 -23 39.5 -57.5t17.5 -70.5
q0 -62 -35.5 -88t-106.5 -26q-17 0 -37 4.5z" />
    <glyph glyph-name="Scaron" unicode="&#x160;" horiz-adv-x="603" 
d="M200 -2q-43 9 -96 24q-35 10 -47 11l9 185h81l22 -129q13 -14 46.5 -25t76.5 -11q67 0 100.5 29.5t33.5 82.5q0 35 -20 60.5t-55 46t-96 47.5q-83 38 -137.5 90.5t-54.5 142.5q0 56 29 101.5t86.5 72t140.5 26.5q49 0 86.5 -7t81.5 -19q26 -7 39 -9l-6 -175h-80l-21 123
q-9 9 -36 17.5t-60 8.5q-60 0 -90.5 -27.5t-30.5 -73.5q0 -37 22.5 -64t54.5 -45.5t101 -52.5q56 -27 96 -53t69 -67.5t29 -97.5q0 -55 -27.5 -105t-90 -83t-159.5 -33q-54 0 -97 9zM332 891l131 92l48 -39l-134 -138h-90l-136 138l50 39z" />
    <glyph glyph-name="scaron" unicode="&#x161;" horiz-adv-x="519" 
d="M156 82q8 -12 36.5 -22.5t57.5 -10.5q47 0 70.5 19.5t23.5 51.5q0 33 -29 53.5t-98 50.5l-28 12q-69 29 -103 70t-34 106q0 45 27 80.5t76 55.5t113 20q47 0 80.5 -6t70.5 -16q20 -7 30 -8v-131h-79l-23 76q-6 10 -27 18t-48 8q-41 0 -65.5 -17.5t-24.5 -48.5
q0 -28 17 -46.5t37 -28.5t74 -33t89.5 -44t59 -54.5t23.5 -81.5q0 -74 -58 -120t-167 -46q-51 0 -91.5 9t-93.5 24l-22 7v132h83zM259 735l146 135l47 -38l-149 -196h-87l-148 196l48 37z" />
    <glyph glyph-name="uni0162" unicode="&#x162;" horiz-adv-x="712" 
d="M33 743h645l12 -289h-79l-39 218l-141 5v-607l140 -10v-60h-180q23 -21 44.5 -59t21.5 -79q0 -62 -35.5 -87.5t-106.5 -25.5q-17 0 -37.5 4.5t-33.5 10.5v83q20 -7 43 -7q38 0 54.5 13t16.5 56q0 24 -10 49.5t-21 41.5h-173v60l128 10v607l-143 -5l-39 -218h-84z" />
    <glyph glyph-name="uni0163" unicode="&#x163;" horiz-adv-x="408" 
d="M25 531q8 3 29 10.5t32 12.5q17 13 29 45q9 21 33 104h80l4 -147h153v-77h-152v-281q0 -56 3 -79t13 -29.5t35 -6.5t52 5.5t45 13.5l19 -56q-19 -15 -55.5 -29.5t-76.5 -21.5q23 -23 42 -58.5t19 -74.5q0 -62 -35.5 -87.5t-106.5 -25.5q-17 0 -37 4.5t-34 10.5l1 83
q20 -7 42 -7q39 0 55 13t16 56q0 20 -7.5 42.5t-17.5 39.5q-58 2 -86.5 31t-28.5 90v367h-65v52z" />
    <glyph glyph-name="Tcaron" unicode="&#x164;" horiz-adv-x="712" 
d="M282 677l-143 -5l-39 -218h-84l17 289h645l12 -289h-79l-39 218l-141 5v-607l140 -10v-60h-417v60l128 10v607zM358 891l131 92l48 -39l-134 -138h-90l-136 138l50 39z" />
    <glyph glyph-name="tcaron" unicode="&#x165;" horiz-adv-x="408" 
d="M120 20q-30 29 -30 92v367h-65v52q8 3 29 10.5t32 12.5q17 13 29 45q9 21 33 104h80l4 -147h153v-77h-152v-281q0 -56 3 -79t13 -29.5t35 -6.5t52 5.5t45 13.5l19 -56q-28 -21 -82 -38t-105 -17q-63 0 -93 29zM317 600l-3 10q6 36 6 105q0 60 -13 89l5 20h107
q9 -22 9 -76q0 -38 -10 -79t-24 -70z" />
    <glyph glyph-name="Tbar" unicode="&#x166;" horiz-adv-x="724" 
d="M288 677l-143 -5l-39 -218h-83l16 289h645l13 -289h-80l-39 218l-141 5v-315h111v-70h-111v-222l140 -10v-60h-417v60l128 10v222h-112v70h112v315z" />
    <glyph glyph-name="tbar" unicode="&#x167;" horiz-adv-x="410" 
d="M91 479h-66v52q5 2 32 11.5t30 11.5q17 14 28 45q9 21 33 104h80l4 -147h153v-77h-152v-120h148v-70h-148v-91q0 -56 3.5 -79t13.5 -29.5t34 -6.5q25 0 52 5.5t45 13.5h1l18 -56q-27 -21 -81.5 -38t-105.5 -17h-1q-62 0 -91.5 28.5t-29.5 92.5v177h-67v70h67v120z" />
    <glyph glyph-name="Utilde" unicode="&#x168;" horiz-adv-x="743" 
d="M159 68q-74 76 -74 239v361l-66 13v62h302v-62l-85 -14v-373q0 -238 169 -238q83 0 123 61.5t40 172.5v377l-86 14v62h250v-62l-68 -13v-370q0 -156 -75.5 -231t-203.5 -75q-152 0 -226 76zM427 817.5q-18 9.5 -42 29.5q-17 15 -29 22t-27 7q-24 0 -37 -15.5t-23 -44.5
l-56 34q15 52 45.5 81.5t74.5 29.5q29 0 48.5 -10.5t42.5 -30.5q18 -15 29 -21.5t25 -6.5q39 0 59 61l56 -34q-32 -111 -119 -111q-29 0 -47 9.5z" />
    <glyph glyph-name="utilde" unicode="&#x169;" horiz-adv-x="639" 
d="M448 4q-15 14 -15 42v27q-27 -33 -76 -58.5t-98 -25.5q-96 0 -137 49.5t-41 163.5v282l-50 14v57l170 13h1l20 -14v-352q0 -73 18 -102t67 -29q59 0 110 46v367l-67 15v56l181 13h2l24 -14v-492h56l-1 -57q-4 -1 -37 -8t-79 -7q-33 0 -48 14zM150 784q36 32 84 32
q29 0 49.5 -11.5t46.5 -32.5q17 -16 30 -23.5t27 -7.5q24 0 36 13.5t17 26t7 15.5l59 -33q-9 -50 -41 -82.5t-81 -32.5q-28 0 -48 11.5t-47 33.5q-19 16 -32 24t-28 8q-22 0 -34.5 -11t-20.5 -25t-13 -20l-57 33q10 50 46 82z" />
    <glyph glyph-name="Umacron" unicode="&#x16a;" horiz-adv-x="743" 
d="M159 68q-74 76 -74 239v361l-66 13v62h302v-62l-85 -14v-373q0 -238 169 -238q83 0 123 61.5t40 172.5v377l-86 14v62h250v-62l-68 -13v-370q0 -156 -75.5 -231t-203.5 -75q-152 0 -226 76zM558 843h-314v87h314v-87z" />
    <glyph glyph-name="umacron" unicode="&#x16b;" horiz-adv-x="639" 
d="M448 4q-15 14 -15 42v27q-27 -33 -76 -58.5t-98 -25.5q-96 0 -137 49.5t-41 163.5v282l-50 14v57l170 13h1l20 -14v-352q0 -73 18 -102t67 -29q59 0 110 46v367l-67 15v56l181 13h2l24 -14v-492h56l-1 -57q-4 -1 -37 -8t-79 -7q-33 0 -48 14zM456 667h-297v86h297v-86z
" />
    <glyph glyph-name="Ubreve" unicode="&#x16c;" horiz-adv-x="743" 
d="M159 68q-74 76 -74 239v361l-66 13v62h302v-62l-85 -14v-373q0 -238 169 -238q83 0 123 61.5t40 172.5v377l-86 14v62h250v-62l-68 -13v-370q0 -156 -75.5 -231t-203.5 -75q-152 0 -226 76zM301 819.5q-41 21.5 -61.5 57t-20.5 79.5q0 15 1 22h70q0 -7 1 -12
q17 -77 110 -77t110 77q1 5 1 12h70q1 -7 1 -21q0 -44 -21.5 -80t-63 -57.5t-98.5 -21.5q-58 0 -99 21.5z" />
    <glyph glyph-name="ubreve" unicode="&#x16d;" horiz-adv-x="639" 
d="M448 4q-15 14 -15 42v27q-27 -33 -76 -58.5t-98 -25.5q-96 0 -137 49.5t-41 163.5v282l-50 14v57l170 13h1l20 -14v-352q0 -73 18 -102t67 -29q59 0 110 46v367l-67 15v56l181 13h2l24 -14v-492h56l-1 -57q-4 -1 -37 -8t-79 -7q-33 0 -48 14zM215.5 670.5
q-40.5 21.5 -62.5 58t-22 82.5q0 31 2 41h67q0 -13 1 -20q3 -36 29.5 -60.5t78.5 -24.5t77.5 24.5t29.5 59.5q2 15 1 21h65q2 -20 2 -40q0 -46 -22 -83t-62 -58.5t-91 -21.5q-53 0 -93.5 21.5z" />
    <glyph glyph-name="Uring" unicode="&#x16e;" horiz-adv-x="743" 
d="M159 68q-74 76 -74 239v361l-66 13v62h302v-62l-85 -14v-373q0 -238 169 -238q83 0 123 61.5t40 172.5v377l-86 14v62h250v-62l-68 -13v-370q0 -156 -75.5 -231t-203.5 -75q-152 0 -226 76zM278.5 796q-49.5 26 -49.5 77q0 53 51 81.5t122 28.5q79 0 124.5 -26.5
t45.5 -78.5q0 -55 -47 -81.5t-127 -26.5q-70 0 -119.5 26zM462.5 837.5q22.5 12.5 22.5 36.5q0 28 -21 40.5t-63 12.5t-63.5 -12t-21.5 -39q0 -25 22 -38t62 -13t62.5 12.5z" />
    <glyph glyph-name="uring" unicode="&#x16f;" horiz-adv-x="639" 
d="M448 4q-15 14 -15 42v27q-27 -33 -76 -58.5t-98 -25.5q-96 0 -137 49.5t-41 163.5v282l-50 14v57l170 13h1l20 -14v-352q0 -73 18 -102t67 -29q59 0 110 46v367l-67 15v56l181 13h2l24 -14v-492h56l-1 -57q-4 -1 -37 -8t-79 -7q-33 0 -48 14zM178 673q-42 39 -42 101
q0 45 24.5 77.5t65 49.5t87.5 17q80 0 122.5 -39.5t42.5 -102.5q-1 -66 -50 -104t-123 -38q-85 0 -127 39zM373 712.5q21 19.5 21 59.5q0 39 -21 62.5t-65 23.5t-66 -20.5t-22 -58.5q0 -37 22 -61.5t65 -24.5q45 0 66 19.5z" />
    <glyph glyph-name="Uhungarumlaut" unicode="&#x170;" horiz-adv-x="743" 
d="M159 68q-74 76 -74 239v361l-66 13v62h302v-62l-85 -14v-373q0 -238 169 -238q83 0 123 61.5t40 172.5v377l-86 14v62h250v-62l-68 -13v-370q0 -156 -75.5 -231t-203.5 -75q-152 0 -226 76zM427 922q-27 -32 -74.5 -68t-86.5 -58l-53 45l137 142zM673 921
q-26 -33 -74 -68.5t-89 -56.5l-54 46l144 140z" />
    <glyph glyph-name="uhungarumlaut" unicode="&#x171;" horiz-adv-x="639" 
d="M448 4q-15 14 -15 42v27q-27 -33 -76 -58.5t-98 -25.5q-96 0 -137 49.5t-41 163.5v282l-50 14v57l170 13h1l20 -14v-352q0 -73 18 -102t67 -29q59 0 110 46v367l-67 15v56l181 13h2l24 -14v-492h56l-1 -57q-4 -1 -37 -8t-79 -7q-33 0 -48 14zM136 693l157 196l81 -66
q-22 -35 -85 -90t-102 -79zM368 694l162 194l77 -65q-19 -33 -84.5 -89.5t-104.5 -79.5z" />
    <glyph glyph-name="Uogonek" unicode="&#x172;" horiz-adv-x="743" 
d="M159 68q-74 76 -74 239v361l-66 13v62h302v-62l-85 -14v-373q0 -238 169 -238q83 0 123 61.5t40 172.5v377l-86 14v62h250v-62l-68 -13v-370q0 -116 -43 -187.5t-120 -99.5q-43 -29 -69.5 -61t-26.5 -59q0 -28 18.5 -44.5t48.5 -16.5q32 0 66 15v-62q-20 -15 -54 -24
t-67 -9q-55 0 -92 24t-37 74q0 40 36.5 80.5t85.5 65.5q-16 -2 -25 -2q-152 0 -226 76z" />
    <glyph glyph-name="uogonek" unicode="&#x173;" horiz-adv-x="639" 
d="M122 38.5q-41 49.5 -41 163.5v282l-50 14v57l170 13h1l20 -14v-352q0 -73 18 -102t67 -29q59 0 110 46v367l-67 15v56l181 13h2l24 -14v-492h56l-1 -57l-30 -6q-47 -21 -73 -50t-26 -55q0 -29 14.5 -42.5t46.5 -13.5q21 0 34 3.5t22.5 8t13.5 6.5l1 -64
q-20 -15 -52.5 -24.5t-69.5 -9.5q-47 0 -86.5 25t-39.5 73q0 40 28 74.5t84 60.5q-46 6 -46 55v27q-27 -33 -76 -58.5t-98 -25.5q-96 0 -137 49.5z" />
    <glyph glyph-name="Wcircumflex" unicode="&#x174;" horiz-adv-x="1017" 
d="M-18 743h300v-62l-87 -13l126 -451l23 -111l23 111l107 366l-28 85l-66 13v62h313v-62l-96 -13l125 -451l27 -120l21 120l114 451l-90 13v62h241v-62l-64 -13l-190 -673h-132l-138 467l-132 -467h-130l-206 672l-61 14v62zM555 981l144 -145l-49 -39l-140 98l-141 -98
l-48 38l145 146h89z" />
    <glyph glyph-name="wcircumflex" unicode="&#x175;" horiz-adv-x="840" 
d="M-14 555h258v-57l-70 -12l74 -266l24 -109l22 110l90 334h121l99 -334l24 -110l24 109l70 265l-73 13v57h214v-57l-51 -11l-152 -495h-115l-101 324l-23 119l-18 -119l-93 -324h-116l-160 495l-48 11v57zM483 863l149 -195l-50 -38l-142 132l-146 -133l-47 38l149 196h87
z" />
    <glyph glyph-name="Ycircumflex" unicode="&#x176;" horiz-adv-x="651" 
d="M255 295l-214 373l-57 13v62h294v-62l-71 -13l125 -245l28 -69l29 69l115 245l-78 13v62h244v-62l-62 -12l-199 -373v-226l109 -10v-60h-369v60l106 10v225zM388 981l144 -145l-49 -39l-140 98l-141 -98l-48 38l145 146h89z" />
    <glyph glyph-name="ycircumflex" unicode="&#x177;" horiz-adv-x="573" 
d="M95.5 -246q-20.5 3 -29.5 7v107q7 -4 28 -8t38 -4q50 0 82.5 33t60.5 111h-54l-188 485l-45 13v58h275v-58l-73 -12l89 -277l36 -118l31 118l82 277l-63 12v58h217v-58l-49 -12q-55 -168 -109 -324t-63 -175q-32 -84 -61 -134t-69 -76t-97 -26q-18 0 -38.5 3zM350 863
l149 -195l-50 -38l-142 132l-146 -133l-47 38l149 196h87z" />
    <glyph glyph-name="Ydieresis" unicode="&#x178;" horiz-adv-x="651" 
d="M255 295l-214 373l-57 13v62h294v-62l-71 -13l125 -245l28 -69l29 69l115 245l-78 13v62h244v-62l-62 -12l-199 -373v-226l109 -10v-60h-369v60l106 10v225zM159 830q-18 21 -18 50q0 37 19.5 60.5t57.5 23.5h1q34 0 52 -20.5t18 -50.5q0 -37 -21 -60.5t-62 -23.5h-1
q-28 0 -46 21zM413 830.5q-18 21.5 -18 49.5q0 37 19.5 60.5t57.5 23.5h1q35 0 52.5 -20.5t17.5 -50.5q0 -38 -21 -61t-63 -23q-28 0 -46 21.5z" />
    <glyph glyph-name="Zacute" unicode="&#x179;" horiz-adv-x="655" 
d="M451 687l-260 -14l-54 -135l-74 10l23 197h507l24 -53l-362 -562l-69 -69l308 20l56 155l76 -15l-23 -221h-550l-31 53l370 565zM287 833l130 149l101 -63q-34 -39 -83.5 -74.5t-84.5 -49.5z" />
    <glyph glyph-name="zacute" unicode="&#x17a;" horiz-adv-x="558" 
d="M155 484l-23 -98h-72v170h441l23 -52l-266 -369l-70 -72l224 11l48 115l68 -8l-16 -181h-464l-25 55l273 361l72 75zM201 686l169 208l88 -77q-24 -40 -93.5 -98t-112.5 -76z" />
    <glyph glyph-name="Zdotaccent" unicode="&#x17b;" horiz-adv-x="655" 
d="M451 687l-260 -14l-54 -135l-74 10l23 197h507l24 -53l-362 -562l-69 -69l308 20l56 155l76 -15l-23 -221h-550l-31 53l370 565zM307.5 837q-20.5 20 -20.5 50q0 36 22 59t61 23q36 0 57.5 -20.5t21.5 -50.5q0 -37 -22 -59t-66 -22q-33 0 -53.5 20z" />
    <glyph glyph-name="zdotaccent" unicode="&#x17c;" horiz-adv-x="558" 
d="M155 484l-23 -98h-72v170h441l23 -52l-266 -369l-70 -72l224 11l48 115l68 -8l-16 -181h-464l-25 55l273 361l72 75zM231 668.5q-21 21.5 -21 53.5q0 38 24 63t65 25q40 0 61 -21.5t21 -53.5q0 -40 -24 -64t-68 -24h-1q-36 0 -57 21.5z" />
    <glyph glyph-name="Zcaron" unicode="&#x17d;" horiz-adv-x="655" 
d="M451 687l-260 -14l-54 -135l-74 10l23 197h507l24 -53l-362 -562l-69 -69l308 20l56 155l76 -15l-23 -221h-550l-31 53l370 565zM369 891l131 92l48 -39l-134 -138h-90l-136 138l50 39z" />
    <glyph glyph-name="zcaron" unicode="&#x17e;" horiz-adv-x="558" 
d="M155 484l-23 -98h-72v170h441l23 -52l-266 -369l-70 -72l224 11l48 115l68 -8l-16 -181h-464l-25 55l273 361l72 75zM294 735l146 135l47 -38l-149 -196h-87l-148 196l48 37z" />
    <glyph glyph-name="uni018F" unicode="&#x18f;" horiz-adv-x="680" 
d="M175.5 21q-61.5 32 -98.5 98t-39 162q0 81 9 118l455 -1q-6 134 -54.5 212t-129.5 78q-57 0 -84.5 -16.5t-50.5 -48.5l-18 -72l-99 4l2 157q24 1 68 13q53 12 96 19t102 7q95 0 167 -44.5t112 -129t40 -199.5q0 -119 -43.5 -207t-120.5 -135t-175 -47q-77 0 -138.5 32z
M458 128q44 65 45 199h-315q-2 -18 -2 -53q0 -84 36.5 -147.5t113.5 -63.5q78 0 122 65z" />
    <glyph glyph-name="florin" unicode="&#x192;" horiz-adv-x="521" 
d="M71 528l100 27l5 40q6 70 39.5 121.5t83 79t101.5 27.5q56 0 86 -10l-11 -108q-26 20 -81 20q-36 0 -58.5 -23t-28.5 -79l-8 -68h143l-7 -85h-144l-57 -644h-129l56 644h-96z" />
    <glyph glyph-name="Ohorn" unicode="&#x1a0;" horiz-adv-x="728" 
d="M703 728q-35 -46 -95 -64q91 -94 91 -282q0 -116 -43.5 -205.5t-121.5 -138.5t-179 -49q-163 0 -244 102t-81 278q0 115 42.5 202t119.5 134t177 47q97 0 169 -35q34 7 57.5 29t35 48.5t11.5 47.5q0 14 -3 23h97q2 -14 2 -21q0 -70 -35 -116zM490 135.5q46 85.5 46 246.5
q0 156 -44 232.5t-127 76.5q-82 0 -128 -81t-46 -240q0 -157 44.5 -238.5t127.5 -81.5q81 0 127 85.5z" />
    <glyph glyph-name="ohorn" unicode="&#x1a1;" horiz-adv-x="608" 
d="M72.5 437q37.5 66 100.5 99.5t137 33.5q66 0 118 -23q36 5 58.5 26.5t33 49t10.5 49.5q0 6 -3 24h104q3 -10 3 -22q0 -74 -36 -119.5t-94 -60.5q34 -37 51.5 -91t17.5 -121q0 -96 -37.5 -162t-100.5 -98.5t-138 -32.5q-124 0 -193 77.5t-69 210.5q0 94 37.5 160z
M216.5 113.5q28.5 -59.5 89.5 -59.5q113 0 113 218q0 114 -27 173.5t-88 59.5q-116 0 -116 -218q0 -114 28.5 -173.5z" />
    <glyph glyph-name="Uhorn" unicode="&#x1af;" horiz-adv-x="743" 
d="M19 743h302v-62l-85 -14v-373q0 -238 169 -238q83 0 123 61.5t40 172.5v377l-86 14v62h112q60 0 83.5 28.5t23.5 70.5q0 14 -3 23h97q2 -14 2 -21q1 -73 -35.5 -114.5t-97.5 -53.5v-378q0 -156 -75.5 -231t-203.5 -75q-152 0 -226 76t-74 239v361l-66 13v62z" />
    <glyph glyph-name="uhorn" unicode="&#x1b0;" horiz-adv-x="639" 
d="M122 38.5q-41 49.5 -41 163.5v282l-50 14v57l170 13h1l20 -14v-352q0 -73 18 -102t67 -29q59 0 110 46v367l-67 15v56l136 11q34 11 53.5 39t19.5 68q0 16 -3 23h106q3 -10 3 -21q0 -122 -108 -164v-449h56l-1 -57q-4 -1 -37 -8t-79 -7q-33 0 -48 14t-15 42v27
q-27 -33 -76 -58.5t-98 -25.5q-96 0 -137 49.5z" />
    <glyph glyph-name="uni01C4" unicode="&#x1c4;" horiz-adv-x="1416" 
d="M118 668l-75 13v62h146q33 0 89 4q13 1 39.5 2t47.5 1q184 0 275.5 -92t91.5 -261q0 -118 -45.5 -210t-129.5 -143.5t-196 -51.5q-29 0 -91 4q-58 4 -79 4h-152v60l79 10v598zM358 58q100 2 157 80.5t57 235.5q0 149 -56 230.5t-174 81.5q-25 0 -47.5 -3t-31.5 -4v-612
q34 -9 95 -9zM1212 687l-260 -14l-54 -135l-74 10l23 197h507l24 -53l-362 -562l-69 -69l308 20l56 155l76 -15l-23 -221h-550l-31 53l370 565zM1130 891l131 92l48 -39l-134 -138h-90l-136 138l50 39z" />
    <glyph glyph-name="uni01C5" unicode="&#x1c5;" horiz-adv-x="1319" 
d="M118 668l-75 13v62h146q33 0 89 4q13 1 39.5 2t47.5 1q184 0 275.5 -92t91.5 -261q0 -118 -45.5 -210t-129.5 -143.5t-196 -51.5q-29 0 -91 4q-58 4 -79 4h-152v60l79 10v598zM358 58q100 2 157 80.5t57 235.5q0 149 -56 230.5t-174 81.5q-25 0 -47.5 -3t-31.5 -4v-612
q34 -9 95 -9zM916 484l-23 -98h-72v170h441l23 -52l-266 -369l-70 -72l224 11l48 115l68 -8l-16 -181h-464l-25 55l273 361l72 75zM1055 735l146 135l47 -38l-149 -196h-87l-148 196l48 37z" />
    <glyph glyph-name="uni01C6" unicode="&#x1c6;" horiz-adv-x="1184" 
d="M143 18.5q-49 29.5 -78 91.5t-29 155q0 84 34.5 153.5t101.5 110.5t161 41q38 0 72 -8v169l-98 14v55l206 20h3l28 -21v-738h54v-57q-72 -15 -119 -15q-32 0 -45.5 10.5t-13.5 41.5v28q-26 -35 -71 -57.5t-95 -22.5q-62 0 -111 29.5zM364.5 85.5q25.5 13.5 40.5 32.5v364
q-7 10 -29.5 17t-48.5 7q-64 0 -102.5 -55.5t-38.5 -177.5q0 -102 33 -151.5t87 -49.5q33 0 58.5 13.5zM781 484l-23 -98h-72v170h441l23 -52l-266 -369l-70 -72l224 11l48 115l68 -8l-16 -181h-464l-25 55l273 361l72 75zM920 735l146 135l47 -38l-149 -196h-87l-148 196
l48 37z" />
    <glyph glyph-name="uni01C7" unicode="&#x1c7;" horiz-adv-x="1029" 
d="M119 668l-77 13v62h320v-62l-96 -13v-597l214 9l63 187l81 -11l-31 -256h-553v60l79 10v598zM699.5 -90q34.5 33 50.5 83q11 34 16 81.5t5 133.5v459l-90 14v62h320v-62l-84 -13v-393q0 -107 -2.5 -165.5t-10.5 -93.5q-21 -81 -86 -134.5t-160 -69.5l-33 52
q40 13 74.5 46z" />
    <glyph glyph-name="uni01C8" unicode="&#x1c8;" horiz-adv-x="968" 
d="M119 668l-77 13v62h320v-62l-96 -13v-597l214 9l63 187l81 -11l-31 -256h-553v60l79 10v598zM747.5 668q-20.5 21 -20.5 54q0 38 24 63t64 25t60.5 -21.5t20.5 -53.5q0 -40 -23.5 -64t-67.5 -24h-1q-36 0 -56.5 21zM676 547l181 22h2l27 -20v-540q0 -78 -29 -134.5
t-73.5 -86t-90.5 -31.5q-50 0 -61 4l-7 57q26 0 52 11q38 16 54.5 68t16.5 140l-1 422l-71 19v69z" />
    <glyph glyph-name="uni01C9" unicode="&#x1c9;" horiz-adv-x="670" 
d="M103 731l-74 13v54l185 22h2l27 -19v-733l73 -8v-60h-283v60l70 9v662zM449.5 668q-20.5 21 -20.5 54q0 38 24 63t64 25t60.5 -21.5t20.5 -53.5q0 -40 -23.5 -64t-67.5 -24h-1q-36 0 -56.5 21zM378 547l181 22h2l27 -20v-540q0 -78 -29 -134.5t-73.5 -86t-90.5 -31.5
q-50 0 -61 4l-7 57q26 0 52 11q38 16 54.5 68t16.5 140l-1 422l-71 19v69z" />
    <glyph glyph-name="uni01CA" unicode="&#x1ca;" horiz-adv-x="1194" 
d="M119 668l-79 13v62h227l298 -450l56 -114v489l-86 13v62h248v-62l-77 -13v-668h-121l-311 473l-70 132v-535l101 -10v-60h-265v60l79 10v598zM864.5 -90q34.5 33 50.5 83q11 34 16 81.5t5 133.5v459l-90 14v62h320v-62l-84 -13v-393q0 -107 -2.5 -165.5t-10.5 -93.5
q-21 -81 -86 -134.5t-160 -69.5l-33 52q40 13 74.5 46z" />
    <glyph glyph-name="uni01CB" unicode="&#x1cb;" horiz-adv-x="1133" 
d="M119 668l-79 13v62h227l298 -450l56 -114v489l-86 13v62h248v-62l-77 -13v-668h-121l-311 473l-70 132v-535l101 -10v-60h-265v60l79 10v598zM912.5 668q-20.5 21 -20.5 54q0 38 24 63t64 25t60.5 -21.5t20.5 -53.5q0 -40 -23.5 -64t-67.5 -24h-1q-36 0 -56.5 21z
M841 547l181 22h2l27 -20v-540q0 -78 -29 -134.5t-73.5 -86t-90.5 -31.5q-50 0 -61 4l-7 57q26 0 52 11q38 16 54.5 68t16.5 140l-1 422l-71 19v69z" />
    <glyph glyph-name="uni01CC" unicode="&#x1cc;" horiz-adv-x="1011" 
d="M101 461l-64 18v69l166 21h3l25 -20v-39l-1 -24q35 33 91 57t113 24q61 0 95.5 -22.5t49.5 -70.5t15 -130v-276l61 -8v-60h-258v60l54 8v276q0 52 -7 81.5t-25.5 43t-52.5 13.5q-57 0 -122 -49v-364l60 -9v-60h-261v60l58 9v392zM790.5 668q-20.5 21 -20.5 54q0 38 24 63
t64 25t60.5 -21.5t20.5 -53.5q0 -40 -23.5 -64t-67.5 -24h-1q-36 0 -56.5 21zM719 547l181 22h2l27 -20v-540q0 -78 -29 -134.5t-73.5 -86t-90.5 -31.5q-50 0 -61 4l-7 57q26 0 52 11q38 16 54.5 68t16.5 140l-1 422l-71 19v69z" />
    <glyph glyph-name="uni01CD" unicode="&#x1cd;" horiz-adv-x="702" 
d="M273 747h153l231 -677l58 -10v-60h-295v60l75 10l-39 130h-259l-39 -131l81 -9v-60h-255l-1 60l60 10zM342 578l-18 78l-19 -79l-89 -307h220zM349 891l131 92l48 -39l-134 -138h-90l-136 138l50 39z" />
    <glyph glyph-name="uni01CE" unicode="&#x1ce;" horiz-adv-x="566" 
d="M125.5 293q91.5 46 236.5 47v23q0 41 -8.5 64t-31 34.5t-65.5 11.5q-49 0 -88 -12.5t-81 -32.5l-31 64q15 13 50.5 31t84.5 31.5t101 13.5q77 0 120.5 -20t62.5 -64t19 -118v-306h54v-56q-20 -5 -57 -10t-65 -5q-34 0 -45.5 10t-11.5 41v27q-27 -30 -70 -54t-97 -24
q-46 0 -84.5 19.5t-61.5 57t-23 90.5q0 91 91.5 137zM315 84.5q27 12.5 47 30.5v164q-90 0 -134.5 -30.5t-44.5 -78.5t22.5 -73t61.5 -25q21 0 48 12.5zM277 735l146 135l47 -38l-149 -196h-87l-148 196l48 37z" />
    <glyph glyph-name="uni01CF" unicode="&#x1cf;" horiz-adv-x="411" 
d="M131 668l-85 13v62h320v-62l-88 -13v-598l88 -11v-59h-320v60l85 10v598zM207 891l131 92l48 -39l-134 -138h-90l-136 138l50 39z" />
    <glyph glyph-name="uni01D0" unicode="&#x1d0;" horiz-adv-x="347" 
d="M111 461l-71 19v67l183 22h2l28 -20v-481l67 -8v-60h-279v60l70 9v392zM173 735l146 135l47 -38l-149 -196h-87l-148 196l48 37z" />
    <glyph glyph-name="uni01D1" unicode="&#x1d1;" horiz-adv-x="728" 
d="M111 91q-81 102 -81 278q0 115 42.5 202t119.5 134t177 47q165 0 247.5 -97.5t82.5 -272.5q0 -116 -43.5 -205.5t-121.5 -138.5t-179 -49q-163 0 -244 102zM237 610q-46 -81 -46 -240q0 -157 44.5 -238.5t127.5 -81.5q81 0 127 85.5t46 246.5q0 156 -44 232.5t-127 76.5
q-82 0 -128 -81zM369 891l131 92l48 -39l-134 -138h-90l-136 138l50 39z" />
    <glyph glyph-name="uni01D2" unicode="&#x1d2;" horiz-adv-x="629" 
d="M82.5 437q37.5 66 100.5 99.5t137 33.5q126 0 194.5 -77.5t68.5 -210.5q0 -95 -37.5 -161.5t-100 -99t-137.5 -32.5q-125 0 -194 77.5t-69 210.5q0 94 37.5 160zM429 272q0 114 -27 173.5t-88 59.5q-116 0 -116 -218q0 -114 28.5 -173.5t89.5 -59.5q113 0 113 218z
M316 735l146 135l47 -38l-149 -196h-87l-148 196l48 37z" />
    <glyph glyph-name="uni01D3" unicode="&#x1d3;" horiz-adv-x="743" 
d="M159 68q-74 76 -74 239v361l-66 13v62h302v-62l-85 -14v-373q0 -238 169 -238q83 0 123 61.5t40 172.5v377l-86 14v62h250v-62l-68 -13v-370q0 -156 -75.5 -231t-203.5 -75q-152 0 -226 76zM402 891l131 92l48 -39l-134 -138h-90l-136 138l50 39z" />
    <glyph glyph-name="uni01D4" unicode="&#x1d4;" horiz-adv-x="639" 
d="M448 4q-15 14 -15 42v27q-27 -33 -76 -58.5t-98 -25.5q-96 0 -137 49.5t-41 163.5v282l-50 14v57l170 13h1l20 -14v-352q0 -73 18 -102t67 -29q59 0 110 46v367l-67 15v56l181 13h2l24 -14v-492h56l-1 -57q-4 -1 -37 -8t-79 -7q-33 0 -48 14zM306 735l146 135l47 -38
l-149 -196h-87l-148 196l48 37z" />
    <glyph glyph-name="Gcaron" unicode="&#x1e6;" horiz-adv-x="744" 
d="M196.5 37.5q-79.5 48.5 -120.5 133.5t-41 192q0 123 47.5 211t134.5 133t203 45q109 0 245 -31l-11 -186h-101l-27 128q-10 10 -38 18.5t-73 8.5q-98 0 -154 -79.5t-56 -229.5q0 -147 48 -237.5t146 -90.5q40 0 75 10t53 26v215l-106 10v67h304v-67l-53 -9v-265
q-21 -1 -76 -17q-64 -17 -109.5 -25.5t-100.5 -8.5q-110 0 -189.5 48.5zM403 891l131 92l48 -39l-134 -138h-90l-136 138l50 39z" />
    <glyph glyph-name="gcaron" unicode="&#x1e7;" horiz-adv-x="622" 
d="M93 -228q-60 42 -60 114q0 41 27.5 77.5t66.5 54.5q-46 27 -46 86q0 34 22 64.5t57 47.5q-55 21 -82 64t-27 102q0 57 33.5 99.5t90 65.5t122.5 23q117 0 174 -45q13 17 44 32t64 15h35v-109h-103q15 -32 15 -68q1 -91 -64 -145.5t-178 -54.5q-47 0 -79 7
q-10 -13 -15.5 -27.5t-5.5 -25.5q0 -33 23.5 -45t84.5 -12h107q204 0 204 -148q0 -62 -44 -111t-117 -76t-155 -27q-134 0 -194 42zM387 384q0 65 -23.5 95.5t-71.5 30.5q-47 0 -72.5 -30.5t-25.5 -91.5q0 -131 100 -131q93 0 93 127zM411 -170.5q46 30.5 46 84.5
q0 43 -22.5 62t-80.5 19h-109q-25 0 -46 3q-27 -36 -27 -86q0 -55 30 -84t100 -29q63 0 109 30.5zM314 735l146 135l47 -38l-149 -196h-87l-148 196l48 37z" />
    <glyph glyph-name="uni01F1" unicode="&#x1f1;" horiz-adv-x="1416" 
d="M118 668l-75 13v62h146q33 0 89 4q13 1 39.5 2t47.5 1q184 0 275.5 -92t91.5 -261q0 -118 -45.5 -210t-129.5 -143.5t-196 -51.5q-29 0 -91 4q-58 4 -79 4h-152v60l79 10v598zM358 58q100 2 157 80.5t57 235.5q0 149 -56 230.5t-174 81.5q-25 0 -47.5 -3t-31.5 -4v-612
q34 -9 95 -9zM1212 687l-260 -14l-54 -135l-74 10l23 197h507l24 -53l-362 -562l-69 -69l308 20l56 155l76 -15l-23 -221h-550l-31 53l370 565z" />
    <glyph glyph-name="uni01F2" unicode="&#x1f2;" horiz-adv-x="1319" 
d="M118 668l-75 13v62h146q33 0 89 4q13 1 39.5 2t47.5 1q184 0 275.5 -92t91.5 -261q0 -118 -45.5 -210t-129.5 -143.5t-196 -51.5q-29 0 -91 4q-58 4 -79 4h-152v60l79 10v598zM358 58q100 2 157 80.5t57 235.5q0 149 -56 230.5t-174 81.5q-25 0 -47.5 -3t-31.5 -4v-612
q34 -9 95 -9zM916 484l-23 -98h-72v170h441l23 -52l-266 -369l-70 -72l224 11l48 115l68 -8l-16 -181h-464l-25 55l273 361l72 75z" />
    <glyph glyph-name="uni01F3" unicode="&#x1f3;" horiz-adv-x="1184" 
d="M143 18.5q-49 29.5 -78 91.5t-29 155q0 84 34.5 153.5t101.5 110.5t161 41q38 0 72 -8v169l-98 14v55l206 20h3l28 -21v-738h54v-57q-72 -15 -119 -15q-32 0 -45.5 10.5t-13.5 41.5v28q-26 -35 -71 -57.5t-95 -22.5q-62 0 -111 29.5zM364.5 85.5q25.5 13.5 40.5 32.5v364
q-7 10 -29.5 17t-48.5 7q-64 0 -102.5 -55.5t-38.5 -177.5q0 -102 33 -151.5t87 -49.5q33 0 58.5 13.5zM781 484l-23 -98h-72v170h441l23 -52l-266 -369l-70 -72l224 11l48 115l68 -8l-16 -181h-464l-25 55l273 361l72 75z" />
    <glyph glyph-name="uni01F4" unicode="&#x1f4;" horiz-adv-x="744" 
d="M196.5 37.5q-79.5 48.5 -120.5 133.5t-41 192q0 123 47.5 211t134.5 133t203 45q109 0 245 -31l-11 -186h-101l-27 128q-10 10 -38 18.5t-73 8.5q-98 0 -154 -79.5t-56 -229.5q0 -147 48 -237.5t146 -90.5q40 0 75 10t53 26v215l-106 10v67h304v-67l-53 -9v-265
q-21 -1 -76 -17q-64 -17 -109.5 -25.5t-100.5 -8.5q-110 0 -189.5 48.5zM321 833l130 149l101 -63q-34 -39 -83.5 -74.5t-84.5 -49.5z" />
    <glyph glyph-name="Aringacute" unicode="&#x1fa;" horiz-adv-x="702" 
d="M-17 60l60 10l215 628q-36 10 -56.5 37t-20.5 63q0 45 34 72t89 32l62 80l105 -30q-19 -22 -32.5 -33.5t-28.5 -18.5q45 -7 74.5 -34t29.5 -69q0 -37 -18.5 -63.5t-53.5 -35.5l215 -628l58 -10v-60h-295v60l75 10l-39 130h-259l-39 -131l81 -9v-60h-255zM287.5 759
q22.5 -16 60.5 -16q40 0 61 16t21 39t-21.5 39.5t-61.5 16.5q-39 0 -60.5 -16.5t-21.5 -40.5q0 -22 22.5 -38zM436 270l-94 308l-18 78l-19 -79l-89 -307h220z" />
    <glyph glyph-name="aringacute" unicode="&#x1fb;" horiz-adv-x="566" 
d="M125.5 293q91.5 46 236.5 47v23q0 41 -8.5 64t-31 34.5t-65.5 11.5q-49 0 -88 -12.5t-81 -32.5l-31 64q15 13 50.5 31t84.5 31.5t101 13.5q77 0 120.5 -20t62.5 -64t19 -118v-306h54v-56q-20 -5 -57 -10t-65 -5q-34 0 -45.5 10t-11.5 41v27q-27 -30 -70 -54t-97 -24
q-46 0 -84.5 19.5t-61.5 57t-23 90.5q0 91 91.5 137zM315 84.5q27 12.5 47 30.5v164q-90 0 -134.5 -30.5t-44.5 -78.5t22.5 -73t61.5 -25q21 0 48 12.5zM140 833q33 30 88 40l74 111l92 -43q-34 -45 -67 -67q57 -10 90 -42t33 -77q-1 -65 -49.5 -98t-124.5 -33
q-77 0 -123 34t-46 92q0 53 33 83zM216 703q24 -18 62 -18q42 0 64.5 13.5t22.5 48.5q0 32 -23.5 50t-62.5 18t-63 -16t-24 -46q0 -32 24 -50z" />
    <glyph glyph-name="AEacute" unicode="&#x1fc;" horiz-adv-x="937" 
d="M400 209h-240l-54 -139l76 -11v-59h-266v59l72 11l256 599l-130 13v61h738l15 -170h-70l-34 102l-217 9v-270l138 4l16 81h64v-242h-64l-15 86l-139 3v-283l244 13l62 128l81 -22l-34 -182h-580v59l81 11v139zM400 677h-61l-52 -136l-100 -260h213v396zM388 833l130 149
l101 -63q-34 -39 -83.5 -74.5t-84.5 -49.5z" />
    <glyph glyph-name="aeacute" unicode="&#x1fd;" horiz-adv-x="868" 
d="M81 31q-48 42 -48 120q0 93 88.5 140.5t237.5 48.5q0 55 -8 82.5t-30 38.5t-68 11q-45 0 -81.5 -10.5t-61 -21l-31.5 -13.5l-30 64q15 14 52.5 32t87.5 31.5t101 13.5q64 0 102 -15t57 -47q69 64 175 64q101 0 155 -52.5t56 -149.5q0 -64 -7 -98h-328q4 -91 43 -141.5
t111 -50.5q39 0 81.5 13t67.5 30l23 -54q-27 -29 -87 -53.5t-122 -24.5q-147 0 -214 103q-28 -42 -82.5 -72.5t-119.5 -30.5q-72 0 -120 42zM693 330q1 12 1 43q0 133 -87 133q-49 0 -76.5 -38.5t-31.5 -137.5h194zM332.5 91.5q31.5 19.5 47.5 46.5q-23 62 -23 145
q-86 -1 -128.5 -33t-42.5 -80q0 -51 21.5 -74.5t58.5 -23.5q35 0 66.5 19.5zM360 686l169 208l88 -77q-24 -40 -93.5 -98t-112.5 -76z" />
    <glyph glyph-name="Oslashacute" unicode="&#x1fe;" horiz-adv-x="728" 
d="M70 156.5q-40 88.5 -40 212.5q0 115 42.5 202t119.5 134t177 47q58 0 106 -13l42 108l63 -19l-44 -111q82 -40 122.5 -126.5t40.5 -208.5q0 -115 -43 -204t-120 -138.5t-177 -50.5q-57 0 -105 12l-47 -112l-66 19l50 117q-81 43 -121 131.5zM237 610q-46 -81 -46 -240
q0 -76 14.5 -136.5t42.5 -98.5l200 527q-33 29 -83 29q-82 0 -128 -81zM481 611l-203 -527q35 -34 85 -34q81 0 127 85.5t46 246.5q0 153 -55 229zM289 833l130 149l101 -63q-34 -39 -83.5 -74.5t-84.5 -49.5z" />
    <glyph glyph-name="oslashacute" unicode="&#x1ff;" horiz-adv-x="608" 
d="M72.5 437q37.5 66 100.5 99.5t137 33.5q34 0 64 -6l37 105l58 -16l-35 -108q68 -32 103.5 -100t35.5 -163q0 -96 -37.5 -162t-100.5 -98.5t-138 -32.5q-32 0 -59 6l-43 -116l-61 18l42 116q-69 31 -105 99.5t-36 164.5q0 94 37.5 160zM225 112l131 375q-21 18 -52 18
q-116 0 -116 -218q0 -119 37 -175zM419 272q0 117 -36 171l-130 -372q23 -17 53 -17q113 0 113 218zM207 686l169 208l88 -77q-24 -40 -93.5 -98t-112.5 -76z" />
    <glyph glyph-name="Scommaaccent" unicode="&#x218;" horiz-adv-x="603" 
d="M200 -2q-43 9 -96 24q-35 10 -47 11l9 185h81l22 -129q13 -14 46.5 -25t76.5 -11q67 0 100.5 29.5t33.5 82.5q0 35 -20 60.5t-55 46t-96 47.5q-83 38 -137.5 90.5t-54.5 142.5q0 56 29 101.5t86.5 72t140.5 26.5q49 0 86.5 -7t81.5 -19q26 -7 39 -9l-6 -175h-80l-21 123
q-9 9 -36 17.5t-60 8.5q-60 0 -90.5 -27.5t-30.5 -73.5q0 -37 22.5 -64t54.5 -45.5t101 -52.5q56 -27 96 -53t69 -67.5t29 -97.5q0 -55 -27.5 -105t-90 -83t-159.5 -33q-54 0 -97 9zM362 -194.5q-15 -31.5 -35 -52.5t-32 -26h-1l-45 16l-1 7q12 6 19.5 25.5t7.5 39.5
q0 14 -5 21t-15 15q-21 15 -21 44t21.5 42.5t45.5 13.5h3q33 0 53 -20.5t20 -58.5q0 -35 -15 -66.5z" />
    <glyph glyph-name="scommaaccent" unicode="&#x219;" horiz-adv-x="523" 
d="M156 82q8 -12 36.5 -22.5t57.5 -10.5q47 0 70.5 19.5t23.5 51.5q0 33 -29 53.5t-98 50.5l-28 12q-69 29 -103 70t-34 106q0 45 27 80.5t76 55.5t113 20q47 0 80.5 -6t70.5 -16q20 -7 30 -8v-131h-79l-23 76q-6 10 -27 18t-48 8q-41 0 -65.5 -17.5t-24.5 -48.5
q0 -28 17 -46.5t37 -28.5t74 -33t89.5 -44t59 -54.5t23.5 -81.5q0 -74 -58 -120t-167 -46q-51 0 -91.5 9t-93.5 24l-22 7v132h83zM321 -196q-15 -31 -34.5 -51.5t-31.5 -25.5h-2l-45 16l-1 7q12 6 19.5 25.5t7.5 39.5q0 23 -20 36q-21 15 -21 44t21.5 42.5t45.5 13.5h3
q34 0 53.5 -21t19.5 -60q0 -35 -15 -66z" />
    <glyph glyph-name="uni021A" unicode="&#x21a;" horiz-adv-x="712" 
d="M282 677l-143 -5l-39 -218h-84l17 289h645l12 -289h-79l-39 218l-141 5v-607l140 -10v-60h-417v60l128 10v607zM418 -194.5q-15 -31.5 -35 -52.5t-32 -26h-1l-45 16l-1 7q12 6 19.5 25.5t7.5 39.5q0 14 -5 21t-15 15q-21 15 -21 44t21.5 42.5t45.5 13.5h3q33 0 53 -20.5
t20 -58.5q0 -35 -15 -66.5z" />
    <glyph glyph-name="uni021B" unicode="&#x21b;" horiz-adv-x="408" 
d="M120 20q-30 29 -30 92v367h-65v52q8 3 29 10.5t32 12.5q17 13 29 45q9 21 33 104h80l4 -147h153v-77h-152v-281q0 -56 3 -79t13 -29.5t35 -6.5t52 5.5t45 13.5l19 -56q-28 -21 -82 -38t-105 -17q-63 0 -93 29zM290 -194.5q-15 -31.5 -35 -52.5t-32 -26h-1l-45 16l-1 7
q12 6 19.5 25.5t7.5 39.5q0 14 -5 21t-15 15q-21 15 -21 44t21.5 42.5t45.5 13.5h3q33 0 53 -20.5t20 -58.5q0 -35 -15 -66.5z" />
    <glyph glyph-name="uni0228" unicode="&#x228;" horiz-adv-x="655" 
d="M248.5 -246.5q-20.5 4.5 -33.5 10.5v83q20 -7 43 -7q39 0 55 13t16 56q0 24 -10 49.5t-21 41.5h-259v60l79 10v598l-80 13v62h533l13 -168h-70l-33 99l-216 9v-269l139 3l16 82h64v-242h-64l-16 86l-139 3v-282l242 12l58 128l75 -21l-26 -183h-252q23 -21 44.5 -59
t21.5 -79q0 -62 -35.5 -87.5t-106.5 -25.5q-17 0 -37.5 4.5z" />
    <glyph glyph-name="uni0229" unicode="&#x229;" horiz-adv-x="550" 
d="M69.5 434q33.5 66 94.5 101t141 35q100 0 154 -52.5t56 -149.5q0 -66 -8 -98h-325q4 -91 43 -141.5t111 -50.5q39 0 80.5 13t65.5 31l25 -55q-25 -26 -77.5 -49t-109.5 -28q21 -23 38 -57t17 -70q0 -63 -35 -88.5t-106 -25.5q-17 0 -37.5 4.5t-33.5 10.5l-1 83
q9 -3 22.5 -5t21.5 -2q38 0 54.5 13t16.5 56q0 38 -26 83q-108 13 -161.5 89t-53.5 197q0 90 33.5 156zM375 330q2 28 2 43q0 133 -89 133q-49 0 -76 -39t-30 -137h193z" />
    <glyph glyph-name="uni0237" unicode="&#x237;" horiz-adv-x="330" 
d="M38 547l181 22h2l27 -20v-540q0 -78 -29 -134.5t-73.5 -86t-90.5 -31.5q-50 0 -61 4l-7 57q26 0 52 11q38 16 54.5 68t16.5 140l-1 422l-71 19v69z" />
    <glyph glyph-name="uni0259" unicode="&#x259;" horiz-adv-x="550" 
d="M449.5 489.5q64.5 -77.5 64.5 -211.5q0 -90 -33.5 -156t-94.5 -101t-141 -35q-100 0 -154 52.5t-56 149.5q0 66 8 98h325q-4 91 -43 141.5t-111 50.5q-39 0 -80.5 -13t-65.5 -31l-25 55q27 29 87.5 53.5t122.5 24.5q132 0 196.5 -77.5zM175 226q-2 -28 -2 -43
q0 -133 89 -133q49 0 76 39t30 137h-193z" />
    <glyph glyph-name="uni02BC" unicode="&#x2bc;" horiz-adv-x="220" 
d="M13 472v14q25 23 47 65.5t22 104.5q0 32 -9 52t-27 44q-15 19 -22 33t-7 34q0 30 19.5 49t48.5 19q30 0 55 -23.5t39.5 -61.5t14.5 -81q0 -66 -23.5 -124.5t-57.5 -99.5t-65 -57z" />
    <glyph glyph-name="circumflex" unicode="&#x2c6;" horiz-adv-x="507" 
d="M297 873l148 -195l-49 -38l-142 132l-146 -133l-47 38l149 196h87z" />
    <glyph glyph-name="caron" unicode="&#x2c7;" horiz-adv-x="498" 
d="M249 744l146 135l47 -38l-149 -196h-87l-148 196l48 38z" />
    <glyph glyph-name="uni02C9" unicode="&#x2c9;" horiz-adv-x="657" 
d="M544 889h-432v90h432v-90z" />
    <glyph glyph-name="breve" unicode="&#x2d8;" horiz-adv-x="499" 
d="M156.5 675.5q-40.5 22.5 -62.5 60.5t-22 84q0 31 2 40h66q0 -12 1 -20q5 -36 31 -62t78 -26t77 25.5t29 62.5l2 20h65l1 -39q0 -46 -22 -84.5t-61.5 -61t-90.5 -22.5q-53 0 -93.5 22.5z" />
    <glyph glyph-name="dotaccent" unicode="&#x2d9;" horiz-adv-x="278" 
d="M78 672.5q-21 21.5 -21 53.5q0 38 23 63t63 25q37 0 58 -21.5t21 -53.5q0 -39 -23 -63.5t-66 -24.5h-1q-33 0 -54 21.5z" />
    <glyph glyph-name="ring" unicode="&#x2da;" horiz-adv-x="498" 
d="M120 673.5q-42 39.5 -42 103.5q0 44 24.5 76t65 48.5t87.5 16.5q80 0 122.5 -39.5t42.5 -102.5q-1 -66 -50 -104t-123 -38q-85 0 -127 39.5zM315 712.5q21 19.5 21 59.5q0 39 -21 62.5t-65 23.5t-66 -20.5t-22 -58.5q0 -37 22 -61.5t65 -24.5q45 0 66 19.5z" />
    <glyph glyph-name="ogonek" unicode="&#x2db;" horiz-adv-x="346" 
d="M49 -225.5q-37 24.5 -37 73.5q0 41 40 84.5t103 67.5l35 4l52 -4q-49 -18 -82 -52.5t-33 -63.5q0 -56 67 -56q18 0 33 5t27 11l18 9l3 -60q-22 -17 -59 -30t-78 -13q-52 0 -89 24.5z" />
    <glyph glyph-name="tilde" unicode="&#x2dc;" horiz-adv-x="518" 
d="M96 789q37 33 91 33q31 0 52.5 -12t46.5 -34q21 -18 35.5 -26.5t32.5 -8.5q27 0 43.5 14.5t31.5 37.5l47 -36q-49 -107 -139 -107q-29 0 -50.5 11.5t-47.5 33.5q-24 19 -39 27.5t-34 8.5q-28 0 -44 -14t-33 -37l-47 35q17 41 54 74z" />
    <glyph glyph-name="hungarumlaut" unicode="&#x2dd;" horiz-adv-x="499" 
d="M302 823q-22 -35 -85 -90t-102 -79l-48 38l154 197zM551 823q-19 -33 -84.5 -89.5t-104.5 -79.5l-47 38l160 196z" />
    <glyph glyph-name="gravecomb" unicode="&#x300;" 
d="M-39.5 684q-42.5 32 -82 69t-54.5 63l86 77l169 -208l-50 -43h-1q-25 10 -67.5 42z" />
    <glyph glyph-name="acutecomb" unicode="&#x301;" 
d="M-94 685l169 208l88 -77q-24 -40 -93.5 -98t-112.5 -76z" />
    <glyph glyph-name="uni0302" unicode="&#x302;" 
d="M43 863l149 -195l-50 -38l-142 132l-146 -133l-47 38l149 196h87z" />
    <glyph glyph-name="tildecomb" unicode="&#x303;" 
d="M-157 784q36 32 84 32q29 0 49.5 -11.5t46.5 -32.5q17 -16 30 -23.5t27 -7.5q24 0 36 13.5t17 26t7 15.5l59 -33q-9 -50 -41 -82.5t-81 -32.5q-28 0 -48 11.5t-47 33.5q-19 16 -32 24t-28 8q-22 0 -34.5 -11t-20.5 -25t-13 -20l-57 33q10 50 46 82z" />
    <glyph glyph-name="uni0304" unicode="&#x304;" 
d="M149 667h-297v86h297v-86z" />
    <glyph glyph-name="uni0306" unicode="&#x306;" 
d="M-91.5 670.5q-40.5 21.5 -62.5 58t-22 82.5q0 31 2 41h67q0 -13 1 -20q3 -36 29.5 -60.5t78.5 -24.5t77.5 24.5t29.5 59.5q2 15 1 21h65q2 -20 2 -40q0 -46 -22 -83t-62 -58.5t-91 -21.5q-53 0 -93.5 21.5z" />
    <glyph glyph-name="uni0307" unicode="&#x307;" 
d="M-64 668.5q-21 21.5 -21 53.5q0 38 24 63t65 25q40 0 61 -21.5t21 -53.5q0 -40 -24 -64t-68 -24h-1q-36 0 -57 21.5z" />
    <glyph glyph-name="uni0308" unicode="&#x308;" 
d="M-175 669q-18 21 -18 52q0 38 19.5 62t57.5 24q35 0 52.5 -21t17.5 -52q0 -39 -18.5 -62.5t-60.5 -23.5q-32 0 -50 21zM65 670q-18 22 -18 51q0 38 19.5 62t57.5 24q35 0 52.5 -21t17.5 -52q0 -39 -19 -62.5t-61 -23.5q-31 0 -49 22z" />
    <glyph glyph-name="hookabovecomb" unicode="&#x309;" 
d="M-35.5 638q-6.5 14 -6.5 26q0 9 5 15.5t16 15.5q13 10 20 19t7 23q0 23 -13 37t-41 14q-12 0 -25.5 -3t-21.5 -9l-2 78q32 15 70 15q61 0 95.5 -29.5t34.5 -82.5q0 -25 -11.5 -41t-26.5 -28t-22 -18q-5 -5 -8.5 -14.5t-3.5 -20.5q0 -8 3 -19h-56q-7 8 -13.5 22z" />
    <glyph glyph-name="uni030A" unicode="&#x30a;" 
d="M-129 673q-42 39 -42 101q0 45 24.5 77.5t65 49.5t87.5 17q80 0 122.5 -39.5t42.5 -102.5q-1 -66 -50 -104t-123 -38q-85 0 -127 39zM66 712.5q21 19.5 21 59.5q0 39 -21 62.5t-65 23.5t-66 -20.5t-22 -58.5q0 -37 22 -61.5t65 -24.5q45 0 66 19.5z" />
    <glyph glyph-name="uni030B" unicode="&#x30b;" 
d="M-170 693l157 196l81 -66q-22 -35 -85 -90t-102 -79zM62 694l162 194l77 -65q-19 -33 -84.5 -89.5t-104.5 -79.5z" />
    <glyph glyph-name="uni030C" unicode="&#x30c;" 
d="M-1 735l146 135l47 -38l-149 -196h-87l-148 196l48 37z" />
    <glyph glyph-name="uni0312" unicode="&#x312;" 
d="M-53 662q-20 21 -20 60q0 35 15.5 66t35 51.5t31.5 25.5h2l45 -16l1 -7q-12 -6 -19.5 -25.5t-7.5 -39.5q0 -14 5 -21t15 -15q21 -15 21 -44t-21.5 -42.5t-45.5 -13.5h-3q-34 0 -54 21z" />
    <glyph glyph-name="uni031B" unicode="&#x31b;" 
d="M-10 556q54 0 79.5 32.5t31.5 74.5q2 13 1 17h95q2 -16 2 -22q0 -56 -31 -99.5t-79.5 -67t-98.5 -23.5v88z" />
    <glyph glyph-name="dotbelowcomb" unicode="&#x323;" 
d="M-59.5 -196q-20.5 21 -20.5 52q0 36 22.5 60.5t60.5 24.5q36 0 56.5 -21t20.5 -51q0 -38 -22 -62t-64 -24h-1q-32 0 -52.5 21z" />
    <glyph glyph-name="uni0326" unicode="&#x326;" 
d="M61 -194.5q-15 -31.5 -35 -52.5t-32 -26h-1l-45 16l-1 7q12 6 19.5 25.5t7.5 39.5q0 14 -5 21t-15 15q-21 15 -21 44t21.5 42.5t45.5 13.5h3q33 0 53 -20.5t20 -58.5q0 -35 -15 -66.5z" />
    <glyph glyph-name="uni0327" unicode="&#x327;" 
d="M-79 -246.5q-20 4.5 -34 10.5l1 83q20 -7 42 -7q39 0 55 13t16 56q0 25 -11 52.5t-21 40.5l43 5l20 -5q23 -19 45.5 -58t22.5 -82q0 -62 -35.5 -87.5t-106.5 -25.5q-17 0 -37 4.5z" />
    <glyph glyph-name="uni0328" unicode="&#x328;" 
d="M-135 -225.5q-37 24.5 -37 73.5q0 41 40 84.5t103 67.5l35 4l52 -4q-49 -18 -82 -52.5t-33 -63.5q0 -56 67 -56q18 0 33 5t27 11l18 9l3 -60q-22 -17 -59 -30t-78 -13q-52 0 -89 24.5z" />
    <glyph glyph-name="uni0335" unicode="&#x335;" 
d="M203 233h-406v94h406v-94z" />
    <glyph glyph-name="uni0336" unicode="&#x336;" 
d="M253 233h-506v94h506v-94z" />
    <glyph glyph-name="uni0337" unicode="&#x337;" 
d="M220 556l-353 -658l-87 3l354 655h86z" />
    <glyph glyph-name="uni0338" unicode="&#x338;" 
d="M220 804l-353 -906l-87 3l354 903h86z" />
    <glyph glyph-name="uni0394" unicode="&#x394;" horiz-adv-x="864" 
d="M426 740l367 -723l-9 -17h-705l-9 16l336 724h20zM191 86h416l-218 446z" />
    <glyph glyph-name="uni03A9" unicode="&#x3a9;" horiz-adv-x="944" 
d="M637 220.5q39 93.5 39 202.5q0 107 -51.5 164.5t-152.5 57.5q-215 0 -215 -235q0 -69 23.5 -136t60 -118t75.5 -73v-83h-341l-19 205h68l33 -112l173 -4q-44 27 -90.5 82.5t-77.5 126t-31 139.5q0 110 48 181t125 103t169 32q99 0 173.5 -34.5t116 -102.5t41.5 -164
q0 -64 -26.5 -135t-69.5 -132t-88 -94l163 7l34 107h70l-23 -205h-333v83q67 44 106 137.5z" />
    <glyph glyph-name="uni03BC" unicode="&#x3bc;" horiz-adv-x="683" 
d="M104 483l-54 20v51l173 12l21 -12v-388q0 -21 12 -42.5t35 -36t54 -14.5q39 0 64 18.5t34 40.5v351l-62 20l-1 51l185 12l18 -12v-492h55v-57q-52 -18 -109 -18t-57 54v34q-15 -37 -51 -61t-78 -24q-33 0 -62 12t-46 35v-219h-131v665z" />
    <glyph glyph-name="pi" unicode="&#x3c0;" horiz-adv-x="803" 
d="M107 74q17 6 32 15q38 23 55 56.5t31 96.5l40 193h-61q-65 0 -82 -71l-51 7q-1 7 -1 22q0 48 20.5 84.5t55 56.5t74.5 20h379q41 0 58 6t23 31h55q-1 -58 -10 -89.5t-39.5 -49t-93.5 -17.5h-19l-10 -280q-1 -40 8.5 -59t26.5 -19q24 0 43.5 12.5t37.5 41.5l40 -38
q-25 -44 -67 -73t-101 -29q-99 0 -99 109q0 23 2 36l36 299h-146l-19 -205q-9 -82 -28 -129t-54 -78q-27 -24 -77 -33l-85 77q9 1 26 7z" />
    <glyph glyph-name="uni0400" unicode="&#x400;" horiz-adv-x="655" 
d="M118 668l-80 13v62h533l13 -168h-70l-33 99l-216 9v-269l139 3l16 82h64v-242h-64l-16 86l-139 3v-282l242 12l58 128l75 -21l-26 -183h-575v60l79 10v598zM256.5 846.5q-53.5 37.5 -82.5 72.5l96 63l135 -149l-58 -38q-37 14 -90.5 51.5z" />
    <glyph glyph-name="uni0401" unicode="&#x401;" horiz-adv-x="655" 
d="M118 668l-80 13v62h533l13 -168h-70l-33 99l-216 9v-269l139 3l16 82h64v-242h-64l-16 86l-139 3v-282l242 12l58 128l75 -21l-26 -183h-575v60l79 10v598zM145 830q-18 21 -18 50q0 37 19.5 60.5t57.5 23.5h1q34 0 52 -20.5t18 -50.5q0 -37 -21 -60.5t-62 -23.5h-1
q-28 0 -46 21zM399 830.5q-18 21.5 -18 49.5q0 37 19.5 60.5t57.5 23.5h1q35 0 52.5 -20.5t17.5 -50.5q0 -38 -21 -61t-63 -23q-28 0 -46 21.5z" />
    <glyph glyph-name="uni0402" unicode="&#x402;" horiz-adv-x="875" 
d="M511 416.5q52 12.5 88 12.5q127 0 185.5 -63t58.5 -195q0 -111 -31.5 -196t-90.5 -131.5t-138 -46.5q-25 0 -47 4.5t-34 9.5l-5 66q23 -7 64 -7q68 0 100.5 71t32.5 211q0 107 -29 154t-100 47q-74 0 -130 -32v-248l122 -12v-61h-408v61l139 12v606l-150 -10l-29 -165
h-82l13 239h672l8 -239h-82l-27 165l-176 10v-290q24 15 76 27.5z" />
    <glyph glyph-name="uni0403" unicode="&#x403;" horiz-adv-x="594" 
d="M575 743l12 -281h-86l-34 207l-184 10v-608l164 -12v-59h-420v59l109 12v596l-107 15v61h546zM271 833l130 149l101 -63q-34 -39 -83.5 -74.5t-84.5 -49.5z" />
    <glyph glyph-name="uni0404" unicode="&#x404;" horiz-adv-x="669" 
d="M580.5 21q-19.5 -5 -25.5 -7q-42 -12 -81 -18.5t-94 -6.5q-111 0 -190 47.5t-120 133t-41 198.5q0 115 47.5 202t133.5 134t198 47q44 0 79 -5.5t89 -16.5q42 -9 50 -10l-9 -190h-96l-26 130q-16 14 -36.5 21.5t-61.5 7.5q-88 0 -142.5 -70t-60.5 -203l299 9v-92l-298 8
q8 -125 59 -206t137 -81q46 0 71 8.5t42 23.5l42 109l83 -3l-12 -164q-17 -1 -36.5 -6z" />
    <glyph glyph-name="uni0405" unicode="&#x405;" horiz-adv-x="603" 
d="M200 -2q-43 9 -96 24q-35 10 -47 11l9 185h81l22 -129q13 -14 46.5 -25t76.5 -11q67 0 100.5 29.5t33.5 82.5q0 35 -20 60.5t-55 46t-96 47.5q-83 38 -137.5 90.5t-54.5 142.5q0 56 29 101.5t86.5 72t140.5 26.5q49 0 86.5 -7t81.5 -19q26 -7 39 -9l-6 -175h-80l-21 123
q-9 9 -36 17.5t-60 8.5q-60 0 -90.5 -27.5t-30.5 -73.5q0 -37 22.5 -64t54.5 -45.5t101 -52.5q56 -27 96 -53t69 -67.5t29 -97.5q0 -55 -27.5 -105t-90 -83t-159.5 -33q-54 0 -97 9z" />
    <glyph glyph-name="uni0406" unicode="&#x406;" horiz-adv-x="411" 
d="M131 668l-85 13v62h320v-62l-88 -13v-598l88 -11v-59h-320v60l85 10v598z" />
    <glyph glyph-name="uni0407" unicode="&#x407;" horiz-adv-x="411" 
d="M131 668l-85 13v62h320v-62l-88 -13v-598l88 -11v-59h-320v60l85 10v598zM23 830q-18 21 -18 50q0 37 19.5 60.5t57.5 23.5h1q34 0 52 -20.5t18 -50.5q0 -37 -21 -60.5t-62 -23.5h-1q-28 0 -46 21zM277 830.5q-18 21.5 -18 49.5q0 37 19.5 60.5t57.5 23.5h1
q35 0 52.5 -20.5t17.5 -50.5q0 -38 -21 -61t-63 -23q-28 0 -46 21.5z" />
    <glyph glyph-name="uni0408" unicode="&#x408;" horiz-adv-x="391" 
d="M61.5 -90q34.5 33 50.5 83q11 34 16 81.5t5 133.5v459l-90 14v62h320v-62l-84 -13v-393q0 -107 -2.5 -165.5t-10.5 -93.5q-21 -81 -86 -134.5t-160 -69.5l-33 52q40 13 74.5 46z" />
    <glyph glyph-name="uni0409" unicode="&#x409;" horiz-adv-x="1036" 
d="M692.5 421q42.5 4 71.5 4q126 0 189.5 -53t63.5 -151q0 -109 -70 -169t-192 -60q-23 0 -71 3q-107 5 -117 5h-180v60l103 11l1 597h-190v-79q0 -171 -19.5 -309.5t-57.5 -209.5q-22 -38 -49 -57t-64 -19q-51 0 -77 6l-9 89q40 -4 76 -4q20 0 34.5 9t25.5 33
q67 116 67 466v76l-108 12v62h608v-62l-93 -13v-254q15 3 57.5 7zM716 55q77 0 113.5 41.5t36.5 113.5q0 75 -36 110t-108 35q-24 0 -49.5 -2t-37.5 -4v-285q36 -9 81 -9z" />
    <glyph glyph-name="uni040A" unicode="&#x40a;" horiz-adv-x="1103" 
d="M1014 372q67 -54 67 -151q0 -113 -69.5 -171.5t-187.5 -58.5q-11 0 -87 4q-23 1 -54.5 2.5t-60.5 2.5h-149v61l80 12v270h-288v-270l88 -12v-61h-314v60l80 10v598l-76 13v62h307v-62l-85 -13v-253h288v254l-82 14v60h308v-60l-80 -14v-243h128q120 0 187 -54zM780 56
q76 0 113 41.5t37 114.5q0 76 -36 111t-108 35h-87v-292q50 -10 81 -10z" />
    <glyph glyph-name="uni040B" unicode="&#x40b;" horiz-adv-x="911" 
d="M523.5 415.5q48.5 13.5 92.5 13.5q80 0 127 -20t69.5 -68.5t22.5 -133.5v-137l73 -10v-60h-286v60l67 10v102q0 68 -9.5 105.5t-33 54t-68.5 16.5q-81 0 -138 -35v-243l91 -10v-60h-365v60l127 11v608l-155 -10l-30 -165h-82l13 239h670l10 -239h-79l-32 164l-168 10
v-297q35 21 83.5 34.5z" />
    <glyph glyph-name="uni040C" unicode="&#x40c;" horiz-adv-x="721" 
d="M491.5 354.5q32.5 -33.5 57 -73t59.5 -103.5q27 -51 43.5 -77t30.5 -30l37 -11v-60h-158q-25 0 -48.5 38t-61.5 119q-42 91 -73.5 139t-66.5 48h-47v-273l89 -12v-59h-311v60l77 11v597l-77 13v62h298v-62l-76 -13v-268h73l179 268l-75 13v62h264v-62l-83 -13l-199 -271
q36 -9 68.5 -42.5zM280 833l130 149l101 -63q-34 -39 -83.5 -74.5t-84.5 -49.5z" />
    <glyph glyph-name="uni040D" unicode="&#x40d;" horiz-adv-x="851" 
d="M356 743v-62l-92 -13v-466l67 112l255 330v24l-84 13v62h306v-62l-77 -13v-598l80 -10v-60h-309v60l84 10v472l-60 -108l-262 -333v-31l89 -10v-60h-312v60l79 10v598l-77 13v62h313zM362.5 846.5q-53.5 37.5 -82.5 72.5l96 63l135 -149l-58 -38q-37 14 -90.5 51.5z" />
    <glyph glyph-name="uni040E" unicode="&#x40e;" horiz-adv-x="645" 
d="M367 70q-18 -31 -53.5 -56t-88.5 -25q-28 0 -60 5t-49 12v82l72 -1q48 0 68 15t31 55l-238 511l-54 13v62h305v-62l-91 -13l138 -321l28 -84l29 85l112 320l-77 13v62h222v-62l-52 -13l-199 -511q-25 -56 -43 -87zM242 936q0 -38 21 -58.5t69 -20.5q47 0 67.5 20.5
t20.5 58.5q0 18 3.5 32.5t12.5 14.5h98l1 -27q0 -74 -54 -114t-150 -40q-94 0 -148.5 40.5t-54.5 113.5l1 27h97q16 0 16 -47z" />
    <glyph glyph-name="uni040F" unicode="&#x40f;" horiz-adv-x="815" 
d="M464 -92.5q-8 -60.5 -9 -105.5h-88q0 28 -11 110t-15 88h-302v60l81 11v597l-79 13v62h313v-62l-89 -13v-603h285v603l-84 13v62h306v-62l-77 -13v-598l82 -10v-60h-299q-6 -32 -14 -92.5z" />
    <glyph glyph-name="uni0410" unicode="&#x410;" horiz-adv-x="702" 
d="M273 747h153l231 -677l58 -10v-60h-295v60l75 10l-39 130h-259l-39 -131l81 -9v-60h-255l-1 60l60 10zM342 578l-18 78l-19 -79l-89 -307h220z" />
    <glyph glyph-name="uni0411" unicode="&#x411;" horiz-adv-x="678" 
d="M322 439q47 3 71 3q130 0 195 -54t65 -159q0 -113 -72.5 -175t-191.5 -62q-23 0 -73 3q-110 5 -119 5h-169v60l91 10v598l-91 13v62h560l10 -198h-86l-31 125l-216 9v-245q10 2 57 5zM301.5 58q15.5 -2 44.5 -2q80 0 117.5 44t37.5 121q0 80 -37.5 117.5t-112.5 37.5
q-23 0 -47.5 -1.5t-38.5 -3.5v-306q21 -5 36.5 -7z" />
    <glyph glyph-name="uni0412" unicode="&#x412;" horiz-adv-x="705" 
d="M118 668l-78 13v62h149q34 0 88 4q13 1 31 2t42 1q151 0 211.5 -42.5t60.5 -126.5q0 -74 -44.5 -123.5t-116.5 -60.5q99 1 155.5 -45t56.5 -128q0 -104 -73 -167t-244 -63q-45 0 -83 3q-10 0 -34 1.5t-49 1.5h-151v60l79 10v598zM308 418h47q61 0 91 38t30 107
q0 66 -31 96t-103 30q-19 0 -79 -4v-266q11 -1 45 -1zM351 57q85 0 123 40t38 116q0 73 -34.5 104.5t-109.5 31.5q-84 0 -105 -2v-281q23 -9 88 -9z" />
    <glyph glyph-name="uni0413" unicode="&#x413;" horiz-adv-x="594" 
d="M575 743l12 -281h-86l-34 207l-184 10v-608l164 -12v-59h-420v59l109 12v596l-107 15v61h546z" />
    <glyph glyph-name="uni0414" unicode="&#x414;" horiz-adv-x="758" 
d="M709 -73.5q-9 -114.5 -11 -123.5h-81q-1 26 -12 107t-17 90h-440q-7 -9 -24.5 -84t-23.5 -114h-83l1 45q5 168 9 224h72q24 33 52 101t49 182t21 266v48l-104 13v62h603v-62l-96 -13v-597h94q0 -30 -9 -144.5zM279 365.5q-16 -111.5 -38 -184.5t-42 -110h280l1 604h-186
v-61q1 -137 -15 -248.5z" />
    <glyph glyph-name="uni0415" unicode="&#x415;" horiz-adv-x="655" 
d="M118 668l-80 13v62h533l13 -168h-70l-33 99l-216 9v-269l139 3l16 82h64v-242h-64l-16 86l-139 3v-282l242 12l58 128l75 -21l-26 -183h-575v60l79 10v598z" />
    <glyph glyph-name="uni0416" unicode="&#x416;" horiz-adv-x="1058" 
d="M851 323.5q41 -55.5 92 -146.5q28 -52 44.5 -77t30.5 -29l38 -11v-60h-160q-24 0 -48.5 38.5t-61.5 116.5q-43 92 -75.5 140.5t-67.5 48.5h-44v-273l89 -12v-59h-314v60l85 10v274h-45q-35 0 -67 -48t-76 -139q-38 -79 -63.5 -118t-50.5 -39h-154v60l36 11q14 4 31 30
t45 77q51 91 92 146.5t91 71.5l-197 272l-82 13v62h261v-62l-72 -13l176 -268h75v268l-82 13v62h305v-62l-83 -13v-268h75l175 268l-72 13v62h263v-62l-83 -13l-198 -273q51 -16 92 -71.5z" />
    <glyph glyph-name="uni0417" unicode="&#x417;" horiz-adv-x="621" 
d="M131 731q50 9 86.5 14.5t67.5 5.5q133 0 203.5 -42.5t70.5 -127.5q0 -80 -50.5 -127.5t-123.5 -61.5q94 -3 144.5 -49.5t50.5 -121.5q0 -110 -70 -168.5t-231 -58.5q-55 0 -96.5 8t-85.5 22q-26 9 -40 11l21 184h71l31 -136q42 -28 114 -28q59 0 89 40.5t30 117.5
q0 59 -32 99t-110 40h-66v68h55q61 0 103 37.5t42 112.5q0 61 -34 90.5t-92 29.5q-39 0 -65 -10t-35 -25l-20 -97h-82l-14 162q10 1 68 11z" />
    <glyph glyph-name="uni0418" unicode="&#x418;" horiz-adv-x="851" 
d="M356 743v-62l-92 -13v-466l67 112l255 330v24l-84 13v62h306v-62l-77 -13v-598l80 -10v-60h-309v60l84 10v472l-60 -108l-262 -333v-31l89 -10v-60h-312v60l79 10v598l-77 13v62h313z" />
    <glyph glyph-name="uni0419" unicode="&#x419;" horiz-adv-x="851" 
d="M356 743v-62l-92 -13v-466l67 112l255 330v24l-84 13v62h306v-62l-77 -13v-598l80 -10v-60h-309v60l84 10v472l-60 -108l-262 -333v-31l89 -10v-60h-312v60l79 10v598l-77 13v62h313zM344 936q0 -38 21 -58.5t69 -20.5q47 0 67.5 20.5t20.5 58.5q0 18 3.5 32.5t12.5 14.5
h98l1 -27q0 -74 -54 -114t-150 -40q-94 0 -148.5 40.5t-54.5 113.5l1 27h97q16 0 16 -47z" />
    <glyph glyph-name="uni041A" unicode="&#x41a;" horiz-adv-x="721" 
d="M491.5 354.5q32.5 -33.5 57 -73t59.5 -103.5q27 -51 43.5 -77t30.5 -30l37 -11v-60h-158q-25 0 -48.5 38t-61.5 119q-42 91 -73.5 139t-66.5 48h-47v-273l89 -12v-59h-311v60l77 11v597l-77 13v62h298v-62l-76 -13v-268h73l179 268l-75 13v62h264v-62l-83 -13l-199 -271
q36 -9 68.5 -42.5z" />
    <glyph glyph-name="uni041B" unicode="&#x41b;" horiz-adv-x="754" 
d="M282.5 276.5q-18.5 -138.5 -56.5 -208.5q-40 -74 -115 -74q-51 0 -77 6l-9 90q40 -4 76 -4q20 0 34.5 9t25.5 32q32 56 49.5 171t17.5 310v60l-120 13v62h619v-62l-92 -13v-598l97 -10v-60h-345v60l103 11l1 597h-190v-79q0 -174 -18.5 -312.5z" />
    <glyph glyph-name="uni041C" unicode="&#x41c;" horiz-adv-x="1017" 
d="M160 668l-108 13v62h312l119 -430l28 -117l24 117l118 430h309v-62l-109 -13l80 -597l81 -11v-60h-319v60l88 10l-44 438l-19 183l-37 -154l-145 -506h-106l-148 480l-51 180l-15 -183l-38 -438l101 -10v-60h-278v60l84 10z" />
    <glyph glyph-name="uni041D" unicode="&#x41d;" horiz-adv-x="835" 
d="M119 668l-74 13v62h304v-62l-84 -13v-251h304v251l-77 13v62h300v-62l-76 -13v-598l76 -10v-60h-301v60l78 10v271h-304v-271l84 -10v-60h-306v60l76 10v598z" />
    <glyph glyph-name="uni041E" unicode="&#x41e;" horiz-adv-x="728" 
d="M111 91q-81 102 -81 278q0 115 42.5 202t119.5 134t177 47q165 0 247.5 -97.5t82.5 -272.5q0 -116 -43.5 -205.5t-121.5 -138.5t-179 -49q-163 0 -244 102zM237 610q-46 -81 -46 -240q0 -157 44.5 -238.5t127.5 -81.5q81 0 127 85.5t46 246.5q0 156 -44 232.5t-127 76.5
q-82 0 -128 -81z" />
    <glyph glyph-name="uni041F" unicode="&#x41f;" horiz-adv-x="808" 
d="M769 743v-62l-80 -13v-597l86 -11v-60h-308v60l76 10v604h-278v-604l84 -10v-60h-307v60l78 10v598l-81 13v62h730z" />
    <glyph glyph-name="uni0420" unicode="&#x420;" horiz-adv-x="661" 
d="M119 668l-75 13v62h151q21 0 65 2q58 4 105 4q104 0 164.5 -25.5t86 -73t25.5 -120.5q0 -126 -78.5 -196t-217.5 -70q-55 0 -79 3v-197l134 -10v-60h-360v60l79 10v598zM343 326q67 0 107.5 46.5t40.5 154.5q0 84 -36.5 122.5t-111.5 38.5q-28 0 -58 -4q-14 -2 -20 -2
v-351q23 -5 78 -5z" />
    <glyph glyph-name="uni0421" unicode="&#x421;" horiz-adv-x="658" 
d="M119 90.5q-90 101.5 -90 277.5q0 116 47.5 202.5t130.5 133.5t188 47q44 0 85 -5.5t97 -14.5q42 -7 46 -7l-11 -206h-92l-31 143q-11 11 -38 18t-69 7q-85 0 -136.5 -78.5t-51.5 -227.5q0 -144 49 -235t143 -91q45 0 69.5 8.5t41.5 24.5l44 103l84 -8l-20 -155
q-21 -2 -41.5 -7.5t-25.5 -6.5q-40 -11 -74.5 -17.5t-84.5 -6.5q-170 0 -260 101.5z" />
    <glyph glyph-name="uni0422" unicode="&#x422;" horiz-adv-x="712" 
d="M282 677l-143 -5l-39 -218h-84l17 289h645l12 -289h-79l-39 218l-141 5v-607l140 -10v-60h-417v60l128 10v607z" />
    <glyph glyph-name="uni0423" unicode="&#x423;" horiz-adv-x="645" 
d="M367 70q-18 -31 -53.5 -56t-88.5 -25q-28 0 -60 5t-49 12v82l72 -1q48 0 68 15t31 55l-238 511l-54 13v62h305v-62l-91 -13l138 -321l28 -84l29 85l112 320l-77 13v62h222v-62l-52 -13l-199 -511q-25 -56 -43 -87z" />
    <glyph glyph-name="uni0424" unicode="&#x424;" horiz-adv-x="814" 
d="M681.5 591q72.5 -34 98.5 -88t26 -128q0 -71 -37.5 -127t-112 -89t-179.5 -35v-73l89 -11v-61h-318v62l89 11v72q-190 1 -259.5 70t-69.5 184q0 110 82 176t247 71v65l-90 14v60h318v-60l-88 -14v-64q132 -1 204.5 -35zM199 521q-36 -49 -36 -137q0 -85 36.5 -142
t137.5 -67v401q-102 -6 -138 -55zM614.5 232q36.5 51 36.5 142q0 83 -36 136.5t-138 63.5v-401q101 8 137.5 59z" />
    <glyph glyph-name="uni0425" unicode="&#x425;" horiz-adv-x="719" 
d="M288 363l-204 304l-69 14v62h327v-62l-85 -14l137 -227l141 228l-86 13v62h257v-62l-81 -14l-194 -272l218 -325l70 -10v-60h-326v60l84 10l-150 245l-144 -245l96 -10v-60h-273v60l84 10z" />
    <glyph glyph-name="uni0426" unicode="&#x426;" horiz-adv-x="819" 
d="M787 -72.5q-11 -114.5 -14 -124.5h-81q-1 27 -10 105.5t-14 91.5h-635v59l87 12v597l-80 13v62h316v-62l-91 -13v-603h274v603l-75 13v62h298v-62l-78 -13v-597h114q0 -29 -11 -143.5z" />
    <glyph glyph-name="uni0427" unicode="&#x427;" horiz-adv-x="723" 
d="M372.5 285q-51.5 -11 -98.5 -11q-73 0 -118 20.5t-67.5 70t-22.5 135.5v167l-58 13v63h279v-63l-75 -12v-134q0 -81 10 -118t34 -48.5t76 -11.5q35 0 71.5 9t54.5 22v281l-82 13v62h309v-62l-81 -13v-598l82 -11v-59h-334v60l106 10v246q-34 -20 -85.5 -31z" />
    <glyph glyph-name="uni0428" unicode="&#x428;" horiz-adv-x="1138" 
d="M346 743v-62l-81 -13v-598h234v598l-74 13v62h293v-62l-75 -13v-598h230v598l-72 13v62h296v-62l-79 -13v-598l86 -10v-60h-1071v60l87 10v598l-79 13v62h305z" />
    <glyph glyph-name="uni0429" unicode="&#x429;" horiz-adv-x="1158" 
d="M1125.5 -71.5q-8.5 -87.5 -14.5 -125.5h-80q-1 29 -9.5 106.5t-14.5 90.5h-974v60l87 10v598l-79 13v62h305v-62l-81 -13v-598h234v598l-74 13v62h293v-62l-75 -13v-598h230v598l-72 13v62h296v-62l-79 -13v-597h119q-3 -55 -11.5 -142.5z" />
    <glyph glyph-name="uni042A" unicode="&#x42a;" horiz-adv-x="845" 
d="M758 388.5q64 -54.5 64 -157.5q0 -114 -70.5 -176.5t-192.5 -62.5l-72 3q-107 5 -116 5h-220v59l140 12v608l-142 -10l-34 -205h-87l16 279h499v-60l-105 -15v-225h126q130 0 194 -54.5zM520 55q76 0 113 44.5t37 121.5q0 79 -36 117t-108 38h-88v-313q34 -8 82 -8z" />
    <glyph glyph-name="uni042B" unicode="&#x42b;" horiz-adv-x="1078" 
d="M395 449q125 0 189 -57t64 -160q0 -75 -34.5 -129t-95 -82.5t-137.5 -28.5q-22 0 -84 4q-72 4 -113 4h-144v60l79 10v599l-77 14v60h325v-60l-102 -14v-222q48 2 130 2zM1033 743v-62l-87 -13v-598l87 -11v-59h-319v60l85 10v598l-86 13v62h320zM346 56q77 0 114 45.5
t37 122.5q0 158 -145 158l-87 -1v-317q34 -8 81 -8z" />
    <glyph glyph-name="uni042C" unicode="&#x42c;" horiz-adv-x="666" 
d="M395 449q125 0 189 -57t64 -160q0 -75 -34.5 -129t-95 -82.5t-137.5 -28.5q-22 0 -84 4q-72 4 -113 4h-144v60l79 10v599l-77 14v60h325v-60l-102 -14v-222q48 2 130 2zM346 56q77 0 114 45.5t37 122.5q0 158 -145 158l-87 -1v-317q34 -8 81 -8z" />
    <glyph glyph-name="uni042D" unicode="&#x42d;" horiz-adv-x="673" 
d="M88.5 719.5q21.5 5.5 27.5 6.5q46 12 86.5 18.5t96.5 6.5q111 0 188.5 -48t117.5 -133.5t40 -199.5q0 -116 -45.5 -202t-129 -132.5t-196.5 -46.5q-43 0 -76 6t-73 16q-19 5 -37 9t-33 4l-9 171l94 8l39 -113q15 -16 39 -27t68 -11q88 0 140.5 75t54.5 215l-302 -8v93
l299 -8q-10 119 -58.5 193.5t-132.5 74.5q-45 0 -70.5 -11t-44.5 -29l-32 -104l-88 -1l-3 171q18 1 39.5 6.5z" />
    <glyph glyph-name="uni042E" unicode="&#x42e;" horiz-adv-x="1098" 
d="M467.5 596.5q45.5 75.5 117 115.5t159.5 40q160 0 241 -96t81 -267q0 -121 -42 -211.5t-117 -139t-171 -48.5q-158 0 -240 93.5t-86 258.5h-145v-271l84 -11v-60h-308v60l78 11v597l-76 13v62h303v-62l-81 -13v-250h147q10 103 55.5 178.5zM615.5 609.5
q-45.5 -80.5 -45.5 -241.5q0 -153 44 -234t127 -81q79 0 121.5 83.5t42.5 245.5q0 152 -42 230t-122 78t-125.5 -80.5z" />
    <glyph glyph-name="uni042F" unicode="&#x42f;" horiz-adv-x="721" 
d="M335 319q-25 -15 -46.5 -61.5t-50.5 -125.5q-25 -68 -40.5 -100t-29.5 -32h-169v59l36 11q14 4 28 27t36 70q34 72 62 115t66 60q-70 18 -108 73t-38 127q0 113 69 160.5t212 47.5q36 0 88 -4q11 0 34 -1.5t42 -1.5h156v-62l-80 -13v-598l86 -11v-59h-323v59l91 11v249
h-121zM428.5 685.5q-20.5 2.5 -56.5 2.5q-67 0 -102.5 -31.5t-35.5 -111.5q0 -82 35.5 -123.5t103.5 -41.5q64 0 83 4v298q-7 1 -27.5 3.5z" />
    <glyph glyph-name="uni0430" unicode="&#x430;" horiz-adv-x="566" 
d="M125.5 293q91.5 46 236.5 47v23q0 41 -8.5 64t-31 34.5t-65.5 11.5q-49 0 -88 -12.5t-81 -32.5l-31 64q15 13 50.5 31t84.5 31.5t101 13.5q77 0 120.5 -20t62.5 -64t19 -118v-306h54v-56q-20 -5 -57 -10t-65 -5q-34 0 -45.5 10t-11.5 41v27q-27 -30 -70 -54t-97 -24
q-46 0 -84.5 19.5t-61.5 57t-23 90.5q0 91 91.5 137zM315 84.5q27 12.5 47 30.5v164q-90 0 -134.5 -30.5t-44.5 -78.5t22.5 -73t61.5 -25q21 0 48 12.5z" />
    <glyph glyph-name="uni0431" unicode="&#x431;" horiz-adv-x="585" 
d="M500.5 725q-13.5 -14 -40.5 -15q-80 -3 -148.5 -17t-100.5 -39q-55 -44 -63 -172q29 34 79.5 60t107.5 26q116 0 168 -66.5t52 -201.5q0 -144 -67.5 -226t-191.5 -82q-129 0 -198.5 96.5t-69.5 288.5q0 127 40.5 210.5t101.5 133.5q40 32 98 52.5t112 25.5q32 2 47 8.5
t21 23.5l14 41h72l-16 -105q-4 -28 -17.5 -42zM222 471.5q-32 -20.5 -44 -42.5q0 -141 11 -222.5t36 -119t69 -37.5q64 0 89 64t25 189q0 74 -11.5 115t-35 57.5t-63.5 16.5q-44 0 -76 -20.5z" />
    <glyph glyph-name="uni0432" unicode="&#x432;" horiz-adv-x="663" 
d="M236 558q72 4 112 4q134 0 185 -33t51 -95q0 -48 -27 -81t-80 -49q76 -7 115 -43.5t39 -88.5q0 -86 -65.5 -132t-225.5 -46q-33 0 -59 1t-43 2q-43 3 -76 3h-115v60l67 11v413l-67 13v59h122zM416.5 352q26.5 28 26.5 71q0 38 -24.5 57t-86.5 19q-55 0 -79 -1v-174h78
q59 0 85.5 28zM285.5 60q24.5 -2 44.5 -2q77 0 109 25.5t32 77.5t-31 77.5t-99 25.5h-88v-199q8 -3 32.5 -5z" />
    <glyph glyph-name="uni0433" unicode="&#x433;" horiz-adv-x="519" 
d="M497 556l5 -220h-82l-28 150l-137 8v-425l131 -9v-60h-349v60l76 9v415l-74 14v58h458z" />
    <glyph glyph-name="uni0434" unicode="&#x434;" horiz-adv-x="654" 
d="M628 18q-12 -173 -19 -215h-76q-4 33 -16 109t-18 88h-363q-6 -13 -23 -92t-21 -105h-85l8 263h58q43 18 70.5 118.5t27.5 299.5l-94 13v59h553v-59l-87 -13v-420h88zM227 205.5q-19 -101.5 -45 -141.5h219v423h-155v-55q0 -125 -19 -226.5z" />
    <glyph glyph-name="uni0435" unicode="&#x435;" horiz-adv-x="550" 
d="M100.5 66.5q-64.5 77.5 -64.5 211.5q0 90 33.5 156t94.5 101t141 35q100 0 154 -52.5t56 -149.5q0 -66 -8 -98h-325q4 -91 43 -141.5t111 -50.5q39 0 80.5 13t65.5 31l25 -55q-27 -29 -87.5 -53.5t-122.5 -24.5q-132 0 -196.5 77.5zM375 330q2 28 2 43q0 133 -89 133
q-49 0 -76 -39t-30 -137h193z" />
    <glyph glyph-name="uni0436" unicode="&#x436;" horiz-adv-x="980" 
d="M812.5 252q30.5 -39 66.5 -102q22 -38 35 -56.5t26 -23.5l42 -9v-61h-145q-29 0 -51.5 32t-51.5 96q-33 68 -56 100.5t-54 32.5h-65v-191l86 -10v-60h-300v60l75 10v192l-64 -1q-31 0 -54 -32.5t-56 -100.5q-29 -64 -51.5 -96t-51.5 -32h-145v61l42 10q13 5 26.5 24
t35.5 57q37 63 66.5 101t69.5 56l-136 175l-77 13v59h258v-59l-74 -13l111 -164h100v164l-66 13v59h277l1 -59l-73 -13v-164h100l112 164l-74 13v59h258v-59l-78 -13l-136 -175q41 -18 71.5 -57z" />
    <glyph glyph-name="uni0437" unicode="&#x437;" horiz-adv-x="550" 
d="M134 551q34 8 64.5 12t70.5 4q115 0 170.5 -35t55.5 -100q0 -43 -30.5 -78t-83.5 -55q70 -7 107 -42t37 -90q0 -83 -64 -129t-192 -46q-76 0 -128 11t-99 26l10 131h83l18 -78q12 -14 38.5 -21.5t58.5 -7.5q60 0 88 29.5t28 74.5q0 99 -103 98q-12 -1 -30 -4t-30 -6l1 74
l42 6q47 7 74 34t27 70q0 40 -22.5 58.5t-73.5 18.5q-37 0 -63 -12t-35 -27l-13 -81h-90v154q31 0 84 11z" />
    <glyph glyph-name="uni0438" unicode="&#x438;" horiz-adv-x="758" 
d="M331 556v-59l-77 -13v-302l56 74l194 207v21l-67 13v59h277v-59l-68 -13v-415l71 -9v-60h-288v60l75 9v307l-58 -83l-192 -203v-23l66 -7v-60h-277v60l70 9v415l-68 13v59h286z" />
    <glyph glyph-name="uni0439" unicode="&#x439;" horiz-adv-x="758" 
d="M331 556v-59l-77 -13v-302l56 74l194 207v21l-67 13v59h277v-59l-68 -13v-415l71 -9v-60h-288v60l75 9v307l-58 -83l-192 -203v-23l66 -7v-60h-277v60l70 9v415l-68 13v59h286zM288 802q0 -42 23 -71t69 -29t68 29t22 71q0 43 16 43h95q1 -6 1 -24q0 -80 -53.5 -128.5
t-149.5 -48.5q-93 0 -148 49t-55 128l1 24h95q16 0 16 -43z" />
    <glyph glyph-name="uni043A" unicode="&#x43a;" horiz-adv-x="673" 
d="M505 253.5q30 -39.5 65 -101.5q21 -38 35 -57.5t27 -24.5l43 -9v-61h-145q-28 0 -50 31.5t-53 95.5q-31 66 -55 100t-55 34h-63v-192l82 -9v-60h-293v60l70 9v415l-68 13v59h277v-59l-68 -13v-164h98l111 164l-74 13v59h258v-59l-77 -13l-135 -174q40 -17 70 -56.5z" />
    <glyph glyph-name="uni043B" unicode="&#x43b;" horiz-adv-x="633" 
d="M211 206q-16 -98 -39 -143q-14 -33 -39 -51.5t-69 -18.5q-24 0 -52 7l-8 91q23 -5 65 -5q26 0 45.5 50t31 140.5t11.5 207.5l-91 13v59h540v-60l-87 -14v-413l83 -9v-60h-301v60l77 9v417h-151v-50q0 -132 -16 -230z" />
    <glyph glyph-name="uni043C" unicode="&#x43c;" horiz-adv-x="916" 
d="M330 556l104 -299l29 -93l26 93l99 299h280v-59l-93 -13l68 -415l73 -9v-60h-294v60l76 9l-33 289l-18 141l-43 -139l-113 -324h-105l-121 326l-46 137l-14 -138l-38 -293l85 -8v-60h-250v60l76 9l67 415l-94 13v59h279z" />
    <glyph glyph-name="uni043D" unicode="&#x43d;" horiz-adv-x="747" 
d="M328 556v-59l-73 -13v-163h236v163l-73 13v59h284v-59l-69 -13v-415l70 -9v-60h-287v60l75 9v186h-236v-186l74 -9v-60h-286v60l71 9v415l-71 13v59h285z" />
    <glyph glyph-name="uni043E" unicode="&#x43e;" horiz-adv-x="629" 
d="M82.5 437q37.5 66 100.5 99.5t137 33.5q126 0 194.5 -77.5t68.5 -210.5q0 -95 -37.5 -161.5t-100 -99t-137.5 -32.5q-125 0 -194 77.5t-69 210.5q0 94 37.5 160zM429 272q0 114 -27 173.5t-88 59.5q-116 0 -116 -218q0 -114 28.5 -173.5t89.5 -59.5q113 0 113 218z" />
    <glyph glyph-name="uni043F" unicode="&#x43f;" horiz-adv-x="724" 
d="M679 556v-59l-68 -13v-414l68 -10v-60h-279v60l69 10v421h-213v-421l66 -10v-60h-276v60l68 10v414l-70 13v59h635z" />
    <glyph glyph-name="uni0440" unicode="&#x440;" horiz-adv-x="635" 
d="M563.5 142q-34.5 -70 -101 -111.5t-158.5 -41.5q-20 0 -41.5 3.5t-34.5 8.5l3 -83v-91l93 -12v-57h-297v57l65 12v634l-65 18v69l165 21h2l25 -20v-56q25 31 68 54t94 23q95 0 156 -67.5t61 -206.5q0 -84 -34.5 -154zM272 474q-27 -13 -41 -29v-371q7 -10 28.5 -17
t47.5 -7q65 0 103.5 56.5t38.5 177.5q0 102 -33 152.5t-87 50.5q-30 0 -57 -13z" />
    <glyph glyph-name="uni0441" unicode="&#x441;" horiz-adv-x="519" 
d="M66.5 428q34.5 67 99 104.5t150.5 37.5q40 0 69 -6t65 -16l29 -8l-6 -171h-87l-25 110q-6 26 -59 26q-56 0 -87.5 -49t-32.5 -153q0 -110 38 -168.5t101 -58.5q76 0 140 41l23 -52q-26 -28 -79.5 -52t-115.5 -24q-128 0 -192.5 79t-64.5 207q0 86 34.5 153z" />
    <glyph glyph-name="uni0442" unicode="&#x442;" horiz-adv-x="649" 
d="M610 556l9 -228h-86l-30 158l-106 8v-424l132 -10v-60h-404v60l130 10v424l-112 -8l-29 -158h-86l8 228h574z" />
    <glyph glyph-name="uni0443" unicode="&#x443;" horiz-adv-x="573" 
d="M95.5 -246q-20.5 3 -29.5 7v107q7 -4 28 -8t38 -4q50 0 82.5 33t60.5 111h-54l-188 485l-45 13v58h275v-58l-73 -12l89 -277l36 -118l31 118l82 277l-63 12v58h217v-58l-49 -12q-55 -168 -109 -324t-63 -175q-32 -84 -61 -134t-69 -76t-97 -26q-18 0 -38.5 3z" />
    <glyph glyph-name="uni0444" unicode="&#x444;" horiz-adv-x="907" 
d="M253 -12q-61 0 -109.5 29t-77.5 91t-29 156q0 89 31.5 158t92.5 108t145 39q21 0 44 -5.5t38 -12.5l-3 80v102l-75 12v53l181 22l30 -18v-171l-2 -113q51 51 134 51q61 0 110 -29t78 -91t29 -156q0 -89 -32 -158t-92.5 -108t-144.5 -39q-23 0 -44.5 5t-34.5 13l2 -64
v-114l83 -13v-58h-302v58l80 13v114l3 98q-49 -52 -135 -52zM360 497q-18 9 -42 9q-58 0 -95.5 -57.5t-37.5 -175.5q0 -102 34 -155t88 -53q26 0 46 7t32 18v389q-7 9 -25 18zM547 62q19 -9 42 -9q58 0 95.5 56t37.5 174q0 102 -34.5 156.5t-88.5 54.5q-26 0 -46 -6.5
t-32 -17.5v-390q7 -9 26 -18z" />
    <glyph glyph-name="uni0445" unicode="&#x445;" horiz-adv-x="605" 
d="M228 273l-165 213l-52 12v58h289v-58l-65 -12l79 -111l26 -42l26 42l81 111l-68 12v58h217v-58l-57 -12l-158 -194l173 -224l55 -9v-59h-289v59l59 10l-77 117l-30 44l-24 -43l-82 -118l77 -10v-59h-240v59l64 10z" />
    <glyph glyph-name="uni0446" unicode="&#x446;" horiz-adv-x="723" 
d="M703 -77.5q-9 -86.5 -15 -119.5h-76q-3 33 -12 109t-14 88h-539v60l67 10v415l-68 12v59h281v-59l-71 -12v-420h214v419l-70 13v59h276v-59l-64 -13v-419h104q-4 -56 -13 -142.5z" />
    <glyph glyph-name="uni0447" unicode="&#x447;" horiz-adv-x="663" 
d="M380 213q-28 -13 -60 -19.5t-69 -6.5q-100 0 -146 48t-46 165v84l-55 13v59h256v-59l-57 -13v-59q0 -70 8 -104.5t30 -48t66 -13.5q33 0 61.5 9t46.5 21v195l-68 13v59h274v-59l-66 -13v-414l67 -10v-60h-296v60l89 10v159q-7 -3 -35 -16z" />
    <glyph glyph-name="uni0448" unicode="&#x448;" horiz-adv-x="1021" 
d="M325 556v-59l-73 -13v-420h189v420l-71 13v59h278v-59l-69 -13v-420h190v420l-72 13v59h282v-59l-71 -13v-415l79 -11v-58h-949v58l75 11v414l-73 14v59h285z" />
    <glyph glyph-name="uni0449" unicode="&#x449;" horiz-adv-x="1019" 
d="M996 -79q-9 -88 -14 -119h-76l-2 22q-1 12 -10 87.5t-15 88.5h-841v58l75 11v414l-73 14v59h285v-59l-73 -13v-420h189v420l-71 13v59h278v-59l-69 -13v-420h190v420l-72 13v59h282v-59l-71 -13v-419h101q-4 -56 -13 -144z" />
    <glyph glyph-name="uni044A" unicode="&#x44a;" horiz-adv-x="744" 
d="M447 340l61 1q113 0 168 -43.5t55 -124.5q0 -182 -243 -182q-12 0 -80 4q-19 1 -52 3t-46 2h-185v60l125 10v423l-118 -4l-24 -165h-80l-1 232h454v-61l-92 -12v-144q36 0 58 1zM457 53q127 0 127 109q0 54 -28.5 83.5t-88.5 29.5l-78 -1v-213q40 -8 68 -8z" />
    <glyph glyph-name="uni044B" unicode="&#x44b;" horiz-adv-x="922" 
d="M358 341q112 0 167 -42.5t55 -123.5q0 -93 -62 -138.5t-178 -45.5q-14 0 -84 4q-62 5 -93 5h-128v58l79 11v414l-77 14v59h300v-61l-84 -12v-144q66 2 105 2zM873 556v-60l-63 -12v-415l71 -9v-60h-274v60l65 10v414l-68 12v60h269zM272.5 55q15.5 -2 36.5 -2
q125 0 125 111t-118 111h-63v-218q4 0 19.5 -2z" />
    <glyph glyph-name="uni044C" unicode="&#x44c;" horiz-adv-x="607" 
d="M309 340l60 1q112 0 167 -42.5t55 -123.5q0 -93 -61.5 -138.5t-177.5 -45.5q-13 0 -83 4q-62 5 -94 5h-139v58l78 11v415l-75 12v60h302v-60l-88 -12v-145q35 0 56 1zM320 53q125 0 125 111t-117 111q-53 0 -75 -1v-215q28 -6 67 -6z" />
    <glyph glyph-name="uni044D" unicode="&#x44d;" horiz-adv-x="531" 
d="M122.5 562q55.5 9 101.5 9q79 0 142.5 -33.5t100.5 -99t37 -158.5q0 -89 -32.5 -154.5t-92.5 -101t-139 -35.5q-64 0 -115.5 15.5t-81.5 40.5l-4 104h68l22 -76q40 -18 82 -18q131 0 142 193l-206 -5v81l206 -6q-4 92 -38.5 141.5t-92.5 49.5q-51 0 -80 -29l-17 -67h-80
l-1 130q23 10 78.5 19z" />
    <glyph glyph-name="uni044E" unicode="&#x44e;" horiz-adv-x="944" 
d="M425 457q39 56 98 84.5t127 28.5q125 0 193 -76.5t68 -211.5q0 -96 -37.5 -162t-99.5 -98.5t-137 -32.5q-120 0 -187.5 70t-73.5 194h-120v-183l80 -10v-60h-295v60l73 10v414l-71 13v59h289v-59l-76 -13v-163h121q9 80 48 136zM557 455q-29 -52 -29 -164
q0 -118 28 -178.5t89 -60.5q56 0 84 52.5t28 165.5q0 118 -26.5 177.5t-87.5 59.5q-57 0 -86 -52z" />
    <glyph glyph-name="uni044F" unicode="&#x44f;" horiz-adv-x="672" 
d="M281 179.5q-13 -27.5 -29 -75.5q-18 -53 -31.5 -78.5t-32.5 -25.5h-165v60l40 10q25 7 42 29.5t37 62.5q14 27 24 43t22 26q-62 17 -93 59t-31 105q0 82 65.5 125t193.5 43q45 0 115 -4q41 -3 69 -3h120v-60l-68 -12v-414l72 -10v-60h-290v60l78 10v150h-107
q-18 -13 -31 -40.5zM340 503q-56 0 -89.5 -22t-33.5 -77q0 -56 29.5 -90.5t94.5 -34.5t78 2v217q-33 5 -79 5z" />
    <glyph glyph-name="uni0450" unicode="&#x450;" horiz-adv-x="550" 
d="M100.5 66.5q-64.5 77.5 -64.5 211.5q0 90 33.5 156t94.5 101t141 35q100 0 154 -52.5t56 -149.5q0 -66 -8 -98h-325q4 -91 43 -141.5t111 -50.5q39 0 80.5 13t65.5 31l25 -55q-27 -29 -87.5 -53.5t-122.5 -24.5q-132 0 -196.5 77.5zM375 330q2 28 2 43q0 133 -89 133
q-49 0 -76 -39t-30 -137h193zM255.5 684q-42.5 32 -82 69t-54.5 63l86 77l169 -208l-50 -43h-1q-25 10 -67.5 42z" />
    <glyph glyph-name="uni0451" unicode="&#x451;" horiz-adv-x="550" 
d="M100.5 66.5q-64.5 77.5 -64.5 211.5q0 90 33.5 156t94.5 101t141 35q100 0 154 -52.5t56 -149.5q0 -66 -8 -98h-325q4 -91 43 -141.5t111 -50.5q39 0 80.5 13t65.5 31l25 -55q-27 -29 -87.5 -53.5t-122.5 -24.5q-132 0 -196.5 77.5zM375 330q2 28 2 43q0 133 -89 133
q-49 0 -76 -39t-30 -137h193zM120 669q-18 21 -18 52q0 38 19.5 62t57.5 24q35 0 52.5 -21t17.5 -52q0 -39 -18.5 -62.5t-60.5 -23.5q-32 0 -50 21zM360 670q-18 22 -18 51q0 38 19.5 62t57.5 24q35 0 52.5 -21t17.5 -52q0 -39 -19 -62.5t-61 -23.5q-31 0 -49 22z" />
    <glyph glyph-name="uni0452" unicode="&#x452;" horiz-adv-x="665" 
d="M312.5 505.5q53.5 22.5 110.5 22.5q60 0 95 -22t50.5 -70t15.5 -129v-297q0 -125 -53 -194t-153 -72q-11 -1 -30.5 0t-23.5 3l-4 61q8 -2 25 1.5t27 7.5q40 15 54 66.5t14 138.5v285q0 75 -18 105t-69 30q-55 0 -120 -49v-324l61 -9v-60h-258v60l57 9v531h-89v57h89v78
l-76 12v54l188 22h2l26 -19v-147h119v-57h-118v-41l-6 -106q31 30 84.5 52.5z" />
    <glyph glyph-name="uni0453" unicode="&#x453;" horiz-adv-x="519" 
d="M497 556l5 -220h-82l-28 150l-137 8v-425l131 -9v-60h-349v60l76 9v415l-74 14v58h458zM166 686l169 208l88 -77q-24 -40 -93.5 -98t-112.5 -76z" />
    <glyph glyph-name="uni0454" unicode="&#x454;" horiz-adv-x="528" 
d="M407 4.5q-52 -15.5 -116 -15.5q-133 0 -199 79t-66 218q0 85 39 149.5t105 100t145 35.5q46 0 98.5 -8.5t75.5 -18.5l-3 -131h-80l-19 69q-27 29 -77 29q-59 0 -94 -49t-39 -144l215 5v-80l-214 6q11 -193 143 -193q49 0 79 15l24 78h68l-3 -104q-30 -25 -82 -40.5z" />
    <glyph glyph-name="uni0455" unicode="&#x455;" horiz-adv-x="519" 
d="M156 82q8 -12 36.5 -22.5t57.5 -10.5q47 0 70.5 19.5t23.5 51.5q0 33 -29 53.5t-98 50.5l-28 12q-69 29 -103 70t-34 106q0 45 27 80.5t76 55.5t113 20q47 0 80.5 -6t70.5 -16q20 -7 30 -8v-131h-79l-23 76q-6 10 -27 18t-48 8q-41 0 -65.5 -17.5t-24.5 -48.5
q0 -28 17 -46.5t37 -28.5t74 -33t89.5 -44t59 -54.5t23.5 -81.5q0 -74 -58 -120t-167 -46q-51 0 -91.5 9t-93.5 24l-22 7v132h83z" />
    <glyph glyph-name="uni0456" unicode="&#x456;" horiz-adv-x="347" 
d="M107 668q-21 21 -21 54q0 38 24 63t64 25t61 -21.5t21 -53.5q0 -40 -24 -64t-67 -24h-1q-36 0 -57 21zM111 461l-71 19v67l183 22h2l28 -20v-481l67 -8v-60h-279v60l70 9v392z" />
    <glyph glyph-name="uni0457" unicode="&#x457;" horiz-adv-x="347" 
d="M111 461l-71 19v67l183 22h2l28 -20v-481l67 -8v-60h-279v60l70 9v392zM-1 669q-18 21 -18 52q0 38 19.5 62t57.5 24q35 0 52.5 -21t17.5 -52q0 -39 -18.5 -62.5t-60.5 -23.5q-32 0 -50 21zM239 670q-18 22 -18 51q0 38 19.5 62t57.5 24q35 0 52.5 -21t17.5 -52
q0 -39 -19 -62.5t-61 -23.5q-31 0 -49 22z" />
    <glyph glyph-name="uni0458" unicode="&#x458;" horiz-adv-x="330" 
d="M109.5 668q-20.5 21 -20.5 54q0 38 24 63t64 25t60.5 -21.5t20.5 -53.5q0 -40 -23.5 -64t-67.5 -24h-1q-36 0 -56.5 21zM38 547l181 22h2l27 -20v-540q0 -78 -29 -134.5t-73.5 -86t-90.5 -31.5q-50 0 -61 4l-7 57q26 0 52 11q38 16 54.5 68t16.5 140l-1 422l-71 19v69z
" />
    <glyph glyph-name="uni0459" unicode="&#x459;" horiz-adv-x="874" 
d="M640 339q114 0 167.5 -41t53.5 -124q0 -94 -54.5 -138.5t-169.5 -44.5q-10 0 -78 4q-19 1 -54.5 3t-49.5 2h-152v60l76 9v417h-151v-50q0 -131 -17 -229t-40 -144q-14 -34 -38.5 -52t-68.5 -18q-24 0 -52 7l-8 91q23 -5 65 -5q26 0 46 50.5t32 140.5t12 207l-92 13v59
h541v-60l-87 -14v-156q62 13 119 13zM596 55q122 0 122 110q0 59 -29.5 82.5t-91.5 23.5q-36 0 -76 -10v-199q26 -7 75 -7z" />
    <glyph glyph-name="uni045A" unicode="&#x45a;" horiz-adv-x="986" 
d="M685.5 334q32.5 5 67.5 5q116 0 168.5 -41.5t52.5 -124.5q0 -93 -58.5 -137.5t-174.5 -44.5q-12 0 -84 4q-67 5 -101 5h-138v59l76 9v187h-241v-186l76 -9v-60h-286v60l71 9v415l-71 13v59h284v-59l-74 -13v-164h241v164l-75 13v59h284v-59l-69 -13v-160q19 5 51.5 10z
M709 55q63 0 92 27t29 82q0 59 -29.5 83t-91.5 24q-39 0 -75 -12v-197q25 -7 75 -7z" />
    <glyph glyph-name="uni045B" unicode="&#x45b;" horiz-adv-x="676" 
d="M311 506q52 24 111 24q63 0 98 -23.5t49 -72t14 -128.5v-237l64 -9v-60h-262v60l57 9v237q0 52 -6.5 80.5t-25 42.5t-54.5 14q-32 0 -64.5 -14.5t-57.5 -34.5v-325l62 -9v-60h-259v60l54 8v525h-78v61h78v77l-75 13v54l186 22h3l26 -19l1 -147h127v-61h-127v-53l-7 -87
q34 29 86 53z" />
    <glyph glyph-name="uni045C" unicode="&#x45c;" horiz-adv-x="673" 
d="M505 253.5q30 -39.5 65 -101.5q21 -38 35 -57.5t27 -24.5l43 -9v-61h-145q-28 0 -50 31.5t-53 95.5q-31 66 -55 100t-55 34h-63v-192l82 -9v-60h-293v60l70 9v415l-68 13v59h277v-59l-68 -13v-164h98l111 164l-74 13v59h258v-59l-77 -13l-135 -174q40 -17 70 -56.5z
M243 686l169 208l88 -77q-24 -40 -93.5 -98t-112.5 -76z" />
    <glyph glyph-name="uni045D" unicode="&#x45d;" horiz-adv-x="758" 
d="M331 556v-59l-77 -13v-302l56 74l194 207v21l-67 13v59h277v-59l-68 -13v-415l71 -9v-60h-288v60l75 9v307l-58 -83l-192 -203v-23l66 -7v-60h-277v60l70 9v415l-68 13v59h286zM339.5 684q-42.5 32 -82 69t-54.5 63l86 77l169 -208l-50 -43h-1q-25 10 -67.5 42z" />
    <glyph glyph-name="uni045E" unicode="&#x45e;" horiz-adv-x="573" 
d="M95.5 -246q-20.5 3 -29.5 7v107q7 -4 28 -8t38 -4q50 0 82.5 33t60.5 111h-54l-188 485l-45 13v58h275v-58l-73 -12l89 -277l36 -118l31 118l82 277l-63 12v58h217v-58l-49 -12q-55 -168 -109 -324t-63 -175q-32 -84 -61 -134t-69 -76t-97 -26q-18 0 -38.5 3zM211 802
q0 -42 23 -71t69 -29t68 29t22 71q0 43 16 43h95q1 -6 1 -24q0 -80 -53.5 -128.5t-149.5 -48.5q-93 0 -148 49t-55 128l1 24h95q16 0 16 -43z" />
    <glyph glyph-name="uni045F" unicode="&#x45f;" horiz-adv-x="721" 
d="M418 -82.5q-8 -77.5 -8 -106.5h-83q0 27 -11.5 104t-15.5 85h-252v60l65 10v414l-67 13v59h276v-59l-70 -13v-420h215v420l-69 13v59h274v-59l-65 -13v-414l68 -10v-60h-246q-3 -5 -11 -82.5z" />
    <glyph glyph-name="uni0462" unicode="&#x462;" horiz-adv-x="786" 
d="M518 414q126 0 187.5 -55t61.5 -144q0 -105 -73 -163.5t-198 -58.5q-21 0 -64 3q-76 4 -105 4h-177v60l96 10v515l-146 -12l-28 -73h-74l13 149h235v95l-84 14v57h319v-57l-89 -15v-94h244l15 -149h-84l-26 73l-149 12v-183q50 12 126 12zM461 54q77 0 117.5 41t40.5 109
q0 66 -37 105.5t-107 39.5q-62 0 -83 -5v-283q22 -7 69 -7z" />
    <glyph glyph-name="uni0463" unicode="&#x463;" horiz-adv-x="732" 
d="M436 339.5q35 4.5 72 4.5q210 0 210 -166q0 -94 -54 -140.5t-166 -46.5q-12 0 -80 4q-20 1 -53.5 3t-46.5 2h-144v55l71 13v435l-116 -3l-27 -103h-76l5 165h214v170l-73 11v55l184 22h2l26 -19v-239h230l5 -165h-75l-30 103l-130 3v-173q17 5 52 9.5zM456 53
q58 0 87.5 32t29.5 88q0 108 -106 108q-40 0 -82 -13l-1 -208q28 -7 72 -7z" />
    <glyph glyph-name="uni046A" unicode="&#x46a;" horiz-adv-x="1074" 
d="M355.5 296q-31.5 -48 -74.5 -139q-37 -79 -62 -118t-50 -39h-158v60l40 11q12 3 27.5 26.5t40.5 69.5q38 68 70 115.5t74.5 83t90.5 35.5h85l-248 287l5 55h683l5 -55l-248 -287h83q50 0 93 -35.5t74 -82t70 -116.5q25 -47 40 -70t27 -26l41 -11v-60h-160
q-24 0 -48.5 38.5t-61.5 116.5q-43 92 -75.5 140.5t-67.5 48.5h-44v-273l89 -12v-59h-314v60l85 10v274h-45q-35 0 -66.5 -48zM537 400l206 258h-412z" />
    <glyph glyph-name="uni046B" unicode="&#x46b;" horiz-adv-x="994" 
d="M313 222.5q-24 -32.5 -56 -96.5q-33 -64 -55.5 -95t-51.5 -31h-145v61l42 10q11 4 24 21.5t34 50.5q34 52 60.5 85.5t63.5 59t79 25.5h83l-202 196l5 47h606l5 -47l-202 -196h83q42 0 79 -26t63.5 -60t60.5 -86q22 -35 34.5 -51.5t23.5 -19.5l42 -9v-61h-145
q-29 0 -51.5 31t-54.5 94q-32 64 -56.5 97t-55.5 34h-59v-186l85 -10v-60h-300v60l76 10v186h-60q-31 -1 -55 -33.5zM496 313h3l153 162h-310z" />
    <glyph glyph-name="uni0472" unicode="&#x472;" horiz-adv-x="728" 
d="M111 91q-81 102 -81 278q0 115 42.5 202t119.5 134t177 47q166 0 248 -97.5t82 -272.5q0 -117 -43.5 -206t-121.5 -138t-179 -49q-163 0 -244 102zM286 450q25 0 47.5 -8.5t51.5 -24.5q24 -13 41 -20t34 -7q22 0 39 10t36 27q-15 264 -170 264q-78 0 -123.5 -71.5
t-49.5 -211.5q42 42 94 42zM487.5 128.5q44.5 78.5 47.5 223.5q-43 -41 -93 -41q-26 0 -49.5 8.5t-51.5 24.5q-23 13 -40 19.5t-33 6.5q-24 0 -41 -10.5t-35 -27.5q6 -139 50 -210.5t121 -71.5q80 0 124.5 78.5z" />
    <glyph glyph-name="uni0473" unicode="&#x473;" horiz-adv-x="608" 
d="M504.5 492.5q68.5 -77.5 68.5 -210.5q0 -95 -37.5 -161.5t-100 -99t-137.5 -32.5q-125 0 -194 77.5t-69 210.5q0 94 38 160t101 99.5t137 33.5q125 0 193.5 -77.5zM222.5 460.5q-29.5 -44.5 -33.5 -134.5q30 13 55 13t42 -8t38 -22q19 -13 31.5 -19t29.5 -6t34 7
q-2 106 -29 160t-86 54q-52 0 -81.5 -44.5zM189 260q4 -101 32 -153.5t85 -52.5q99 0 112 166q-19 -9 -44 -9t-43.5 8t-40.5 23q-18 13 -31 19.5t-31 6.5q-23 0 -39 -8z" />
    <glyph glyph-name="uni0474" unicode="&#x474;" horiz-adv-x="686" 
d="M562.5 718q36.5 30 83.5 30q51 0 72 -8v-72h-6q-42 0 -72 -28t-48 -98l-187 -549h-118l-248 675l-61 13v62h303v-62l-83 -13l144 -445l29 -105l25 105l116 398q14 67 50.5 97z" />
    <glyph glyph-name="uni0475" unicode="&#x475;" horiz-adv-x="573" 
d="M465.5 534q27.5 25 69.5 25q47 0 68 -7v-57q-22 0 -38 -9q-29 -16 -59 -99l-148 -395h-126l-197 493l-42 12v59h263v-59l-65 -12l90 -276l36 -117l35 121l70 240q16 56 43.5 81z" />
    <glyph glyph-name="uni048A" unicode="&#x48a;" horiz-adv-x="851" 
d="M356 743v-62l-92 -13v-466l67 112l255 330v24l-84 13v62h306v-62l-77 -13v-598l80 -10v-60h-309v60l84 10v472l-60 -108l-262 -333v-31l89 -10v-60h-312v60l79 10v598l-77 13v62h313zM344 936q0 -38 21 -58.5t69 -20.5q47 0 67.5 20.5t20.5 58.5q0 18 3.5 32.5t12.5 14.5
h98l1 -27q0 -74 -54 -114t-150 -40q-94 0 -148.5 40.5t-54.5 113.5l1 27h97q16 0 16 -47zM801 -90q-44 -100 -50 -108h-83q10 21 25 77t26 99l6 22h-22l29 69h109v-69q-11 -19 -40 -90z" />
    <glyph glyph-name="uni048B" unicode="&#x48b;" horiz-adv-x="758" 
d="M331 556v-59l-77 -13v-302l56 74l194 207v21l-67 13v59h277v-59l-68 -13v-415l71 -9v-60h-288v60l75 9v307l-58 -83l-192 -203v-23l66 -7v-60h-277v60l70 9v415l-68 13v59h286zM288 802q0 -42 23 -71t69 -29t68 29t22 71q0 43 16 43h95q1 -6 1 -24q0 -80 -53.5 -128.5
t-149.5 -48.5q-93 0 -148 49t-55 128l1 24h95q16 0 16 -43zM640 -196h-75q22 65 59 196h-17l8 70h119v-70q-54 -116 -94 -196z" />
    <glyph glyph-name="uni048C" unicode="&#x48c;" horiz-adv-x="667" 
d="M396 449q125 0 189 -57t64 -160q0 -75 -35 -129t-95.5 -82.5t-137.5 -28.5q-22 0 -84 4q-72 4 -113 4h-144v60l79 10v461h-94v60h94v78l-77 14v60h325v-60l-102 -14v-78h132v-60h-132v-84q48 2 131 2zM347 56q76 0 113 45.5t37 122.5q0 158 -144 158l-88 -1v-317
q34 -8 82 -8z" />
    <glyph glyph-name="uni048D" unicode="&#x48d;" horiz-adv-x="587" 
d="M347 341q113 0 169 -42.5t56 -122.5q0 -92 -59.5 -138.5t-174.5 -46.5q-11 0 -77 4q-18 1 -51.5 3t-47.5 2h-136v58l63 10v424h-88v65h88v176l-76 12v53l184 22h2l28 -18v-245h118v-65h-118v-164q46 13 120 13zM298 53q63 0 95 29t32 83q0 52 -29.5 81t-89.5 29
q-51 0 -79 -8l1 -207q26 -7 70 -7z" />
    <glyph glyph-name="uni048E" unicode="&#x48e;" horiz-adv-x="661" 
d="M260 745q58 4 105 4q104 0 164.5 -25.5t86 -73t25.5 -120.5q0 -77 -30 -133.5t-87 -89.5l80 -91l-44 -35l-89 101q-55 -18 -126 -18q-55 0 -79 3v-197l134 -10v-60h-360v60l79 10v598l-75 13v62h151q21 0 65 2zM491 527q0 84 -36.5 122.5t-111.5 38.5q-28 0 -58 -4
q-14 -2 -20 -2v-351q23 -5 78 -5q40 0 69 20l-72 82l43 35l66 -74q42 47 42 138z" />
    <glyph glyph-name="uni048F" unicode="&#x48f;" horiz-adv-x="636" 
d="M288 547q43 23 95 23q95 0 156 -67.5t61 -206.5q0 -64 -21 -121.5t-61 -99.5l73 -74l-44 -47l-79 80q-68 -45 -163 -45q-20 0 -41.5 3.5t-34.5 8.5l3 -83v-91l93 -12v-57h-297v57l66 12v634l-65 18v69l164 21h3l24 -20v-56q25 31 68 54zM451 284q0 102 -33.5 152.5
t-87.5 50.5q-30 0 -56.5 -13t-41.5 -29v-371q7 -10 29 -17t48 -7q58 0 93 44l-79 75l45 46l61 -60q22 56 22 129z" />
    <glyph glyph-name="uni0490" unicode="&#x490;" horiz-adv-x="564" 
d="M551 918l-9 -248l-269 7v-606l163 -12v-59h-416v59l106 12v597l-105 14v61h417l35 175h78z" />
    <glyph glyph-name="uni0491" unicode="&#x491;" horiz-adv-x="505" 
d="M477 713l6 -226l-229 4v-421l135 -10v-60h-349v60l76 10v414l-74 12v60h340l18 157h77z" />
    <glyph glyph-name="uni0492" unicode="&#x492;" horiz-adv-x="597" 
d="M575 743l12 -281h-86l-34 207l-184 10v-299h154v-67h-154v-242l164 -12v-59h-420v59l109 12v242h-92v67h92v287l-107 15v61h546z" />
    <glyph glyph-name="uni0493" unicode="&#x493;" horiz-adv-x="519" 
d="M499 556l5 -220h-81l-28 150l-137 8v-230h118v-67h-118v-128l131 -9v-60h-349v60l76 9v128h-89v67h89v220l-74 14v58h457z" />
    <glyph glyph-name="uni0494" unicode="&#x494;" horiz-adv-x="721" 
d="M349 416.5q52 12.5 88 12.5q127 0 185.5 -63t58.5 -195q0 -111 -31.5 -196t-90.5 -131.5t-137 -46.5q-25 0 -47 4.5t-35 9.5l-5 66q26 -7 65 -7q67 0 99.5 71t32.5 211q0 107 -29 154t-100 47q-73 0 -130 -31v-252l127 -10v-60h-383v60l109 11v596l-106 15v61h547l9 -207
h-86l-30 132l-187 11v-290q24 15 76 27.5z" />
    <glyph glyph-name="uni0495" unicode="&#x495;" horiz-adv-x="656" 
d="M312.5 277.5q41.5 10.5 78.5 10.5q124 0 180.5 -50.5t56.5 -163.5q0 -156 -67 -240.5t-187 -84.5q-45 0 -81 14l-5 65q20 -6 64 -6q69 0 101 56.5t32 178.5q0 86 -28 121t-98 35q-30 0 -60 -7.5t-45 -18.5v-118l105 -9v-60h-319v60l76 9v415l-74 12v60h454l4 -204h-75
l-29 134l-142 8v-239q17 12 58.5 22.5z" />
    <glyph glyph-name="uni0496" unicode="&#x496;" horiz-adv-x="1071" 
d="M851 323.5q41 -55.5 90 -146.5q28 -52 44 -76.5t29 -29.5h64q0 -30 -11.5 -143.5t-14.5 -124.5h-81q0 28 -8 105t-15 92h-52q-24 0 -48.5 38.5t-61.5 116.5q-43 92 -75.5 140.5t-67.5 48.5h-44v-273l89 -12v-59h-314v60l85 10v274h-45q-35 0 -66.5 -48t-74.5 -139
q-37 -79 -62 -118t-50 -39h-158v60l40 11q13 4 29 28t45 78q50 92 90.5 147.5t90.5 71.5l-197 272l-82 13v62h261v-62l-72 -13l176 -268h75v268l-82 13v62h305v-62l-83 -13v-268h75l175 268l-72 13v62h263v-62l-83 -13l-198 -273q51 -16 92 -71.5z" />
    <glyph glyph-name="uni0497" unicode="&#x497;" horiz-adv-x="982" 
d="M812 252q31 -40 67 -102q20 -36 33.5 -55t25.5 -24h57q0 -28 -11 -143t-15 -126h-80q-2 72 -5.5 124t-16.5 74h-30q-29 0 -51.5 32t-51.5 96q-33 68 -56 100.5t-54 32.5h-65v-191l86 -10v-60h-300v60l75 10v192l-64 -1q-31 0 -54 -32.5t-56 -100.5q-29 -64 -51.5 -96
t-51.5 -32h-145v61l42 10q13 5 26.5 24t35.5 57q37 63 66.5 101t69.5 56l-136 175l-77 13v59h258v-59l-74 -13l111 -164h100v164l-66 13v59h277l1 -59l-73 -13v-164h100l112 164l-74 13v59h258v-59l-78 -13l-136 -175q40 -17 71 -57z" />
    <glyph glyph-name="uni0498" unicode="&#x498;" horiz-adv-x="613" 
d="M131 731q50 9 86.5 14.5t67.5 5.5q133 0 203.5 -42.5t70.5 -127.5q0 -80 -50.5 -127.5t-123.5 -61.5q94 -3 144.5 -49.5t50.5 -121.5q0 -99 -55 -156t-181 -68q23 -24 42 -59t19 -74q0 -63 -35 -89t-107 -26q-17 0 -37 4.5t-34 10.5l1 83q20 -7 43 -7q38 0 54.5 13
t16.5 56q0 21 -8.5 44t-20.5 41q-54 0 -95.5 8t-85.5 22q-26 9 -40 11l21 184h71l31 -136q42 -28 114 -28q59 0 89 40.5t30 117.5q0 59 -32 99t-110 40h-66v68h55q61 0 103 37.5t42 112.5q0 61 -34 90.5t-92 29.5q-39 0 -65 -10t-35 -25l-20 -97h-82l-14 162q10 1 68 11z
" />
    <glyph glyph-name="uni0499" unicode="&#x499;" horiz-adv-x="550" 
d="M52 160h83l18 -78q12 -14 38.5 -21.5t58.5 -7.5q60 0 88 29.5t28 74.5q0 99 -103 98q-12 -1 -30 -4t-30 -6l1 74l42 6q47 7 74 34t27 70q0 40 -22.5 58.5t-73.5 18.5q-37 0 -63 -12t-35 -27l-13 -81h-90v154q31 0 84 11q34 8 64.5 12t70.5 4q115 0 170.5 -35t55.5 -100
q0 -43 -30.5 -78t-83.5 -55q70 -7 107 -42t37 -90q0 -75 -52.5 -120t-157.5 -53q22 -22 40.5 -57.5t18.5 -73.5q0 -63 -35.5 -88.5t-106.5 -25.5q-17 0 -37 4.5t-34 10.5l1 83q20 -7 43 -7q38 0 54.5 13t16.5 56q0 38 -26 83q-110 3 -208 37z" />
    <glyph glyph-name="uni049A" unicode="&#x49a;" horiz-adv-x="736" 
d="M515.5 328q41.5 -56 91.5 -149q30 -56 45.5 -79.5t29.5 -28.5h65q-3 -54 -11.5 -136t-14.5 -132h-82q0 26 -8.5 105t-14.5 92h-55q-25 0 -48.5 38t-61.5 119q-42 91 -73.5 139t-66.5 48h-47v-273l89 -12v-59h-311v60l77 11v597l-77 13v62h298v-62l-76 -13v-268h73
l179 268l-75 13v62h264v-62l-83 -13l-199 -271q51 -13 92.5 -69z" />
    <glyph glyph-name="uni049B" unicode="&#x49b;" horiz-adv-x="677" 
d="M505 253.5q30 -39.5 65 -101.5q21 -38 35 -57.5t27 -24.5h57q-3 -54 -11.5 -141.5t-14.5 -125.5h-81q0 25 -9 105t-15 92h-18q-24 0 -46.5 30t-54.5 91q-37 69 -63.5 104.5t-58.5 35.5h-63v-192l82 -9v-60h-293v60l71 9v415l-69 13v59h278v-59l-69 -13v-164h98l112 164
l-75 13v59h258v-59l-77 -13l-135 -174q40 -17 70 -56.5z" />
    <glyph glyph-name="uni049C" unicode="&#x49c;" horiz-adv-x="782" 
d="M594 329.5q37 -54.5 86 -146.5q27 -53 43.5 -80.5t30.5 -31.5l36 -11v-62l-142 2q-33 0 -60.5 45.5t-65.5 133.5q-33 77 -56 118t-49 49h-24v-165h-61v169h-68v-280l89 -11v-59h-311v60l77 11v597l-77 13v62h298v-62l-76 -13v-258h68v144h61v-144h35l143 257l-81 14v62
h268v-62l-80 -12l-165 -266q44 -19 81 -73.5z" />
    <glyph glyph-name="uni049D" unicode="&#x49d;" horiz-adv-x="724" 
d="M544 253.5q28 -36.5 63 -93.5q28 -45 45 -66.5t33 -24.5l42 -12v-57h-149q-27 0 -48.5 32t-51.5 95t-51.5 95t-48.5 35v-124h-68v130h-55v-195l81 -9v-59h-293v59l71 9v418l-69 12v58h286v-58l-76 -12v-167h55v114h68v-114h27l114 167l-76 12v58h261v-58l-77 -12
l-146 -178q35 -18 63 -54.5z" />
    <glyph glyph-name="uni049E" unicode="&#x49e;" horiz-adv-x="722" 
d="M501.5 354.5q31.5 -33.5 55 -74t54.5 -102.5q27 -54 42.5 -78.5t28.5 -28.5l37 -11v-60h-158q-25 0 -48 39t-57 118q-39 90 -69 138.5t-65 48.5h-58v-273l89 -12v-59h-311v60l77 11v449h-80v59h80v89l-77 13v62h298v-62l-76 -13v-89h84v-59h-84v-120h83l169 268l-75 13
v62h264v-62l-83 -13l-188 -271q36 -9 67.5 -42.5z" />
    <glyph glyph-name="uni049F" unicode="&#x49f;" horiz-adv-x="650" 
d="M206 820l27 -19v-122h117v-60h-117v-293l-3 -53l204 214l-74 11v57h261v-57l-81 -13l-123 -118l175 -299l56 -8v-60h-265v60l51 9l-114 211l-90 -91l2 -51v-69l63 -9v-60h-260v60l57 9v550h-84v60h84v52l-72 13v54l185 22h1z" />
    <glyph glyph-name="uni04A0" unicode="&#x4a0;" horiz-adv-x="883" 
d="M685 325.5q39 -54.5 88 -142.5q33 -57 50 -82t30 -30l43 -11v-60h-153q-26 0 -54 41t-68 122q-46 92 -79 139.5t-68 47.5h-43v-280l90 -11v-59h-318v60l84 10v609l-138 -10l-32 -201h-88l12 275h471v-62l-81 -13v-258h86l168 258l-77 13v62h266v-62l-81 -13l-191 -267
q44 -21 83 -75.5z" />
    <glyph glyph-name="uni04A1" unicode="&#x4a1;" horiz-adv-x="821" 
d="M646.5 250.5q30.5 -39.5 68.5 -104.5q20 -36 33 -54t23 -21l47 -11v-60h-144q-29 0 -50.5 32t-50.5 95q-31 67 -54.5 100.5t-54.5 33.5h-64v-192l83 -9v-60h-295v60l72 8v425l-126 -7l-26 -151h-80l4 221h437v-59l-69 -13v-164h98l110 163l-72 14v59h257v-58l-79 -15
l-136 -177q38 -16 68.5 -55.5z" />
    <glyph glyph-name="uni04A2" unicode="&#x4a2;" horiz-adv-x="836" 
d="M807 -72.5q-11 -114.5 -14 -124.5h-81q-1 27 -10 105.5t-14 91.5h-197v60l78 10v271h-304v-271l84 -10v-60h-306v60l76 10v598l-74 13v62h304v-62l-84 -13v-251h304v251l-77 13v62h300v-62l-76 -13v-597h102q0 -29 -11 -143.5z" />
    <glyph glyph-name="uni04A3" unicode="&#x4a3;" horiz-adv-x="747" 
d="M724 -70q-12 -116 -15 -127h-75q-1 5 -10 91t-18 106h-189v60l74 9v186h-236v-186l74 -9v-60h-286v60l71 9v415l-71 13v59h285v-59l-73 -13v-163h236v163l-73 13v59h285v-59l-69 -13v-414h102q0 -24 -12 -140z" />
    <glyph glyph-name="uni04A4" unicode="&#x4a4;" horiz-adv-x="1002" 
d="M352 743v-62l-87 -13v-251h305v251l-82 13v62h474l15 -275h-87l-36 199l-138 12v-609l84 -10v-60h-311v60l81 10v271h-305v-271l87 -10v-60h-313v60l80 10v598l-78 13v62h311z" />
    <glyph glyph-name="uni04A5" unicode="&#x4a5;" horiz-adv-x="873" 
d="M328 556v-59l-73 -13v-163h236v163l-73 13v59h435l6 -225h-85l-28 157l-112 4v-423l70 -9v-60h-287v60l74 9v186h-236v-186l74 -9v-60h-286v60l71 9v415l-71 13v59h285z" />
    <glyph glyph-name="uni04A6" unicode="&#x4a6;" horiz-adv-x="1118" 
d="M758 417q47 12 87 12q127 0 184 -63t57 -197q0 -111 -31 -195t-89 -130.5t-136 -46.5q-25 0 -48 4.5t-34 9.5l-4 68q20 -8 64 -8q67 0 99 70.5t32 210.5q0 107 -29 153.5t-99 46.5q-72 0 -122 -28v-253l86 -11v-60h-308v60l76 10v604h-278v-604l84 -10v-60h-307v60l78 10
v598l-81 13v62h730v-62l-80 -13v-276q22 13 69 25z" />
    <glyph glyph-name="uni04A7" unicode="&#x4a7;" horiz-adv-x="987" 
d="M663 306q34 10 68 10q119 0 176 -52t57 -162q0 -173 -65.5 -263t-186.5 -90q-45 0 -81 14l-5 67q23 -7 64 -7q69 0 99.5 60.5t30.5 201.5q0 79 -28.5 117t-92.5 38q-24 0 -48 -6.5t-40 -17.5v-146l67 -10v-60h-278v60l68 10v421h-213v-421l67 -10v-60h-276v60l67 10v414
l-69 13v59h635v-59l-68 -13v-201q18 13 52 23z" />
    <glyph glyph-name="uni04A8" unicode="&#x4a8;" horiz-adv-x="876" 
d="M402 690q-94 0 -155 -76t-61 -248q0 -109 30 -180t79.5 -103.5t109.5 -32.5q36 0 74 12q-63 30 -105 104t-42 165q0 144 65.5 209.5t162.5 65.5q99 0 165.5 -59t66.5 -201q0 -98 -48.5 -168t-109.5 -107q48 -21 108 -21q62 0 100 25l21 -46q-57 -40 -145 -40
q-96 0 -175 36q-32 -18 -74.5 -27t-86.5 -9q-177 0 -264.5 103t-87.5 272q0 124 47.5 211.5t130 132t184.5 44.5q33 0 71 -6l-9 -62q-25 6 -52 6zM491 494.5q-23 -53.5 -23 -151.5q0 -78 28 -141t74 -96q36 23 57 83t21 156q0 105 -20 154t-68 49q-46 0 -69 -53.5z" />
    <glyph glyph-name="uni04A9" unicode="&#x4a9;" horiz-adv-x="703" 
d="M393.5 502.5q-16.5 3.5 -49.5 3.5q-78 0 -121.5 -57.5t-43.5 -158.5q0 -65 20.5 -119t58.5 -85.5t86 -31.5q29 0 42 2q-44 32 -67 81t-23 109q0 92 53 144t142 52q52 0 94 -23.5t65.5 -66.5t23.5 -99q0 -61 -23.5 -112t-69.5 -86q51 -3 63 -3q26 1 52 4l-5 -60
q-9 -2 -37 -4t-50 -2q-63 0 -122 16q-57 -17 -131 -17q-100 0 -170.5 37.5t-107 104t-36.5 151.5t36 150t103 101.5t157 36.5q41 0 70 -8t41 -17l-23 -53q-11 7 -27.5 10.5zM416 254q0 -66 14.5 -109.5t56.5 -66.5q37 19 51 60.5t14 126.5q0 53 -18.5 88t-49.5 35
q-68 0 -68 -134z" />
    <glyph glyph-name="uni04AA" unicode="&#x4aa;" horiz-adv-x="658" 
d="M540 13q-5 -1 -32.5 -9t-62.5 -11q-6 -33 -13 -90t-9 -101h-88q0 26 -9 97.5t-15 94.5q-138 19 -210 118t-72 256q0 116 47.5 202.5t130.5 133.5t188 47q44 0 85 -5.5t97 -14.5q42 -7 46 -7l-11 -206h-92l-31 143q-11 11 -38 18t-69 7q-85 0 -136.5 -78.5t-51.5 -227.5
q0 -144 49 -235t143 -91q45 0 69.5 8.5t41.5 24.5l44 103l84 -8l-20 -155q-20 -2 -65 -14z" />
    <glyph glyph-name="uni04AB" unicode="&#x4ab;" horiz-adv-x="519" 
d="M302 505q-56 0 -87.5 -49t-32.5 -153q0 -110 38 -168.5t101 -58.5q76 0 140 41l23 -52q-18 -20 -53.5 -39.5t-77.5 -28.5q-5 -34 -10.5 -89t-6.5 -97h-84q-3 70 -25 184q-97 17 -146 92.5t-49 187.5q0 86 34.5 153t99 104.5t150.5 37.5q40 0 69 -6t65 -16l29 -8l-6 -171
h-87l-25 110q-6 26 -59 26z" />
    <glyph glyph-name="uni04AC" unicode="&#x4ac;" horiz-adv-x="736" 
d="M598 -73q-9 -88 -14 -124h-81q-1 38 -5 99.5t-8 97.5h-322v60l129 10v607l-143 -5l-40 -218h-83l16 289h646l12 -289h-80l-39 218l-141 5v-606h166q-4 -56 -13 -144z" />
    <glyph glyph-name="uni04AD" unicode="&#x4ad;" horiz-adv-x="647" 
d="M552.5 -71.5q-8.5 -87.5 -14.5 -125.5h-80q-1 35 -9 99.5t-15 97.5h-309v60l130 10v424l-112 -8l-29 -158h-86l8 228h574l9 -228h-86l-30 158l-106 8v-424h167q-3 -54 -11.5 -141.5z" />
    <glyph glyph-name="uni04AE" unicode="&#x4ae;" horiz-adv-x="651" 
d="M255 295l-214 373l-57 13v62h294v-62l-71 -13l125 -245l28 -69l29 69l115 245l-78 13v62h244v-62l-62 -12l-199 -373v-226l109 -10v-60h-369v60l106 10v225z" />
    <glyph glyph-name="uni04AF" unicode="&#x4af;" horiz-adv-x="634" 
d="M295 556v-59l-82 -13l122 -324l14 -43l13 44l124 323l-81 13v59h235v-59l-65 -13l-177 -432v-224l99 -13v-57h-331v57l89 13v216l-198 440l-60 13v59h298z" />
    <glyph glyph-name="uni04B0" unicode="&#x4b0;" horiz-adv-x="651" 
d="M670 743v-62l-62 -12l-187 -346h117v-93h-129v-160l109 -10v-60h-369v60l106 10v160h-128v93h114l-200 345l-57 13v62h294v-62l-71 -13l125 -245l28 -69l29 69l115 245l-78 13v62h244z" />
    <glyph glyph-name="uni04B1" unicode="&#x4b1;" horiz-adv-x="634" 
d="M295 556v-59l-82 -13l122 -324l14 -43l13 44l124 323l-81 13v59h235v-59l-65 -13l-173 -421h166v-63h-170v-172l99 -13v-57h-331v57l89 13v172h-172v64l164 -1l-190 421l-60 13v59h298z" />
    <glyph glyph-name="uni04B2" unicode="&#x4b2;" horiz-adv-x="729" 
d="M731.5 -71.5q-11.5 -113.5 -14.5 -123.5h-81q-1 28 -9.5 105t-13.5 90h-220v60l84 10l-150 245l-144 -245l96 -10v-60h-273v60l84 10l198 293l-204 304l-69 14v62h327v-62l-85 -14l137 -227l141 228l-86 13v62h257v-62l-81 -14l-194 -272l218 -324h94q0 -29 -11.5 -142.5
z" />
    <glyph glyph-name="uni04B3" unicode="&#x4b3;" horiz-adv-x="605" 
d="M618.5 -67q-11.5 -120 -14.5 -130h-76q-19 177 -27 197h-181v59l59 10l-77 117l-30 44l-24 -43l-82 -118l77 -10v-59h-240v59l64 10l161 204l-165 213l-52 12v58h289v-58l-65 -12l79 -111l26 -42l26 42l81 111l-68 12v58h217v-58l-57 -12l-158 -194l172 -223l77 -1
q0 -15 -11.5 -135z" />
    <glyph glyph-name="uni04B4" unicode="&#x4b4;" horiz-adv-x="1052" 
d="M1034.5 -71.5q-8.5 -87.5 -14.5 -123.5h-80q0 24 -10 102.5t-16 92.5h-755v60l97 10v607l-120 -9l-31 -195h-77l11 270h573l14 -270h-76l-35 195l-113 9v-612h376v603l-75 13v62h296v-62l-76 -13v-597h123q-3 -55 -11.5 -142.5z" />
    <glyph glyph-name="uni04B5" unicode="&#x4b5;" horiz-adv-x="971" 
d="M962 -73.5q-11 -112.5 -14 -123.5h-82q0 23 -8.5 103.5t-13.5 93.5h-711v60l103 10v423l-103 -7l-29 -163h-79l8 233h543l7 -233h-81l-28 163l-93 7v-428h326v419l-74 13v59h292v-59l-75 -13v-414h123q0 -31 -11 -143.5z" />
    <glyph glyph-name="uni04B6" unicode="&#x4b6;" horiz-adv-x="733" 
d="M699.5 -71.5q-8.5 -87.5 -14.5 -125.5h-81q0 24 -8.5 103.5t-14.5 93.5h-229v60l106 10v246q-34 -20 -85 -31t-98 -11q-73 0 -118.5 20.5t-68 70t-22.5 135.5v167l-58 13v63h280v-63l-75 -12v-134q0 -81 10 -118t34 -48.5t75 -11.5q36 0 72.5 9t53.5 22v281l-82 13v62
h310v-62l-82 -13v-597h107q-3 -55 -11.5 -142.5z" />
    <glyph glyph-name="uni04B7" unicode="&#x4b7;" horiz-adv-x="664" 
d="M640 -72.5q-12 -114.5 -15 -124.5h-81q-1 28 -9.5 106.5t-13.5 90.5h-195v60l90 10v151q-71 -33 -170 -33q-66 0 -106.5 20t-59.5 66t-19 125v85l-54 13v59h255v-59l-57 -13v-60q0 -70 8 -104t29 -47.5t64 -13.5q31 0 63 6t47 16v203l-68 13v59h273v-59l-66 -13v-414h97
q0 -28 -12 -142.5z" />
    <glyph glyph-name="uni04B8" unicode="&#x4b8;" horiz-adv-x="750" 
d="M382 283v-112h-65v104q-11 -1 -30 -1q-76 0 -123.5 21t-71.5 70t-24 135v169l-59 13v61h287v-61l-83 -14v-134q0 -79 8.5 -115.5t29.5 -49t66 -13.5v153h65v-149q33 4 61 11.5t41 16.5v281l-87 14v60h316v-62l-82 -13v-598l82 -11v-59h-339v61l110 12v243
q-35 -20 -102 -33z" />
    <glyph glyph-name="uni04B9" unicode="&#x4b9;" horiz-adv-x="720" 
d="M372 195v-99h-68v95h-10q-80 0 -130.5 19t-77 65t-26.5 127v82l-53 13v59h266v-59l-67 -13v-63q0 -65 8.5 -98.5t29 -46.5t60.5 -14v137h68v-136q72 6 99 18v203l-70 13v59h276v-59l-66 -13v-415l67 -9v-60h-281v60l74 9v151q-48 -18 -99 -25z" />
    <glyph glyph-name="uni04BA" unicode="&#x4ba;" horiz-adv-x="723" 
d="M350.5 458q51.5 11 98.5 11q73 0 118 -20.5t67.5 -70t22.5 -135.5v-167l58 -13v-63h-279v63l75 12v134q0 81 -10 118t-34 48.5t-76 11.5q-35 0 -71.5 -9t-54.5 -22v-281l82 -13v-62h-309v62l81 13v598l-82 11v59h334v-60l-106 -10v-246q34 20 85.5 31z" />
    <glyph glyph-name="uni04BB" unicode="&#x4bb;" horiz-adv-x="670" 
d="M92 731l-76 13v54l186 22h3l26 -19l1 -223l-7 -87q31 28 84.5 52t112.5 24q63 0 98 -23.5t49 -71.5t14 -128v-275l64 -9v-60h-263v60l58 9v275q0 52 -7 81t-25.5 43t-54.5 14q-31 0 -63.5 -14.5t-57.5 -34.5v-364l61 -9v-60h-259v60l56 8v663z" />
    <glyph glyph-name="uni04BC" unicode="&#x4bc;" horiz-adv-x="795" 
d="M664 14q-50 -12 -94 -18.5t-102 -6.5q-92 0 -163 42.5t-111.5 123t-43.5 190.5q-72 0 -121.5 28t-49.5 81q0 34 15.5 62.5t27.5 36.5l84 -13q-6 -8 -15.5 -33.5t-9.5 -37.5q0 -25 14 -40t58 -16q9 103 56 179.5t120 117.5t159 41q77 0 139 -32.5t98.5 -98t38.5 -161.5
q0 -80 -9 -116h-461q3 -83 25.5 -149t65 -104.5t100.5 -38.5q57 0 86.5 17t51.5 47l18 74l97 -5l-3 -157q-23 -1 -71 -13zM620 455q-2 91 -37.5 157.5t-116.5 66.5q-76 0 -123 -66t-50 -200h326q2 28 1 42z" />
    <glyph glyph-name="uni04BD" unicode="&#x4bd;" horiz-adv-x="654" 
d="M526 13.5q-60 -24.5 -123 -24.5q-128 0 -193 75.5t-67 208.5q-65 3 -104 28.5t-39 75.5q0 22 8.5 51t16.5 35l81 -14q-6 -7 -12.5 -29t-6.5 -34q0 -21 12.5 -34.5t47.5 -16.5q15 109 85 172t177 63q100 0 153 -50t57 -148q1 -11 1 -32q0 -43 -6 -70h-324q7 -192 151 -192
q47 0 84.5 12.5t63.5 30.5l24 -54q-27 -29 -87 -53.5zM480 364q0 146 -86 146q-45 0 -72.5 -40t-31.5 -140h189z" />
    <glyph glyph-name="uni04BE" unicode="&#x4be;" horiz-adv-x="795" 
d="M666 15q-39 -10 -71 -15.5t-72 -8.5q22 -24 39 -58t17 -70q0 -63 -35.5 -88.5t-106.5 -25.5q-17 0 -37 4.5t-34 10.5l1 83q20 -7 43 -7q38 0 54.5 13t16.5 56q0 37 -24 80q-90 3 -158 46t-107 122.5t-42 187.5q-72 0 -121.5 28t-49.5 81q0 34 15.5 62.5t27.5 36.5l84 -13
q-6 -8 -15.5 -33.5t-9.5 -37.5q0 -25 14 -40t58 -16q9 103 56 179.5t120 117.5t159 41q77 0 139 -32.5t98.5 -98t38.5 -161.5q0 -80 -9 -116h-461q3 -83 25.5 -149t65 -104.5t100.5 -38.5q57 0 86.5 17t51.5 47l18 74l97 -5l-3 -157q-19 -1 -69 -12zM620 455
q-2 91 -37.5 157.5t-116.5 66.5q-76 0 -123 -66t-50 -200h326q2 28 1 42z" />
    <glyph glyph-name="uni04BF" unicode="&#x4bf;" horiz-adv-x="654" 
d="M543 21.5q-47 -21.5 -99 -28.5q22 -23 40 -57.5t18 -70.5q0 -63 -35 -89.5t-107 -26.5q-16 0 -36.5 4.5t-33.5 10.5v83q20 -7 43 -7q38 0 54.5 13t16.5 56q0 38 -25 81q-116 8 -175 82.5t-61 200.5q-65 3 -104 28.5t-39 75.5q0 22 8.5 51t16.5 35l81 -14q-6 -7 -12.5 -29
t-6.5 -34q0 -21 12.5 -34.5t47.5 -16.5q15 109 85 172t177 63q100 0 153 -50t57 -148q1 -11 1 -32q0 -43 -6 -70h-324q7 -192 151 -192q47 0 84.5 12.5t63.5 30.5l24 -54q-23 -24 -70 -45.5zM480 364q0 146 -86 146q-45 0 -72.5 -40t-31.5 -140h189z" />
    <glyph glyph-name="uni04C0" unicode="&#x4c0;" horiz-adv-x="411" 
d="M131 668l-85 13v62h320v-62l-88 -13v-598l88 -11v-59h-320v60l85 10v598z" />
    <glyph glyph-name="uni04C1" unicode="&#x4c1;" horiz-adv-x="1058" 
d="M851 323.5q41 -55.5 92 -146.5q28 -52 44.5 -77t30.5 -29l38 -11v-60h-160q-24 0 -48.5 38.5t-61.5 116.5q-43 92 -75.5 140.5t-67.5 48.5h-44v-273l89 -12v-59h-314v60l85 10v274h-45q-35 0 -67 -48t-76 -139q-38 -79 -63.5 -118t-50.5 -39h-154v60l36 11q14 4 31 30
t45 77q51 91 92 146.5t91 71.5l-197 272l-82 13v62h261v-62l-72 -13l176 -268h75v268l-82 13v62h305v-62l-83 -13v-268h75l175 268l-72 13v62h263v-62l-83 -13l-198 -273q51 -16 92 -71.5zM439 936q0 -38 21 -58.5t69 -20.5q47 0 67.5 20.5t20.5 58.5q0 18 3.5 32.5
t12.5 14.5h98l1 -27q0 -74 -54 -114t-150 -40q-94 0 -148.5 40.5t-54.5 113.5l1 27h97q16 0 16 -47z" />
    <glyph glyph-name="uni04C2" unicode="&#x4c2;" horiz-adv-x="980" 
d="M812.5 252q30.5 -39 66.5 -102q22 -38 35 -56.5t26 -23.5l42 -9v-61h-145q-29 0 -51.5 32t-51.5 96q-33 68 -56 100.5t-54 32.5h-65v-191l86 -10v-60h-300v60l75 10v192l-64 -1q-31 0 -54 -32.5t-56 -100.5q-29 -64 -51.5 -96t-51.5 -32h-145v61l42 10q13 5 26.5 24
t35.5 57q37 63 66.5 101t69.5 56l-136 175l-77 13v59h258v-59l-74 -13l111 -164h100v164l-66 13v59h277l1 -59l-73 -13v-164h100l112 164l-74 13v59h258v-59l-78 -13l-136 -175q41 -18 71.5 -57zM399 802q0 -42 23 -71t69 -29t68 29t22 71q0 43 16 43h95q1 -6 1 -24
q0 -80 -53.5 -128.5t-149.5 -48.5q-93 0 -148 49t-55 128l1 24h95q16 0 16 -43z" />
    </font>
</defs>
</svg>
