<?xml version="1.0" standalone="no"?>
<!DOCTYPE svg PUBLIC "-//W3C//DTD SVG 1.1//EN" "http://www.w3.org/Graphics/SVG/1.1/DTD/svg11.dtd" >
<svg xmlns="http://www.w3.org/2000/svg" xmlns:xlink="http://www.w3.org/1999/xlink" version="1.1">
<metadata>
Created by FontForge 20170731 at Tue Oct 31 15:00:59 2017
 By Aleksey,,,
Copyright 2016 The Merriweather Project Authors (https://github.com/EbenSorkin/Merriweather), with Reserved Font Name "Merriweather".
</metadata>
<defs>
<font id="Merriweather-BoldItalic" horiz-adv-x="0" >
  <font-face 
    font-family="Merriweather"
    font-weight="700"
    font-style="italic"
    font-stretch="normal"
    units-per-em="1000"
    panose-1="0 0 8 0 0 0 0 0 0 0"
    ascent="800"
    descent="-200"
    x-height="567"
    cap-height="743"
    bbox="-617 -272 1343 1054"
    underline-thickness="50"
    underline-position="-150"
    slope="-8"
    unicode-range="U+000D-FB02"
  />
<missing-glyph horiz-adv-x="910" 
d="M110 691h690v-691h-690v691zM454 288l174 -179l59 59l-176 178l176 174l-62 60l-169 -178l-173 179l-59 -61l173 -176l-172 -166l61 -69z" />
    <glyph glyph-name="fi" unicode="fi" horiz-adv-x="660" 
d="M180.5 711q29.5 48 75.5 76t103 28q53 0 84 -12l-28 -80q-29 22 -67 22q-37 0 -53.5 -28t-24.5 -86l-10 -73h110l-13 -75h-107l-55 -444q-16 -123 -72.5 -206t-150.5 -84q-23 -1 -48.5 2t-40.5 7l26 84q13 -6 37.5 -13.5t39.5 -7.5q27 0 42.5 26.5t22.5 79.5l69 556h-64
l9 44l68 29l8 47q10 60 39.5 108zM538 88q0 -24 17 -24q9 0 20 6t28 20l13 -31q-17 -23 -50.5 -46t-81.5 -23q-39 0 -61 15.5t-22 42.5l1 10q6 52 41 302l16 116l-59 28l7 39l172 24l24 -11l-64 -456q-1 -5 -1 -12zM503.5 683.5q-19.5 20.5 -19.5 47.5q0 37 24.5 62t62.5 25
q31 0 49 -19.5t18 -46.5q0 -38 -23 -63.5t-65 -25.5q-27 0 -46.5 20.5z" />
    <glyph glyph-name="fl" unicode="fl" horiz-adv-x="643" 
d="M180.5 711q29.5 48 75.5 76t103 28q53 0 84 -12l-28 -80q-29 22 -67 22q-37 0 -53.5 -28t-24.5 -86l-10 -73h110l-13 -75h-107l-55 -444q-16 -123 -72.5 -206t-150.5 -84q-23 -1 -48.5 2t-40.5 7l26 84q13 -6 37.5 -13.5t39.5 -7.5q27 0 42.5 26.5t22.5 79.5l69 556h-64
l9 44l68 29l8 47q10 60 39.5 108zM525 89q0 -25 18 -25q9 0 19.5 5t28.5 21l13 -31q-16 -23 -47 -46t-80 -23q-38 0 -62 15.5t-25 48.5q0 4 4 36l87 639l-63 20l9 37l170 20l23 -13l-94 -693q-1 -4 -1 -11z" />
    <glyph glyph-name="f_f" unicode="ff" horiz-adv-x="676" 
d="M180.5 711q29.5 48 75.5 76t103 28q53 0 84 -12l-28 -80q-29 22 -67 22q-37 0 -53.5 -28t-24.5 -86l-10 -73h110l-13 -75h-107l-55 -444q-16 -123 -72.5 -206t-150.5 -84q-23 -1 -48.5 2t-40.5 7l26 84q13 -6 37.5 -13.5t39.5 -7.5q27 0 42.5 26.5t22.5 79.5l69 556h-64
l9 44l68 29l8 47q10 60 39.5 108zM518.5 711q29.5 48 75.5 76t103 28q53 0 84 -12l-28 -80q-29 22 -67 22q-37 0 -53.5 -28t-24.5 -86l-10 -73h110l-13 -75h-107l-55 -444q-16 -123 -72.5 -206t-150.5 -84q-23 -1 -48.5 2t-40.5 7l26 84q13 -6 37.5 -13.5t39.5 -7.5
q27 0 42.5 26.5t22.5 79.5l69 556h-64l9 44l68 29l8 47q10 60 39.5 108z" />
    <glyph glyph-name="f_f_i" unicode="ffi" horiz-adv-x="998" 
d="M180.5 711q29.5 48 75.5 76t103 28q53 0 84 -12l-28 -80q-29 22 -67 22q-37 0 -53.5 -28t-24.5 -86l-10 -73h110l-13 -75h-107l-55 -444q-16 -123 -72.5 -206t-150.5 -84q-23 -1 -48.5 2t-40.5 7l26 84q13 -6 37.5 -13.5t39.5 -7.5q27 0 42.5 26.5t22.5 79.5l69 556h-64
l9 44l68 29l8 47q10 60 39.5 108zM518.5 711q29.5 48 75.5 76t103 28q53 0 84 -12l-28 -80q-29 22 -67 22q-37 0 -53.5 -28t-24.5 -86l-10 -73h110l-13 -75h-107l-55 -444q-16 -123 -72.5 -206t-150.5 -84q-23 -1 -48.5 2t-40.5 7l26 84q13 -6 37.5 -13.5t39.5 -7.5
q27 0 42.5 26.5t22.5 79.5l69 556h-64l9 44l68 29l8 47q10 60 39.5 108zM876 88q0 -24 17 -24q9 0 20 6t28 20l13 -31q-17 -23 -50.5 -46t-81.5 -23q-39 0 -61 15.5t-22 42.5l1 10q6 52 41 302l16 116l-59 28l7 39l172 24l24 -11l-64 -456q-1 -5 -1 -12zM841.5 683.5
q-19.5 20.5 -19.5 47.5q0 37 24.5 62t62.5 25q31 0 49 -19.5t18 -46.5q0 -38 -23 -63.5t-65 -25.5q-27 0 -46.5 20.5z" />
    <glyph glyph-name="f_f_l" unicode="ffl" horiz-adv-x="981" 
d="M180.5 711q29.5 48 75.5 76t103 28q53 0 84 -12l-28 -80q-29 22 -67 22q-37 0 -53.5 -28t-24.5 -86l-10 -73h110l-13 -75h-107l-55 -444q-16 -123 -72.5 -206t-150.5 -84q-23 -1 -48.5 2t-40.5 7l26 84q13 -6 37.5 -13.5t39.5 -7.5q27 0 42.5 26.5t22.5 79.5l69 556h-64
l9 44l68 29l8 47q10 60 39.5 108zM518.5 711q29.5 48 75.5 76t103 28q53 0 84 -12l-28 -80q-29 22 -67 22q-37 0 -53.5 -28t-24.5 -86l-10 -73h110l-13 -75h-107l-55 -444q-16 -123 -72.5 -206t-150.5 -84q-23 -1 -48.5 2t-40.5 7l26 84q13 -6 37.5 -13.5t39.5 -7.5
q27 0 42.5 26.5t22.5 79.5l69 556h-64l9 44l68 29l8 47q10 60 39.5 108zM863 89q0 -25 18 -25q9 0 19.5 5t28.5 21l13 -31q-16 -23 -47 -46t-80 -23q-38 0 -62 15.5t-25 48.5q0 4 4 36l87 639l-63 20l9 37l170 20l23 -13l-94 -693q-1 -4 -1 -11z" />
    <glyph glyph-name=".notdef" horiz-adv-x="910" 
d="M110 691h690v-691h-690v691zM454 288l174 -179l59 59l-176 178l176 174l-62 60l-169 -178l-173 179l-59 -61l173 -176l-172 -166l61 -69z" />
    <glyph glyph-name=".null" 
 />
    <glyph glyph-name="nonmarkingreturn" unicode="&#xd;" horiz-adv-x="237" 
 />
    <glyph glyph-name="NULL" 
 />
    <glyph glyph-name="NULL" 
 />
    <glyph glyph-name="space" unicode=" " horiz-adv-x="237" 
 />
    <glyph glyph-name="exclam" unicode="!" horiz-adv-x="345" 
d="M328 868l-121 -616h-84l65 616h140zM90.5 121.5q25.5 24.5 56.5 24.5t47 -19t16 -48q0 -42 -26.5 -65.5t-60.5 -23.5q-24 0 -41 19.5t-17 49.5q0 38 25.5 62.5z" />
    <glyph glyph-name="quotedbl" unicode="&#x22;" horiz-adv-x="525" 
d="M270 824l-80 -352h-83l41 352h122zM516 824l-80 -352h-83l41 352h122z" />
    <glyph glyph-name="numbersign" unicode="#" horiz-adv-x="686" 
d="M54 178l8 76h101l26 172h-99l6 74h104l26 163h94l-25 -163h144l28 163h93l-26 -163h104l-6 -74h-108l-27 -172h101l-8 -76h-107l-28 -178h-92l25 178h-145l-30 -178h-92l28 178h-95zM428 426h-144l-27 -172h145z" />
    <glyph glyph-name="dollar" unicode="$" horiz-adv-x="588" 
d="M208 -9q-60 4 -110.5 17.5t-65.5 26.5l27 149h83l5 -104q20 -16 50 -25.5t63 -9.5q68 0 105 31.5t37 84.5q0 48 -31 81.5t-102 77.5q-79 49 -122.5 97.5t-43.5 119.5q0 94 66 150.5t171 63.5l14 92h82l-14 -93q89 -6 138 -36l-25 -138h-77l-13 95q-37 26 -97 26
q-51 0 -84.5 -27.5t-33.5 -77.5q0 -36 17 -63.5t46 -50t80 -53.5q76 -47 117.5 -94t42.5 -117q0 -59 -28 -108t-82.5 -79.5t-132.5 -36.5l-17 -102h-81z" />
    <glyph glyph-name="percent" unicode="%" horiz-adv-x="933" 
d="M741 747l-463 -747h-92l463 747h92zM123.5 404.5q-38.5 43.5 -38.5 110.5q0 52 27 101t75 79.5t106 30.5q73 0 110 -40.5t37 -106.5q0 -54 -26.5 -104.5t-74.5 -82t-108 -31.5q-69 0 -107.5 43.5zM296 436.5q22 26.5 33.5 65.5t11.5 73q0 48 -15 75t-46 27t-53.5 -25.5
t-34 -63t-11.5 -72.5q0 -49 15 -77.5t47 -28.5q31 0 53 26.5zM527 284.5q27 48.5 75 79t106 30.5q73 0 111 -40.5t38 -106.5q0 -54 -27 -104.5t-75.5 -82t-109.5 -31.5q-68 0 -106.5 44t-38.5 111q0 52 27 100.5zM611 107.5q15 -28.5 47 -28.5q30 0 52.5 27t34 65.5
t11.5 72.5q0 47 -15 74t-46 27q-30 0 -52.5 -25.5t-34.5 -63t-12 -71.5q0 -49 15 -77.5z" />
    <glyph glyph-name="ampersand" unicode="&#x26;" horiz-adv-x="844" 
d="M169 6.5q-63 21.5 -99.5 63.5t-36.5 100q0 77 48.5 123.5t137.5 85.5q-18 40 -29.5 84t-11.5 80q0 66 32 114.5t88 74t128 25.5q96 0 144.5 -41t48.5 -103q0 -55 -31 -95.5t-76 -67.5t-121 -62l-20 -9q84 -154 187 -247q39 48 39 124q0 15 -5 50h-20q-22 0 -42 -5
t-30 -13v92q26 23 73 23q24 0 51 -5q45 -5 61 -5q41 0 58.5 16t24.5 62h47q5 -22 5 -53q0 -54 -23 -88.5t-67 -34.5l-23 1l1 -20q0 -112 -92 -191q17 -11 39 -17q42 -14 81 -10l-1 -52q-26 -9 -52 -12.5t-70 -3.5q-68 0 -117 29q-90 -34 -184 -34q-80 0 -143 21.5z
M451 504.5q38 39.5 38 100.5q0 41 -15.5 70t-52.5 29q-56 0 -82.5 -37t-26.5 -99q0 -71 31 -137q70 34 108 73.5zM439 61q-57 53 -95 108t-92 146q-38 -28 -59 -59t-21 -71q0 -66 43 -102.5t116 -36.5q63 0 108 15z" />
    <glyph glyph-name="quotesingle" unicode="'" horiz-adv-x="278" 
d="M268 824l-80 -352h-83l41 352h122z" />
    <glyph glyph-name="parenleft" unicode="(" horiz-adv-x="427" 
d="M97 353q18 130 79 239t127.5 178.5t101.5 88.5l53 -37q-29 -19 -78.5 -78.5t-96.5 -155.5t-66 -214q-9 -60 -9 -125q0 -99 22.5 -179t52.5 -130.5t53 -70.5l-58 -35h-8q-28 19 -70 71t-76 140t-34 201q0 41 7 107z" />
    <glyph glyph-name="parenright" unicode=")" horiz-adv-x="431" 
d="M332 344q-18 -130 -79 -239t-127.5 -178.5t-101.5 -88.5l-53 37q29 19 78.5 78.5t96.5 155.5t66 214q9 60 9 125q0 99 -22.5 179t-52.5 130.5t-53 70.5l58 35h8q28 -19 70 -71t76 -140t34 -201q0 -41 -7 -107z" />
    <glyph glyph-name="asterisk" unicode="*" horiz-adv-x="667" 
d="M279 558l43 15l-38 14l-162 73l65 96l136 -112l29 -26l-3 43l-2 182l114 -1l-39 -183l-10 -39l35 25l159 111l44 -97l-176 -72l-41 -15l36 -15l163 -73l-66 -96l-135 111l-29 29l2 -44l4 -182l-116 1l40 183l10 39l-34 -27l-159 -110l-45 98z" />
    <glyph glyph-name="plus" unicode="+" horiz-adv-x="653" 
d="M294 337l-72 -3h-100l8 86h107l71 -5l6 82l14 113h94l-13 -113l-14 -82l58 5h115l-8 -86h-121l-58 3q0 -13 -1 -23.5t-2 -17.5l-3 -41l-14 -118h-94l14 118z" />
    <glyph glyph-name="comma" unicode="," horiz-adv-x="273" 
d="M112 139q50 -14 73 -54.5t23 -90.5q0 -80 -51 -145.5t-135 -99.5l-28 39l2 10q41 19 71.5 65t30.5 97q0 34 -15 59.5t-37 26.5l2 27z" />
    <glyph glyph-name="hyphen" unicode="-" horiz-adv-x="633" 
d="M538 363l-16 -85h-415l14 85h417z" />
    <glyph glyph-name="period" unicode="." horiz-adv-x="261" 
d="M51 124.5q25 25.5 57 25.5t50 -20.5t18 -49.5q0 -43 -25.5 -66.5t-61.5 -23.5q-26 0 -44.5 19.5t-18.5 50.5q0 39 25 64.5z" />
    <glyph glyph-name="slash" unicode="/" horiz-adv-x="417" 
d="M362 780h99l-421 -957h-99z" />
    <glyph glyph-name="zero" unicode="0" horiz-adv-x="624" 
d="M102 58.5q-56 66.5 -56 167.5q0 97 40.5 175t111 122t158.5 44q115 0 170.5 -65.5t55.5 -168.5q0 -95 -40 -173t-110.5 -123t-158.5 -45q-115 0 -171 66.5zM375 87.5q36 44.5 51.5 110.5t15.5 135q0 84 -23.5 134t-76.5 50q-57 0 -92.5 -45.5t-50.5 -111.5t-15 -133
q0 -82 23.5 -133t75.5 -51q56 0 92 44.5z" />
    <glyph glyph-name="one" unicode="1" horiz-adv-x="452" 
d="M148 59l55 387l-21 -6q-56 -16 -105 -25l-8 54q48 11 113 40.5t107 57.5l64 -15l-70 -493l110 -13l-5 -46h-349l5 46z" />
    <glyph glyph-name="two" unicode="2" horiz-adv-x="600" 
d="M196 161.5q79 65.5 125.5 137.5t46.5 140q0 51 -26.5 81t-73.5 30q-51 0 -100 -23t-75 -48l-31 54q18 20 53.5 42.5t86 39.5t107.5 17q72 0 117 -29t64.5 -71.5t19.5 -85.5q0 -66 -53.5 -139t-135 -137t-165.5 -105l285 20l53 94l61 -20l-46 -159h-475l-13 46
q96 50 175 115.5z" />
    <glyph glyph-name="three" unicode="3" horiz-adv-x="536" 
d="M-3 -147l17 64q28 -7 64 -7q77 0 135 27.5t88.5 72t30.5 94.5q0 51 -36 87t-110 31l-63 -18l9 64q90 20 146 70t56 113q0 39 -20.5 66.5t-64.5 27.5q-48 0 -87 -15.5t-75 -44.5l-25 52q31 33 96.5 63t138.5 30q81 0 126.5 -40.5t45.5 -110.5q0 -63 -53 -123t-125 -89
q7 1 20 1q77 0 118.5 -45t41.5 -110q0 -76 -52 -138.5t-137 -98.5t-180 -36q-37 0 -105 13z" />
    <glyph glyph-name="four" unicode="4" horiz-adv-x="615" 
d="M323 0h-304l-26 40q70 89 173.5 281.5t158.5 331.5h17l123 -56q-64 -114 -151.5 -257.5t-141.5 -211.5q-5 -6 -43 -51l-19 -22l224 15l23 178l127 34l-23 -203l104 7l-11 -86h-107l-23 -183h-125z" />
    <glyph glyph-name="five" unicode="5" horiz-adv-x="549" 
d="M106 -85q77 0 135 29t89 76.5t31 99.5q0 61 -32.5 99t-95.5 38q-56 0 -121 -30l-26 20l79 374h298l11 12h69l-26 -104l-257 1l-56 -228q17 11 53.5 20t65.5 9q89 0 136.5 -53t47.5 -132q0 -86 -51 -153t-136 -104t-185 -37q-19 0 -48 3.5t-41 6.5l10 60q28 -7 50 -7z" />
    <glyph glyph-name="six" unicode="6" horiz-adv-x="597" 
d="M161 22.5q-52 32.5 -80.5 89t-28.5 127.5q0 120 56 230t153.5 188.5t218.5 109.5l22 -55q-66 -21 -127 -68t-104.5 -107.5t-61.5 -119.5q24 28 62.5 47t92.5 19q86 0 134.5 -52.5t48.5 -134.5q0 -80 -34.5 -150.5t-96 -113t-136.5 -42.5q-67 0 -119 32.5zM358 82.5
q30 33.5 44.5 84.5t14.5 103q0 69 -26.5 103t-68.5 34q-45 0 -76 -22t-51 -50q-13 -68 -13 -131q0 -155 102 -155q44 0 74 33.5z" />
    <glyph glyph-name="seven" unicode="7" horiz-adv-x="535" 
d="M169 480l-44 -113l-86 1l35 192h454l15 -23l-289 -711l-126 40l306 614h-265z" />
    <glyph glyph-name="eight" unicode="8" horiz-adv-x="605" 
d="M100 291.5q52 56.5 133 89.5q-46 40 -74.5 82.5t-28.5 93.5q0 55 31 100t86 70.5t125 25.5q100 0 150 -37.5t50 -107.5q0 -61 -45.5 -115.5t-119.5 -91.5q61 -44 99 -93t38 -106q0 -63 -39 -111.5t-102 -74.5t-132 -26q-94 0 -158.5 43.5t-64.5 134.5q0 67 52 123.5z
M433 506.5q30 40.5 30 95.5q0 50 -26.5 75.5t-67.5 25.5q-54 0 -86.5 -32.5t-32.5 -86.5q0 -40 26.5 -73t77.5 -70q49 25 79 65.5zM200 82.5q30 -36.5 87 -36.5q55 0 93 36t38 95q0 31 -13.5 55.5t-35.5 44t-64 50.5l-19 14q-51 -28 -83.5 -70.5t-32.5 -99.5q0 -52 30 -88.5
z" />
    <glyph glyph-name="nine" unicode="9" horiz-adv-x="609" 
d="M447 538q51 -29 79.5 -84t28.5 -130q0 -121 -56.5 -232.5t-155 -191t-219.5 -110.5l-21 55q67 22 128.5 68t106 106t62.5 122q-25 -29 -64.5 -48t-91.5 -19q-58 0 -99 28.5t-62.5 77.5t-21.5 110q0 71 34 135t95 103t138 39q68 0 119 -29zM249 479q-30 -29 -44.5 -73
t-14.5 -90q0 -84 27 -124.5t69 -40.5q74 0 126 71q14 61 14 117q0 169 -103 169q-44 0 -74 -29z" />
    <glyph glyph-name="colon" unicode=":" horiz-adv-x="271" 
d="M102 519.5q25 25.5 57 25.5t50 -20.5t18 -49.5q0 -43 -25.5 -66.5t-61.5 -23.5q-26 0 -44.5 19.5t-18.5 50.5q0 39 25 64.5zM45 124.5q25 25.5 57 25.5t50 -20.5t18 -49.5q0 -43 -25.5 -66.5t-61.5 -23.5q-26 0 -44.5 19.5t-18.5 50.5q0 39 25 64.5z" />
    <glyph glyph-name="semicolon" unicode=";" horiz-adv-x="266" 
d="M110 139q50 -14 73 -54.5t23 -90.5q0 -80 -51 -145.5t-135 -99.5l-28 39l2 10q41 19 71.5 65t30.5 97q0 34 -15 59.5t-37 26.5l2 27zM98 519.5q25 25.5 57 25.5t50 -20.5t18 -49.5q0 -43 -25.5 -66.5t-61.5 -23.5q-26 0 -44.5 19.5t-18.5 50.5q0 39 25 64.5z" />
    <glyph glyph-name="less" unicode="&#x3c;" horiz-adv-x="668" 
d="M596 646l-14 -111l-359 -169l318 -175l-11 -105l-434 251l7 58z" />
    <glyph glyph-name="equal" unicode="=" horiz-adv-x="519" 
d="M481 498l-10 -85h-397l9 85h398zM446 243l-10 -85h-398l10 85h398z" />
    <glyph glyph-name="greater" unicode="&#x3e;" horiz-adv-x="668" 
d="M117 88l14 111l359 169l-318 175l11 105l434 -251l-7 -58z" />
    <glyph glyph-name="question" unicode="?" horiz-adv-x="475" 
d="M118.5 286q-8.5 34 -8.5 64q0 32 18.5 57t45.5 43.5t79 47.5q89 45 122 86q5 11 8 29.5t3 32.5q0 67 -44.5 105.5t-124.5 38.5q-29 0 -59.5 -5t-50.5 -15l19 86q12 11 52 23.5t83 12.5q126 0 178 -60.5t52 -147.5q0 -77 -38 -132q-51 -72 -160 -126q-37 -19 -59 -39
t-23 -47q-3 -51 8 -84l-73 -21l-7 1q-12 16 -20.5 50zM153 121q25 25 57 25q31 0 47.5 -19t16.5 -48q0 -42 -26.5 -65.5t-60.5 -23.5q-25 0 -42 18.5t-17 48.5q0 39 25 64z" />
    <glyph glyph-name="at" unicode="@" horiz-adv-x="961" 
d="M118 476.5q81 140.5 209.5 220.5t265.5 80q99 0 174.5 -42t117.5 -117.5t42 -173.5q0 -133 -43.5 -234t-112.5 -156t-143 -55q-31 0 -43.5 25.5t-12.5 71.5q0 18 5.5 57.5t13.5 74.5q-37 -91 -89.5 -158.5t-102.5 -67.5q-40 0 -75 23.5t-56.5 71t-21.5 116.5
q1 79 34 154.5t97.5 124t153.5 48.5q23 0 53.5 -8.5t50.5 -21.5l88 21q-15 -59 -31 -154.5t-23 -166.5q-6 -61 -4 -102q0 -16 4 -23.5t11 -7.5q41 0 79 48.5t61 125t23 155.5q0 97 -40.5 164.5t-106 100.5t-142.5 33q-123 0 -220 -74.5t-151 -192.5t-54 -242
q0 -115 46.5 -199.5t124 -129t167.5 -44.5q44 0 97 10t77 22l18 -47q-35 -26 -89.5 -41.5t-116.5 -15.5q-113 0 -208 50t-151.5 144t-56.5 219q0 173 81 313.5zM368.5 131.5q17.5 -36.5 47.5 -36.5q28 0 69 59t77 140t46 140q-9 16 -36.5 28t-48.5 12q-57 0 -96 -38
t-57.5 -97t-18.5 -123q0 -48 17.5 -84.5z" />
    <glyph glyph-name="A" unicode="A" horiz-adv-x="658" 
d="M467 744l123 -683l79 -15l-3 -46h-307l2 46l82 13l-24 151h-253l-67 -150l91 -14l-3 -46h-260l4 46l68 13l329 685h139zM194 275h216l-44 295l-5 82z" />
    <glyph glyph-name="B" unicode="B" horiz-adv-x="666" 
d="M312 747q58 4 92 4q227 0 227 -169q0 -146 -173 -189q50 -1 88.5 -21.5t59.5 -54.5t21 -75q1 -131 -89 -191t-258 -60q-32 0 -77 5q-50 4 -70 4h-133l4 46l70 14l81 622l-69 12l5 49h150q23 0 71 4zM284.5 414.5q12.5 0.5 21.5 0.5h27q72 0 119 39.5t47 119.5
q0 120 -127 120q-53 0 -81 -6l-36 -273q17 -1 29.5 -0.5zM253.5 51q28.5 -3 46.5 -3q87 0 134 41.5t47 129.5q0 69 -35.5 102t-113.5 33q-53 0 -85 -2l-39 -293q17 -5 45.5 -8z" />
    <glyph glyph-name="C" unicode="C" horiz-adv-x="624" 
d="M423 694q-79 0 -132.5 -57t-79 -143.5t-23.5 -174.5q8 -258 155 -258q32 0 64.5 8.5t54.5 31.5q16 26 36 101h82l-21 -146q-95 -64 -239 -64q-100 0 -164 44t-93 116.5t-29 161.5q0 134 52 233t145 152t213 53q57 0 90.5 -5t54.5 -10.5t29 -7.5l18 -5l-30 -190h-98
l-14 146q-30 14 -71 14z" />
    <glyph glyph-name="D" unicode="D" horiz-adv-x="722" 
d="M312 747q60 4 92 4q158 0 231 -81t73 -220q1 -135 -45.5 -238t-139.5 -161.5t-230 -58.5q-20 0 -46 4q-44 4 -97 4h-157l5 46l75 14l82 622l-68 12l4 49h147q24 0 74 4zM260 52.5q26 -3.5 43 -3.5q87 1 144.5 58t84.5 144t27 182q0 140 -41 200.5t-134 60.5
q-26 0 -50.5 -3.5t-38.5 -7.5l-81 -622q20 -5 46 -8.5z" />
    <glyph glyph-name="E" unicode="E" horiz-adv-x="624" 
d="M604 743l-12 -171h-82l-19 107l-195 11l-35 -266l227 15l-13 -96l-223 12l-36 -290l251 14l53 130l83 -9l-37 -200h-574l6 46l76 13l81 623l-70 12l6 49h513z" />
    <glyph glyph-name="F" unicode="F" horiz-adv-x="586" 
d="M617 743l-17 -175h-88l-13 111l-203 10l-36 -273l239 11l-12 -95l-235 15l-37 -287l129 -14l-4 -46h-340l5 46l69 14l81 622l-70 12l6 49h526z" />
    <glyph glyph-name="G" unicode="G" horiz-adv-x="679" 
d="M514 27q-62 -17 -106.5 -26t-101.5 -9q-93 0 -153.5 45t-89 118.5t-28.5 160.5q0 131 47.5 229.5t136.5 152.5t210 54q66 0 107 -6.5t66.5 -13t33.5 -8.5l26 -6l-30 -156h-95l-4 107q-42 25 -105 25q-128 0 -186.5 -107t-57.5 -268q0 -113 38 -187.5t114 -74.5
q84 0 127 25l28 210l-112 8l8 63h254l-44 -320q-40 -4 -83 -16z" />
    <glyph glyph-name="H" unicode="H" horiz-adv-x="787" 
d="M386 743l-6 -49l-83 -12l-35 -272h296l35 272l-81 12l5 49h295l-6 -49l-73 -12l-80 -622l76 -14l-5 -46h-305l5 46l89 14l37 287h-297l-37 -287l82 -14l-4 -46h-293l5 46l70 14l81 622l-70 12l6 49h293z" />
    <glyph glyph-name="I" unicode="I" horiz-adv-x="363" 
d="M387 743l-5 -49l-81 -12l-81 -622l83 -14l-3 -46h-299l6 46l73 14l81 622l-70 12l5 49h291z" />
    <glyph glyph-name="J" unicode="J" horiz-adv-x="354" 
d="M294 612q-33 -278 -50.5 -412.5t-26.5 -162.5q-29 -86 -105.5 -138.5t-176.5 -66.5l-22 46q72 21 113 65t52 100q23 120 43.5 276t42.5 363l-74 12l6 49h287l-5 -49l-75 -11z" />
    <glyph glyph-name="K" unicode="K" horiz-adv-x="704" 
d="M495 308q7 -14 22.5 -44t24.5 -46l12 -22q37 -68 55 -97t32 -37l60 -15l-5 -47h-183q-19 2 -36 30t-47 94q-1 1 -36 83q-36 86 -59 133l-97 -100l-23 -180l82 -14l-5 -46h-295l6 46l71 14l81 622l-69 12l5 49h293l-6 -49l-83 -12l-45 -343l318 343l-67 13l5 48h231
l-6 -49l-61 -11l-242 -249q19 -31 67 -126z" />
    <glyph glyph-name="L" unicode="L" horiz-adv-x="604" 
d="M388 743l-5 -49l-88 -12l-81 -624l205 8l89 203l74 -10l-50 -259h-532l5 46l69 14l81 622l-70 12l6 49h297z" />
    <glyph glyph-name="M" unicode="M" horiz-adv-x="964" 
d="M614 520q72 171 93 223h261l-6 -49l-87 -12l-19 -622l86 -14l-3 -46h-316l4 47l92 12l25 428l11 198l-72 -174l-222 -512l-70 -8l-73 508l-29 186l-42 -191l-104 -434l106 -14l-4 -46h-282l5 46l81 14l160 622l-94 12l7 49h291l61 -445l12 -91l34 90q40 100 94 223z" />
    <glyph glyph-name="N" unicode="N" horiz-adv-x="752" 
d="M321 743l204 -507l38 -112l70 559l-83 11l5 49h234l-4 -49l-65 -12l-101 -682h-142l-210 517l-38 119l-64 -576l90 -14l-4 -46h-252l3 46l71 13l89 623l-79 12l7 49h231z" />
    <glyph glyph-name="O" unicode="O" horiz-adv-x="701" 
d="M562.5 710q60.5 -43 88.5 -115.5t28 -162.5q0 -119 -42 -219.5t-125.5 -161.5t-202.5 -61q-135 0 -202.5 89t-67.5 234q0 120 43.5 220.5t127.5 160t199 59.5q93 0 153.5 -43zM286.5 644q-47.5 -52 -73 -139t-24.5 -189q0 -117 31.5 -193.5t101.5 -76.5q64 0 110.5 49.5
t71 135t24.5 191.5q0 131 -32 202.5t-100 71.5q-62 0 -109.5 -52z" />
    <glyph glyph-name="P" unicode="P" horiz-adv-x="636" 
d="M314 747q50 4 74 4q135 0 196 -51t61 -155q0 -91 -42 -156t-117.5 -99t-174.5 -34q-41 0 -71 2l-23 -198l120 -14l-3 -46h-334l5 46l69 14l81 622l-70 12l6 49h141q30 0 82 4zM316 314q88 1 135.5 64t48.5 173q0 143 -135 143q-33 0 -68 -6l-49 -368q28 -6 68 -6z" />
    <glyph glyph-name="Q" unicode="Q" horiz-adv-x="703" 
d="M582 -185.5q-46 -15.5 -102 -15.5q-85 0 -131.5 36.5t-46.5 105.5q0 28 5 49q-133 3 -201 89t-68 232q0 120 43.5 221t127.5 160.5t200 59.5q92 0 153 -42.5t89 -113.5t28 -160q0 -109 -34.5 -202.5t-102.5 -157t-165 -80.5q0 -55 36.5 -72.5t106.5 -17.5q27 0 66 5.5
t65 15.5l1 -79q-24 -18 -70 -33.5zM287 644.5q-47 -51.5 -73 -138t-26 -187.5q0 -119 31.5 -196.5t103.5 -77.5q64 0 110 50t70.5 136.5t24.5 194.5q0 129 -32 199.5t-100 70.5q-62 0 -109 -51.5z" />
    <glyph glyph-name="R" unicode="R" horiz-adv-x="689" 
d="M303 747q52 4 91 4q137 0 194.5 -44.5t58.5 -135.5q0 -83 -46.5 -143.5t-128.5 -86.5q19 -19 38.5 -60t47.5 -106q8 -16 11 -24q21 -46 32 -65t27 -28.5t44 -9.5l-3 -48h-167q-12 0 -24.5 23.5t-32.5 78.5l-9 23q-33 87 -55.5 138.5t-38.5 61.5h-59h-38l-32 -265l90 -14
l-3 -46h-297l3 46l68 14l81 622l-69 12l5 49h141q25 0 71 4zM343 384q72 2 115 50t43 131q0 66 -33.5 97.5t-104.5 31.5q-36 0 -69 -5l-41 -303q19 -2 90 -2z" />
    <glyph glyph-name="S" unicode="S" horiz-adv-x="553" 
d="M338 696q-55 0 -89.5 -26.5t-34.5 -71.5q0 -53 32.5 -89.5t107.5 -83.5q72 -45 113.5 -94t41.5 -118q1 -63 -31 -114t-94.5 -80.5t-149.5 -29.5q-71 0 -136 15.5t-85 30.5l26 149h83l5 -107q18 -14 45.5 -22t59.5 -8q68 0 106.5 30.5t38.5 82.5q0 48 -30 82.5t-98 77.5
q-75 47 -118.5 99t-44.5 122q0 65 34 113t93.5 73t134.5 25q127 0 190 -38l-25 -140h-76l-12 97q-31 25 -87 25z" />
    <glyph glyph-name="T" unicode="T" horiz-adv-x="672" 
d="M713 743l-38 -263l-73 -1l-3 200l-139 11l-83 -630l133 -13l-5 -47h-395l5 47l122 13l82 630l-138 -11l-69 -199h-75l44 263h632z" />
    <glyph glyph-name="U" unicode="U" horiz-adv-x="701" 
d="M534.5 63.5q-74.5 -73.5 -209.5 -73.5q-125 0 -186.5 59.5t-62.5 159.5q0 52 4 81l51 393l-70 11l6 49h299l-5 -48l-90 -13l-50 -381q-7 -65 -7 -96q1 -75 35.5 -117t100.5 -42q88 0 134 64t63 196l51 376l-70 13l4 48h217l-6 -48l-63 -12l-49 -377
q-22 -169 -96.5 -242.5z" />
    <glyph glyph-name="V" unicode="V" horiz-adv-x="602" 
d="M303 743l-5 -49l-82 -12l58 -443l13 -124l48 124l201 443l-82 12l4 49h241l-8 -49l-69 -11l-319 -688l-121 -2l-112 689l-68 13l6 48h295z" />
    <glyph glyph-name="W" unicode="W" horiz-adv-x="929" 
d="M287 743l-4 -49l-74 -12l51 -445l14 -116l40 107l156 384l-7 70l-75 13l5 48h292l-5 -49l-78 -12l44 -445l5 -116l44 110l192 451l-99 12l5 49h263l-6 -48l-74 -13l-314 -687h-127l-47 478l-196 -478h-125l-101 687l-68 13l6 48h283z" />
    <glyph glyph-name="X" unicode="X" horiz-adv-x="660" 
d="M364 743l-4 -48l-76 -12l92 -234l159 233l-71 12l3 49h245l-3 -49l-69 -11l-233 -298l163 -325l68 -14l-4 -46h-311l4 46l76 13l-99 240l-166 -239l79 -14l-5 -46h-247l5 46l59 13l244 308l-149 315l-63 12l5 49h298z" />
    <glyph glyph-name="Y" unicode="Y" horiz-adv-x="615" 
d="M329 743l-7 -49l-86 -12l92 -253l23 -70l33 62l157 261l-79 12l5 49h239l-6 -49l-61 -11l-253 -391l-31 -232l116 -14l-4 -46h-369l5 46l114 14l29 232l-168 390l-62 12l5 49h308z" />
    <glyph glyph-name="Z" unicode="Z" horiz-adv-x="594" 
d="M608 743l13 -39l-418 -583l-60 -62l275 11l84 150l72 -21l-48 -199h-529l-14 41l418 579l68 66l-250 -7l-61 -131l-72 11l30 184h492z" />
    <glyph glyph-name="bracketleft" unicode="[" horiz-adv-x="424" 
d="M68 -40v20t2 30q14 119 63 459q29 202 39 274q8 62 41 88.5t90 26.5q28 0 73 -9t56 -13l-8 -51h-137l-110 -815l137 -1l-6 -53q-75 -21 -136 -21q-104 0 -104 65z" />
    <glyph glyph-name="backslash" unicode="\" horiz-adv-x="417" 
d="M30 783h96l282 -960h-97z" />
    <glyph glyph-name="bracketright" unicode="]" horiz-adv-x="424" 
d="M371 800v-20t-2 -30q-14 -119 -63 -459q-29 -202 -39 -274q-8 -62 -41 -88.5t-90 -26.5q-28 0 -73 9t-56 13l8 51h137l110 815l-137 1l6 53q75 21 136 21q104 0 104 -65z" />
    <glyph glyph-name="asciicircum" unicode="^" horiz-adv-x="666" 
d="M377 748l198 -546h-104l-139 383l-139 -383h-103l196 546h91z" />
    <glyph glyph-name="underscore" unicode="_" horiz-adv-x="652" 
d="M614 -165h-673l9 69h672z" />
    <glyph glyph-name="grave" unicode="`" horiz-adv-x="264" 
d="M93.5 681q-64.5 55 -84.5 91l85 77l144 -210l-44 -31q-36 18 -100.5 73z" />
    <glyph glyph-name="a" unicode="a" horiz-adv-x="587" 
d="M475 90q0 -26 20 -26q16 0 45 24l14 -31q-13 -20 -46.5 -43.5t-77.5 -23.5q-34 0 -54 15t-21 46l2 17q-28 -33 -68 -55.5t-88 -22.5q-84 0 -125.5 57.5t-41.5 150.5q0 92 38.5 177t112.5 139t176 54q26 0 56.5 -6t53.5 -14l69 20l-64 -466q-1 -4 -1 -12zM350 506
q-60 0 -100 -45.5t-58.5 -115t-18.5 -140.5q0 -66 20 -102.5t59 -36.5q25 0 50.5 17t45.5 40l51 374q-19 9 -49 9z" />
    <glyph glyph-name="b" unicode="b" horiz-adv-x="583" 
d="M298.5 549.5q37.5 18.5 81.5 18.5q83 0 125 -55.5t42 -156.5q0 -95 -39.5 -179t-113.5 -135.5t-172 -51.5q-28 0 -60.5 7t-58.5 16l-61 -20l95 737l-50 20l9 38l152 18l24 -13l-38 -290q27 28 64.5 46.5zM234 52q59 0 98.5 44t58.5 113.5t19 144.5q0 61 -21 99.5
t-60 38.5q-31 0 -58 -18.5t-47 -44.5l-48 -366q20 -11 58 -11z" />
    <glyph glyph-name="c" unicode="c" horiz-adv-x="458" 
d="M345.5 475.5q-21.5 21.5 -37.5 21.5q-37 0 -68.5 -34t-51 -95t-19.5 -137q0 -83 24 -121.5t73 -38.5q42 0 71.5 16t57.5 45l26 -44q-25 -37 -78.5 -67.5t-126.5 -30.5q-86 0 -135 60.5t-49 171.5q0 84 35 163.5t104 131t166 51.5q31 0 64.5 -5.5t54.5 -15.5l-34 -130
l-27 2q-28 35 -49.5 56.5z" />
    <glyph glyph-name="d" unicode="d" horiz-adv-x="600" 
d="M484 89q0 -25 17 -25t45 23l14 -31q-56 -66 -124 -66q-35 0 -53 17t-21 52v15q-25 -35 -67 -59.5t-96 -24.5q-84 0 -125 57.5t-41 150.5t37 178t110.5 138.5t177.5 53.5q29 0 61 -8l25 169l-72 20l9 37l180 20l25 -13l-101 -692q-1 -4 -1 -12zM346 506q-61 0 -100 -46.5
t-57 -115.5t-18 -140q0 -66 20.5 -102t58.5 -36q31 0 59 19.5t46 46.5l54 360q-25 14 -63 14z" />
    <glyph glyph-name="e" unicode="e" horiz-adv-x="522" 
d="M377.5 23q-58.5 -36 -135.5 -36q-72 0 -118.5 31t-67.5 81t-21 109q0 100 40.5 182.5t110.5 130.5t156 48q77 0 114.5 -35.5t37.5 -92.5q0 -72 -52 -120t-125 -71.5t-138 -25.5q-2 -72 23.5 -116t77.5 -44q86 0 156 80l26 -44q-26 -41 -84.5 -77zM219 436
q-34 -71 -40 -158q39 2 82.5 21t73 53.5t29.5 79.5q0 36 -13.5 55.5t-38.5 19.5q-59 0 -93 -71z" />
    <glyph glyph-name="f" unicode="f" horiz-adv-x="338" 
d="M180.5 711q29.5 48 75.5 76t103 28q53 0 84 -12l-28 -80q-29 22 -67 22q-37 0 -53.5 -28t-24.5 -86l-10 -73h110l-13 -75h-107l-55 -444q-16 -123 -72.5 -206t-150.5 -84q-23 -1 -48.5 2t-40.5 7l26 84q13 -6 37.5 -13.5t39.5 -7.5q27 0 42.5 26.5t22.5 79.5l69 556h-64
l9 44l68 29l8 47q10 60 39.5 108z" />
    <glyph glyph-name="g" unicode="g" horiz-adv-x="584" 
d="M365 -201.5q-83 -49.5 -190 -49.5q-33 0 -70.5 6.5t-52.5 13.5l23 94q19 -12 58 -27t75 -15q58 0 85 23t35 87l15 119q-27 -26 -63 -43t-78 -17q-84 0 -126.5 57.5t-42.5 150.5q0 92 38.5 177t113 139t176.5 54q28 0 60 -6.5t56 -15.5l71 22l-85 -606
q-15 -114 -98 -163.5zM349 506q-60 0 -100 -46.5t-58.5 -116t-18.5 -139.5q0 -65 21.5 -101.5t59.5 -36.5q28 0 54.5 16.5t45.5 39.5l54 372q-21 12 -58 12z" />
    <glyph glyph-name="h" unicode="h" horiz-adv-x="624" 
d="M319.5 533q51.5 35 109.5 35q59 0 91.5 -34t32.5 -113q0 -31 -11.5 -98t-12.5 -76l-6 -32q-6 -33 -11.5 -68t-5.5 -57q0 -27 17 -27q9 0 19 5.5t28 19.5l13 -31q-13 -20 -48 -43.5t-84 -23.5t-67 19.5t-18 55.5q1 30 19 119l6 34q2 9 8.5 48t10.5 74.5t4 61.5
q0 46 -11 63t-37 17q-34 0 -75.5 -38.5t-70.5 -93.5l-44 -350h-133l91 729l-60 20l7 37l171 20l24 -13l-45 -353q37 58 88.5 93z" />
    <glyph glyph-name="i" unicode="i" horiz-adv-x="322" 
d="M200 88q0 -24 17 -24q9 0 20 6t28 20l13 -31q-17 -23 -50.5 -46t-81.5 -23q-39 0 -61 15.5t-22 42.5l1 10q6 52 41 302l16 116l-59 28l7 39l172 24l24 -11l-64 -456q-1 -5 -1 -12zM165.5 683.5q-19.5 20.5 -19.5 47.5q0 37 24.5 62t62.5 25q31 0 49 -19.5t18 -46.5
q0 -38 -23 -63.5t-65 -25.5q-27 0 -46.5 20.5z" />
    <glyph glyph-name="j" unicode="j" horiz-adv-x="318" 
d="M159.5 -137.5q-32.5 -57.5 -82 -88t-107.5 -30.5q-29 0 -53 4.5t-33 13.5l19 54q7 -3 20 -5t25 -2q59 0 85 58t38 164l52 453l-77 23l10 37l189 23l23 -11l-66 -556q-10 -80 -42.5 -137.5zM156.5 683.5q-19.5 20.5 -19.5 47.5q0 37 24.5 62t62.5 25q31 0 49 -19.5
t18 -46.5q0 -38 -23 -63.5t-65 -25.5q-27 0 -46.5 20.5z" />
    <glyph glyph-name="k" unicode="k" horiz-adv-x="550" 
d="M277 793l-106 -793h-132l96 729l-61 20l8 37l170 20zM240 313q44 25 75 49t62 65q25 35 27 80q1 31 22.5 45t47.5 14t41 -16t15 -40q1 -36 -25 -73q-27 -35 -74.5 -67t-98.5 -56l108 -194q12 -21 26.5 -32.5t26.5 -11.5q11 0 25.5 5.5t27.5 16.5l16 -32q-17 -25 -57 -50
t-87 -25q-35 0 -56.5 14t-34.5 42l-111 251z" />
    <glyph glyph-name="l" unicode="l" horiz-adv-x="305" 
d="M187 89q0 -25 18 -25q9 0 19.5 5t28.5 21l13 -31q-16 -23 -47 -46t-80 -23q-38 0 -62 15.5t-25 48.5q0 4 4 36l87 639l-63 20l9 37l170 20l23 -13l-94 -693q-1 -4 -1 -11z" />
    <glyph glyph-name="m" unicode="m" horiz-adv-x="946" 
d="M325 534q50 34 105 34q56 0 87.5 -29.5t36.5 -94.5q35 58 85.5 91t109.5 33q125 0 125 -147q0 -32 -20 -148l-4 -26l-5 -26q-17 -93 -18 -128q0 -29 17 -29q9 0 19.5 5.5t28.5 20.5l13 -31q-14 -21 -49 -45t-84 -24q-47 0 -65 19t-18 51q0 20 6 58.5t13 77.5l4 23
q12 68 17.5 107t5.5 76q0 46 -10.5 63t-36.5 17q-32 0 -69.5 -31t-64.5 -79q-4 -59 -13 -125l-31 -247h-135l29 218q18 124 18 188q-1 46 -12.5 61t-40.5 15q-32 0 -72.5 -35t-67.5 -84l-50 -363h-130l64 476l-51 27l8 41l156 24l23 -11l-10 -111q36 54 86 88z" />
    <glyph glyph-name="n" unicode="n" horiz-adv-x="630" 
d="M327 535q51 33 107 33q124 0 124 -147q0 -39 -25 -174q-4 -26 -7 -40q-14 -79 -15 -114v-4q0 -25 16 -25q9 0 19 5t26 18l14 -31q-15 -21 -49 -43.5t-83 -22.5q-47 0 -65 20.5t-18 54.5q1 30 19 119l6 34q2 9 8.5 48t10.5 74.5t4 61.5q0 46 -10.5 63t-37.5 17
q-33 0 -73.5 -37t-69.5 -89l-48 -356h-131l64 476l-51 27l8 41l156 24l23 -11l-10 -110q37 55 88 88z" />
    <glyph glyph-name="o" unicode="o" horiz-adv-x="589" 
d="M498 508.5q55 -60.5 55 -173.5q0 -93 -38 -173t-107 -127.5t-158 -47.5q-104 0 -158.5 61.5t-54.5 175.5q0 94 37.5 173t106.5 125.5t158 46.5q104 0 159 -60.5zM244 464.5q-32 -41.5 -47.5 -105.5t-15.5 -131q0 -95 21.5 -139t67.5 -44q45 0 76 42t46 107t15 133
q0 95 -20.5 137t-64.5 42q-46 0 -78 -41.5z" />
    <glyph glyph-name="p" unicode="p" horiz-adv-x="586" 
d="M302 549.5q37 18.5 81 18.5q83 0 126 -56t43 -156q0 -95 -40 -179t-113.5 -135.5t-169.5 -51.5q-26 0 -59 7l-35 -251h-128l99 733l-53 25l8 40l162 24l23 -11l-7 -55q26 29 63 47.5zM242 52q57 0 95.5 44t57 113t18.5 145q0 62 -20.5 100t-59.5 38q-31 0 -57 -18.5
t-46 -45.5l-51 -364q23 -12 63 -12z" />
    <glyph glyph-name="q" unicode="q" horiz-adv-x="587" 
d="M448 -153q0 -12 4.5 -19.5t13.5 -7.5q16 0 47 27l14 -31q-14 -21 -49.5 -45t-85.5 -24q-44 0 -64 21.5t-18 54.5l33 229q-26 -27 -62.5 -44.5t-80.5 -17.5q-85 0 -125.5 57.5t-40.5 150.5t37 178t110 138.5t177 53.5q28 0 61 -7t56 -16l68 19l-94 -708q-1 -3 -1 -9z
M347 506q-60 0 -100 -46t-58 -115.5t-18 -140.5q0 -66 21 -102t58 -36q30 0 57.5 18.5t46.5 44.5l51 365q-23 12 -58 12z" />
    <glyph glyph-name="r" unicode="r" horiz-adv-x="413" 
d="M291.5 524.5q46.5 43.5 104.5 43.5q20 0 34 -9l-29 -144q-6 5 -19.5 9.5t-32.5 4.5q-36 0 -69 -15.5t-51 -44.5l-49 -369h-130l63 475l-51 28l7 40l143 24l23 -14l-5 -91l-4 -38q19 57 65.5 100.5z" />
    <glyph glyph-name="s" unicode="s" horiz-adv-x="427" 
d="M340.5 489q-27.5 15 -63.5 15q-40 0 -64.5 -17.5t-24.5 -51.5q0 -30 20.5 -53.5t66.5 -56.5q51 -38 78 -73.5t27 -90.5t-30 -93.5t-80 -58t-110 -19.5q-45 0 -92 10.5t-61 22.5l20 85q21 -18 57 -34t75 -16q37 0 63.5 17t26.5 53q0 31 -23 56t-69 57q-42 29 -70.5 68.5
t-28.5 95.5q0 48 27.5 85t76 57.5t111.5 20.5q37 0 75 -6t51 -13l-19 -89q-12 14 -39.5 29z" />
    <glyph glyph-name="t" unicode="t" horiz-adv-x="355" 
d="M194 113q0 -23 9 -32.5t31 -9.5q20 0 45.5 9.5t42.5 23.5l11 -37q-26 -29 -74 -53t-108 -24q-42 0 -66.5 21.5t-24.5 68.5q0 20 10 94l42 310h-60l11 48l60 21q30 28 71 138h75l-17 -136h120l-10 -71h-120l-41 -301q-7 -58 -7 -70z" />
    <glyph glyph-name="u" unicode="u" horiz-adv-x="613" 
d="M209 237q-10 -78 -10 -100q0 -40 14 -57t42 -17q32 0 63.5 20t53.5 48l58 432h132l-64 -463q-2 -18 3 -27t15 -9q9 0 19 5.5t28 20.5l14 -31q-13 -21 -48 -45t-80 -24q-35 0 -53.5 15t-20.5 41l-1 12q0 8 2 20l-2 1q-74 -89 -174 -89q-56 0 -95 30.5t-40 97.5
q0 39 14 141q4 25 5 34l27 182l-58 34l8 41l166 17l23 -11l-34 -267q-4 -37 -7 -52z" />
    <glyph glyph-name="v" unicode="v" horiz-adv-x="525" 
d="M47 490q-11 0 -19 -5t-9 -6l-14 34q12 15 44 35t71 20t58 -17t24 -50l43 -295l14 -106l41 57q45 68 67.5 127.5t26.5 126.5q1 19 -7 51q-7 26 -7 44q0 27 17 44.5t46 17.5q39 0 57.5 -29.5t18.5 -74.5q0 -124 -194 -370l-76 -97l-88 -7l-36 183l-56 288q-5 27 -22 29z
" />
    <glyph glyph-name="w" unicode="w" horiz-adv-x="851" 
d="M60 483.5q-5 6.5 -13 6.5q-10 0 -17.5 -4.5t-10.5 -6.5l-14 34q11 15 44 35t71 20q40 0 58.5 -16.5t24.5 -50.5l39 -307l11 -100l41 121l121 349h120l46 -382l8 -85l37 56q41 62 67 128.5t27 129.5q0 18 -8 50q-8 30 -8 44q0 28 18 45.5t48 17.5q39 0 57 -28.5t18 -74.5
q1 -65 -61.5 -176.5t-129.5 -194.5l-73 -98l-96 -5l-26 177l-17 165l-6 71l-20 -72l-65 -150l-77 -185l-110 -7l-36 178l-59 293q-4 16 -9 22.5z" />
    <glyph glyph-name="x" unicode="x" horiz-adv-x="501" 
d="M91.5 481q-8.5 10 -19.5 10q-25 0 -43 -15l-17 35q6 8 24 21.5t46 24t62 10.5q36 0 58.5 -13.5t28.5 -37.5l42 -155l129 202h126l-218 -278l79 -163q7 -18 19.5 -33.5t24.5 -15.5q21 0 50 24l20 -35q-6 -10 -25 -27t-50.5 -31t-70.5 -14q-33 0 -52 13.5t-28 38.5l-48 166
l-134 -208h-131l226 283l-81 171q-9 17 -17.5 27z" />
    <glyph glyph-name="y" unicode="y" horiz-adv-x="534" 
d="M62 483.5q-5 6.5 -13 6.5q-13 0 -30 -14l-14 34q12 16 45.5 36.5t71.5 20.5q39 0 58 -16.5t24 -50.5l58 -380l14 -110l47 95q43 90 65.5 158t22.5 130q0 19 -3 32t-9 30q-11 28 -11 53q0 27 16.5 43t47.5 16q36 0 56.5 -28t20.5 -68q0 -71 -23 -134.5t-70 -157.5
q-33 -72 -85.5 -159.5t-92.5 -147.5q-41 -65 -87.5 -94t-110.5 -29q-26 0 -56.5 6.5t-41.5 13.5l31 87q11 -10 37 -18t51 -8q45 0 86.5 31.5t82.5 102.5h-72l-107 496q-4 17 -9 23.5z" />
    <glyph glyph-name="z" unicode="z" horiz-adv-x="498" 
d="M287 452q-81 2 -103 1q-33 -1 -53.5 -24.5t-22.5 -57.5h-40q-2 22 -2 45q0 49 8.5 90t28.5 51q17 10 47 10q53 0 156 -9q23 -1 65.5 -4t62.5 -3q34 0 53 16l25 -27l-291 -366l-74 -69l180 -2q39 0 61 23.5t27 62.5h39q1 -10 1 -35q0 -53 -8.5 -97.5t-29.5 -57.5
q-13 -10 -50 -10q-57 0 -165 9q-25 1 -69.5 4t-63.5 3q-13 0 -27.5 -4t-23.5 -12l-29 28l320 391l54 43z" />
    <glyph glyph-name="braceleft" unicode="{" horiz-adv-x="506" 
d="M143.5 103q19.5 132 26.5 180q0 8 -7 17.5t-20 16.5q-30 20 -82 34l9 56q62 16 95 32q30 16 33 33l42 269q9 64 42 89.5t90 25.5q19 0 49.5 -5.5t51 -10t26.5 -6.5q-1 -7 -4 -22.5t-4 -26.5h-135l-47 -311q-3 -20 -15 -34t-34 -27q-17 -9 -40 -19.5t-34 -14.5
q54 -27 72 -45q26 -25 22 -53l-47 -311h134l-6 -52q-41 -11 -69.5 -16t-65.5 -5q-103 0 -102 65q0 9 19.5 141z" />
    <glyph glyph-name="bar" unicode="|" horiz-adv-x="417" 
d="M264 869v-960h-91v960h91z" />
    <glyph glyph-name="braceright" unicode="}" horiz-adv-x="506" 
d="M370.5 652q-19.5 -132 -26.5 -180q0 -8 7 -17.5t20 -16.5q30 -20 82 -34l-9 -56q-62 -16 -95 -32q-30 -16 -33 -33l-42 -269q-9 -64 -42 -89.5t-90 -25.5q-19 0 -49.5 5.5t-51 10t-26.5 6.5q1 7 4 22.5t4 26.5h135l47 311q3 20 15 34t34 27q17 9 40 19.5t34 14.5
q-54 27 -72 45q-26 25 -22 53l47 311h-134l6 52q41 11 69.5 16t65.5 5q103 0 102 -65q0 -9 -19.5 -141z" />
    <glyph glyph-name="asciitilde" unicode="~" horiz-adv-x="555" 
d="M90 469.5q22 23.5 54 39t67 15.5q31 0 53.5 -11.5t49.5 -32.5q22 -17 37.5 -25.5t33.5 -8.5q61 0 97 56l42 -49q-7 -26 -29 -51t-55 -41t-68 -16q-32 0 -54.5 11.5t-51.5 34.5q-22 18 -37 26.5t-34 8.5q-29 0 -55 -13t-43 -39l-37 49q8 23 30 46.5z" />
    <glyph glyph-name="uni00A0" unicode="&#xa0;" horiz-adv-x="237" 
 />
    <glyph glyph-name="exclamdown" unicode="&#xa1;" horiz-adv-x="345" 
d="M270 535q-25 -25 -57 -25q-30 0 -46.5 19.5t-16.5 47.5q0 42 26.5 65.5t60.5 23.5q25 0 41.5 -18.5t16.5 -47.5q0 -40 -25 -65zM33 -212l121 616h84l-65 -616h-140z" />
    <glyph glyph-name="cent" unicode="&#xa2;" horiz-adv-x="516" 
d="M202 -5q-67 14 -103.5 72.5t-36.5 154.5q0 74 28 146.5t83.5 125t133.5 68.5l26 123h68l-25 -117q27 -1 60.5 -8t56.5 -16l-34 -131l-38 1q-15 38 -34.5 60.5t-48.5 22.5q-36 0 -67.5 -33.5t-50.5 -93.5t-19 -136q0 -85 23 -124t72 -39q43 0 72 15.5t58 45.5l26 -44
q-24 -33 -71 -62.5t-112 -34.5l-25 -110h-67z" />
    <glyph glyph-name="sterling" unicode="&#xa3;" horiz-adv-x="710" 
d="M307.5 2q-47.5 13 -110.5 37q-24 10 -36 14q-20 -19 -58.5 -40.5t-68.5 -21.5q-20 0 -32.5 10t-11.5 30q1 17 17 33.5t43.5 27.5t60.5 11q24 21 41 114l25 141h-92l8 76h96q8 40 11 59q12 71 52 131.5t101 96.5t132 36q56 0 88.5 -9t57.5 -30l-51 -96q-10 19 -40 41.5
t-74 22.5q-99 0 -128 -162l-15 -90h145l-8 -76h-151l-12 -67q-11 -62 -33.5 -104t-40.5 -66.5t-23 -31.5q5 -1 22 -5q51 -11 87 -17t72 -6q84 0 123.5 23.5t39.5 75.5q0 27 -15 52t-33 38l85 75q88 -57 88 -144q0 -85 -63.5 -138.5t-188.5 -53.5q-62 0 -109.5 13z" />
    <glyph glyph-name="currency" unicode="&#xa4;" horiz-adv-x="751" 
d="M210 215q-37 56 -37 122q0 65 36 120l-99 99l60 62l101 -102q54 35 116 35q68 0 122 -38l99 98l59 -61l-99 -99q34 -53 34 -114q0 -65 -36 -118l100 -100l-60 -61l-100 101q-53 -36 -119 -36q-62 0 -114 33l-101 -100l-60 61zM303 249.5q35 -36.5 84 -36.5q50 0 85 36.5
t35 87.5t-35 87t-85 36q-49 0 -84 -36t-35 -87t35 -87.5z" />
    <glyph glyph-name="yen" unicode="&#xa5;" horiz-adv-x="727" 
d="M288 414l-141 272l-65 11l6 49h303l-7 -49l-102 -11l87 -205l21 -81l47 82l137 207l-66 8l6 49h255l-6 -49l-64 -13l-209 -270h135l-8 -67h-175l-13 -97h176l-7 -65h-177l-15 -125l134 -14l-4 -46h-385l5 46l130 14l15 125h-185l7 65h186l12 97h-186l8 67h145z" />
    <glyph glyph-name="brokenbar" unicode="&#xa6;" horiz-adv-x="417" 
d="M264 869v-427h-91v427h91zM264 336v-427h-91v427h91z" />
    <glyph glyph-name="section" unicode="&#xa7;" horiz-adv-x="583" 
d="M131 115l11 -105q16 -19 45.5 -28.5t66.5 -9.5q49 0 89 22.5t43 72.5q2 35 -30.5 58.5t-100.5 53.5q-63 29 -101 51.5t-65.5 58.5t-27.5 87q0 83 83 156q-37 42 -37 95q0 59 39.5 102t100 65.5t123.5 22.5q61 0 114.5 -11.5t75.5 -25.5l-24 -156h-75l-14 104
q-12 13 -37.5 20.5t-54.5 7.5q-53 0 -91.5 -19.5t-38.5 -70.5q0 -29 18.5 -50t46 -36t74.5 -35q57 -24 93 -44.5t61 -53t25 -79.5q0 -100 -78 -172q38 -45 38 -98q0 -58 -37.5 -101t-98 -65.5t-126.5 -22.5q-58 0 -122.5 13t-87.5 26l25 167h75zM425.5 358.5
q-19.5 22.5 -48.5 38.5t-80 39q-7 3 -42.5 20t-63.5 35q-30 -34 -30 -69q0 -29 19.5 -51t48 -38t79.5 -40q76 -35 109 -57q14 18 21 33.5t7 37.5q0 29 -19.5 51.5z" />
    <glyph glyph-name="dieresis" unicode="&#xa8;" horiz-adv-x="395" 
d="M38.5 684q-18.5 21 -18.5 48q0 37 21 61.5t55 24.5q29 0 46.5 -20t17.5 -48q-1 -37 -21.5 -62t-57.5 -25q-24 0 -42.5 21zM254.5 684q-18.5 21 -18.5 48q0 37 20.5 61.5t55.5 24.5q29 0 46.5 -20t17.5 -48q-1 -37 -21.5 -62t-57.5 -25q-24 0 -42.5 21z" />
    <glyph glyph-name="copyright" unicode="&#xa9;" horiz-adv-x="1049" 
d="M187 703q57 97 154.5 153.5t213.5 56.5t213 -56.5t153.5 -153.5t56.5 -214t-56.5 -214.5t-153.5 -154t-213 -56.5t-213.5 56.5t-154.5 154t-57 214.5t57 214zM246 305.5q47 -83.5 128.5 -132.5t180.5 -49q98 0 179 49.5t127.5 133t46.5 182.5q0 100 -46.5 184
t-127.5 132.5t-179 48.5q-99 0 -180.5 -49t-128.5 -133t-47 -183q0 -100 47 -183.5zM397 316q-56 65 -56 172q0 68 32 124t88.5 88t127.5 32q36 0 74.5 -8.5t51.5 -21.5l-2 -124h-64l-22 67q-9 7 -24 11t-44 4q-54 0 -83 -42t-29 -112q0 -74 39.5 -119.5t104.5 -45.5
q29 0 56 10.5t45 28.5l30 -53q-24 -30 -69 -53t-94 -23q-106 0 -162 65z" />
    <glyph glyph-name="ordfeminine" unicode="&#xaa;" horiz-adv-x="417" 
d="M374 434q0 -19 9 -19q11 0 29 13l14 -25q-7 -8 -41 -23t-61 -16q-26 0 -41 13t-15 37q0 8 1 13q-22 -28 -51 -45t-75 -18q-56 0 -87.5 45t-31.5 117q0 66 37.5 130t100.5 105t135 41q39 0 84 -15l61 18l-67 -358q-1 -5 -1 -13zM286 753q-45 0 -78 -32.5t-50 -83
t-17 -104.5q0 -110 54 -110q19 0 38.5 11t34.5 27l54 277q-18 15 -36 15z" />
    <glyph glyph-name="guillemotleft" unicode="&#xab;" horiz-adv-x="701" 
d="M400 532l-187 -235l109 -226l-62 -30l-196 223l11 72l267 224zM671 532l-191 -235l113 -226l-62 -30l-200 223l11 72l271 224z" />
    <glyph glyph-name="logicalnot" unicode="&#xac;" horiz-adv-x="669" 
d="M587 421l-30 -264h-93l22 190h-383l8 74h476z" />
    <glyph glyph-name="uni00AD" unicode="&#xad;" horiz-adv-x="633" 
d="M538 363l-16 -85h-415l14 85h417z" />
    <glyph glyph-name="registered" unicode="&#xae;" horiz-adv-x="1049" 
d="M187 703q57 97 154.5 153.5t213.5 56.5t213 -56.5t153.5 -153.5t56.5 -214t-56.5 -214.5t-153.5 -154t-213 -56.5t-213.5 56.5t-154.5 154t-57 214.5t57 214zM246 305.5q47 -83.5 128.5 -132.5t180.5 -49q98 0 179 49.5t127.5 133t46.5 182.5q0 100 -46.5 184
t-127.5 132.5t-179 48.5q-99 0 -180.5 -49t-128.5 -133t-47 -183q0 -100 47 -183.5zM397 661l-41 11v52h91q23 -1 63 1q30 2 55 2q94 0 139 -34t45 -93q0 -52 -25 -89t-78 -48q37 -15 54 -39t31 -62q10 -29 19.5 -42.5t29.5 -14.5v-51h-99q-23 0 -33.5 19.5t-21.5 60.5
q-12 44 -25 69.5t-40 34.5h-58v-127l46 -10v-47h-193v47l41 13v347zM564 497q29 0 48.5 26t19.5 61q0 46 -18.5 65.5t-60.5 19.5q-27 0 -50 -5v-163q16 -4 61 -4z" />
    <glyph glyph-name="macron" unicode="&#xaf;" horiz-adv-x="300" 
d="M289 778l-9 -88h-269l9 88h269z" />
    <glyph glyph-name="degree" unicode="&#xb0;" horiz-adv-x="422" 
d="M173 489.5q-37 21.5 -58.5 58t-21.5 80.5q0 47 22.5 85.5t61.5 61t88 22.5q46 0 83.5 -22t59 -58.5t21.5 -80.5q0 -47 -23 -85.5t-62.5 -60.5t-88.5 -22q-45 0 -82 21.5zM327 563.5q27 28.5 27 70.5q0 40 -27 67.5t-65 27.5q-41 0 -67.5 -28t-26.5 -71q0 -39 26.5 -67
t64.5 -28q41 0 68 28.5z" />
    <glyph glyph-name="plusminus" unicode="&#xb1;" horiz-adv-x="655" 
d="M280 255l14 82l-73 -3h-99l8 86h107l71 -5l6 82l13 113h94l-12 -113l-15 -82l59 5h115l-8 -86h-122l-57 3q0 -13 -1 -23.5t-2 -17.5l-3 -41l-14 -118h-94zM95 83h419l-9 -78h-417z" />
    <glyph glyph-name="uni00B2" unicode="&#xb2;" horiz-adv-x="500" 
d="M261.5 529.5q95.5 82.5 95.5 158.5q0 37 -20.5 56.5t-58.5 19.5q-36 0 -69.5 -15t-54.5 -36l-34 41q24 30 77 55.5t110 25.5q82 0 125 -32t43 -86q0 -78 -90.5 -162t-208.5 -144l233 23l32 59l48 -11l-32 -139h-367l-19 50q95 54 190.5 136.5z" />
    <glyph glyph-name="uni00B3" unicode="&#xb3;" horiz-adv-x="507" 
d="M171.5 341.5q-37.5 6.5 -67.5 21.5l6 59q24 -10 61 -16t66 -6q65 0 101 26t36 70q0 29 -22 50t-57 21h-8l-63 -20l-11 57q35 8 66 24q75 37 76 88q2 24 -13.5 37.5t-53.5 13.5q-60 0 -119 -45l-25 49q31 28 82 46t107 18q63 0 100.5 -25.5t37.5 -66.5q0 -42 -27.5 -76.5
t-99.5 -60.5q6 1 19 1q57 0 93 -30.5t36 -78.5q0 -46 -30.5 -83t-87 -58.5t-131.5 -21.5q-34 0 -71.5 6.5z" />
    <glyph glyph-name="acute" unicode="&#xb4;" horiz-adv-x="259" 
d="M233 875l78 -79q-9 -16 -46 -52t-80.5 -69.5t-71.5 -45.5l-38 37z" />
    <glyph glyph-name="uni00B5" unicode="&#xb5;" horiz-adv-x="666" 
d="M34 -182l52 357q4 31 14 91q20 121 26 191q1 32 -18 32q-16 0 -36 -18l-14 34q21 23 50 42t80 19q36 0 56.5 -15t19.5 -48q-5 -60 -22 -170l-7 -41q-5 -31 -9.5 -64t-4.5 -63q0 -51 19.5 -73t48.5 -22q33 0 56 17.5t48 48.5l59 426h131l-62 -457q-1 -6 -1 -16
q0 -25 18 -25q8 0 20.5 6.5t22.5 15.5l13 -31q-12 -20 -46 -42.5t-76 -22.5q-30 0 -47 12.5t-17 44.5q0 8 1 13q-3 -3 -22.5 -23t-51 -33.5t-66.5 -13.5q-30 0 -57 10t-38 27l-31 -209h-109z" />
    <glyph glyph-name="paragraph" unicode="&#xb6;" horiz-adv-x="691" 
d="M104 39l97 14l43 346q-50 0 -90.5 26t-63.5 70.5t-23 97.5q0 115 74 178.5t229 63.5q43 0 105 -4q70 -5 98 -5h137l-5 -47l-82 -16l-87 -710l77 -14l-5 -39h-195l92 762l-104 1l-94 -763h-206z" />
    <glyph glyph-name="periodcentered" unicode="&#xb7;" horiz-adv-x="99" 
d="M14.5 370q-18.5 19 -18.5 49q0 41 24.5 66.5t57.5 25.5q32 0 50.5 -21t16.5 -51q-1 -42 -26.5 -65t-59.5 -23q-26 0 -44.5 19z" />
    <glyph glyph-name="cedilla" unicode="&#xb8;" horiz-adv-x="234" 
d="M190 13q9 -14 15.5 -43t6.5 -58q0 -66 -38 -105.5t-108 -39.5q-19 0 -43.5 5t-32.5 10l14 68q16 -8 42 -8q44 0 66 26.5t22 75.5q0 46 -6 69l31 2z" />
    <glyph glyph-name="uni00B9" unicode="&#xb9;" horiz-adv-x="460" 
d="M216 386l37 306q-22 -10 -59.5 -19t-70.5 -13l-7 56q40 8 108.5 38.5t99.5 57.5h1l54 -11l-50 -415l115 -10l-7 -56h-346l7 56z" />
    <glyph glyph-name="ordmasculine" unicode="&#xba;" horiz-adv-x="419" 
d="M410 752.5q45 -49.5 45 -130.5t-32.5 -139.5t-86 -88.5t-115.5 -30q-75 1 -122 51t-47 131q0 78 34 136t87.5 89t110.5 31q81 0 126 -49.5zM210 723q-27 -29 -40 -73.5t-13 -90.5q0 -63 21.5 -102t55.5 -39q61 0 85.5 54.5t24.5 140.5q0 63 -18 101t-50 38q-39 0 -66 -29
z" />
    <glyph glyph-name="guillemotright" unicode="&#xbb;" horiz-adv-x="673" 
d="M369 326l-10 -65l-270 -220l-56 30l188 228l-114 233l65 28zM623 326l-11 -65l-266 -220l-56 30l184 228l-110 233l65 28z" />
    <glyph glyph-name="onequarter" unicode="&#xbc;" horiz-adv-x="1103" 
d="M189 324l37 306q-21 -10 -58 -19t-70 -13l-7 56q40 8 107 38.5t99 57.5h1l54 -11l-50 -415l117 -10l-7 -56h-346l7 56zM778 747l-373 -747h-85l373 747h85zM887 536h27l65 -47l-222 -284l-39 -44l177 9l17 117l90 9l-17 -121l82 5l-10 -82h-83l-12 -98h-90l13 98h-245
l-21 56z" />
    <glyph glyph-name="onehalf" unicode="&#xbd;" horiz-adv-x="1116" 
d="M189 324l37 306q-21 -10 -58 -19t-70 -13l-7 56q40 8 107 38.5t99 57.5h1l54 -11l-50 -415l117 -10l-7 -56h-346l7 56zM778 747l-373 -747h-85l373 747h85zM829.5 186.5q95.5 82.5 95.5 158.5q0 37 -20.5 56.5t-58.5 19.5q-36 0 -69.5 -15t-54.5 -36l-34 41
q24 30 77 55.5t110 25.5q82 0 125 -32t43 -86q0 -78 -90.5 -162t-208.5 -144l233 23l32 59l48 -11l-32 -139h-367l-19 50q95 54 190.5 136.5z" />
    <glyph glyph-name="threequarters" unicode="&#xbe;" horiz-adv-x="1154" 
d="M159.5 256.5q-37.5 6.5 -67.5 21.5l6 59q24 -10 61 -16t66 -6q65 0 101 26t36 70q0 29 -22 50t-57 21h-8l-63 -20l-11 57q35 8 66 24q75 37 76 88q2 24 -13.5 37.5t-53.5 13.5q-60 0 -119 -45l-25 49q31 28 82 46t107 18q63 0 100.5 -25.5t37.5 -66.5q0 -42 -27.5 -76.5
t-99.5 -60.5q6 1 19 1q57 0 93 -30.5t36 -78.5q0 -46 -30.5 -83t-87 -58.5t-131.5 -21.5q-34 0 -71.5 6.5zM829 747l-373 -747h-85l373 747h85zM938 536h27l65 -47l-222 -284l-39 -44l177 9l17 117l90 9l-17 -121l82 5l-10 -82h-83l-12 -98h-90l13 98h-245l-21 56z" />
    <glyph glyph-name="questiondown" unicode="&#xbf;" horiz-adv-x="497" 
d="M404.5 405q8.5 -34 8.5 -64q0 -32 -18.5 -57t-45.5 -43.5t-79 -47.5q-89 -45 -122 -86q-5 -11 -8 -29.5t-3 -32.5q0 -67 44.5 -105.5t124.5 -38.5q29 0 59.5 5t50.5 15l-19 -86q-12 -11 -52 -23.5t-83 -12.5q-126 0 -178 60.5t-52 147.5q0 77 38 132q51 72 160 126
q37 19 59 39t23 47q3 51 -8 84l73 21l7 -1q12 -16 20.5 -50zM370 570q-25 -25 -57 -25q-31 0 -47.5 19t-16.5 48q0 42 26.5 65.5t60.5 23.5q25 0 42 -18.5t17 -48.5q0 -39 -25 -64z" />
    <glyph glyph-name="Agrave" unicode="&#xc0;" horiz-adv-x="658" 
d="M467 744l123 -683l79 -15l-3 -46h-307l2 46l82 13l-24 151h-253l-67 -150l91 -14l-3 -46h-260l4 46l68 13l329 685h139zM194 275h216l-44 295l-5 82zM331.5 844q-50.5 39 -71.5 76l74 56l135 -153l-49 -32q-38 14 -88.5 53z" />
    <glyph glyph-name="Aacute" unicode="&#xc1;" horiz-adv-x="658" 
d="M467 744l123 -683l79 -15l-3 -46h-307l2 46l82 13l-24 151h-253l-67 -150l91 -14l-3 -46h-260l4 46l68 13l329 685h139zM194 275h216l-44 295l-5 82zM494 983l75 -63q-22 -30 -80 -68.5t-95 -52.5l-53 35z" />
    <glyph glyph-name="Acircumflex" unicode="&#xc2;" horiz-adv-x="658" 
d="M467 744l123 -683l79 -15l-3 -46h-307l2 46l82 13l-24 151h-253l-67 -150l91 -14l-3 -46h-260l4 46l68 13l329 685h139zM194 275h216l-44 295l-5 82zM386 981h80l104 -169l-49 -27l-104 109l-160 -108l-43 26z" />
    <glyph glyph-name="Atilde" unicode="&#xc3;" horiz-adv-x="658" 
d="M467 744l123 -683l79 -15l-3 -46h-307l2 46l82 13l-24 151h-253l-67 -150l91 -14l-3 -46h-260l4 46l68 13l329 685h139zM194 275h216l-44 295l-5 82zM276 942q32 24 74 24q26 0 44 -10.5t38 -30.5q17 -16 28.5 -23.5t26.5 -7.5q25 0 43 14t33 35l35 -46
q-13 -33 -45.5 -59.5t-71.5 -26.5q-29 0 -47 10t-40 30q-16 16 -29.5 24t-32.5 8q-21 0 -36 -10.5t-34 -31.5l-31 43q13 34 45 58z" />
    <glyph glyph-name="Adieresis" unicode="&#xc4;" horiz-adv-x="658" 
d="M467 744l123 -683l79 -15l-3 -46h-307l2 46l82 13l-24 151h-253l-67 -150l91 -14l-3 -46h-260l4 46l68 13l329 685h139zM194 275h216l-44 295l-5 82zM252 839.5q-17 17.5 -17 44.5q0 35 21 57.5t53 22.5q28 0 44.5 -17t16.5 -43q0 -38 -19.5 -60t-56.5 -22
q-25 0 -42 17.5zM481.5 839.5q-16.5 17.5 -16.5 44.5q0 36 20.5 58t52.5 22q28 0 44.5 -17t16.5 -43q0 -37 -20 -59.5t-56 -22.5q-25 0 -41.5 17.5z" />
    <glyph glyph-name="Aring" unicode="&#xc5;" horiz-adv-x="658" 
d="M264.5 777.5q-21.5 26.5 -21.5 64.5q0 48 29 79t71.5 45t84.5 14q64 0 104.5 -28t40.5 -78q0 -52 -30 -85t-77 -48l124 -680l79 -15l-3 -46h-307l2 46l82 13l-24 151h-253l-67 -150l91 -14l-3 -46h-260l4 46l68 13l326 681q-39 11 -60.5 37.5zM351.5 907
q-28.5 -18 -28.5 -56q0 -28 23.5 -46.5t54.5 -18.5q38 0 65 17.5t27 59.5q0 28 -22 45t-53 17q-38 0 -66.5 -18zM194 275h216l-44 295l-5 82z" />
    <glyph glyph-name="AE" unicode="&#xc6;" horiz-adv-x="952" 
d="M330 46l74 13l20 157h-237l-81 -156l98 -14l-3 -46h-295l5 46l78 13l353 620l-146 12l7 52h726l-13 -168h-86l-17 104l-188 11l-36 -271l220 16l-13 -97l-215 13l-38 -291l247 14l53 132l84 -8l-35 -198h-568zM221 282h211l52 405l-52 1z" />
    <glyph glyph-name="Ccedilla" unicode="&#xc7;" horiz-adv-x="624" 
d="M86 547q52 99 145 152t213 53q57 0 90.5 -5t54.5 -10.5t29 -7.5l18 -5l-30 -190h-98l-14 146q-30 14 -71 14q-79 0 -132.5 -57t-79 -143.5t-23.5 -174.5q8 -258 155 -258q32 0 64.5 8.5t54.5 31.5q16 26 36 101h82l-21 -146q-83 -55 -200 -63q13 -34 13 -86
q0 -65 -37 -102t-108 -37q-20 0 -41.5 5t-33.5 14l16 74q11 -7 43 -7q48 0 66 23.5t16 78.5q-1 17 -5 38q-130 9 -192 99.5t-62 220.5q0 134 52 233z" />
    <glyph glyph-name="Egrave" unicode="&#xc8;" horiz-adv-x="624" 
d="M604 743l-12 -171h-82l-19 107l-195 11l-35 -266l227 15l-13 -96l-223 12l-36 -290l251 14l53 130l83 -9l-37 -200h-574l6 46l76 13l81 623l-70 12l6 49h513zM305.5 844q-50.5 39 -71.5 76l74 56l135 -153l-49 -32q-38 14 -88.5 53z" />
    <glyph glyph-name="Eacute" unicode="&#xc9;" horiz-adv-x="624" 
d="M493 983l75 -63q-22 -30 -80 -68.5t-95 -52.5l-53 35zM604 743l-12 -171h-82l-19 107l-195 11l-35 -266l227 15l-13 -96l-223 12l-36 -290l251 14l53 130l83 -9l-37 -200h-574l6 46l76 13l81 623l-70 12l6 49h513z" />
    <glyph glyph-name="Ecircumflex" unicode="&#xca;" horiz-adv-x="624" 
d="M604 743l-12 -171h-82l-19 107l-195 11l-35 -266l227 15l-13 -96l-223 12l-36 -290l251 14l53 130l83 -9l-37 -200h-574l6 46l76 13l81 623l-70 12l6 49h513zM360 981h80l104 -169l-49 -27l-104 109l-160 -108l-43 26z" />
    <glyph glyph-name="Edieresis" unicode="&#xcb;" horiz-adv-x="624" 
d="M604 743l-12 -171h-82l-19 107l-195 11l-35 -266l227 15l-13 -96l-223 12l-36 -290l251 14l53 130l83 -9l-37 -200h-574l6 46l76 13l81 623l-70 12l6 49h513zM226 839.5q-17 17.5 -17 44.5q0 35 21 57.5t53 22.5q28 0 44.5 -17t16.5 -43q0 -38 -19.5 -60t-56.5 -22
q-25 0 -42 17.5zM455.5 839.5q-16.5 17.5 -16.5 44.5q0 36 20.5 58t52.5 22q28 0 44.5 -17t16.5 -43q0 -37 -20 -59.5t-56 -22.5q-25 0 -41.5 17.5z" />
    <glyph glyph-name="Igrave" unicode="&#xcc;" horiz-adv-x="363" 
d="M387 743l-5 -49l-81 -12l-81 -622l83 -14l-3 -46h-299l6 46l73 14l81 622l-70 12l5 49h291zM177.5 844q-50.5 39 -71.5 76l74 56l135 -153l-49 -32q-38 14 -88.5 53z" />
    <glyph glyph-name="Iacute" unicode="&#xcd;" horiz-adv-x="363" 
d="M387 743l-5 -49l-81 -12l-81 -622l83 -14l-3 -46h-299l6 46l73 14l81 622l-70 12l5 49h291zM340 983l75 -63q-22 -30 -80 -68.5t-95 -52.5l-53 35z" />
    <glyph glyph-name="Icircumflex" unicode="&#xce;" horiz-adv-x="363" 
d="M387 743l-5 -49l-81 -12l-81 -622l83 -14l-3 -46h-299l6 46l73 14l81 622l-70 12l5 49h291zM232 981h80l104 -169l-49 -27l-104 109l-160 -108l-43 26z" />
    <glyph glyph-name="Idieresis" unicode="&#xcf;" horiz-adv-x="363" 
d="M387 743l-5 -49l-81 -12l-81 -622l83 -14l-3 -46h-299l6 46l73 14l81 622l-70 12l5 49h291zM98 839.5q-17 17.5 -17 44.5q0 35 21 57.5t53 22.5q28 0 44.5 -17t16.5 -43q0 -38 -19.5 -60t-56.5 -22q-25 0 -42 17.5zM327.5 839.5q-16.5 17.5 -16.5 44.5q0 36 20.5 58
t52.5 22q28 0 44.5 -17t16.5 -43q0 -37 -20 -59.5t-56 -22.5q-25 0 -41.5 17.5z" />
    <glyph glyph-name="Eth" unicode="&#xd0;" horiz-adv-x="725" 
d="M319 748q58 4 88 4q159 0 231.5 -82t72.5 -222q0 -134 -46.5 -236.5t-139.5 -160.5t-230 -58q-20 0 -46 4q-48 4 -105 4h-149l5 46l76 14l38 287h-71l11 72h69l35 263l-69 12l5 49h141q26 0 84 4zM263 53.5q26 -3.5 42 -3.5q87 1 145 58.5t85 146t27 183.5
q-1 137 -42 197t-134 60q-52 0 -89 -11l-34 -264h165l-10 -72h-165l-37 -286q21 -5 47 -8.5z" />
    <glyph glyph-name="Ntilde" unicode="&#xd1;" horiz-adv-x="752" 
d="M321 743l204 -507l38 -112l70 559l-83 11l5 49h234l-4 -49l-65 -12l-101 -682h-142l-210 517l-38 119l-64 -576l90 -14l-4 -46h-252l3 46l71 13l89 623l-79 12l7 49h231zM330 942q32 24 74 24q26 0 44 -10.5t38 -30.5q17 -16 28.5 -23.5t26.5 -7.5q25 0 43 14t33 35
l35 -46q-13 -33 -45.5 -59.5t-71.5 -26.5q-29 0 -47 10t-40 30q-16 16 -29.5 24t-32.5 8q-21 0 -36 -10.5t-34 -31.5l-31 43q13 34 45 58z" />
    <glyph glyph-name="Ograve" unicode="&#xd2;" horiz-adv-x="701" 
d="M562.5 710q60.5 -43 88.5 -115.5t28 -162.5q0 -119 -42 -219.5t-125.5 -161.5t-202.5 -61q-135 0 -202.5 89t-67.5 234q0 120 43.5 220.5t127.5 160t199 59.5q93 0 153.5 -43zM286.5 644q-47.5 -52 -73 -139t-24.5 -189q0 -117 31.5 -193.5t101.5 -76.5q64 0 110.5 49.5
t71 135t24.5 191.5q0 131 -32 202.5t-100 71.5q-62 0 -109.5 -52zM361.5 844q-50.5 39 -71.5 76l74 56l135 -153l-49 -32q-38 14 -88.5 53z" />
    <glyph glyph-name="Oacute" unicode="&#xd3;" horiz-adv-x="701" 
d="M515 983l75 -63q-22 -30 -80 -68.5t-95 -52.5l-53 35zM563.5 710q60.5 -43 88.5 -115.5t28 -162.5q0 -119 -42 -219.5t-125.5 -161.5t-202.5 -61q-135 0 -202.5 89t-67.5 234q0 120 43.5 220.5t127.5 160t199 59.5q93 0 153.5 -43zM287.5 644q-47.5 -52 -73 -139
t-24.5 -189q0 -117 31.5 -193.5t101.5 -76.5q64 0 110.5 49.5t71 135t24.5 191.5q0 131 -32 202.5t-100 71.5q-62 0 -109.5 -52z" />
    <glyph glyph-name="Ocircumflex" unicode="&#xd4;" horiz-adv-x="701" 
d="M562.5 710q60.5 -43 88.5 -115.5t28 -162.5q0 -119 -42 -219.5t-125.5 -161.5t-202.5 -61q-135 0 -202.5 89t-67.5 234q0 120 43.5 220.5t127.5 160t199 59.5q93 0 153.5 -43zM286.5 644q-47.5 -52 -73 -139t-24.5 -189q0 -117 31.5 -193.5t101.5 -76.5q64 0 110.5 49.5
t71 135t24.5 191.5q0 131 -32 202.5t-100 71.5q-62 0 -109.5 -52zM416 981h80l104 -169l-49 -27l-104 109l-160 -108l-43 26z" />
    <glyph glyph-name="Otilde" unicode="&#xd5;" horiz-adv-x="701" 
d="M562.5 710q60.5 -43 88.5 -115.5t28 -162.5q0 -119 -42 -219.5t-125.5 -161.5t-202.5 -61q-135 0 -202.5 89t-67.5 234q0 120 43.5 220.5t127.5 160t199 59.5q93 0 153.5 -43zM286.5 644q-47.5 -52 -73 -139t-24.5 -189q0 -117 31.5 -193.5t101.5 -76.5q64 0 110.5 49.5
t71 135t24.5 191.5q0 131 -32 202.5t-100 71.5q-62 0 -109.5 -52zM306 942q32 24 74 24q26 0 44 -10.5t38 -30.5q17 -16 28.5 -23.5t26.5 -7.5q25 0 43 14t33 35l35 -46q-13 -33 -45.5 -59.5t-71.5 -26.5q-29 0 -47 10t-40 30q-16 16 -29.5 24t-32.5 8q-21 0 -36 -10.5
t-34 -31.5l-31 43q13 34 45 58z" />
    <glyph glyph-name="Odieresis" unicode="&#xd6;" horiz-adv-x="701" 
d="M562.5 710q60.5 -43 88.5 -115.5t28 -162.5q0 -119 -42 -219.5t-125.5 -161.5t-202.5 -61q-135 0 -202.5 89t-67.5 234q0 120 43.5 220.5t127.5 160t199 59.5q93 0 153.5 -43zM286.5 644q-47.5 -52 -73 -139t-24.5 -189q0 -117 31.5 -193.5t101.5 -76.5q64 0 110.5 49.5
t71 135t24.5 191.5q0 131 -32 202.5t-100 71.5q-62 0 -109.5 -52zM282 839.5q-17 17.5 -17 44.5q0 35 21 57.5t53 22.5q28 0 44.5 -17t16.5 -43q0 -38 -19.5 -60t-56.5 -22q-25 0 -42 17.5zM511.5 839.5q-16.5 17.5 -16.5 44.5q0 36 20.5 58t52.5 22q28 0 44.5 -17t16.5 -43
q0 -37 -20 -59.5t-56 -22.5q-25 0 -41.5 17.5z" />
    <glyph glyph-name="multiply" unicode="&#xd7;" horiz-adv-x="669" 
d="M343 318l-74 -70q-71 -67 -109 -102l-55 67l189 161l-148 162l69 65l139 -172l90 85l92 87l55 -66l-188 -162l149 -162l-70 -65z" />
    <glyph glyph-name="Oslash" unicode="&#xd8;" horiz-adv-x="702" 
d="M656.5 586.5q24.5 -67.5 24.5 -150.5q0 -120 -41.5 -221.5t-125.5 -162.5t-203 -61q-84 0 -146 38l-64 -98l-41 24l68 103q-44 42 -66 107.5t-22 146.5q0 120 43.5 221t127 161t199.5 60q78 0 135 -31l65 99l40 -24l-67 -102q49 -42 73.5 -109.5zM397 697
q-62 0 -109.5 -52t-73 -139t-24.5 -189q0 -85 20 -151l278 469q-29 62 -91 62zM324 47q64 0 110.5 50t71 136.5t24.5 193.5q0 95 -24 161l-279 -472q33 -69 97 -69z" />
    <glyph glyph-name="Ugrave" unicode="&#xd9;" horiz-adv-x="701" 
d="M534.5 63.5q-74.5 -73.5 -209.5 -73.5q-125 0 -186.5 59.5t-62.5 159.5q0 52 4 81l51 393l-70 11l6 49h299l-5 -48l-90 -13l-50 -381q-7 -65 -7 -96q1 -75 35.5 -117t100.5 -42q88 0 134 64t63 196l51 376l-70 13l4 48h217l-6 -48l-63 -12l-49 -377
q-22 -169 -96.5 -242.5zM367.5 844q-50.5 39 -71.5 76l74 56l135 -153l-49 -32q-38 14 -88.5 53z" />
    <glyph glyph-name="Uacute" unicode="&#xda;" horiz-adv-x="701" 
d="M534.5 63.5q-74.5 -73.5 -209.5 -73.5q-125 0 -186.5 59.5t-62.5 159.5q0 52 4 81l51 393l-70 11l6 49h299l-5 -48l-90 -13l-50 -381q-7 -65 -7 -96q1 -75 35.5 -117t100.5 -42q88 0 134 64t63 196l51 376l-70 13l4 48h217l-6 -48l-63 -12l-49 -377
q-22 -169 -96.5 -242.5zM530 983l75 -63q-22 -30 -80 -68.5t-95 -52.5l-53 35z" />
    <glyph glyph-name="Ucircumflex" unicode="&#xdb;" horiz-adv-x="701" 
d="M534.5 63.5q-74.5 -73.5 -209.5 -73.5q-125 0 -186.5 59.5t-62.5 159.5q0 52 4 81l51 393l-70 11l6 49h299l-5 -48l-90 -13l-50 -381q-7 -65 -7 -96q1 -75 35.5 -117t100.5 -42q88 0 134 64t63 196l51 376l-70 13l4 48h217l-6 -48l-63 -12l-49 -377
q-22 -169 -96.5 -242.5zM422 981h80l104 -169l-49 -27l-104 109l-160 -108l-43 26z" />
    <glyph glyph-name="Udieresis" unicode="&#xdc;" horiz-adv-x="701" 
d="M534.5 63.5q-74.5 -73.5 -209.5 -73.5q-125 0 -186.5 59.5t-62.5 159.5q0 52 4 81l51 393l-70 11l6 49h299l-5 -48l-90 -13l-50 -381q-7 -65 -7 -96q1 -75 35.5 -117t100.5 -42q88 0 134 64t63 196l51 376l-70 13l4 48h217l-6 -48l-63 -12l-49 -377
q-22 -169 -96.5 -242.5zM288 839.5q-17 17.5 -17 44.5q0 35 21 57.5t53 22.5q28 0 44.5 -17t16.5 -43q0 -38 -19.5 -60t-56.5 -22q-25 0 -42 17.5zM517.5 839.5q-16.5 17.5 -16.5 44.5q0 36 20.5 58t52.5 22q28 0 44.5 -17t16.5 -43q0 -37 -20 -59.5t-56 -22.5
q-25 0 -41.5 17.5z" />
    <glyph glyph-name="Yacute" unicode="&#xdd;" horiz-adv-x="615" 
d="M329 743l-7 -49l-86 -12l92 -253l23 -70l33 62l157 261l-79 12l5 49h239l-6 -49l-61 -11l-253 -391l-31 -232l116 -14l-4 -46h-369l5 46l114 14l29 232l-168 390l-62 12l5 49h308zM498 983l75 -63q-22 -30 -80 -68.5t-95 -52.5l-53 35z" />
    <glyph glyph-name="Thorn" unicode="&#xde;" horiz-adv-x="626" 
d="M391 577q126 0 182 -46t56 -123q0 -105 -76.5 -175t-248.5 -70q-55 0 -73 3l-15 -106l84 -14l-4 -46h-295l5 46l70 14l81 624l-70 11l6 49h293l-6 -49l-83 -11l-14 -113q51 6 108 6zM309 223q78 0 125.5 42.5t47.5 121.5q0 132 -133 132q-35 0 -74 -7l-37 -287
q44 -2 71 -2z" />
    <glyph glyph-name="germandbls" unicode="&#xdf;" horiz-adv-x="597" 
d="M151.5 660q48.5 71 108 92.5t133.5 21.5q77 0 130 -38t53 -105q0 -37 -12.5 -63.5t-30 -43.5t-45.5 -38t-42 -36.5t-14 -37.5q0 -16 11.5 -34t43.5 -59q6 -7 28 -34.5t34.5 -58t12.5 -62.5q0 -51 -26.5 -90.5t-74 -60.5t-106.5 -21q-90 0 -132 25l12 85q12 -16 42.5 -33
t56.5 -17q44 1 67.5 19t23.5 70q0 49 -44 117q-60 83 -60 132q0 30 11.5 49.5t38.5 47.5q35 33 53.5 67.5t18.5 74.5t-19 66t-57 26q-59 0 -95.5 -62.5t-55.5 -218.5l-56 -440h-134l58 453q19 136 67.5 207z" />
    <glyph glyph-name="agrave" unicode="&#xe0;" horiz-adv-x="587" 
d="M475 90q0 -26 20 -26q16 0 45 24l14 -31q-13 -20 -46.5 -43.5t-77.5 -23.5q-34 0 -54 15t-21 46l2 17q-28 -33 -68 -55.5t-88 -22.5q-84 0 -125.5 57.5t-41.5 150.5q0 92 38.5 177t112.5 139t176 54q26 0 56.5 -6t53.5 -14l69 20l-64 -466q-1 -4 -1 -12zM350 506
q-60 0 -100 -45.5t-58.5 -115t-18.5 -140.5q0 -66 20 -102.5t59 -36.5q25 0 50.5 17t45.5 40l51 374q-19 9 -49 9zM287.5 712q-64.5 55 -84.5 91l85 76l143 -209l-43 -31q-36 18 -100.5 73z" />
    <glyph glyph-name="aacute" unicode="&#xe1;" horiz-adv-x="587" 
d="M475 90q0 -26 20 -26q16 0 45 24l14 -31q-13 -20 -46.5 -43.5t-77.5 -23.5q-34 0 -54 15t-21 46l2 17q-28 -33 -68 -55.5t-88 -22.5q-84 0 -125.5 57.5t-41.5 150.5q0 92 38.5 177t112.5 139t176 54q26 0 56.5 -6t53.5 -14l69 20l-64 -466q-1 -4 -1 -12zM350 506
q-60 0 -100 -45.5t-58.5 -115t-18.5 -140.5q0 -66 20 -102.5t59 -36.5q25 0 50.5 17t45.5 40l51 374q-19 9 -49 9zM465 880l81 -79q-9 -16 -47 -51.5t-82 -69.5t-72 -46l-38 37z" />
    <glyph glyph-name="acircumflex" unicode="&#xe2;" horiz-adv-x="587" 
d="M475 90q0 -26 20 -26q16 0 45 24l14 -31q-13 -20 -46.5 -43.5t-77.5 -23.5q-34 0 -54 15t-21 46l2 17q-28 -33 -68 -55.5t-88 -22.5q-84 0 -125.5 57.5t-41.5 150.5q0 92 38.5 177t112.5 139t176 54q26 0 56.5 -6t53.5 -14l69 20l-64 -466q-1 -4 -1 -12zM350 506
q-60 0 -100 -45.5t-58.5 -115t-18.5 -140.5q0 -66 20 -102.5t59 -36.5q25 0 50.5 17t45.5 40l51 374q-19 9 -49 9zM392 848l79 -48l60 -149l-75 16l-115 45l-115 -74l12 68z" />
    <glyph glyph-name="atilde" unicode="&#xe3;" horiz-adv-x="587" 
d="M475 90q0 -26 20 -26q16 0 45 24l14 -31q-13 -20 -46.5 -43.5t-77.5 -23.5q-34 0 -54 15t-21 46l2 17q-28 -33 -68 -55.5t-88 -22.5q-84 0 -125.5 57.5t-41.5 150.5q0 92 38.5 177t112.5 139t176 54q26 0 56.5 -6t53.5 -14l69 20l-64 -466q-1 -4 -1 -12zM350 506
q-60 0 -100 -45.5t-58.5 -115t-18.5 -140.5q0 -66 20 -102.5t59 -36.5q25 0 50.5 17t45.5 40l51 374q-19 9 -49 9zM251 764q30 22 64 22q28 0 46.5 -9.5t38.5 -26.5q16 -13 27 -19t25 -6q25 0 38 10.5t32 34.5l38 -45q-12 -34 -45 -58t-71 -24q-27 0 -43.5 8.5t-35.5 25.5
q-17 14 -29 20.5t-30 6.5q-22 0 -36 -9t-32 -28l-33 44q16 31 46 53z" />
    <glyph glyph-name="adieresis" unicode="&#xe4;" horiz-adv-x="587" 
d="M475 90q0 -26 20 -26q16 0 45 24l14 -31q-13 -20 -46.5 -43.5t-77.5 -23.5q-34 0 -54 15t-21 46l2 17q-28 -33 -68 -55.5t-88 -22.5q-84 0 -125.5 57.5t-41.5 150.5q0 92 38.5 177t112.5 139t176 54q26 0 56.5 -6t53.5 -14l69 20l-64 -466q-1 -4 -1 -12zM350 506
q-60 0 -100 -45.5t-58.5 -115t-18.5 -140.5q0 -66 20 -102.5t59 -36.5q25 0 50.5 17t45.5 40l51 374q-19 9 -49 9zM224.5 675.5q-18.5 20.5 -18.5 47.5q0 37 21 62t55 25q29 0 46.5 -20t17.5 -46q0 -39 -20 -64t-59 -25q-24 0 -42.5 20.5zM440.5 675.5
q-18.5 20.5 -18.5 47.5q0 37 21 62t55 25q28 0 46 -20t18 -46q0 -39 -20.5 -64t-58.5 -25q-24 0 -42.5 20.5z" />
    <glyph glyph-name="aring" unicode="&#xe5;" horiz-adv-x="587" 
d="M475 90q0 -26 20 -26q16 0 45 24l14 -31q-13 -20 -46.5 -43.5t-77.5 -23.5q-34 0 -54 15t-21 46l2 17q-28 -33 -68 -55.5t-88 -22.5q-84 0 -125.5 57.5t-41.5 150.5q0 92 38.5 177t112.5 139t176 54q26 0 56.5 -6t53.5 -14l69 20l-64 -466q-1 -4 -1 -12zM350 506
q-60 0 -100 -45.5t-58.5 -115t-18.5 -140.5q0 -66 20 -102.5t59 -36.5q25 0 50.5 17t45.5 40l51 374q-19 9 -49 9zM264 676q-40 31 -40 86q0 52 27.5 86t69.5 49.5t87 15.5q65 0 105.5 -31.5t40.5 -84.5q0 -74 -53 -113t-128 -39q-69 0 -109 31zM447 721.5q27 18.5 27 62.5
q0 30 -22.5 51.5t-53.5 21.5q-37 0 -65 -21.5t-28 -63.5q0 -29 23 -49t53 -20q39 0 66 18.5z" />
    <glyph glyph-name="ae" unicode="&#xe6;" horiz-adv-x="850" 
d="M672 568q74 0 112 -35t38 -90q0 -73 -51.5 -121.5t-125 -72t-138.5 -25.5q-3 -157 99 -157q88 0 157 77l27 -44q-15 -24 -46.5 -49.5t-77 -43t-99.5 -17.5q-80 0 -127 38t-64 103q-35 -57 -84.5 -99t-106.5 -42q-81 0 -116 55.5t-35 148.5q0 91 42.5 177.5t122 141.5
t185.5 55q41 0 99 -16l48 16l-7 -47q67 47 148 47zM547.5 436q-33.5 -71 -40.5 -158q39 2 82 21t72.5 53.5t29.5 79.5q0 75 -52 75q-58 0 -91.5 -71zM366 506q-61 -5 -105 -51.5t-66 -115t-22 -135.5q0 -57 14 -93.5t42 -36.5q34 0 66.5 31t58.5 73l50 320q-13 8 -38 8z" />
    <glyph glyph-name="ccedilla" unicode="&#xe7;" horiz-adv-x="458" 
d="M67 385.5q35 79.5 104 131t166 51.5q31 0 64.5 -5.5t54.5 -15.5l-34 -130l-27 2q-28 35 -49.5 56.5t-37.5 21.5q-37 0 -68.5 -34t-51 -95t-19.5 -137q0 -83 24 -121.5t73 -38.5q42 0 71.5 16t57.5 45l26 -44q-19 -28 -58 -55t-92 -38q7 -18 11.5 -45t4.5 -50
q0 -65 -35 -99t-106 -34q-21 0 -49.5 4t-36.5 9l14 70q16 -8 42 -8q41 0 65 23t25 71q0 35 -4 55q-80 5 -125 64.5t-45 166.5q0 84 35 163.5z" />
    <glyph glyph-name="egrave" unicode="&#xe8;" horiz-adv-x="522" 
d="M377.5 23q-58.5 -36 -135.5 -36q-72 0 -118.5 31t-67.5 81t-21 109q0 100 40.5 182.5t110.5 130.5t156 48q77 0 114.5 -35.5t37.5 -92.5q0 -72 -52 -120t-125 -71.5t-138 -25.5q-2 -72 23.5 -116t77.5 -44q86 0 156 80l26 -44q-26 -41 -84.5 -77zM219 436
q-34 -71 -40 -158q39 2 82.5 21t73 53.5t29.5 79.5q0 36 -13.5 55.5t-38.5 19.5q-59 0 -93 -71zM257.5 713q-64.5 55 -84.5 91l85 76l143 -209l-43 -31q-36 18 -100.5 73z" />
    <glyph glyph-name="eacute" unicode="&#xe9;" horiz-adv-x="522" 
d="M377.5 23q-58.5 -36 -135.5 -36q-72 0 -118.5 31t-67.5 81t-21 109q0 100 40.5 182.5t110.5 130.5t156 48q77 0 114.5 -35.5t37.5 -92.5q0 -72 -52 -120t-125 -71.5t-138 -25.5q-2 -72 23.5 -116t77.5 -44q86 0 156 80l26 -44q-26 -41 -84.5 -77zM219 436
q-34 -71 -40 -158q39 2 82.5 21t73 53.5t29.5 79.5q0 36 -13.5 55.5t-38.5 19.5q-59 0 -93 -71zM435 881l81 -79q-9 -16 -47 -51.5t-82 -69.5t-72 -46l-38 37z" />
    <glyph glyph-name="ecircumflex" unicode="&#xea;" horiz-adv-x="522" 
d="M377.5 23q-58.5 -36 -135.5 -36q-72 0 -118.5 31t-67.5 81t-21 109q0 100 40.5 182.5t110.5 130.5t156 48q77 0 114.5 -35.5t37.5 -92.5q0 -72 -52 -120t-125 -71.5t-138 -25.5q-2 -72 23.5 -116t77.5 -44q86 0 156 80l26 -44q-26 -41 -84.5 -77zM219 436
q-34 -71 -40 -158q39 2 82.5 21t73 53.5t29.5 79.5q0 36 -13.5 55.5t-38.5 19.5q-59 0 -93 -71zM362 849l79 -48l60 -149l-75 16l-115 45l-115 -74l12 68z" />
    <glyph glyph-name="edieresis" unicode="&#xeb;" horiz-adv-x="522" 
d="M377.5 23q-58.5 -36 -135.5 -36q-72 0 -118.5 31t-67.5 81t-21 109q0 100 40.5 182.5t110.5 130.5t156 48q77 0 114.5 -35.5t37.5 -92.5q0 -72 -52 -120t-125 -71.5t-138 -25.5q-2 -72 23.5 -116t77.5 -44q86 0 156 80l26 -44q-26 -41 -84.5 -77zM219 436
q-34 -71 -40 -158q39 2 82.5 21t73 53.5t29.5 79.5q0 36 -13.5 55.5t-38.5 19.5q-59 0 -93 -71zM194.5 676.5q-18.5 20.5 -18.5 47.5q0 37 21 62t55 25q29 0 46.5 -20t17.5 -46q0 -39 -20 -64t-59 -25q-24 0 -42.5 20.5zM410.5 676.5q-18.5 20.5 -18.5 47.5q0 37 21 62
t55 25q28 0 46 -20t18 -46q0 -39 -20.5 -64t-58.5 -25q-24 0 -42.5 20.5z" />
    <glyph glyph-name="igrave" unicode="&#xec;" horiz-adv-x="322" 
d="M200 88q0 -24 17 -24q9 0 20 6t28 20l13 -31q-17 -23 -50.5 -46t-81.5 -23q-39 0 -61 15.5t-22 42.5l1 10q6 52 41 302l16 116l-59 28l7 39l172 24l24 -11l-64 -456q-1 -5 -1 -12zM119.5 713q-64.5 55 -84.5 91l85 76l143 -209l-43 -31q-36 18 -100.5 73z" />
    <glyph glyph-name="iacute" unicode="&#xed;" horiz-adv-x="322" 
d="M200 88q0 -24 17 -24q9 0 20 6t28 20l13 -31q-17 -23 -50.5 -46t-81.5 -23q-39 0 -61 15.5t-22 42.5l1 10q6 52 41 302l16 116l-59 28l7 39l172 24l24 -11l-64 -456q-1 -5 -1 -12zM297 881l81 -79q-9 -16 -47 -51.5t-82 -69.5t-72 -46l-38 37z" />
    <glyph glyph-name="icircumflex" unicode="&#xee;" horiz-adv-x="322" 
d="M200 88q0 -24 17 -24q9 0 20 6t28 20l13 -31q-17 -23 -50.5 -46t-81.5 -23q-39 0 -61 15.5t-22 42.5l1 10q6 52 41 302l16 116l-59 28l7 39l172 24l24 -11l-64 -456q-1 -5 -1 -12zM224 849l79 -48l60 -149l-75 16l-115 45l-115 -74l12 68z" />
    <glyph glyph-name="idieresis" unicode="&#xef;" horiz-adv-x="322" 
d="M200 88q0 -24 17 -24q9 0 20 6t28 20l13 -31q-17 -23 -50.5 -46t-81.5 -23q-39 0 -61 15.5t-22 42.5l1 10q6 52 41 302l16 116l-59 28l7 39l172 24l24 -11l-64 -456q-1 -5 -1 -12zM56.5 676.5q-18.5 20.5 -18.5 47.5q0 37 21 62t55 25q29 0 46.5 -20t17.5 -46
q0 -39 -20 -64t-59 -25q-24 0 -42.5 20.5zM272.5 676.5q-18.5 20.5 -18.5 47.5q0 37 21 62t55 25q28 0 46 -20t18 -46q0 -39 -20.5 -64t-58.5 -25q-24 0 -42.5 20.5z" />
    <glyph glyph-name="eth" unicode="&#xf0;" horiz-adv-x="577" 
d="M177 797l24 68q29 -8 65.5 -25.5t70.5 -40.5l73 88l50 -45l-72 -82q78 -73 117 -166.5t39 -198.5q0 -116 -36 -208t-105 -144.5t-164 -52.5q-66 0 -112.5 33.5t-70 86.5t-23.5 110q0 97 36 170.5t98.5 112.5t137.5 39q72 0 101 -28q-6 50 -24.5 93t-56.5 86l-69 -80
l-51 44l73 80q-58 49 -101 60zM233 439.5q-31 -43.5 -46.5 -110t-15.5 -132.5q0 -65 20 -108t61 -43q55 0 94.5 64.5t50.5 160.5q3 19 6 49t3 44q0 22 -9 49.5t-30.5 48.5t-58.5 21q-44 0 -75 -43.5z" />
    <glyph glyph-name="ntilde" unicode="&#xf1;" horiz-adv-x="630" 
d="M327 535q51 33 107 33q124 0 124 -147q0 -39 -25 -174q-4 -26 -7 -40q-14 -79 -15 -114v-4q0 -25 16 -25q9 0 19 5t26 18l14 -31q-15 -21 -49 -43.5t-83 -22.5q-47 0 -65 20.5t-18 54.5q1 30 19 119l6 34q2 9 8.5 48t10.5 74.5t4 61.5q0 46 -10.5 63t-37.5 17
q-33 0 -73.5 -37t-69.5 -89l-48 -356h-131l64 476l-51 27l8 41l156 24l23 -11l-10 -110q37 55 88 88zM225 765q30 22 64 22q28 0 46.5 -9.5t38.5 -26.5q16 -13 27 -19t25 -6q25 0 38 10.5t32 34.5l38 -45q-12 -34 -45 -58t-71 -24q-27 0 -43.5 8.5t-35.5 25.5
q-17 14 -29 20.5t-30 6.5q-22 0 -36 -9t-32 -28l-33 44q16 31 46 53z" />
    <glyph glyph-name="ograve" unicode="&#xf2;" horiz-adv-x="589" 
d="M498 508.5q55 -60.5 55 -173.5q0 -93 -38 -173t-107 -127.5t-158 -47.5q-104 0 -158.5 61.5t-54.5 175.5q0 94 37.5 173t106.5 125.5t158 46.5q104 0 159 -60.5zM244 464.5q-32 -41.5 -47.5 -105.5t-15.5 -131q0 -95 21.5 -139t67.5 -44q45 0 76 42t46 107t15 133
q0 95 -20.5 137t-64.5 42q-46 0 -78 -41.5zM268.5 720q-64.5 55 -84.5 91l85 76l143 -209l-43 -31q-36 18 -100.5 73z" />
    <glyph glyph-name="oacute" unicode="&#xf3;" horiz-adv-x="576" 
d="M490 875l78 -79q-9 -16 -46 -52t-80.5 -69.5t-71.5 -45.5l-38 37zM498 508.5q55 -60.5 55 -173.5q0 -93 -38 -173t-107 -127.5t-158 -47.5q-104 0 -158.5 61.5t-54.5 175.5q0 94 37.5 173t106.5 125.5t158 46.5q104 0 159 -60.5zM244 464.5q-32 -41.5 -47.5 -105.5
t-15.5 -131q0 -95 21.5 -139t67.5 -44q45 0 76 42t46 107t15 133q0 95 -20.5 137t-64.5 42q-46 0 -78 -41.5z" />
    <glyph glyph-name="ocircumflex" unicode="&#xf4;" horiz-adv-x="589" 
d="M498 508.5q55 -60.5 55 -173.5q0 -93 -38 -173t-107 -127.5t-158 -47.5q-104 0 -158.5 61.5t-54.5 175.5q0 94 37.5 173t106.5 125.5t158 46.5q104 0 159 -60.5zM244 464.5q-32 -41.5 -47.5 -105.5t-15.5 -131q0 -95 21.5 -139t67.5 -44q45 0 76 42t46 107t15 133
q0 95 -20.5 137t-64.5 42q-46 0 -78 -41.5zM373 856l79 -48l60 -149l-75 16l-115 45l-115 -74l12 68z" />
    <glyph glyph-name="otilde" unicode="&#xf5;" horiz-adv-x="589" 
d="M498 508.5q55 -60.5 55 -173.5q0 -93 -38 -173t-107 -127.5t-158 -47.5q-104 0 -158.5 61.5t-54.5 175.5q0 94 37.5 173t106.5 125.5t158 46.5q104 0 159 -60.5zM244 464.5q-32 -41.5 -47.5 -105.5t-15.5 -131q0 -95 21.5 -139t67.5 -44q45 0 76 42t46 107t15 133
q0 95 -20.5 137t-64.5 42q-46 0 -78 -41.5zM232 772q30 22 64 22q28 0 46.5 -9.5t38.5 -26.5q16 -13 27 -19t25 -6q25 0 38 10.5t32 34.5l38 -45q-12 -34 -45 -58t-71 -24q-27 0 -43.5 8.5t-35.5 25.5q-17 14 -29 20.5t-30 6.5q-22 0 -36 -9t-32 -28l-33 44q16 31 46 53z
" />
    <glyph glyph-name="odieresis" unicode="&#xf6;" horiz-adv-x="589" 
d="M498 508.5q55 -60.5 55 -173.5q0 -93 -38 -173t-107 -127.5t-158 -47.5q-104 0 -158.5 61.5t-54.5 175.5q0 94 37.5 173t106.5 125.5t158 46.5q104 0 159 -60.5zM244 464.5q-32 -41.5 -47.5 -105.5t-15.5 -131q0 -95 21.5 -139t67.5 -44q45 0 76 42t46 107t15 133
q0 95 -20.5 137t-64.5 42q-46 0 -78 -41.5zM205.5 683.5q-18.5 20.5 -18.5 47.5q0 37 21 62t55 25q29 0 46.5 -20t17.5 -46q0 -39 -20 -64t-59 -25q-24 0 -42.5 20.5zM421.5 683.5q-18.5 20.5 -18.5 47.5q0 37 21 62t55 25q28 0 46 -20t18 -46q0 -39 -20.5 -64t-58.5 -25
q-24 0 -42.5 20.5z" />
    <glyph glyph-name="divide" unicode="&#xf7;" horiz-adv-x="669" 
d="M321.5 526.5q-17.5 19.5 -17.5 48.5q0 38 26.5 63t58.5 25q31 0 47 -19.5t16 -47.5q0 -42 -26.5 -65.5t-61.5 -23.5q-25 0 -42.5 19.5zM579 420l-8 -85h-447l8 85h447zM279 222.5q26 25.5 58 25.5q31 0 48 -20.5t15 -50.5q-1 -40 -27.5 -62.5t-60.5 -22.5q-25 0 -42 18.5
t-17 47.5q0 39 26 64.5z" />
    <glyph glyph-name="oslash" unicode="&#xf8;" horiz-adv-x="576" 
d="M545 334q0 -93 -38 -172.5t-106.5 -126.5t-157.5 -47q-60 0 -108 23l-52 -75l-40 21l54 80q-67 61 -67 188q0 94 37.5 173t106 125.5t157.5 46.5q56 0 100 -19l57 83l40 -22l-57 -85q74 -59 74 -193zM315 507q-48 0 -80.5 -44.5t-47.5 -112.5t-13 -137q0 -33 9 -56
l189 314q-19 36 -57 36zM223.5 58q16.5 -12 40.5 -12q45 0 76 42.5t45.5 108.5t14.5 135q0 55 -12 80l-192 -316q11 -26 27.5 -38z" />
    <glyph glyph-name="ugrave" unicode="&#xf9;" horiz-adv-x="613" 
d="M209 237q-10 -78 -10 -100q0 -40 14 -57t42 -17q32 0 63.5 20t53.5 48l58 432h132l-64 -463q-2 -18 3 -27t15 -9q9 0 19 5.5t28 20.5l14 -31q-13 -21 -48 -45t-80 -24q-35 0 -53.5 15t-20.5 41l-1 12q0 8 2 20l-2 1q-74 -89 -174 -89q-56 0 -95 30.5t-40 97.5
q0 39 14 141q4 25 5 34l27 182l-58 34l8 41l166 17l23 -11l-34 -267q-4 -37 -7 -52zM270.5 713q-64.5 55 -84.5 91l85 76l143 -209l-43 -31q-36 18 -100.5 73z" />
    <glyph glyph-name="uacute" unicode="&#xfa;" horiz-adv-x="613" 
d="M209 237q-10 -78 -10 -100q0 -40 14 -57t42 -17q32 0 63.5 20t53.5 48l58 432h132l-64 -463q-2 -18 3 -27t15 -9q9 0 19 5.5t28 20.5l14 -31q-13 -21 -48 -45t-80 -24q-35 0 -53.5 15t-20.5 41l-1 12q0 8 2 20l-2 1q-74 -89 -174 -89q-56 0 -95 30.5t-40 97.5
q0 39 14 141q4 25 5 34l27 182l-58 34l8 41l166 17l23 -11l-34 -267q-4 -37 -7 -52zM448 881l81 -79q-9 -16 -47 -51.5t-82 -69.5t-72 -46l-38 37z" />
    <glyph glyph-name="ucircumflex" unicode="&#xfb;" horiz-adv-x="613" 
d="M209 237q-10 -78 -10 -100q0 -40 14 -57t42 -17q32 0 63.5 20t53.5 48l58 432h132l-64 -463q-2 -18 3 -27t15 -9q9 0 19 5.5t28 20.5l14 -31q-13 -21 -48 -45t-80 -24q-35 0 -53.5 15t-20.5 41l-1 12q0 8 2 20l-2 1q-74 -89 -174 -89q-56 0 -95 30.5t-40 97.5
q0 39 14 141q4 25 5 34l27 182l-58 34l8 41l166 17l23 -11l-34 -267q-4 -37 -7 -52zM375 849l79 -48l60 -149l-75 16l-115 45l-115 -74l12 68z" />
    <glyph glyph-name="udieresis" unicode="&#xfc;" horiz-adv-x="613" 
d="M209 237q-10 -78 -10 -100q0 -40 14 -57t42 -17q32 0 63.5 20t53.5 48l58 432h132l-64 -463q-2 -18 3 -27t15 -9q9 0 19 5.5t28 20.5l14 -31q-13 -21 -48 -45t-80 -24q-35 0 -53.5 15t-20.5 41l-1 12q0 8 2 20l-2 1q-74 -89 -174 -89q-56 0 -95 30.5t-40 97.5
q0 39 14 141q4 25 5 34l27 182l-58 34l8 41l166 17l23 -11l-34 -267q-4 -37 -7 -52zM207.5 676.5q-18.5 20.5 -18.5 47.5q0 37 21 62t55 25q29 0 46.5 -20t17.5 -46q0 -39 -20 -64t-59 -25q-24 0 -42.5 20.5zM423.5 676.5q-18.5 20.5 -18.5 47.5q0 37 21 62t55 25
q28 0 46 -20t18 -46q0 -39 -20.5 -64t-58.5 -25q-24 0 -42.5 20.5z" />
    <glyph glyph-name="yacute" unicode="&#xfd;" horiz-adv-x="534" 
d="M62 483.5q-5 6.5 -13 6.5q-13 0 -30 -14l-14 34q12 16 45.5 36.5t71.5 20.5q39 0 58 -16.5t24 -50.5l58 -380l14 -110l47 95q43 90 65.5 158t22.5 130q0 19 -3 32t-9 30q-11 28 -11 53q0 27 16.5 43t47.5 16q36 0 56.5 -28t20.5 -68q0 -71 -23 -134.5t-70 -157.5
q-33 -72 -85.5 -159.5t-92.5 -147.5q-41 -65 -87.5 -94t-110.5 -29q-26 0 -56.5 6.5t-41.5 13.5l31 87q11 -10 37 -18t51 -8q45 0 86.5 31.5t82.5 102.5h-72l-107 496q-4 17 -9 23.5zM409 881l81 -79q-9 -16 -47 -51.5t-82 -69.5t-72 -46l-38 37z" />
    <glyph glyph-name="thorn" unicode="&#xfe;" horiz-adv-x="583" 
d="M298.5 549.5q37.5 18.5 81.5 18.5q83 0 125 -55.5t42 -156.5q0 -95 -39.5 -179t-113.5 -135.5t-172 -51.5q-16 0 -58 7l-5 -61l-25 -190h-126l34 247l95 737l-50 20l9 38l152 18l24 -13l-38 -290q27 28 64.5 46.5zM234 52q59 0 98.5 44t58.5 113.5t19 144.5
q0 61 -21 99.5t-60 38.5q-31 0 -58 -18.5t-47 -44.5l-48 -366q20 -11 58 -11z" />
    <glyph glyph-name="ydieresis" unicode="&#xff;" horiz-adv-x="534" 
d="M62 483.5q-5 6.5 -13 6.5q-13 0 -30 -14l-14 34q12 16 45.5 36.5t71.5 20.5q39 0 58 -16.5t24 -50.5l58 -380l14 -110l47 95q43 90 65.5 158t22.5 130q0 19 -3 32t-9 30q-11 28 -11 53q0 27 16.5 43t47.5 16q36 0 56.5 -28t20.5 -68q0 -71 -23 -134.5t-70 -157.5
q-33 -72 -85.5 -159.5t-92.5 -147.5q-41 -65 -87.5 -94t-110.5 -29q-26 0 -56.5 6.5t-41.5 13.5l31 87q11 -10 37 -18t51 -8q45 0 86.5 31.5t82.5 102.5h-72l-107 496q-4 17 -9 23.5zM168.5 676.5q-18.5 20.5 -18.5 47.5q0 37 21 62t55 25q29 0 46.5 -20t17.5 -46
q0 -39 -20 -64t-59 -25q-24 0 -42.5 20.5zM384.5 676.5q-18.5 20.5 -18.5 47.5q0 37 21 62t55 25q28 0 46 -20t18 -46q0 -39 -20.5 -64t-58.5 -25q-24 0 -42.5 20.5z" />
    <glyph glyph-name="Amacron" unicode="&#x100;" horiz-adv-x="658" 
d="M467 744l123 -683l79 -15l-3 -46h-307l2 46l82 13l-24 151h-253l-67 -150l91 -14l-3 -46h-260l4 46l68 13l329 685h139zM194 275h216l-44 295l-5 82zM554 928l-10 -89h-269l10 89h269z" />
    <glyph glyph-name="amacron" unicode="&#x101;" horiz-adv-x="587" 
d="M475 90q0 -26 20 -26q16 0 45 24l14 -31q-13 -20 -46.5 -43.5t-77.5 -23.5q-34 0 -54 15t-21 46l2 17q-28 -33 -68 -55.5t-88 -22.5q-84 0 -125.5 57.5t-41.5 150.5q0 92 38.5 177t112.5 139t176 54q26 0 56.5 -6t53.5 -14l69 20l-64 -466q-1 -4 -1 -12zM350 506
q-60 0 -100 -45.5t-58.5 -115t-18.5 -140.5q0 -66 20 -102.5t59 -36.5q25 0 50.5 17t45.5 40l51 374q-19 9 -49 9zM520 746l-10 -88h-271l10 88h271z" />
    <glyph glyph-name="Abreve" unicode="&#x102;" horiz-adv-x="658" 
d="M467 744l123 -683l79 -15l-3 -46h-307l2 46l82 13l-24 151h-253l-67 -150l91 -14l-3 -46h-260l4 46l68 13l329 685h139zM194 275h216l-44 295l-5 82zM292.5 841.5q-32.5 44.5 -32.5 107.5q0 20 2 29h74q1 -43 15 -66.5t60 -23.5q49 0 69.5 27t23.5 63h72q0 -50 -21 -91.5
t-59 -65.5t-87 -24q-84 0 -116.5 44.5z" />
    <glyph glyph-name="abreve" unicode="&#x103;" horiz-adv-x="587" 
d="M475 90q0 -26 20 -26q16 0 45 24l14 -31q-13 -20 -46.5 -43.5t-77.5 -23.5q-34 0 -54 15t-21 46l2 17q-28 -33 -68 -55.5t-88 -22.5q-84 0 -125.5 57.5t-41.5 150.5q0 92 38.5 177t112.5 139t176 54q26 0 56.5 -6t53.5 -14l69 20l-64 -466q-1 -4 -1 -12zM350 506
q-60 0 -100 -45.5t-58.5 -115t-18.5 -140.5q0 -66 20 -102.5t59 -36.5q25 0 50.5 17t45.5 40l51 374q-19 9 -49 9zM264 683q-39 44 -39 107q0 11 2 27h73l1 -20q2 -28 21.5 -48t57.5 -20q49 0 67 24.5t22 63.5h72v-16q-2 -40 -21 -77.5t-56.5 -61t-90.5 -23.5q-70 0 -109 44
z" />
    <glyph glyph-name="Aogonek" unicode="&#x104;" horiz-adv-x="658" 
d="M490 -57.5q-25 -26.5 -26 -49.5q0 -37 33 -37q19 0 36 8.5t40 26.5l15 -49q-66 -66 -153 -66q-43 0 -65.5 21.5t-22.5 56.5q0 12 6 28.5t15 29.5q22 32 47 51.5t57 36.5h-113l2 46l82 13l-24 151h-253l-67 -150l91 -14l-3 -46h-260l4 46l68 13l329 684h139l123 -682
l79 -15l-3 -46h-107q-44 -31 -69 -57.5zM194 275h216l-44 295l-5 82z" />
    <glyph glyph-name="aogonek" unicode="&#x105;" horiz-adv-x="587" 
d="M72.5 375q38.5 85 112.5 139t176 54q26 0 56.5 -6t53.5 -14l69 20l-64 -466q-1 -4 -1 -12q0 -26 20 -26q16 0 45 24l14 -31q-7 -11 -22 -25t-35 -25q-86 -64 -86 -103q0 -37 31 -37q19 0 36 8.5t38 25.5l15 -48q-28 -28 -66.5 -46t-83.5 -18q-42 0 -63.5 21t-21.5 55
q0 12 6 28.5t14 28.5q29 44 77 75q-37 11 -38 54l2 17q-28 -33 -68 -55.5t-88 -22.5q-84 0 -125.5 57.5t-41.5 150.5q0 92 38.5 177zM193 102.5q20 -36.5 59 -36.5q25 0 50.5 17t45.5 40l51 374q-19 9 -49 9q-60 0 -100 -45.5t-58.5 -115t-18.5 -140.5q0 -66 20 -102.5z" />
    <glyph glyph-name="Cacute" unicode="&#x106;" horiz-adv-x="624" 
d="M423 694q-79 0 -132.5 -57t-79 -143.5t-23.5 -174.5q8 -258 155 -258q32 0 64.5 8.5t54.5 31.5q16 26 36 101h82l-21 -146q-95 -64 -239 -64q-100 0 -164 44t-93 116.5t-29 161.5q0 134 52 233t145 152t213 53q57 0 90.5 -5t54.5 -10.5t29 -7.5l18 -5l-30 -190h-98
l-14 146q-30 14 -71 14zM544 983l75 -63q-22 -30 -80 -68.5t-95 -52.5l-53 35z" />
    <glyph glyph-name="cacute" unicode="&#x107;" horiz-adv-x="458" 
d="M345.5 475.5q-21.5 21.5 -37.5 21.5q-37 0 -68.5 -34t-51 -95t-19.5 -137q0 -83 24 -121.5t73 -38.5q42 0 71.5 16t57.5 45l26 -44q-25 -37 -78.5 -67.5t-126.5 -30.5q-86 0 -135 60.5t-49 171.5q0 84 35 163.5t104 131t166 51.5q31 0 64.5 -5.5t54.5 -15.5l-34 -130
l-27 2q-28 35 -49.5 56.5zM428 882l81 -79q-9 -16 -47 -51.5t-82 -69.5t-72 -46l-38 37z" />
    <glyph glyph-name="Ccircumflex" unicode="&#x108;" horiz-adv-x="624" 
d="M423 694q-79 0 -132.5 -57t-79 -143.5t-23.5 -174.5q8 -258 155 -258q32 0 64.5 8.5t54.5 31.5q16 26 36 101h82l-21 -146q-95 -64 -239 -64q-100 0 -164 44t-93 116.5t-29 161.5q0 134 52 233t145 152t213 53q57 0 90.5 -5t54.5 -10.5t29 -7.5l18 -5l-30 -190h-98
l-14 146q-30 14 -71 14zM436 981h80l104 -169l-49 -27l-104 109l-160 -108l-43 26z" />
    <glyph glyph-name="ccircumflex" unicode="&#x109;" horiz-adv-x="458" 
d="M345.5 475.5q-21.5 21.5 -37.5 21.5q-37 0 -68.5 -34t-51 -95t-19.5 -137q0 -83 24 -121.5t73 -38.5q42 0 71.5 16t57.5 45l26 -44q-25 -37 -78.5 -67.5t-126.5 -30.5q-86 0 -135 60.5t-49 171.5q0 84 35 163.5t104 131t166 51.5q31 0 64.5 -5.5t54.5 -15.5l-34 -130
l-27 2q-28 35 -49.5 56.5zM355 850l79 -48l60 -149l-75 16l-115 45l-115 -74l12 68z" />
    <glyph glyph-name="Cdotaccent" unicode="&#x10a;" horiz-adv-x="624" 
d="M423 694q-79 0 -132.5 -57t-79 -143.5t-23.5 -174.5q8 -258 155 -258q32 0 64.5 8.5t54.5 31.5q16 26 36 101h82l-21 -146q-95 -64 -239 -64q-100 0 -164 44t-93 116.5t-29 161.5q0 134 52 233t145 152t213 53q57 0 90.5 -5t54.5 -10.5t29 -7.5l18 -5l-30 -190h-98
l-14 146q-30 14 -71 14zM410 831q-21 20 -21 45q0 35 24 59.5t59 24.5q30 0 51 -19t21 -44q0 -37 -23.5 -61.5t-63.5 -24.5q-26 0 -47 20z" />
    <glyph glyph-name="cdotaccent" unicode="&#x10b;" horiz-adv-x="458" 
d="M345.5 475.5q-21.5 21.5 -37.5 21.5q-37 0 -68.5 -34t-51 -95t-19.5 -137q0 -83 24 -121.5t73 -38.5q42 0 71.5 16t57.5 45l26 -44q-25 -37 -78.5 -67.5t-126.5 -30.5q-86 0 -135 60.5t-49 171.5q0 84 35 163.5t104 131t166 51.5q31 0 64.5 -5.5t54.5 -15.5l-34 -130
l-27 2q-28 35 -49.5 56.5zM292.5 679q-20.5 21 -20.5 50q0 38 23.5 62.5t61.5 24.5q31 0 51 -19.5t20 -46.5q0 -42 -22.5 -67t-65.5 -25q-27 0 -47.5 21z" />
    <glyph glyph-name="Ccaron" unicode="&#x10c;" horiz-adv-x="624" 
d="M423 694q-79 0 -132.5 -57t-79 -143.5t-23.5 -174.5q8 -258 155 -258q32 0 64.5 8.5t54.5 31.5q16 26 36 101h82l-21 -146q-95 -64 -239 -64q-100 0 -164 44t-93 116.5t-29 161.5q0 134 52 233t145 152t213 53q57 0 90.5 -5t54.5 -10.5t29 -7.5l18 -5l-30 -190h-98
l-14 146q-30 14 -71 14zM362 981l102 -107l152 107l43 -26l-167 -166h-76l-104 166z" />
    <glyph glyph-name="ccaron" unicode="&#x10d;" horiz-adv-x="458" 
d="M345.5 475.5q-21.5 21.5 -37.5 21.5q-37 0 -68.5 -34t-51 -95t-19.5 -137q0 -83 24 -121.5t73 -38.5q42 0 71.5 16t57.5 45l26 -44q-25 -37 -78.5 -67.5t-126.5 -30.5q-86 0 -135 60.5t-49 171.5q0 84 35 163.5t104 131t166 51.5q31 0 64.5 -5.5t54.5 -15.5l-34 -130
l-27 2q-28 35 -49.5 56.5zM246 840l101 -113l158 113l44 -27l-173 -177h-79l-102 177z" />
    <glyph glyph-name="Dcaron" unicode="&#x10e;" horiz-adv-x="722" 
d="M312 747q60 4 92 4q158 0 231 -81t73 -220q1 -135 -45.5 -238t-139.5 -161.5t-230 -58.5q-20 0 -46 4q-44 4 -97 4h-157l5 46l75 14l82 622l-68 12l4 49h147q24 0 74 4zM260 52.5q26 -3.5 43 -3.5q87 1 144.5 58t84.5 144t27 182q0 140 -41 200.5t-134 60.5
q-26 0 -50.5 -3.5t-38.5 -7.5l-81 -622q20 -5 46 -8.5zM317 981l102 -107l152 107l43 -26l-167 -166h-76l-104 166z" />
    <glyph glyph-name="dcaron" unicode="&#x10f;" horiz-adv-x="700" 
d="M484 89q0 -25 17 -25t45 23l14 -31q-56 -66 -124 -66q-35 0 -53 17t-21 52v15q-25 -35 -67 -59.5t-96 -24.5q-84 0 -125 57.5t-41 150.5t37 178t110.5 138.5t177.5 53.5q29 0 61 -8l25 169l-72 20l9 37l180 20l25 -13l-101 -692q-1 -4 -1 -12zM346 506q-61 0 -100 -46.5
t-57 -115.5t-18 -140q0 -66 20.5 -102t58.5 -36q31 0 59 19.5t46 46.5l54 360q-25 14 -63 14zM644 571l-4 10q7 44 7 107q0 57 -13 90l4 21h116q9 -24 9 -76q0 -41 -10 -81.5t-24 -71.5z" />
    <glyph glyph-name="Dcroat" unicode="&#x110;" horiz-adv-x="725" 
d="M319 748q58 4 88 4q159 0 231.5 -82t72.5 -222q0 -134 -46.5 -236.5t-139.5 -160.5t-230 -58q-20 0 -46 4q-48 4 -105 4h-149l5 46l76 14l38 287h-71l11 72h69l35 263l-69 12l5 49h141q26 0 84 4zM263 53.5q26 -3.5 42 -3.5q87 1 145 58.5t85 146t27 183.5
q-1 137 -42 197t-134 60q-52 0 -89 -11l-34 -264h165l-10 -72h-165l-37 -286q21 -5 47 -8.5z" />
    <glyph glyph-name="dcroat" unicode="&#x111;" horiz-adv-x="600" 
d="M70 376q37 85 110.5 138.5t177.5 53.5q29 0 61 -8l9 60h-139l8 60h140l7 49l-72 20l9 37l180 20l25 -13l-16 -113h64l-7 -60h-66l-76 -519q-1 -4 -1 -12q0 -25 17 -25t45 23l14 -31q-56 -66 -124 -66q-35 0 -53 17t-21 52v15q-25 -35 -67 -59.5t-96 -24.5
q-84 0 -125 57.5t-41 150.5t37 178zM191.5 102q20.5 -36 58.5 -36q31 0 59 19.5t46 46.5l54 360q-25 14 -63 14q-61 0 -100 -46.5t-57 -115.5t-18 -140q0 -66 20.5 -102z" />
    <glyph glyph-name="Emacron" unicode="&#x112;" horiz-adv-x="624" 
d="M604 743l-12 -171h-82l-19 107l-195 11l-35 -266l227 15l-13 -96l-223 12l-36 -290l251 14l53 130l83 -9l-37 -200h-574l6 46l76 13l81 623l-70 12l6 49h513zM528 928l-10 -89h-269l10 89h269z" />
    <glyph glyph-name="emacron" unicode="&#x113;" horiz-adv-x="522" 
d="M377.5 23q-58.5 -36 -135.5 -36q-72 0 -118.5 31t-67.5 81t-21 109q0 100 40.5 182.5t110.5 130.5t156 48q77 0 114.5 -35.5t37.5 -92.5q0 -72 -52 -120t-125 -71.5t-138 -25.5q-2 -72 23.5 -116t77.5 -44q86 0 156 80l26 -44q-26 -41 -84.5 -77zM219 436
q-34 -71 -40 -158q39 2 82.5 21t73 53.5t29.5 79.5q0 36 -13.5 55.5t-38.5 19.5q-59 0 -93 -71zM490 747l-10 -88h-271l10 88h271z" />
    <glyph glyph-name="Ebreve" unicode="&#x114;" horiz-adv-x="624" 
d="M604 743l-12 -171h-82l-19 107l-195 11l-35 -266l227 15l-13 -96l-223 12l-36 -290l251 14l53 130l83 -9l-37 -200h-574l6 46l76 13l81 623l-70 12l6 49h513zM266.5 841.5q-32.5 44.5 -32.5 107.5q0 20 2 29h74q1 -43 15 -66.5t60 -23.5q49 0 69.5 27t23.5 63h72
q0 -50 -21 -91.5t-59 -65.5t-87 -24q-84 0 -116.5 44.5z" />
    <glyph glyph-name="ebreve" unicode="&#x115;" horiz-adv-x="522" 
d="M377.5 23q-58.5 -36 -135.5 -36q-72 0 -118.5 31t-67.5 81t-21 109q0 100 40.5 182.5t110.5 130.5t156 48q77 0 114.5 -35.5t37.5 -92.5q0 -72 -52 -120t-125 -71.5t-138 -25.5q-2 -72 23.5 -116t77.5 -44q86 0 156 80l26 -44q-26 -41 -84.5 -77zM219 436
q-34 -71 -40 -158q39 2 82.5 21t73 53.5t29.5 79.5q0 36 -13.5 55.5t-38.5 19.5q-59 0 -93 -71zM234 684q-39 44 -39 107q0 11 2 27h73l1 -20q2 -28 21.5 -48t57.5 -20q49 0 67 24.5t22 63.5h72v-16q-2 -40 -21 -77.5t-56.5 -61t-90.5 -23.5q-70 0 -109 44z" />
    <glyph glyph-name="Edotaccent" unicode="&#x116;" horiz-adv-x="624" 
d="M604 743l-12 -171h-82l-19 107l-195 11l-35 -266l227 15l-13 -96l-223 12l-36 -290l251 14l53 130l83 -9l-37 -200h-574l6 46l76 13l81 623l-70 12l6 49h513zM334 831q-21 20 -21 45q0 35 24 59.5t59 24.5q30 0 51 -19t21 -44q0 -37 -23.5 -61.5t-63.5 -24.5
q-26 0 -47 20z" />
    <glyph glyph-name="edotaccent" unicode="&#x117;" horiz-adv-x="522" 
d="M377.5 23q-58.5 -36 -135.5 -36q-72 0 -118.5 31t-67.5 81t-21 109q0 100 40.5 182.5t110.5 130.5t156 48q77 0 114.5 -35.5t37.5 -92.5q0 -72 -52 -120t-125 -71.5t-138 -25.5q-2 -72 23.5 -116t77.5 -44q86 0 156 80l26 -44q-26 -41 -84.5 -77zM219 436
q-34 -71 -40 -158q39 2 82.5 21t73 53.5t29.5 79.5q0 36 -13.5 55.5t-38.5 19.5q-59 0 -93 -71zM299.5 678q-20.5 21 -20.5 50q0 38 23.5 62.5t61.5 24.5q31 0 51 -19.5t20 -46.5q0 -42 -22.5 -67t-65.5 -25q-27 0 -47.5 21z" />
    <glyph glyph-name="Eogonek" unicode="&#x118;" horiz-adv-x="630" 
d="M454 -58q-25 -26 -25 -49q-1 -37 32 -37q19 0 36.5 9t39.5 26l15 -49q-29 -30 -68 -48t-85 -18q-42 0 -64.5 21t-22.5 55q0 13 6 30t14 30q22 32 47.5 51.5t57.5 36.5h-445l6 46l76 13l81 623l-70 12l6 49h513l-12 -171h-87l-16 107l-193 11l-36 -271l227 16l-13 -96
l-222 12l-39 -291l250 14l57 135l83 -9l-37 -200h-42q-45 -32 -70 -58z" />
    <glyph glyph-name="eogonek" unicode="&#x119;" horiz-adv-x="522" 
d="M147.5 -206q-21.5 22 -21.5 56q0 12 5.5 29t14.5 30q18 28 39.5 46t47.5 34q-66 1 -110.5 31t-66 79.5t-21.5 108.5q0 100 40.5 182.5t110.5 130.5t156 48q77 0 114.5 -35.5t37.5 -92.5q0 -72 -52 -120t-125 -71.5t-138 -25.5q-2 -72 23.5 -116t77.5 -44q86 0 156 80
l26 -44q-15 -23 -44.5 -48.5t-68.5 -42.5q-109 -76 -109 -122q-1 -21 8 -28t25 -7q19 0 36.5 8.5t37.5 25.5l15 -48q-28 -29 -66.5 -47.5t-84.5 -18.5q-42 0 -63.5 22zM261.5 299q43.5 19 73 53.5t29.5 79.5q0 36 -13.5 55.5t-38.5 19.5q-59 0 -93 -71t-40 -158
q39 2 82.5 21z" />
    <glyph glyph-name="Ecaron" unicode="&#x11a;" horiz-adv-x="624" 
d="M604 743l-12 -171h-82l-19 107l-195 11l-35 -266l227 15l-13 -96l-223 12l-36 -290l251 14l53 130l83 -9l-37 -200h-574l6 46l76 13l81 623l-70 12l6 49h513zM286 981l102 -107l152 107l43 -26l-167 -166h-76l-104 166z" />
    <glyph glyph-name="ecaron" unicode="&#x11b;" horiz-adv-x="522" 
d="M377.5 23q-58.5 -36 -135.5 -36q-72 0 -118.5 31t-67.5 81t-21 109q0 100 40.5 182.5t110.5 130.5t156 48q77 0 114.5 -35.5t37.5 -92.5q0 -72 -52 -120t-125 -71.5t-138 -25.5q-2 -72 23.5 -116t77.5 -44q86 0 156 80l26 -44q-26 -41 -84.5 -77zM219 436
q-34 -71 -40 -158q39 2 82.5 21t73 53.5t29.5 79.5q0 36 -13.5 55.5t-38.5 19.5q-59 0 -93 -71zM253 839l101 -113l158 113l44 -27l-173 -177h-79l-102 177z" />
    <glyph glyph-name="Gcircumflex" unicode="&#x11c;" horiz-adv-x="679" 
d="M514 27q-62 -17 -106.5 -26t-101.5 -9q-93 0 -153.5 45t-89 118.5t-28.5 160.5q0 131 47.5 229.5t136.5 152.5t210 54q66 0 107 -6.5t66.5 -13t33.5 -8.5l26 -6l-30 -156h-95l-4 107q-42 25 -105 25q-128 0 -186.5 -107t-57.5 -268q0 -113 38 -187.5t114 -74.5
q84 0 127 25l28 210l-112 8l8 63h254l-44 -320q-40 -4 -83 -16zM419 981h80l104 -169l-49 -27l-104 109l-160 -108l-43 26z" />
    <glyph glyph-name="gcircumflex" unicode="&#x11d;" horiz-adv-x="584" 
d="M365 -201.5q-83 -49.5 -190 -49.5q-33 0 -70.5 6.5t-52.5 13.5l23 94q19 -12 58 -27t75 -15q58 0 85 23t35 87l15 119q-27 -26 -63 -43t-78 -17q-84 0 -126.5 57.5t-42.5 150.5q0 92 38.5 177t113 139t176.5 54q28 0 60 -6.5t56 -15.5l71 22l-85 -606
q-15 -114 -98 -163.5zM349 506q-60 0 -100 -46.5t-58.5 -116t-18.5 -139.5q0 -65 21.5 -101.5t59.5 -36.5q28 0 54.5 16.5t45.5 39.5l54 372q-21 12 -58 12zM372 849l79 -48l60 -149l-75 16l-115 45l-115 -74l12 68z" />
    <glyph glyph-name="Gbreve" unicode="&#x11e;" horiz-adv-x="679" 
d="M514 27q-62 -17 -106.5 -26t-101.5 -9q-93 0 -153.5 45t-89 118.5t-28.5 160.5q0 131 47.5 229.5t136.5 152.5t210 54q66 0 107 -6.5t66.5 -13t33.5 -8.5l26 -6l-30 -156h-95l-4 107q-42 25 -105 25q-128 0 -186.5 -107t-57.5 -268q0 -113 38 -187.5t114 -74.5
q84 0 127 25l28 210l-112 8l8 63h254l-44 -320q-40 -4 -83 -16zM325.5 841.5q-32.5 44.5 -32.5 107.5q0 20 2 29h74q1 -43 15 -66.5t60 -23.5q49 0 69.5 27t23.5 63h72q0 -50 -21 -91.5t-59 -65.5t-87 -24q-84 0 -116.5 44.5z" />
    <glyph glyph-name="gbreve" unicode="&#x11f;" horiz-adv-x="584" 
d="M365 -201.5q-83 -49.5 -190 -49.5q-33 0 -70.5 6.5t-52.5 13.5l23 94q19 -12 58 -27t75 -15q58 0 85 23t35 87l15 119q-27 -26 -63 -43t-78 -17q-84 0 -126.5 57.5t-42.5 150.5q0 92 38.5 177t113 139t176.5 54q28 0 60 -6.5t56 -15.5l71 22l-85 -606
q-15 -114 -98 -163.5zM349 506q-60 0 -100 -46.5t-58.5 -116t-18.5 -139.5q0 -65 21.5 -101.5t59.5 -36.5q28 0 54.5 16.5t45.5 39.5l54 372q-21 12 -58 12zM244 684q-39 44 -39 107q0 11 2 27h73l1 -20q2 -28 21.5 -48t57.5 -20q49 0 67 24.5t22 63.5h72v-16
q-2 -40 -21 -77.5t-56.5 -61t-90.5 -23.5q-70 0 -109 44z" />
    <glyph glyph-name="Gdotaccent" unicode="&#x120;" horiz-adv-x="679" 
d="M514 27q-62 -17 -106.5 -26t-101.5 -9q-93 0 -153.5 45t-89 118.5t-28.5 160.5q0 131 47.5 229.5t136.5 152.5t210 54q66 0 107 -6.5t66.5 -13t33.5 -8.5l26 -6l-30 -156h-95l-4 107q-42 25 -105 25q-128 0 -186.5 -107t-57.5 -268q0 -113 38 -187.5t114 -74.5
q84 0 127 25l28 210l-112 8l8 63h254l-44 -320q-40 -4 -83 -16zM393 831q-21 20 -21 45q0 35 24 59.5t59 24.5q30 0 51 -19t21 -44q0 -37 -23.5 -61.5t-63.5 -24.5q-26 0 -47 20z" />
    <glyph glyph-name="gdotaccent" unicode="&#x121;" horiz-adv-x="584" 
d="M365 -201.5q-83 -49.5 -190 -49.5q-33 0 -70.5 6.5t-52.5 13.5l23 94q19 -12 58 -27t75 -15q58 0 85 23t35 87l15 119q-27 -26 -63 -43t-78 -17q-84 0 -126.5 57.5t-42.5 150.5q0 92 38.5 177t113 139t176.5 54q28 0 60 -6.5t56 -15.5l71 22l-85 -606
q-15 -114 -98 -163.5zM349 506q-60 0 -100 -46.5t-58.5 -116t-18.5 -139.5q0 -65 21.5 -101.5t59.5 -36.5q28 0 54.5 16.5t45.5 39.5l54 372q-21 12 -58 12zM309.5 678q-20.5 21 -20.5 50q0 38 23.5 62.5t61.5 24.5q31 0 51 -19.5t20 -46.5q0 -42 -22.5 -67t-65.5 -25
q-27 0 -47.5 21z" />
    <glyph glyph-name="Gcommaaccent" unicode="&#x122;" horiz-adv-x="679" 
d="M514 27q-62 -17 -106.5 -26t-101.5 -9q-93 0 -153.5 45t-89 118.5t-28.5 160.5q0 131 47.5 229.5t136.5 152.5t210 54q66 0 107 -6.5t66.5 -13t33.5 -8.5l26 -6l-30 -156h-95l-4 107q-42 25 -105 25q-128 0 -186.5 -107t-57.5 -268q0 -113 38 -187.5t114 -74.5
q84 0 127 25l28 210l-112 8l8 63h254l-44 -320q-40 -4 -83 -16zM234 -241q12 9 19.5 30.5t6.5 46.5q0 18 -8 33.5t-21 18.5v36l79 39q29 -13 43.5 -42t14.5 -64q0 -32 -13 -60t-33 -46t-39 -23l-49 20v11z" />
    <glyph glyph-name="gcommaaccent" unicode="&#x123;" horiz-adv-x="584" 
d="M365 -201.5q-83 -49.5 -190 -49.5q-33 0 -70.5 6.5t-52.5 13.5l23 94q19 -12 58 -27t75 -15q58 0 85 23t35 87l15 119q-27 -26 -63 -43t-78 -17q-84 0 -126.5 57.5t-42.5 150.5q0 92 38.5 177t113 139t176.5 54q28 0 60 -6.5t56 -15.5l71 22l-85 -606
q-15 -114 -98 -163.5zM349 506q-60 0 -100 -46.5t-58.5 -116t-18.5 -139.5q0 -65 21.5 -101.5t59.5 -36.5q28 0 54.5 16.5t45.5 39.5l54 372q-21 12 -58 12zM308.5 655.5q-17.5 16.5 -17.5 48.5q0 10 1 16q5 34 24.5 66t43 53t36.5 26h2l47 -15l1 -8q-11 -4 -21 -23.5
t-13 -39.5q-2 -13 2 -20.5t12 -14.5q17 -15 17 -36q0 -36 -26 -52.5t-56 -16.5h-4q-31 0 -48.5 16.5z" />
    <glyph glyph-name="Hcircumflex" unicode="&#x124;" horiz-adv-x="787" 
d="M386 743l-6 -49l-83 -12l-35 -272h296l35 272l-81 12l5 49h295l-6 -49l-73 -12l-80 -622l76 -14l-5 -46h-305l5 46l89 14l37 287h-297l-37 -287l82 -14l-4 -46h-293l5 46l70 14l81 622l-70 12l6 49h293zM444 981h80l104 -169l-49 -27l-104 109l-160 -108l-43 26z" />
    <glyph glyph-name="hcircumflex" unicode="&#x125;" horiz-adv-x="624" 
d="M319.5 533q51.5 35 109.5 35q59 0 91.5 -34t32.5 -113q0 -31 -11.5 -98t-12.5 -76l-6 -32q-6 -33 -11.5 -68t-5.5 -57q0 -27 17 -27q9 0 19 5.5t28 19.5l13 -31q-13 -20 -48 -43.5t-84 -23.5t-67 19.5t-18 55.5q1 30 19 119l6 34q2 9 8.5 48t10.5 74.5t4 61.5
q0 46 -11 63t-37 17q-34 0 -75.5 -38.5t-70.5 -93.5l-44 -350h-133l91 729l-60 20l7 37l171 20l24 -13l-45 -353q37 58 88.5 93zM199 1016h80l104 -169l-49 -27l-104 109l-160 -108l-43 26z" />
    <glyph glyph-name="Hbar" unicode="&#x126;" horiz-adv-x="778" 
d="M383 746l-5 -49l-83 -12l-17 -131h296l17 131l-82 12l5 49h296l-6 -49l-73 -12l-17 -131h93l-6 -63h-94l-54 -431l75 -14l-5 -46h-305l6 46l88 14l32 249h-297l-31 -249l81 -14l-3 -46h-293l5 46l69 14l54 431h-89l6 63h91l17 131l-69 12l6 49h292zM255 372h296l16 119
h-297z" />
    <glyph glyph-name="hbar" unicode="&#x127;" horiz-adv-x="624" 
d="M319.5 532.5q51.5 35.5 109.5 35.5q59 0 91.5 -34t32.5 -113q0 -31 -11.5 -98t-12.5 -76l-6 -32q-6 -33 -11.5 -68t-5.5 -57q0 -27 17 -27q9 0 19 5.5t28 19.5l13 -31q-13 -20 -48 -43.5t-84 -23.5t-67 19.5t-18 55.5q1 30 19 119l6 34q2 9 8.5 48t10.5 74.5t4 61.5
q0 46 -11 63t-37 17q-34 0 -75.5 -38.5t-70.5 -93.5l-44 -350h-133l77 619h-70l7 57h70l7 53l-60 20l7 37l171 20l24 -13l-15 -117h114l-8 -57h-113l-23 -180q37 58 88.5 93.5z" />
    <glyph glyph-name="Itilde" unicode="&#x128;" horiz-adv-x="363" 
d="M387 743l-5 -49l-81 -12l-81 -622l83 -14l-3 -46h-299l6 46l73 14l81 622l-70 12l5 49h291zM122 942q32 24 74 24q26 0 44 -10.5t38 -30.5q17 -16 28.5 -23.5t26.5 -7.5q25 0 43 14t33 35l35 -46q-13 -33 -45.5 -59.5t-71.5 -26.5q-29 0 -47 10t-40 30q-16 16 -29.5 24
t-32.5 8q-21 0 -36 -10.5t-34 -31.5l-31 43q13 34 45 58z" />
    <glyph glyph-name="itilde" unicode="&#x129;" horiz-adv-x="322" 
d="M200 88q0 -24 17 -24q9 0 20 6t28 20l13 -31q-17 -23 -50.5 -46t-81.5 -23q-39 0 -61 15.5t-22 42.5l1 10q6 52 41 302l16 116l-59 28l7 39l172 24l24 -11l-64 -456q-1 -5 -1 -12zM83 765q30 22 64 22q28 0 46.5 -9.5t38.5 -26.5q16 -13 27 -19t25 -6q25 0 38 10.5
t32 34.5l38 -45q-12 -34 -45 -58t-71 -24q-27 0 -43.5 8.5t-35.5 25.5q-17 14 -29 20.5t-30 6.5q-22 0 -36 -9t-32 -28l-33 44q16 31 46 53z" />
    <glyph glyph-name="Imacron" unicode="&#x12a;" horiz-adv-x="363" 
d="M387 743l-5 -49l-81 -12l-81 -622l83 -14l-3 -46h-299l6 46l73 14l81 622l-70 12l5 49h291zM400 928l-10 -89h-269l10 89h269z" />
    <glyph glyph-name="imacron" unicode="&#x12b;" horiz-adv-x="322" 
d="M200 88q0 -24 17 -24q9 0 20 6t28 20l13 -31q-17 -23 -50.5 -46t-81.5 -23q-39 0 -61 15.5t-22 42.5l1 10q6 52 41 302l16 116l-59 28l7 39l172 24l24 -11l-64 -456q-1 -5 -1 -12zM352 747l-10 -88h-271l10 88h271z" />
    <glyph glyph-name="Ibreve" unicode="&#x12c;" horiz-adv-x="363" 
d="M387 743l-5 -49l-81 -12l-81 -622l83 -14l-3 -46h-299l6 46l73 14l81 622l-70 12l5 49h291zM138.5 841.5q-32.5 44.5 -32.5 107.5q0 20 2 29h74q1 -43 15 -66.5t60 -23.5q49 0 69.5 27t23.5 63h72q0 -50 -21 -91.5t-59 -65.5t-87 -24q-84 0 -116.5 44.5z" />
    <glyph glyph-name="ibreve" unicode="&#x12d;" horiz-adv-x="322" 
d="M200 88q0 -24 17 -24q9 0 20 6t28 20l13 -31q-17 -23 -50.5 -46t-81.5 -23q-39 0 -61 15.5t-22 42.5l1 10q6 52 41 302l16 116l-59 28l7 39l172 24l24 -11l-64 -456q-1 -5 -1 -12zM96 684q-39 44 -39 107q0 11 2 27h73l1 -20q2 -28 21.5 -48t57.5 -20q49 0 67 24.5
t22 63.5h72v-16q-2 -40 -21 -77.5t-56.5 -61t-90.5 -23.5q-70 0 -109 44z" />
    <glyph glyph-name="Iogonek" unicode="&#x12e;" horiz-adv-x="363" 
d="M153.5 -57q-25.5 -26 -26.5 -50q0 -37 33 -37q20 0 45 9.5t44 25.5l15 -49q-27 -28 -71 -47t-92 -19q-43 0 -66.5 22t-23.5 56q0 13 5.5 30t14.5 30q23 31 48 51t55 35h-133l6 46l73 14l81 622l-70 12l5 49h291l-5 -49l-81 -12l-81 -622l83 -14l-3 -46h-77
q-44 -31 -69.5 -57z" />
    <glyph glyph-name="iogonek" unicode="&#x12f;" horiz-adv-x="322" 
d="M273 798.5q20 -19.5 20 -46.5q0 -38 -23 -63.5t-64 -25.5q-27 0 -47 21t-20 48q0 37 23 61.5t60 24.5q31 0 51 -19.5zM200 88q0 -24 17 -24q9 0 20 6t28 20l13 -31q-7 -11 -22 -24.5t-34 -24.5q-51 -34 -81 -63t-31 -54q0 -37 33 -37q19 0 36.5 9t39.5 26l15 -49
q-29 -30 -67 -48t-84 -18q-43 0 -66 21.5t-23 56.5q0 12 5.5 28.5t14.5 29.5q21 29 44 48t52 35q-47 11 -47 59q0 10 1 16q5 39 12 87t14 101q3 20 31 218l-59 28l7 39l172 24l24 -11l-64 -456q-1 -5 -1 -12z" />
    <glyph glyph-name="Idotaccent" unicode="&#x130;" horiz-adv-x="363" 
d="M387 743l-5 -49l-81 -12l-81 -622l83 -14l-3 -46h-299l6 46l73 14l81 622l-70 12l5 49h291zM206 831q-21 20 -21 45q0 35 24 59.5t59 24.5q30 0 51 -19t21 -44q0 -37 -23.5 -61.5t-63.5 -24.5q-26 0 -47 20z" />
    <glyph glyph-name="dotlessi" unicode="&#x131;" horiz-adv-x="322" 
d="M200 88q0 -24 17 -24q9 0 20 6t28 20l13 -31q-17 -23 -50.5 -46t-81.5 -23q-39 0 -61 15.5t-22 42.5l1 10q6 52 41 302l16 116l-59 28l7 39l172 24l24 -11l-64 -456q-1 -5 -1 -12z" />
    <glyph glyph-name="IJ" unicode="&#x132;" horiz-adv-x="717" 
d="M387 743l-5 -49l-81 -12l-81 -622l83 -14l-3 -46h-299l6 46l73 14l81 622l-70 12l5 49h291zM657 612q-33 -278 -50.5 -412.5t-26.5 -162.5q-29 -86 -105.5 -138.5t-176.5 -66.5l-22 46q72 21 113 65t52 100q23 120 43.5 276t42.5 363l-74 12l6 49h287l-5 -49l-75 -11z
" />
    <glyph glyph-name="ij" unicode="&#x133;" horiz-adv-x="640" 
d="M200 88q0 -24 17 -24q9 0 20 6t28 20l13 -31q-17 -23 -50.5 -46t-81.5 -23q-39 0 -61 15.5t-22 42.5l1 10q6 52 41 302l16 116l-59 28l7 39l172 24l24 -11l-64 -456q-1 -5 -1 -12zM165.5 683.5q-19.5 20.5 -19.5 47.5q0 37 24.5 62t62.5 25q31 0 49 -19.5t18 -46.5
q0 -38 -23 -63.5t-65 -25.5q-27 0 -46.5 20.5zM481.5 -137.5q-32.5 -57.5 -82 -88t-107.5 -30.5q-29 0 -53 4.5t-33 13.5l19 54q7 -3 20 -5t25 -2q59 0 85 58t38 164l52 453l-77 23l10 37l189 23l23 -11l-66 -556q-10 -80 -42.5 -137.5zM478.5 683.5q-19.5 20.5 -19.5 47.5
q0 37 24.5 62t62.5 25q31 0 49 -19.5t18 -46.5q0 -38 -23 -63.5t-65 -25.5q-27 0 -46.5 20.5z" />
    <glyph glyph-name="Jcircumflex" unicode="&#x134;" horiz-adv-x="354" 
d="M294 612q-33 -278 -50.5 -412.5t-26.5 -162.5q-29 -86 -105.5 -138.5t-176.5 -66.5l-22 46q72 21 113 65t52 100q23 120 43.5 276t42.5 363l-74 12l6 49h287l-5 -49l-75 -11zM230 981h80l104 -169l-49 -27l-104 109l-160 -108l-43 26z" />
    <glyph glyph-name="jcircumflex" unicode="&#x135;" horiz-adv-x="318" 
d="M159.5 -137.5q-32.5 -57.5 -82 -88t-107.5 -30.5q-29 0 -53 4.5t-33 13.5l19 54q7 -3 20 -5t25 -2q59 0 85 58t38 164l52 453l-77 23l10 37l189 23l23 -11l-66 -556q-10 -80 -42.5 -137.5zM215 849l79 -48l60 -149l-75 16l-115 45l-115 -74l12 68z" />
    <glyph glyph-name="Kcommaaccent" unicode="&#x136;" horiz-adv-x="704" 
d="M495 308q7 -14 22.5 -44t24.5 -46l12 -22q37 -68 55 -97t32 -37l60 -15l-5 -47h-183q-19 2 -36 30t-47 94q-1 1 -36 83q-36 86 -59 133l-97 -100l-23 -180l82 -14l-5 -46h-295l6 46l71 14l81 622l-69 12l5 49h293l-6 -49l-83 -12l-45 -343l318 343l-67 13l5 48h231
l-6 -49l-61 -11l-242 -249q19 -31 67 -126zM292 -241q12 9 19.5 30.5t6.5 46.5q0 18 -8 33.5t-21 18.5v36l79 39q29 -13 43.5 -42t14.5 -64q0 -32 -13 -60t-33 -46t-39 -23l-49 20v11z" />
    <glyph glyph-name="kcommaaccent" unicode="&#x137;" horiz-adv-x="550" 
d="M277 793l-106 -793h-132l96 729l-61 20l8 37l170 20zM240 313q44 25 75 49t62 65q25 35 27 80q1 31 22.5 45t47.5 14t41 -16t15 -40q1 -36 -25 -73q-27 -35 -74.5 -67t-98.5 -56l108 -194q12 -21 26.5 -32.5t26.5 -11.5q11 0 25.5 5.5t27.5 16.5l16 -32q-17 -25 -57 -50
t-87 -25q-35 0 -56.5 14t-34.5 42l-111 251zM171 -241q12 9 19.5 30.5t6.5 46.5q0 18 -8 33.5t-21 18.5v36l79 39q29 -13 43.5 -42t14.5 -64q0 -32 -13 -60t-33 -46t-39 -23l-49 20v11z" />
    <glyph glyph-name="kgreenlandic" unicode="&#x138;" horiz-adv-x="570" 
d="M250 554l-71 -554h-130l64 478l-53 25l8 40l158 23zM468.5 87.5q14.5 -12.5 26.5 -12.5q10 0 24 5.5t27 14.5l16 -32q-20 -25 -58 -48.5t-84 -23.5q-36 0 -56.5 14t-32.5 42l-109 247l221 261h124l-229 -242l106 -194q10 -19 24.5 -31.5z" />
    <glyph glyph-name="Lacute" unicode="&#x139;" horiz-adv-x="604" 
d="M388 743l-5 -49l-88 -12l-81 -624l205 8l89 203l74 -10l-50 -259h-532l5 46l69 14l81 622l-70 12l6 49h297zM341 983l75 -63q-22 -30 -80 -68.5t-95 -52.5l-53 35z" />
    <glyph glyph-name="lacute" unicode="&#x13a;" horiz-adv-x="305" 
d="M187 89q0 -25 18 -25q9 0 19.5 5t28.5 21l13 -31q-16 -23 -47 -46t-80 -23q-38 0 -62 15.5t-25 48.5q0 4 4 36l87 639l-63 20l9 37l170 20l23 -13l-94 -693q-1 -4 -1 -11zM303 983l75 -63q-22 -30 -80 -68.5t-95 -52.5l-53 35z" />
    <glyph glyph-name="Lcommaaccent" unicode="&#x13b;" horiz-adv-x="604" 
d="M388 743l-5 -49l-88 -12l-81 -624l205 8l89 203l74 -10l-50 -259h-532l5 46l69 14l81 622l-70 12l6 49h297zM201 -241q12 9 19.5 30.5t6.5 46.5q0 18 -8 33.5t-21 18.5v36l79 39q29 -13 43.5 -42t14.5 -64q0 -32 -13 -60t-33 -46t-39 -23l-49 20v11z" />
    <glyph glyph-name="lcommaaccent" unicode="&#x13c;" horiz-adv-x="305" 
d="M187 89q0 -25 18 -25q9 0 19.5 5t28.5 21l13 -31q-16 -23 -47 -46t-80 -23q-38 0 -62 15.5t-25 48.5q0 4 4 36l87 639l-63 20l9 37l170 20l23 -13l-94 -693q-1 -4 -1 -11zM35 -241q12 9 19.5 30.5t6.5 46.5q0 18 -8 33.5t-21 18.5v36l79 39q29 -13 43.5 -42t14.5 -64
q0 -32 -13 -60t-33 -46t-39 -23l-49 20v11z" />
    <glyph glyph-name="Lcaron" unicode="&#x13d;" horiz-adv-x="604" 
d="M388 743l-5 -49l-88 -12l-81 -624l205 8l89 203l74 -10l-50 -259h-532l5 46l69 14l81 622l-70 12l6 49h297zM471 566l-4 10q7 44 7 107q0 57 -13 90l4 21h116q9 -24 9 -76q0 -41 -10 -81.5t-24 -71.5z" />
    <glyph glyph-name="lcaron" unicode="&#x13e;" horiz-adv-x="418" 
d="M187 89q0 -25 18 -25q9 0 19.5 5t28.5 21l13 -31q-16 -23 -47 -46t-80 -23q-38 0 -62 15.5t-25 48.5q0 4 4 36l87 639l-63 20l9 37l170 20l23 -13l-94 -693q-1 -4 -1 -11zM348 590l-4 10q7 44 7 107q0 57 -13 90l4 21h116q9 -24 9 -76q0 -41 -10 -81.5t-24 -71.5z" />
    <glyph glyph-name="Ldot" unicode="&#x13f;" horiz-adv-x="670" 
d="M388 743l-5 -49l-88 -12l-81 -624l205 8l89 177l74 -11l-50 -232h-532l5 46l69 14l81 622l-70 12l6 49h297zM588.5 484q24.5 26 56.5 26q31 0 49.5 -20t18.5 -48q0 -45 -25.5 -69t-61.5 -24q-25 0 -43.5 19.5t-18.5 49.5q0 40 24.5 66z" />
    <glyph glyph-name="ldot" unicode="&#x140;" horiz-adv-x="400" 
d="M187 89q0 -25 18 -25q9 0 19.5 5t28.5 21l13 -31q-16 -23 -47 -46t-80 -23q-38 0 -62 15.5t-25 48.5q0 4 4 36l87 639l-63 20l9 37l170 20l23 -13l-94 -693q-1 -4 -1 -11zM301 442.5q25 25.5 57 25.5t50 -20.5t18 -49.5q0 -43 -25.5 -66.5t-61.5 -23.5q-26 0 -44.5 19.5
t-18.5 50.5q0 39 25 64.5z" />
    <glyph glyph-name="Lslash" unicode="&#x141;" horiz-adv-x="604" 
d="M388 744l-5 -49l-88 -12l-26 -199l171 71l16 -58l-196 -79l-46 -359l205 8l89 203l74 -10l-50 -259h-532l5 46l69 14l38 297l-72 -29l-17 53l98 41l34 260l-70 12l6 49h297z" />
    <glyph glyph-name="lslash" unicode="&#x142;" horiz-adv-x="320" 
d="M193 88q0 -24 17 -24q9 0 20 5.5t28 20.5l13 -31q-15 -22 -47.5 -45.5t-78.5 -23.5q-38 0 -62.5 16t-24.5 48q0 12 3 36l44 306l-72 -28v62l80 33l35 266l-62 20l9 37l169 20l23 -13l-36 -274l91 37v-66l-99 -40l-49 -350q-1 -4 -1 -12z" />
    <glyph glyph-name="Nacute" unicode="&#x143;" horiz-adv-x="752" 
d="M321 743l204 -507l38 -112l70 559l-83 11l5 49h234l-4 -49l-65 -12l-101 -682h-142l-210 517l-38 119l-64 -576l90 -14l-4 -46h-252l3 46l71 13l89 623l-79 12l7 49h231zM548 983l75 -63q-22 -30 -80 -68.5t-95 -52.5l-53 35z" />
    <glyph glyph-name="nacute" unicode="&#x144;" horiz-adv-x="630" 
d="M327 535q51 33 107 33q124 0 124 -147q0 -39 -25 -174q-4 -26 -7 -40q-14 -79 -15 -114v-4q0 -25 16 -25q9 0 19 5t26 18l14 -31q-15 -21 -49 -43.5t-83 -22.5q-47 0 -65 20.5t-18 54.5q1 30 19 119l6 34q2 9 8.5 48t10.5 74.5t4 61.5q0 46 -10.5 63t-37.5 17
q-33 0 -73.5 -37t-69.5 -89l-48 -356h-131l64 476l-51 27l8 41l156 24l23 -11l-10 -110q37 55 88 88zM439 881l81 -79q-9 -16 -47 -51.5t-82 -69.5t-72 -46l-38 37z" />
    <glyph glyph-name="Ncommaaccent" unicode="&#x145;" horiz-adv-x="752" 
d="M321 743l204 -507l38 -112l70 559l-83 11l5 49h234l-4 -49l-65 -12l-101 -682h-142l-210 517l-38 119l-64 -576l90 -14l-4 -46h-252l3 46l71 13l89 623l-79 12l7 49h231zM276 -241q12 9 19.5 30.5t6.5 46.5q0 18 -8 33.5t-21 18.5v36l79 39q29 -13 43.5 -42t14.5 -64
q0 -32 -13 -60t-33 -46t-39 -23l-49 20v11z" />
    <glyph glyph-name="ncommaaccent" unicode="&#x146;" horiz-adv-x="630" 
d="M327 535q51 33 107 33q124 0 124 -147q0 -39 -25 -174q-4 -26 -7 -40q-14 -79 -15 -114v-4q0 -25 16 -25q9 0 19 5t26 18l14 -31q-15 -21 -49 -43.5t-83 -22.5q-47 0 -65 20.5t-18 54.5q1 30 19 119l6 34q2 9 8.5 48t10.5 74.5t4 61.5q0 46 -10.5 63t-37.5 17
q-33 0 -73.5 -37t-69.5 -89l-48 -356h-131l64 476l-51 27l8 41l156 24l23 -11l-10 -110q37 55 88 88zM209 -241q12 9 19.5 30.5t6.5 46.5q0 18 -8 33.5t-21 18.5v36l79 39q29 -13 43.5 -42t14.5 -64q0 -32 -13 -60t-33 -46t-39 -23l-49 20v11z" />
    <glyph glyph-name="Ncaron" unicode="&#x147;" horiz-adv-x="752" 
d="M321 743l204 -507l38 -112l70 559l-83 11l5 49h234l-4 -49l-65 -12l-101 -682h-142l-210 517l-38 119l-64 -576l90 -14l-4 -46h-252l3 46l71 13l89 623l-79 12l7 49h231zM366 981l102 -107l152 107l43 -26l-167 -166h-76l-104 166z" />
    <glyph glyph-name="ncaron" unicode="&#x148;" horiz-adv-x="630" 
d="M327 535q51 33 107 33q124 0 124 -147q0 -39 -25 -174q-4 -26 -7 -40q-14 -79 -15 -114v-4q0 -25 16 -25q9 0 19 5t26 18l14 -31q-15 -21 -49 -43.5t-83 -22.5q-47 0 -65 20.5t-18 54.5q1 30 19 119l6 34q2 9 8.5 48t10.5 74.5t4 61.5q0 46 -10.5 63t-37.5 17
q-33 0 -73.5 -37t-69.5 -89l-48 -356h-131l64 476l-51 27l8 41l156 24l23 -11l-10 -110q37 55 88 88zM257 839l101 -113l158 113l44 -27l-173 -177h-79l-102 177z" />
    <glyph glyph-name="Eng" unicode="&#x14a;" horiz-adv-x="755" 
d="M352 -168q36 8 70.5 31t57.5 58t23 78l-236 518l-38 115l-61 -572l89 -14l-5 -46h-252l4 46l71 13l88 627l-80 11l7 49h231l212 -482l35 -114l63 536l-81 11l5 49h234l-5 -49l-65 -11l-98 -686q-8 -58 -42.5 -105.5t-88 -77t-118.5 -35.5z" />
    <glyph glyph-name="eng" unicode="&#x14b;" horiz-adv-x="625" 
d="M325 533.5q50 33.5 109 33.5q60 0 94.5 -34t29.5 -113q-22 -276 -51 -420q-19 -97 -49.5 -152t-76.5 -78.5t-115 -23.5q-26 0 -48 5t-30 13l17 51q7 -3 19 -5t20 -2q58 0 87 50.5t44 149.5q18 109 44 400q6 74 -48 74q-31 0 -71 -34t-72 -93l-48 -355h-131l64 474l-51 27
l8 40l156 24l23 -11l-10 -107q36 53 86 86.5z" />
    <glyph glyph-name="Omacron" unicode="&#x14c;" horiz-adv-x="701" 
d="M562.5 710q60.5 -43 88.5 -115.5t28 -162.5q0 -119 -42 -219.5t-125.5 -161.5t-202.5 -61q-135 0 -202.5 89t-67.5 234q0 120 43.5 220.5t127.5 160t199 59.5q93 0 153.5 -43zM286.5 644q-47.5 -52 -73 -139t-24.5 -189q0 -117 31.5 -193.5t101.5 -76.5q64 0 110.5 49.5
t71 135t24.5 191.5q0 131 -32 202.5t-100 71.5q-62 0 -109.5 -52zM584 928l-10 -89h-269l10 89h269z" />
    <glyph glyph-name="omacron" unicode="&#x14d;" horiz-adv-x="589" 
d="M498 508.5q55 -60.5 55 -173.5q0 -93 -38 -173t-107 -127.5t-158 -47.5q-104 0 -158.5 61.5t-54.5 175.5q0 94 37.5 173t106.5 125.5t158 46.5q104 0 159 -60.5zM244 464.5q-32 -41.5 -47.5 -105.5t-15.5 -131q0 -95 21.5 -139t67.5 -44q45 0 76 42t46 107t15 133
q0 95 -20.5 137t-64.5 42q-46 0 -78 -41.5zM501 754l-10 -88h-271l10 88h271z" />
    <glyph glyph-name="Obreve" unicode="&#x14e;" horiz-adv-x="701" 
d="M562.5 710q60.5 -43 88.5 -115.5t28 -162.5q0 -119 -42 -219.5t-125.5 -161.5t-202.5 -61q-135 0 -202.5 89t-67.5 234q0 120 43.5 220.5t127.5 160t199 59.5q93 0 153.5 -43zM286.5 644q-47.5 -52 -73 -139t-24.5 -189q0 -117 31.5 -193.5t101.5 -76.5q64 0 110.5 49.5
t71 135t24.5 191.5q0 131 -32 202.5t-100 71.5q-62 0 -109.5 -52zM322.5 841.5q-32.5 44.5 -32.5 107.5q0 20 2 29h74q1 -43 15 -66.5t60 -23.5q49 0 69.5 27t23.5 63h72q0 -50 -21 -91.5t-59 -65.5t-87 -24q-84 0 -116.5 44.5z" />
    <glyph glyph-name="obreve" unicode="&#x14f;" horiz-adv-x="589" 
d="M498 508.5q55 -60.5 55 -173.5q0 -93 -38 -173t-107 -127.5t-158 -47.5q-104 0 -158.5 61.5t-54.5 175.5q0 94 37.5 173t106.5 125.5t158 46.5q104 0 159 -60.5zM244 464.5q-32 -41.5 -47.5 -105.5t-15.5 -131q0 -95 21.5 -139t67.5 -44q45 0 76 42t46 107t15 133
q0 95 -20.5 137t-64.5 42q-46 0 -78 -41.5zM245 691q-39 44 -39 107q0 11 2 27h73l1 -20q2 -28 21.5 -48t57.5 -20q49 0 67 24.5t22 63.5h72v-16q-2 -40 -21 -77.5t-56.5 -61t-90.5 -23.5q-70 0 -109 44z" />
    <glyph glyph-name="Ohungarumlaut" unicode="&#x150;" horiz-adv-x="701" 
d="M562.5 710q60.5 -43 88.5 -115.5t28 -162.5q0 -119 -42 -219.5t-125.5 -161.5t-202.5 -61q-135 0 -202.5 89t-67.5 234q0 120 43.5 220.5t127.5 160t199 59.5q93 0 153.5 -43zM286.5 644q-47.5 -52 -73 -139t-24.5 -189q0 -117 31.5 -193.5t101.5 -76.5q64 0 110.5 49.5
t71 135t24.5 191.5q0 131 -32 202.5t-100 71.5q-62 0 -109.5 -52zM369 980l77 -45q-18 -39 -72 -84t-98 -64l-42 32zM608 980l77 -45q-26 -42 -76.5 -86.5t-93.5 -61.5l-41 32z" />
    <glyph glyph-name="ohungarumlaut" unicode="&#x151;" horiz-adv-x="589" 
d="M498 508.5q55 -60.5 55 -173.5q0 -93 -38 -173t-107 -127.5t-158 -47.5q-104 0 -158.5 61.5t-54.5 175.5q0 94 37.5 173t106.5 125.5t158 46.5q104 0 159 -60.5zM244 464.5q-32 -41.5 -47.5 -105.5t-15.5 -131q0 -95 21.5 -139t67.5 -44q45 0 76 42t46 107t15 133
q0 95 -20.5 137t-64.5 42q-46 0 -78 -41.5zM325 876l82 -58q-9 -24 -41 -60t-70.5 -69t-62.5 -47l-45 37zM555 876l82 -56q-10 -25 -43 -62t-72 -70t-64 -46l-44 37z" />
    <glyph glyph-name="OE" unicode="&#x152;" horiz-adv-x="1095" 
d="M454 20q-62 -30 -141 -30q-136 0 -206.5 87.5t-70.5 233.5q0 121 44 221.5t129 160.5t202 60q80 0 133 -34.5t81 -95.5l14 120h439l-13 -168h-82l-20 104l-189 11l-35 -267l222 18l-14 -98l-215 14l-38 -293l246 14l52 128l83 -8l-35 -198h-493l13 104q-44 -54 -106 -84z
M285.5 644.5q-49.5 -51.5 -76 -137t-26.5 -183.5q2 -278 143 -278q66 0 114 50t73 136t25 193q0 133 -33.5 202t-105.5 69q-64 0 -113.5 -51.5z" />
    <glyph glyph-name="oe" unicode="&#x153;" horiz-adv-x="870" 
d="M725 24.5q-58 -34.5 -136 -34.5q-107 0 -161 73q-38 -35 -85.5 -54t-101.5 -19q-102 0 -154.5 61.5t-52.5 176.5q0 91 37 169t105 124.5t155 46.5q114 0 165 -80q39 38 88.5 59t104.5 21q77 0 115 -35t38 -92q0 -72 -52 -120t-125.5 -71.5t-138.5 -25.5q-2 -72 24 -114.5
t77 -42.5q88 0 156 77l27 -44q-27 -41 -85 -75.5zM566.5 436q-33.5 -71 -39.5 -158q39 2 82 21t72.5 53t29.5 79q0 76 -52 76q-59 0 -92.5 -71zM237.5 464.5q-30.5 -41.5 -45.5 -105.5t-15 -130q0 -91 19.5 -136.5t64.5 -45.5t76 43.5t46 115.5l-1 15q0 38 12 86
q0 95 -17.5 147t-63.5 52q-45 0 -75.5 -41.5z" />
    <glyph glyph-name="Racute" unicode="&#x154;" horiz-adv-x="689" 
d="M303 747q52 4 91 4q137 0 194.5 -44.5t58.5 -135.5q0 -83 -46.5 -143.5t-128.5 -86.5q19 -19 38.5 -60t47.5 -106q8 -16 11 -24q21 -46 32 -65t27 -28.5t44 -9.5l-3 -48h-167q-12 0 -24.5 23.5t-32.5 78.5l-9 23q-33 87 -55.5 138.5t-38.5 61.5h-59h-38l-32 -265l90 -14
l-3 -46h-297l3 46l68 14l81 622l-69 12l5 49h141q25 0 71 4zM343 384q72 2 115 50t43 131q0 66 -33.5 97.5t-104.5 31.5q-36 0 -69 -5l-41 -303q19 -2 90 -2zM478 983l75 -63q-22 -30 -80 -68.5t-95 -52.5l-53 35z" />
    <glyph glyph-name="racute" unicode="&#x155;" horiz-adv-x="413" 
d="M291.5 524.5q46.5 43.5 104.5 43.5q20 0 34 -9l-29 -144q-6 5 -19.5 9.5t-32.5 4.5q-36 0 -69 -15.5t-51 -44.5l-49 -369h-130l63 475l-51 28l7 40l143 24l23 -14l-5 -91l-4 -38q19 57 65.5 100.5zM362 881l81 -79q-9 -16 -47 -51.5t-82 -69.5t-72 -46l-38 37z" />
    <glyph glyph-name="Rcommaaccent" unicode="&#x156;" horiz-adv-x="689" 
d="M303 747q52 4 91 4q137 0 194.5 -44.5t58.5 -135.5q0 -83 -46.5 -143.5t-128.5 -86.5q19 -19 38.5 -60t47.5 -106q8 -16 11 -24q21 -46 32 -65t27 -28.5t44 -9.5l-3 -48h-167q-12 0 -24.5 23.5t-32.5 78.5l-9 23q-33 87 -55.5 138.5t-38.5 61.5h-59h-38l-32 -265l90 -14
l-3 -46h-297l3 46l68 14l81 622l-69 12l5 49h141q25 0 71 4zM343 384q72 2 115 50t43 131q0 66 -33.5 97.5t-104.5 31.5q-36 0 -69 -5l-41 -303q19 -2 90 -2zM267 -241q12 9 19.5 30.5t6.5 46.5q0 18 -8 33.5t-21 18.5v36l79 39q29 -13 43.5 -42t14.5 -64q0 -32 -13 -60
t-33 -46t-39 -23l-49 20v11z" />
    <glyph glyph-name="rcommaaccent" unicode="&#x157;" horiz-adv-x="413" 
d="M291.5 524.5q46.5 43.5 104.5 43.5q20 0 34 -9l-29 -144q-6 5 -19.5 9.5t-32.5 4.5q-36 0 -69 -15.5t-51 -44.5l-49 -369h-130l63 475l-51 28l7 40l143 24l23 -14l-5 -91l-4 -38q19 57 65.5 100.5zM33 -241q12 9 19.5 30.5t6.5 46.5q0 18 -8 33.5t-21 18.5v36l79 39
q29 -13 43.5 -42t14.5 -64q0 -32 -13 -60t-33 -46t-39 -23l-49 20v11z" />
    <glyph glyph-name="Rcaron" unicode="&#x158;" horiz-adv-x="689" 
d="M303 747q52 4 91 4q137 0 194.5 -44.5t58.5 -135.5q0 -83 -46.5 -143.5t-128.5 -86.5q19 -19 38.5 -60t47.5 -106q8 -16 11 -24q21 -46 32 -65t27 -28.5t44 -9.5l-3 -48h-167q-12 0 -24.5 23.5t-32.5 78.5l-9 23q-33 87 -55.5 138.5t-38.5 61.5h-59h-38l-32 -265l90 -14
l-3 -46h-297l3 46l68 14l81 622l-69 12l5 49h141q25 0 71 4zM343 384q72 2 115 50t43 131q0 66 -33.5 97.5t-104.5 31.5q-36 0 -69 -5l-41 -303q19 -2 90 -2zM296 981l102 -107l152 107l43 -26l-167 -166h-76l-104 166z" />
    <glyph glyph-name="rcaron" unicode="&#x159;" horiz-adv-x="413" 
d="M291.5 524.5q46.5 43.5 104.5 43.5q20 0 34 -9l-29 -144q-6 5 -19.5 9.5t-32.5 4.5q-36 0 -69 -15.5t-51 -44.5l-49 -369h-130l63 475l-51 28l7 40l143 24l23 -14l-5 -91l-4 -38q19 57 65.5 100.5zM180 839l101 -113l158 113l44 -27l-173 -177h-79l-102 177z" />
    <glyph glyph-name="Sacute" unicode="&#x15a;" horiz-adv-x="553" 
d="M338 696q-55 0 -89.5 -26.5t-34.5 -71.5q0 -53 32.5 -89.5t107.5 -83.5q72 -45 113.5 -94t41.5 -118q1 -63 -31 -114t-94.5 -80.5t-149.5 -29.5q-71 0 -136 15.5t-85 30.5l26 149h83l5 -107q18 -14 45.5 -22t59.5 -8q68 0 106.5 30.5t38.5 82.5q0 48 -30 82.5t-98 77.5
q-75 47 -118.5 99t-44.5 122q0 65 34 113t93.5 73t134.5 25q127 0 190 -38l-25 -140h-76l-12 97q-31 25 -87 25zM445 983l75 -63q-22 -30 -80 -68.5t-95 -52.5l-53 35z" />
    <glyph glyph-name="sacute" unicode="&#x15b;" horiz-adv-x="427" 
d="M340.5 489q-27.5 15 -63.5 15q-40 0 -64.5 -17.5t-24.5 -51.5q0 -30 20.5 -53.5t66.5 -56.5q51 -38 78 -73.5t27 -90.5t-30 -93.5t-80 -58t-110 -19.5q-45 0 -92 10.5t-61 22.5l20 85q21 -18 57 -34t75 -16q37 0 63.5 17t26.5 53q0 31 -23 56t-69 57q-42 29 -70.5 68.5
t-28.5 95.5q0 48 27.5 85t76 57.5t111.5 20.5q37 0 75 -6t51 -13l-19 -89q-12 14 -39.5 29zM368 881l81 -79q-9 -16 -47 -51.5t-82 -69.5t-72 -46l-38 37z" />
    <glyph glyph-name="Scircumflex" unicode="&#x15c;" horiz-adv-x="553" 
d="M338 696q-55 0 -89.5 -26.5t-34.5 -71.5q0 -53 32.5 -89.5t107.5 -83.5q72 -45 113.5 -94t41.5 -118q1 -63 -31 -114t-94.5 -80.5t-149.5 -29.5q-71 0 -136 15.5t-85 30.5l26 149h83l5 -107q18 -14 45.5 -22t59.5 -8q68 0 106.5 30.5t38.5 82.5q0 48 -30 82.5t-98 77.5
q-75 47 -118.5 99t-44.5 122q0 65 34 113t93.5 73t134.5 25q127 0 190 -38l-25 -140h-76l-12 97q-31 25 -87 25zM337 981h80l104 -169l-49 -27l-104 109l-160 -108l-43 26z" />
    <glyph glyph-name="scircumflex" unicode="&#x15d;" horiz-adv-x="427" 
d="M340.5 489q-27.5 15 -63.5 15q-40 0 -64.5 -17.5t-24.5 -51.5q0 -30 20.5 -53.5t66.5 -56.5q51 -38 78 -73.5t27 -90.5t-30 -93.5t-80 -58t-110 -19.5q-45 0 -92 10.5t-61 22.5l20 85q21 -18 57 -34t75 -16q37 0 63.5 17t26.5 53q0 31 -23 56t-69 57q-42 29 -70.5 68.5
t-28.5 95.5q0 48 27.5 85t76 57.5t111.5 20.5q37 0 75 -6t51 -13l-19 -89q-12 14 -39.5 29zM295 849l79 -48l60 -149l-75 16l-115 45l-115 -74l12 68z" />
    <glyph glyph-name="Scedilla" unicode="&#x15e;" horiz-adv-x="553" 
d="M39 184h83l5 -107q18 -14 45.5 -22t59.5 -8q68 0 106.5 30.5t38.5 82.5q0 48 -30 82.5t-98 77.5q-75 47 -118.5 99t-44.5 122q0 65 34 113t93.5 73t134.5 25q127 0 190 -38l-25 -140h-76l-12 97q-31 25 -87 25q-55 0 -89.5 -26.5t-34.5 -71.5q0 -53 32.5 -89.5
t107.5 -83.5q72 -45 113.5 -94t41.5 -118q1 -58 -27 -106.5t-82 -79.5t-129 -37q6 -18 10 -43.5t4 -46.5q0 -65 -35 -99t-106 -34q-21 0 -50 4t-37 9l15 70q16 -8 41 -8q41 0 65 23t25 71q2 31 -3 54q-62 3 -116 17.5t-71 27.5z" />
    <glyph glyph-name="scedilla" unicode="&#x15f;" horiz-adv-x="427" 
d="M46.5 -229q-28.5 4 -36.5 9l14 70q16 -8 42 -8q90 0 90 105q0 26 -3 43q-44 1 -88 11t-58 22l20 85q21 -18 57 -34t75 -16q37 0 63.5 17t26.5 53q0 31 -23 56t-69 57q-42 29 -70.5 68.5t-28.5 95.5q0 48 27.5 85t76 57.5t111.5 20.5q37 0 75 -6t51 -13l-19 -89
q-12 14 -39.5 29t-63.5 15q-40 0 -64.5 -17.5t-24.5 -51.5q0 -30 20.5 -53.5t66.5 -56.5q51 -38 78 -73.5t27 -90.5q0 -67 -44 -109t-114 -56q6 -20 10.5 -47t4.5 -49q0 -63 -38.5 -98t-102.5 -35q-21 0 -49.5 4z" />
    <glyph glyph-name="Scaron" unicode="&#x160;" horiz-adv-x="553" 
d="M338 696q-55 0 -89.5 -26.5t-34.5 -71.5q0 -53 32.5 -89.5t107.5 -83.5q72 -45 113.5 -94t41.5 -118q1 -63 -31 -114t-94.5 -80.5t-149.5 -29.5q-71 0 -136 15.5t-85 30.5l26 149h83l5 -107q18 -14 45.5 -22t59.5 -8q68 0 106.5 30.5t38.5 82.5q0 48 -30 82.5t-98 77.5
q-75 47 -118.5 99t-44.5 122q0 65 34 113t93.5 73t134.5 25q127 0 190 -38l-25 -140h-76l-12 97q-31 25 -87 25zM263 981l102 -107l152 107l43 -26l-167 -166h-76l-104 166z" />
    <glyph glyph-name="scaron" unicode="&#x161;" horiz-adv-x="427" 
d="M340.5 489q-27.5 15 -63.5 15q-40 0 -64.5 -17.5t-24.5 -51.5q0 -30 20.5 -53.5t66.5 -56.5q51 -38 78 -73.5t27 -90.5t-30 -93.5t-80 -58t-110 -19.5q-45 0 -92 10.5t-61 22.5l20 85q21 -18 57 -34t75 -16q37 0 63.5 17t26.5 53q0 31 -23 56t-69 57q-42 29 -70.5 68.5
t-28.5 95.5q0 48 27.5 85t76 57.5t111.5 20.5q37 0 75 -6t51 -13l-19 -89q-12 14 -39.5 29zM186 839l101 -113l158 113l44 -27l-173 -177h-79l-102 177z" />
    <glyph glyph-name="uni0162" unicode="&#x162;" horiz-adv-x="672" 
d="M81 743h632l-38 -263l-73 -1l-3 200l-139 11l-83 -630l133 -13l-5 -47h-165q7 -17 11.5 -41t4.5 -47q0 -66 -38 -105.5t-108 -39.5q-19 0 -44 5t-33 10l15 68q16 -8 41 -8q44 0 66.5 26.5t22.5 75.5q0 37 -4 56h-164l5 47l122 13l82 630l-138 -11l-69 -199h-75z" />
    <glyph glyph-name="uni0163" unicode="&#x163;" horiz-adv-x="355" 
d="M-10 -150q16 -8 42 -8q44 0 66.5 26.5t22.5 75.5q0 30 -3 50q-58 13 -58 86q0 20 10 94l42 310h-60l11 48l60 21q30 28 71 138h75l-17 -136h120l-10 -71h-120l-41 -301q-7 -58 -7 -70q0 -23 9 -32.5t31 -9.5q20 0 45.5 9.5t42.5 23.5l11 -37q-21 -24 -60 -46t-87 -29
q13 -39 13 -80q0 -66 -38 -105.5t-108 -39.5q-19 0 -44 5t-33 10z" />
    <glyph glyph-name="Tcaron" unicode="&#x164;" horiz-adv-x="672" 
d="M713 743l-38 -263l-73 -1l-3 200l-139 11l-83 -630l133 -13l-5 -47h-395l5 47l122 13l82 630l-138 -11l-69 -199h-75l44 263h632zM315 981l102 -107l152 107l43 -26l-167 -166h-76l-104 166z" />
    <glyph glyph-name="tcaron" unicode="&#x165;" horiz-adv-x="355" 
d="M194 113q0 -23 9 -32.5t31 -9.5q20 0 45.5 9.5t42.5 23.5l11 -37q-26 -29 -74 -53t-108 -24q-42 0 -66.5 21.5t-24.5 68.5q0 20 10 94l42 310h-60l11 48l60 21q30 28 71 138h75l-17 -136h120l-10 -71h-120l-41 -301q-7 -58 -7 -70zM343 586l-4 10q7 44 7 107q0 57 -13 90
l4 21h116q9 -24 9 -76q0 -41 -10 -81.5t-24 -71.5z" />
    <glyph glyph-name="Tbar" unicode="&#x166;" horiz-adv-x="673" 
d="M713 743l-38 -263l-73 -1l-3 200l-139 11l-38 -284h129l-7 -66h-131l-36 -280l133 -13l-5 -47h-395l5 47l122 13l36 280h-121l7 66h123l37 284l-138 -11l-69 -199h-75l44 263h632z" />
    <glyph glyph-name="tbar" unicode="&#x167;" horiz-adv-x="355" 
d="M194 113q0 -23 9 -32.5t31 -9.5q20 0 45.5 9.5t42.5 23.5l11 -37q-26 -29 -74 -53t-108 -24q-41 0 -66 20.5t-25 65.5q0 19 10 98l17 131h-54l7 60h55l17 119h-60l11 48l60 21q30 28 71 138h75l-17 -136h120l-10 -71h-120l-16 -119h115l-8 -60h-115l-17 -122
q-7 -58 -7 -70z" />
    <glyph glyph-name="Utilde" unicode="&#x168;" horiz-adv-x="701" 
d="M534.5 63.5q-74.5 -73.5 -209.5 -73.5q-125 0 -186.5 59.5t-62.5 159.5q0 52 4 81l51 393l-70 11l6 49h299l-5 -48l-90 -13l-50 -381q-7 -65 -7 -96q1 -75 35.5 -117t100.5 -42q88 0 134 64t63 196l51 376l-70 13l4 48h217l-6 -48l-63 -12l-49 -377
q-22 -169 -96.5 -242.5zM312 942q32 24 74 24q26 0 44 -10.5t38 -30.5q17 -16 28.5 -23.5t26.5 -7.5q25 0 43 14t33 35l35 -46q-13 -33 -45.5 -59.5t-71.5 -26.5q-29 0 -47 10t-40 30q-16 16 -29.5 24t-32.5 8q-21 0 -36 -10.5t-34 -31.5l-31 43q13 34 45 58z" />
    <glyph glyph-name="utilde" unicode="&#x169;" horiz-adv-x="613" 
d="M209 237q-10 -78 -10 -100q0 -40 14 -57t42 -17q32 0 63.5 20t53.5 48l58 432h132l-64 -463q-2 -18 3 -27t15 -9q9 0 19 5.5t28 20.5l14 -31q-13 -21 -48 -45t-80 -24q-35 0 -53.5 15t-20.5 41l-1 12q0 8 2 20l-2 1q-74 -89 -174 -89q-56 0 -95 30.5t-40 97.5
q0 39 14 141q4 25 5 34l27 182l-58 34l8 41l166 17l23 -11l-34 -267q-4 -37 -7 -52zM234 765q30 22 64 22q28 0 46.5 -9.5t38.5 -26.5q16 -13 27 -19t25 -6q25 0 38 10.5t32 34.5l38 -45q-12 -34 -45 -58t-71 -24q-27 0 -43.5 8.5t-35.5 25.5q-17 14 -29 20.5t-30 6.5
q-22 0 -36 -9t-32 -28l-33 44q16 31 46 53z" />
    <glyph glyph-name="Umacron" unicode="&#x16a;" horiz-adv-x="701" 
d="M534.5 63.5q-74.5 -73.5 -209.5 -73.5q-125 0 -186.5 59.5t-62.5 159.5q0 52 4 81l51 393l-70 11l6 49h299l-5 -48l-90 -13l-50 -381q-7 -65 -7 -96q1 -75 35.5 -117t100.5 -42q88 0 134 64t63 196l51 376l-70 13l4 48h217l-6 -48l-63 -12l-49 -377
q-22 -169 -96.5 -242.5zM590 928l-10 -89h-269l10 89h269z" />
    <glyph glyph-name="umacron" unicode="&#x16b;" horiz-adv-x="613" 
d="M209 237q-10 -78 -10 -100q0 -40 14 -57t42 -17q32 0 63.5 20t53.5 48l58 432h132l-64 -463q-2 -18 3 -27t15 -9q9 0 19 5.5t28 20.5l14 -31q-13 -21 -48 -45t-80 -24q-35 0 -53.5 15t-20.5 41l-1 12q0 8 2 20l-2 1q-74 -89 -174 -89q-56 0 -95 30.5t-40 97.5
q0 39 14 141q4 25 5 34l27 182l-58 34l8 41l166 17l23 -11l-34 -267q-4 -37 -7 -52zM503 747l-10 -88h-271l10 88h271z" />
    <glyph glyph-name="Ubreve" unicode="&#x16c;" horiz-adv-x="701" 
d="M534.5 63.5q-74.5 -73.5 -209.5 -73.5q-125 0 -186.5 59.5t-62.5 159.5q0 52 4 81l51 393l-70 11l6 49h299l-5 -48l-90 -13l-50 -381q-7 -65 -7 -96q1 -75 35.5 -117t100.5 -42q88 0 134 64t63 196l51 376l-70 13l4 48h217l-6 -48l-63 -12l-49 -377
q-22 -169 -96.5 -242.5zM328.5 841.5q-32.5 44.5 -32.5 107.5q0 20 2 29h74q1 -43 15 -66.5t60 -23.5q49 0 69.5 27t23.5 63h72q0 -50 -21 -91.5t-59 -65.5t-87 -24q-84 0 -116.5 44.5z" />
    <glyph glyph-name="ubreve" unicode="&#x16d;" horiz-adv-x="613" 
d="M209 237q-10 -78 -10 -100q0 -40 14 -57t42 -17q32 0 63.5 20t53.5 48l58 432h132l-64 -463q-2 -18 3 -27t15 -9q9 0 19 5.5t28 20.5l14 -31q-13 -21 -48 -45t-80 -24q-35 0 -53.5 15t-20.5 41l-1 12q0 8 2 20l-2 1q-74 -89 -174 -89q-56 0 -95 30.5t-40 97.5
q0 39 14 141q4 25 5 34l27 182l-58 34l8 41l166 17l23 -11l-34 -267q-4 -37 -7 -52zM247 684q-39 44 -39 107q0 11 2 27h73l1 -20q2 -28 21.5 -48t57.5 -20q49 0 67 24.5t22 63.5h72v-16q-2 -40 -21 -77.5t-56.5 -61t-90.5 -23.5q-70 0 -109 44z" />
    <glyph glyph-name="Uring" unicode="&#x16e;" horiz-adv-x="701" 
d="M534.5 63.5q-74.5 -73.5 -209.5 -73.5q-125 0 -186.5 59.5t-62.5 159.5q0 52 4 81l51 393l-70 11l6 49h299l-5 -48l-90 -13l-50 -381q-7 -65 -7 -96q1 -75 35.5 -117t100.5 -42q88 0 134 64t63 196l51 376l-70 13l4 48h217l-6 -48l-63 -12l-49 -377
q-22 -169 -96.5 -242.5zM324 782.5q-43 27.5 -43 78.5q0 43 29 70.5t71 39.5t84 12q62 0 104 -25t42 -71q0 -67 -53 -99.5t-125 -32.5q-66 0 -109 27.5zM531 880q0 23 -22 35.5t-54 12.5q-39 0 -66 -13.5t-27 -47.5q0 -26 22.5 -41t53.5 -15q93 0 93 69z" />
    <glyph glyph-name="uring" unicode="&#x16f;" horiz-adv-x="613" 
d="M209 237q-10 -78 -10 -100q0 -40 14 -57t42 -17q32 0 63.5 20t53.5 48l58 432h132l-64 -463q-2 -18 3 -27t15 -9q9 0 19 5.5t28 20.5l14 -31q-13 -21 -48 -45t-80 -24q-35 0 -53.5 15t-20.5 41l-1 12q0 8 2 20l-2 1q-74 -89 -174 -89q-56 0 -95 30.5t-40 97.5
q0 39 14 141q4 25 5 34l27 182l-58 34l8 41l166 17l23 -11l-34 -267q-4 -37 -7 -52zM247 677q-40 31 -40 86q0 52 27.5 86t69.5 49.5t87 15.5q65 0 105.5 -31.5t40.5 -84.5q0 -74 -53 -113t-128 -39q-69 0 -109 31zM430 722.5q27 18.5 27 62.5q0 30 -22.5 51.5t-53.5 21.5
q-37 0 -65 -21.5t-28 -63.5q0 -29 23 -49t53 -20q39 0 66 18.5z" />
    <glyph glyph-name="Uhungarumlaut" unicode="&#x170;" horiz-adv-x="701" 
d="M534.5 63.5q-74.5 -73.5 -209.5 -73.5q-125 0 -186.5 59.5t-62.5 159.5q0 52 4 81l51 393l-70 11l6 49h299l-5 -48l-90 -13l-50 -381q-7 -65 -7 -96q1 -75 35.5 -117t100.5 -42q88 0 134 64t63 196l51 376l-70 13l4 48h217l-6 -48l-63 -12l-49 -377
q-22 -169 -96.5 -242.5zM375 980l77 -45q-18 -39 -72 -84t-98 -64l-42 32zM614 980l77 -45q-26 -42 -76.5 -86.5t-93.5 -61.5l-41 32z" />
    <glyph glyph-name="uhungarumlaut" unicode="&#x171;" horiz-adv-x="613" 
d="M209 237q-10 -78 -10 -100q0 -40 14 -57t42 -17q32 0 63.5 20t53.5 48l58 432h132l-64 -463q-2 -18 3 -27t15 -9q9 0 19 5.5t28 20.5l14 -31q-13 -21 -48 -45t-80 -24q-35 0 -53.5 15t-20.5 41l-1 12q0 8 2 20l-2 1q-74 -89 -174 -89q-56 0 -95 30.5t-40 97.5
q0 39 14 141q4 25 5 34l27 182l-58 34l8 41l166 17l23 -11l-34 -267q-4 -37 -7 -52zM327 869l82 -58q-9 -24 -41 -60t-70.5 -69t-62.5 -47l-45 37zM557 869l82 -56q-10 -25 -43 -62t-72 -70t-64 -46l-44 37z" />
    <glyph glyph-name="Uogonek" unicode="&#x172;" horiz-adv-x="701" 
d="M564 100q-50 -73 -135 -97q-32 -29 -51.5 -57t-19.5 -49t9 -31t24 -10q35 0 75 35l16 -49q-27 -29 -66.5 -47.5t-87.5 -18.5q-43 0 -64.5 21.5t-21.5 56.5q0 13 4.5 28.5t12.5 26.5q27 44 79 81h-13q-125 0 -186.5 59.5t-62.5 159.5q0 52 4 81l51 393l-70 11l6 49h299
l-5 -48l-90 -13l-50 -381q-7 -65 -7 -96q1 -75 35.5 -117t100.5 -42q88 0 134 64t63 196l51 376l-70 13l4 48h217l-6 -48l-63 -12l-49 -377q-17 -133 -67 -206z" />
    <glyph glyph-name="uogonek" unicode="&#x173;" horiz-adv-x="613" 
d="M61 550l166 17l23 -11l-34 -267q-4 -37 -7 -52q-10 -78 -10 -100q0 -40 14 -57t42 -17q32 0 63.5 20t53.5 48l58 432h132l-64 -463q-2 -18 3 -27t15 -9q9 0 19 5.5t28 20.5l14 -31q-6 -11 -23 -26.5t-39 -26.5q-84 -62 -84 -102q-1 -37 31 -37q18 0 35 8.5t39 25.5
l15 -48q-66 -64 -151 -64q-41 0 -62.5 20t-21.5 54q0 12 5.5 29.5t14.5 29.5q28 42 80 75q-18 6 -29.5 19t-11.5 30l-1 12q0 8 2 20l-2 1q-74 -89 -174 -89q-56 0 -95 30.5t-40 97.5q0 39 14 141q4 25 5 34l27 182l-58 34z" />
    <glyph glyph-name="Wcircumflex" unicode="&#x174;" horiz-adv-x="929" 
d="M287 743l-4 -49l-74 -12l51 -445l14 -116l40 107l156 384l-7 70l-75 13l5 48h292l-5 -49l-78 -12l44 -445l5 -116l44 110l192 451l-99 12l5 49h263l-6 -48l-74 -13l-314 -687h-127l-47 478l-196 -478h-125l-101 687l-68 13l6 48h283zM542 981h80l104 -169l-49 -27
l-104 109l-160 -108l-43 26z" />
    <glyph glyph-name="wcircumflex" unicode="&#x175;" horiz-adv-x="851" 
d="M60 483.5q-5 6.5 -13 6.5q-10 0 -17.5 -4.5t-10.5 -6.5l-14 34q11 15 44 35t71 20q40 0 58.5 -16.5t24.5 -50.5l39 -307l11 -100l41 121l121 349h120l46 -382l8 -85l37 56q41 62 67 128.5t27 129.5q0 18 -8 50q-8 30 -8 44q0 28 18 45.5t48 17.5q39 0 57 -28.5t18 -74.5
q1 -65 -61.5 -176.5t-129.5 -194.5l-73 -98l-96 -5l-26 177l-17 165l-6 71l-20 -72l-65 -150l-77 -185l-110 -7l-36 178l-59 293q-4 16 -9 22.5zM503 849l79 -48l60 -149l-75 16l-115 45l-115 -74l12 68z" />
    <glyph glyph-name="Ycircumflex" unicode="&#x176;" horiz-adv-x="615" 
d="M329 743l-7 -49l-86 -12l92 -253l23 -70l33 62l157 261l-79 12l5 49h239l-6 -49l-61 -11l-253 -391l-31 -232l116 -14l-4 -46h-369l5 46l114 14l29 232l-168 390l-62 12l5 49h308zM390 981h80l104 -169l-49 -27l-104 109l-160 -108l-43 26z" />
    <glyph glyph-name="ycircumflex" unicode="&#x177;" horiz-adv-x="534" 
d="M62 483.5q-5 6.5 -13 6.5q-13 0 -30 -14l-14 34q12 16 45.5 36.5t71.5 20.5q39 0 58 -16.5t24 -50.5l58 -380l14 -110l47 95q43 90 65.5 158t22.5 130q0 19 -3 32t-9 30q-11 28 -11 53q0 27 16.5 43t47.5 16q36 0 56.5 -28t20.5 -68q0 -71 -23 -134.5t-70 -157.5
q-33 -72 -85.5 -159.5t-92.5 -147.5q-41 -65 -87.5 -94t-110.5 -29q-26 0 -56.5 6.5t-41.5 13.5l31 87q11 -10 37 -18t51 -8q45 0 86.5 31.5t82.5 102.5h-72l-107 496q-4 17 -9 23.5zM336 849l79 -48l60 -149l-75 16l-115 45l-115 -74l12 68z" />
    <glyph glyph-name="Ydieresis" unicode="&#x178;" horiz-adv-x="615" 
d="M329 743l-7 -49l-86 -12l92 -253l23 -70l33 62l157 261l-79 12l5 49h239l-6 -49l-61 -11l-253 -391l-31 -232l116 -14l-4 -46h-369l5 46l114 14l29 232l-168 390l-62 12l5 49h308zM256 839.5q-17 17.5 -17 44.5q0 35 21 57.5t53 22.5q28 0 44.5 -17t16.5 -43
q0 -38 -19.5 -60t-56.5 -22q-25 0 -42 17.5zM485.5 839.5q-16.5 17.5 -16.5 44.5q0 36 20.5 58t52.5 22q28 0 44.5 -17t16.5 -43q0 -37 -20 -59.5t-56 -22.5q-25 0 -41.5 17.5z" />
    <glyph glyph-name="Zacute" unicode="&#x179;" horiz-adv-x="594" 
d="M608 743l13 -39l-418 -583l-60 -62l275 11l84 150l72 -21l-48 -199h-529l-14 41l418 579l68 66l-250 -7l-61 -131l-72 11l30 184h492zM456 1011l75 -63q-22 -30 -80 -68.5t-95 -52.5l-53 35z" />
    <glyph glyph-name="zacute" unicode="&#x17a;" horiz-adv-x="498" 
d="M287 452q-81 2 -103 1q-33 -1 -53.5 -24.5t-22.5 -57.5h-40q-2 22 -2 45q0 49 8.5 90t28.5 51q17 10 47 10q53 0 156 -9q23 -1 65.5 -4t62.5 -3q34 0 53 16l25 -27l-291 -366l-74 -69l180 -2q39 0 61 23.5t27 62.5h39q1 -10 1 -35q0 -53 -8.5 -97.5t-29.5 -57.5
q-13 -10 -50 -10q-57 0 -165 9q-25 1 -69.5 4t-63.5 3q-13 0 -27.5 -4t-23.5 -12l-29 28l320 391l54 43zM390 881l81 -79q-9 -16 -47 -51.5t-82 -69.5t-72 -46l-38 37z" />
    <glyph glyph-name="Zdotaccent" unicode="&#x17b;" horiz-adv-x="594" 
d="M608 743l13 -39l-418 -583l-60 -62l275 11l84 150l72 -21l-48 -199h-529l-14 41l418 579l68 66l-250 -7l-61 -131l-72 11l30 184h492zM322 859q-21 20 -21 45q0 35 24 59.5t59 24.5q30 0 51 -19t21 -44q0 -37 -23.5 -61.5t-63.5 -24.5q-26 0 -47 20z" />
    <glyph glyph-name="zdotaccent" unicode="&#x17c;" horiz-adv-x="498" 
d="M287 452q-81 2 -103 1q-33 -1 -53.5 -24.5t-22.5 -57.5h-40q-2 22 -2 45q0 49 8.5 90t28.5 51q17 10 47 10q53 0 156 -9q23 -1 65.5 -4t62.5 -3q34 0 53 16l25 -27l-291 -366l-74 -69l180 -2q39 0 61 23.5t27 62.5h39q1 -10 1 -35q0 -53 -8.5 -97.5t-29.5 -57.5
q-13 -10 -50 -10q-57 0 -165 9q-25 1 -69.5 4t-63.5 3q-13 0 -27.5 -4t-23.5 -12l-29 28l320 391l54 43zM254.5 678q-20.5 21 -20.5 50q0 38 23.5 62.5t61.5 24.5q31 0 51 -19.5t20 -46.5q0 -42 -22.5 -67t-65.5 -25q-27 0 -47.5 21z" />
    <glyph glyph-name="Zcaron" unicode="&#x17d;" horiz-adv-x="594" 
d="M608 743l13 -39l-418 -583l-60 -62l275 11l84 150l72 -21l-48 -199h-529l-14 41l418 579l68 66l-250 -7l-61 -131l-72 11l30 184h492zM274 1009l102 -107l152 107l43 -26l-167 -166h-76l-104 166z" />
    <glyph glyph-name="zcaron" unicode="&#x17e;" horiz-adv-x="498" 
d="M287 452q-81 2 -103 1q-33 -1 -53.5 -24.5t-22.5 -57.5h-40q-2 22 -2 45q0 49 8.5 90t28.5 51q17 10 47 10q53 0 156 -9q23 -1 65.5 -4t62.5 -3q34 0 53 16l25 -27l-291 -366l-74 -69l180 -2q39 0 61 23.5t27 62.5h39q1 -10 1 -35q0 -53 -8.5 -97.5t-29.5 -57.5
q-13 -10 -50 -10q-57 0 -165 9q-25 1 -69.5 4t-63.5 3q-13 0 -27.5 -4t-23.5 -12l-29 28l320 391l54 43zM208 839l101 -113l158 113l44 -27l-173 -177h-79l-102 177z" />
    <glyph glyph-name="uni018F" unicode="&#x18f;" horiz-adv-x="661" 
d="M146 714q18 5 24 7q43 14 88.5 22t116.5 8q76 0 132.5 -37t87 -105t30.5 -157q0 -131 -48.5 -237t-131 -166t-178.5 -60q-109 0 -170.5 64.5t-61.5 180.5q0 40 6.5 81t14.5 63l425 1l1 32q5 134 -33.5 211t-116.5 77q-94 0 -127 -50l-41 -96h-74l22 156q16 0 34 5z
M174.5 263.5q-3.5 -21.5 -3.5 -45.5q0 -78 29 -124t90 -46q69 0 118 65.5t67 205.5h-289q-8 -34 -11.5 -55.5z" />
    <glyph glyph-name="florin" unicode="&#x192;" horiz-adv-x="492" 
d="M249.5 711q38.5 54 90.5 84t99 30q65 0 86 -8l-6 -101l-12 6t-29 8.5t-46 3.5q-41 0 -69.5 -23t-34.5 -86l-8 -63h136l-7 -80h-139l-80 -656h-120l82 656h-100l5 54l103 26l3 26q8 69 46.5 123z" />
    <glyph glyph-name="Ohorn" unicode="&#x1a0;" horiz-adv-x="704" 
d="M82.5 533.5q43.5 100.5 127.5 160t199 59.5q66 0 117 -23q67 4 104 36.5t37 73.5q0 7 -3 25h105q3 -10 3 -21q0 -73 -47.5 -115t-120.5 -55q38 -43 56.5 -104t18.5 -132q1 -120 -40.5 -222.5t-125.5 -164t-204 -61.5q-135 0 -202.5 89t-67.5 234q0 120 43.5 220.5z
M220.5 122.5q31.5 -76.5 101.5 -76.5q64 0 110.5 49.5t71 135t24.5 191.5q0 131 -32 202.5t-100 71.5q-62 0 -109.5 -52t-73 -139t-24.5 -189q0 -117 31.5 -193.5z" />
    <glyph glyph-name="ohorn" unicode="&#x1a1;" horiz-adv-x="589" 
d="M91.5 48.5q-54.5 61.5 -54.5 175.5q0 94 37.5 173t106.5 125.5t158 46.5q47 0 86 -14q54 4 77.5 24.5t23.5 55.5v15h110l-3 -33q-8 -53 -40.5 -79.5t-87.5 -38.5q48 -60 48 -164q0 -93 -38 -173t-107 -127.5t-158 -47.5q-104 0 -158.5 61.5zM202.5 89q21.5 -44 67.5 -44
q45 0 76 42t46 107t15 133q0 95 -20.5 137t-64.5 42q-46 0 -78 -41.5t-47.5 -105.5t-15.5 -131q0 -95 21.5 -139z" />
    <glyph glyph-name="Uhorn" unicode="&#x1af;" horiz-adv-x="764" 
d="M67 743h299l-5 -48l-90 -13l-50 -381q-7 -65 -7 -96q1 -75 35.5 -117t100.5 -42q88 0 134 64t63 196l51 376l-70 13l4 48h99q56 0 78.5 30t22.5 75q0 13 -1 17h107q2 -16 2 -22q2 -72 -34.5 -109t-125.5 -51l-49 -377q-22 -169 -96.5 -242.5t-209.5 -73.5
q-125 0 -186.5 59.5t-62.5 159.5q0 52 4 81l51 393l-70 11z" />
    <glyph glyph-name="uhorn" unicode="&#x1b0;" horiz-adv-x="618" 
d="M105 20.5q-39 30.5 -40 97.5q0 39 14 141q4 25 5 34l27 182l-58 34l8 41l166 17l23 -11l-34 -267q-4 -37 -7 -52q-10 -78 -10 -100q0 -40 14 -57t42 -17q32 0 63.5 20t53.5 48l58 432h76q29 9 41.5 27.5t12.5 44.5v15h109l-3 -33q-7 -49 -36 -76t-77 -38l-55 -403
q-2 -18 3 -27t15 -9q9 0 19 5.5t28 20.5l14 -31q-13 -21 -48 -45t-80 -24q-35 0 -53.5 15t-20.5 41l-1 12q0 8 2 20l-2 1q-74 -89 -174 -89q-56 0 -95 30.5z" />
    <glyph glyph-name="uni01C4" unicode="&#x1c4;" horiz-adv-x="1316" 
d="M312 747q60 4 92 4q158 0 231 -81t73 -220q1 -135 -45.5 -238t-139.5 -161.5t-230 -58.5q-20 0 -46 4q-44 4 -97 4h-157l5 46l75 14l82 622l-68 12l4 49h147q24 0 74 4zM260 52.5q26 -3.5 43 -3.5q87 1 144.5 58t84.5 144t27 182q0 140 -41 200.5t-134 60.5
q-26 0 -50.5 -3.5t-38.5 -7.5l-81 -622q20 -5 46 -8.5zM1330 743l13 -39l-418 -583l-60 -62l275 11l84 150l72 -21l-48 -199h-529l-14 41l418 579l68 66l-250 -7l-61 -131l-72 11l30 184h492zM996 1009l102 -107l152 107l43 -26l-167 -166h-76l-104 166z" />
    <glyph glyph-name="uni01C5" unicode="&#x1c5;" horiz-adv-x="1220" 
d="M312 747q60 4 92 4q158 0 231 -81t73 -220q1 -135 -45.5 -238t-139.5 -161.5t-230 -58.5q-20 0 -46 4q-44 4 -97 4h-157l5 46l75 14l82 622l-68 12l4 49h147q24 0 74 4zM260 52.5q26 -3.5 43 -3.5q87 1 144.5 58t84.5 144t27 182q0 140 -41 200.5t-134 60.5
q-26 0 -50.5 -3.5t-38.5 -7.5l-81 -622q20 -5 46 -8.5zM1009 452q-81 2 -103 1q-33 -1 -53.5 -24.5t-22.5 -57.5h-40q-2 22 -2 45q0 49 8.5 90t28.5 51q17 10 47 10q53 0 156 -9q23 -1 65.5 -4t62.5 -3q34 0 53 16l25 -27l-291 -366l-74 -69l180 -2q39 0 61 23.5t27 62.5h39
q1 -10 1 -35q0 -53 -8.5 -97.5t-29.5 -57.5q-13 -10 -50 -10q-57 0 -165 9q-25 1 -69.5 4t-63.5 3q-13 0 -27.5 -4t-23.5 -12l-29 28l320 391l54 43zM930 839l101 -113l158 113l44 -27l-173 -177h-79l-102 177z" />
    <glyph glyph-name="uni01C6" unicode="&#x1c6;" horiz-adv-x="1098" 
d="M484 89q0 -25 17 -25t45 23l14 -31q-56 -66 -124 -66q-35 0 -53 17t-21 52v15q-25 -35 -67 -59.5t-96 -24.5q-84 0 -125 57.5t-41 150.5t37 178t110.5 138.5t177.5 53.5q29 0 61 -8l25 169l-72 20l9 37l180 20l25 -13l-101 -692q-1 -4 -1 -12zM346 506q-61 0 -100 -46.5
t-57 -115.5t-18 -140q0 -66 20.5 -102t58.5 -36q31 0 59 19.5t46 46.5l54 360q-25 14 -63 14zM887 452q-81 2 -103 1q-33 -1 -53.5 -24.5t-22.5 -57.5h-40q-2 22 -2 45q0 49 8.5 90t28.5 51q17 10 47 10q53 0 156 -9q23 -1 65.5 -4t62.5 -3q34 0 53 16l25 -27l-291 -366
l-74 -69l180 -2q39 0 61 23.5t27 62.5h39q1 -10 1 -35q0 -53 -8.5 -97.5t-29.5 -57.5q-13 -10 -50 -10q-57 0 -165 9q-25 1 -69.5 4t-63.5 3q-13 0 -27.5 -4t-23.5 -12l-29 28l320 391l54 43zM808 839l101 -113l158 113l44 -27l-173 -177h-79l-102 177z" />
    <glyph glyph-name="uni01C7" unicode="&#x1c7;" horiz-adv-x="958" 
d="M388 743l-5 -49l-88 -12l-81 -624l205 8l89 203l74 -10l-50 -259h-532l5 46l69 14l81 622l-70 12l6 49h297zM898 612q-33 -278 -50.5 -412.5t-26.5 -162.5q-29 -86 -105.5 -138.5t-176.5 -66.5l-22 46q72 21 113 65t52 100q23 120 43.5 276t42.5 363l-74 12l6 49h287
l-5 -49l-75 -11z" />
    <glyph glyph-name="uni01C8" unicode="&#x1c8;" horiz-adv-x="922" 
d="M388 743l-5 -49l-88 -12l-81 -624l205 8l89 203l74 -10l-50 -259h-532l5 46l69 14l81 622l-70 12l6 49h297zM763.5 -137.5q-32.5 -57.5 -82 -88t-107.5 -30.5q-29 0 -53 4.5t-33 13.5l19 54q7 -3 20 -5t25 -2q59 0 85 58t38 164l52 453l-77 23l10 37l189 23l23 -11
l-66 -556q-10 -80 -42.5 -137.5zM760.5 683.5q-19.5 20.5 -19.5 47.5q0 37 24.5 62t62.5 25q31 0 49 -19.5t18 -46.5q0 -38 -23 -63.5t-65 -25.5q-27 0 -46.5 20.5z" />
    <glyph glyph-name="uni01C9" unicode="&#x1c9;" horiz-adv-x="623" 
d="M187 89q0 -25 18 -25q9 0 19.5 5t28.5 21l13 -31q-16 -23 -47 -46t-80 -23q-38 0 -62 15.5t-25 48.5q0 4 4 36l87 639l-63 20l9 37l170 20l23 -13l-94 -693q-1 -4 -1 -11zM464.5 -137.5q-32.5 -57.5 -82 -88t-107.5 -30.5q-29 0 -53 4.5t-33 13.5l19 54q7 -3 20 -5t25 -2
q59 0 85 58t38 164l52 453l-77 23l10 37l189 23l23 -11l-66 -556q-10 -80 -42.5 -137.5zM461.5 683.5q-19.5 20.5 -19.5 47.5q0 37 24.5 62t62.5 25q31 0 49 -19.5t18 -46.5q0 -38 -23 -63.5t-65 -25.5q-27 0 -46.5 20.5z" />
    <glyph glyph-name="uni01CA" unicode="&#x1ca;" horiz-adv-x="1106" 
d="M321 743l204 -507l38 -112l70 559l-83 11l5 49h234l-4 -49l-65 -12l-101 -682h-142l-210 517l-38 119l-64 -576l90 -14l-4 -46h-252l3 46l71 13l89 623l-79 12l7 49h231zM1046 612q-33 -278 -50.5 -412.5t-26.5 -162.5q-29 -86 -105.5 -138.5t-176.5 -66.5l-22 46
q72 21 113 65t52 100q23 120 43.5 276t42.5 363l-74 12l6 49h287l-5 -49l-75 -11z" />
    <glyph glyph-name="uni01CB" unicode="&#x1cb;" horiz-adv-x="1070" 
d="M321 743l204 -507l38 -112l70 559l-83 11l5 49h234l-4 -49l-65 -12l-101 -682h-142l-210 517l-38 119l-64 -576l90 -14l-4 -46h-252l3 46l71 13l89 623l-79 12l7 49h231zM911.5 -137.5q-32.5 -57.5 -82 -88t-107.5 -30.5q-29 0 -53 4.5t-33 13.5l19 54q7 -3 20 -5t25 -2
q59 0 85 58t38 164l52 453l-77 23l10 37l189 23l23 -11l-66 -556q-10 -80 -42.5 -137.5zM908.5 683.5q-19.5 20.5 -19.5 47.5q0 37 24.5 62t62.5 25q31 0 49 -19.5t18 -46.5q0 -38 -23 -63.5t-65 -25.5q-27 0 -46.5 20.5z" />
    <glyph glyph-name="uni01CC" unicode="&#x1cc;" horiz-adv-x="948" 
d="M327 535q51 33 107 33q124 0 124 -147q0 -39 -25 -174q-4 -26 -7 -40q-14 -79 -15 -114v-4q0 -25 16 -25q9 0 19 5t26 18l14 -31q-15 -21 -49 -43.5t-83 -22.5q-47 0 -65 20.5t-18 54.5q1 30 19 119l6 34q2 9 8.5 48t10.5 74.5t4 61.5q0 46 -10.5 63t-37.5 17
q-33 0 -73.5 -37t-69.5 -89l-48 -356h-131l64 476l-51 27l8 41l156 24l23 -11l-10 -110q37 55 88 88zM789.5 -137.5q-32.5 -57.5 -82 -88t-107.5 -30.5q-29 0 -53 4.5t-33 13.5l19 54q7 -3 20 -5t25 -2q59 0 85 58t38 164l52 453l-77 23l10 37l189 23l23 -11l-66 -556
q-10 -80 -42.5 -137.5zM786.5 683.5q-19.5 20.5 -19.5 47.5q0 37 24.5 62t62.5 25q31 0 49 -19.5t18 -46.5q0 -38 -23 -63.5t-65 -25.5q-27 0 -46.5 20.5z" />
    <glyph glyph-name="uni01CD" unicode="&#x1cd;" horiz-adv-x="658" 
d="M467 744l123 -683l79 -15l-3 -46h-307l2 46l82 13l-24 151h-253l-67 -150l91 -14l-3 -46h-260l4 46l68 13l329 685h139zM194 275h216l-44 295l-5 82zM312 981l102 -107l152 107l43 -26l-167 -166h-76l-104 166z" />
    <glyph glyph-name="uni01CE" unicode="&#x1ce;" horiz-adv-x="587" 
d="M475 90q0 -26 20 -26q16 0 45 24l14 -31q-13 -20 -46.5 -43.5t-77.5 -23.5q-34 0 -54 15t-21 46l2 17q-28 -33 -68 -55.5t-88 -22.5q-84 0 -125.5 57.5t-41.5 150.5q0 92 38.5 177t112.5 139t176 54q26 0 56.5 -6t53.5 -14l69 20l-64 -466q-1 -4 -1 -12zM350 506
q-60 0 -100 -45.5t-58.5 -115t-18.5 -140.5q0 -66 20 -102.5t59 -36.5q25 0 50.5 17t45.5 40l51 374q-19 9 -49 9zM283 838l101 -113l158 113l44 -27l-173 -177h-79l-102 177z" />
    <glyph glyph-name="uni01CF" unicode="&#x1cf;" horiz-adv-x="363" 
d="M387 743l-5 -49l-81 -12l-81 -622l83 -14l-3 -46h-299l6 46l73 14l81 622l-70 12l5 49h291zM158 981l102 -107l152 107l43 -26l-167 -166h-76l-104 166z" />
    <glyph glyph-name="uni01D0" unicode="&#x1d0;" horiz-adv-x="322" 
d="M200 88q0 -24 17 -24q9 0 20 6t28 20l13 -31q-17 -23 -50.5 -46t-81.5 -23q-39 0 -61 15.5t-22 42.5l1 10q6 52 41 302l16 116l-59 28l7 39l172 24l24 -11l-64 -456q-1 -5 -1 -12zM115 839l101 -113l158 113l44 -27l-173 -177h-79l-102 177z" />
    <glyph glyph-name="uni01D1" unicode="&#x1d1;" horiz-adv-x="701" 
d="M562.5 710q60.5 -43 88.5 -115.5t28 -162.5q0 -119 -42 -219.5t-125.5 -161.5t-202.5 -61q-135 0 -202.5 89t-67.5 234q0 120 43.5 220.5t127.5 160t199 59.5q93 0 153.5 -43zM286.5 644q-47.5 -52 -73 -139t-24.5 -189q0 -117 31.5 -193.5t101.5 -76.5q64 0 110.5 49.5
t71 135t24.5 191.5q0 131 -32 202.5t-100 71.5q-62 0 -109.5 -52zM342 981l102 -107l152 107l43 -26l-167 -166h-76l-104 166z" />
    <glyph glyph-name="uni01D2" unicode="&#x1d2;" horiz-adv-x="589" 
d="M498 508.5q55 -60.5 55 -173.5q0 -93 -38 -173t-107 -127.5t-158 -47.5q-104 0 -158.5 61.5t-54.5 175.5q0 94 37.5 173t106.5 125.5t158 46.5q104 0 159 -60.5zM244 464.5q-32 -41.5 -47.5 -105.5t-15.5 -131q0 -95 21.5 -139t67.5 -44q45 0 76 42t46 107t15 133
q0 95 -20.5 137t-64.5 42q-46 0 -78 -41.5zM264 846l101 -113l158 113l44 -27l-173 -177h-79l-102 177z" />
    <glyph glyph-name="uni01D3" unicode="&#x1d3;" horiz-adv-x="701" 
d="M534.5 63.5q-74.5 -73.5 -209.5 -73.5q-125 0 -186.5 59.5t-62.5 159.5q0 52 4 81l51 393l-70 11l6 49h299l-5 -48l-90 -13l-50 -381q-7 -65 -7 -96q1 -75 35.5 -117t100.5 -42q88 0 134 64t63 196l51 376l-70 13l4 48h217l-6 -48l-63 -12l-49 -377
q-22 -169 -96.5 -242.5zM348 981l102 -107l152 107l43 -26l-167 -166h-76l-104 166z" />
    <glyph glyph-name="uni01D4" unicode="&#x1d4;" horiz-adv-x="613" 
d="M209 237q-10 -78 -10 -100q0 -40 14 -57t42 -17q32 0 63.5 20t53.5 48l58 432h132l-64 -463q-2 -18 3 -27t15 -9q9 0 19 5.5t28 20.5l14 -31q-13 -21 -48 -45t-80 -24q-35 0 -53.5 15t-20.5 41l-1 12q0 8 2 20l-2 1q-74 -89 -174 -89q-56 0 -95 30.5t-40 97.5
q0 39 14 141q4 25 5 34l27 182l-58 34l8 41l166 17l23 -11l-34 -267q-4 -37 -7 -52zM266 839l101 -113l158 113l44 -27l-173 -177h-79l-102 177z" />
    <glyph glyph-name="Gcaron" unicode="&#x1e6;" horiz-adv-x="679" 
d="M514 27q-62 -17 -106.5 -26t-101.5 -9q-93 0 -153.5 45t-89 118.5t-28.5 160.5q0 131 47.5 229.5t136.5 152.5t210 54q66 0 107 -6.5t66.5 -13t33.5 -8.5l26 -6l-30 -156h-95l-4 107q-42 25 -105 25q-128 0 -186.5 -107t-57.5 -268q0 -113 38 -187.5t114 -74.5
q84 0 127 25l28 210l-112 8l8 63h254l-44 -320q-40 -4 -83 -16zM345 981l102 -107l152 107l43 -26l-167 -166h-76l-104 166z" />
    <glyph glyph-name="gcaron" unicode="&#x1e7;" horiz-adv-x="584" 
d="M365 -201.5q-83 -49.5 -190 -49.5q-33 0 -70.5 6.5t-52.5 13.5l23 94q19 -12 58 -27t75 -15q58 0 85 23t35 87l15 119q-27 -26 -63 -43t-78 -17q-84 0 -126.5 57.5t-42.5 150.5q0 92 38.5 177t113 139t176.5 54q28 0 60 -6.5t56 -15.5l71 22l-85 -606
q-15 -114 -98 -163.5zM349 506q-60 0 -100 -46.5t-58.5 -116t-18.5 -139.5q0 -65 21.5 -101.5t59.5 -36.5q28 0 54.5 16.5t45.5 39.5l54 372q-21 12 -58 12zM263 839l101 -113l158 113l44 -27l-173 -177h-79l-102 177z" />
    <glyph glyph-name="uni01F1" unicode="&#x1f1;" horiz-adv-x="1316" 
d="M312 747q60 4 92 4q158 0 231 -81t73 -220q1 -135 -45.5 -238t-139.5 -161.5t-230 -58.5q-20 0 -46 4q-44 4 -97 4h-157l5 46l75 14l82 622l-68 12l4 49h147q24 0 74 4zM260 52.5q26 -3.5 43 -3.5q87 1 144.5 58t84.5 144t27 182q0 140 -41 200.5t-134 60.5
q-26 0 -50.5 -3.5t-38.5 -7.5l-81 -622q20 -5 46 -8.5zM1330 743l13 -39l-418 -583l-60 -62l275 11l84 150l72 -21l-48 -199h-529l-14 41l418 579l68 66l-250 -7l-61 -131l-72 11l30 184h492z" />
    <glyph glyph-name="uni01F2" unicode="&#x1f2;" horiz-adv-x="1220" 
d="M312 747q60 4 92 4q158 0 231 -81t73 -220q1 -135 -45.5 -238t-139.5 -161.5t-230 -58.5q-20 0 -46 4q-44 4 -97 4h-157l5 46l75 14l82 622l-68 12l4 49h147q24 0 74 4zM260 52.5q26 -3.5 43 -3.5q87 1 144.5 58t84.5 144t27 182q0 140 -41 200.5t-134 60.5
q-26 0 -50.5 -3.5t-38.5 -7.5l-81 -622q20 -5 46 -8.5zM1009 452q-81 2 -103 1q-33 -1 -53.5 -24.5t-22.5 -57.5h-40q-2 22 -2 45q0 49 8.5 90t28.5 51q17 10 47 10q53 0 156 -9q23 -1 65.5 -4t62.5 -3q34 0 53 16l25 -27l-291 -366l-74 -69l180 -2q39 0 61 23.5t27 62.5h39
q1 -10 1 -35q0 -53 -8.5 -97.5t-29.5 -57.5q-13 -10 -50 -10q-57 0 -165 9q-25 1 -69.5 4t-63.5 3q-13 0 -27.5 -4t-23.5 -12l-29 28l320 391l54 43z" />
    <glyph glyph-name="uni01F3" unicode="&#x1f3;" horiz-adv-x="1098" 
d="M484 89q0 -25 17 -25t45 23l14 -31q-56 -66 -124 -66q-35 0 -53 17t-21 52v15q-25 -35 -67 -59.5t-96 -24.5q-84 0 -125 57.5t-41 150.5t37 178t110.5 138.5t177.5 53.5q29 0 61 -8l25 169l-72 20l9 37l180 20l25 -13l-101 -692q-1 -4 -1 -12zM346 506q-61 0 -100 -46.5
t-57 -115.5t-18 -140q0 -66 20.5 -102t58.5 -36q31 0 59 19.5t46 46.5l54 360q-25 14 -63 14zM887 452q-81 2 -103 1q-33 -1 -53.5 -24.5t-22.5 -57.5h-40q-2 22 -2 45q0 49 8.5 90t28.5 51q17 10 47 10q53 0 156 -9q23 -1 65.5 -4t62.5 -3q34 0 53 16l25 -27l-291 -366
l-74 -69l180 -2q39 0 61 23.5t27 62.5h39q1 -10 1 -35q0 -53 -8.5 -97.5t-29.5 -57.5q-13 -10 -50 -10q-57 0 -165 9q-25 1 -69.5 4t-63.5 3q-13 0 -27.5 -4t-23.5 -12l-29 28l320 391l54 43z" />
    <glyph glyph-name="uni01F4" unicode="&#x1f4;" horiz-adv-x="679" 
d="M514 27q-62 -17 -106.5 -26t-101.5 -9q-93 0 -153.5 45t-89 118.5t-28.5 160.5q0 131 47.5 229.5t136.5 152.5t210 54q66 0 107 -6.5t66.5 -13t33.5 -8.5l26 -6l-30 -156h-95l-4 107q-42 25 -105 25q-128 0 -186.5 -107t-57.5 -268q0 -113 38 -187.5t114 -74.5
q84 0 127 25l28 210l-112 8l8 63h254l-44 -320q-40 -4 -83 -16zM527 983l75 -63q-22 -30 -80 -68.5t-95 -52.5l-53 35z" />
    <glyph glyph-name="Aringacute" unicode="&#x1fa;" horiz-adv-x="658" 
d="M-69 46l68 13l316 657q-84 18 -84 81q0 9 1 14q12 85 139 95l72 76l107 -29q-24 -22 -37.5 -32.5t-29.5 -17.5q94 -13 94 -80q0 -8 -1 -13q-11 -75 -104 -95l118 -654l79 -15l-3 -46h-307l2 46l82 13l-24 151h-253l-67 -150l91 -14l-3 -46h-260zM398 769q88 0 88 48
q0 38 -77 38q-79 0 -87 -45q-6 -41 76 -41zM410 275l-44 295l-5 82l-167 -377h216z" />
    <glyph glyph-name="aringacute" unicode="&#x1fb;" horiz-adv-x="587" 
d="M475 90q0 -26 20 -26q16 0 45 24l14 -31q-13 -20 -46.5 -43.5t-77.5 -23.5q-34 0 -54 15t-21 46l2 17q-28 -33 -68 -55.5t-88 -22.5q-84 0 -125.5 57.5t-41.5 150.5q0 92 38.5 177t112.5 139t176 54q26 0 56.5 -6t53.5 -14l69 20l-64 -466q-1 -4 -1 -12zM350 506
q-60 0 -100 -45.5t-58.5 -115t-18.5 -140.5q0 -66 20 -102.5t59 -36.5q25 0 50.5 17t45.5 40l51 374q-19 9 -49 9zM262.5 830.5q34.5 26.5 91.5 35.5l93 116l83 -43q-53 -55 -79 -72q51 -9 80 -36t29 -65q0 -11 -1 -16q-10 -65 -61 -95.5t-130 -30.5q-63 0 -107 29.5
t-44 79.5q0 5 2 19q9 52 43.5 78.5zM326 702q21 -15 54 -15q40 0 64 12.5t29 44.5l1 10q0 26 -21 40.5t-54 14.5q-40 0 -67 -16.5t-27 -49.5q0 -26 21 -41z" />
    <glyph glyph-name="AEacute" unicode="&#x1fc;" horiz-adv-x="952" 
d="M330 46l74 13l20 157h-237l-81 -156l98 -14l-3 -46h-295l5 46l78 13l353 620l-146 12l7 52h726l-13 -168h-86l-17 104l-188 11l-36 -271l220 16l-13 -97l-215 13l-38 -291l247 14l53 132l84 -8l-35 -198h-568zM221 282h211l52 405l-52 1zM665 983l75 -63
q-22 -30 -80 -68.5t-95 -52.5l-53 35z" />
    <glyph glyph-name="aeacute" unicode="&#x1fd;" horiz-adv-x="850" 
d="M672 568q74 0 112 -35t38 -90q0 -73 -51.5 -121.5t-125 -72t-138.5 -25.5q-3 -157 99 -157q88 0 157 77l27 -44q-15 -24 -46.5 -49.5t-77 -43t-99.5 -17.5q-80 0 -127 38t-64 103q-35 -57 -84.5 -99t-106.5 -42q-81 0 -116 55.5t-35 148.5q0 91 42.5 177.5t122 141.5
t185.5 55q41 0 99 -16l48 16l-7 -47q67 47 148 47zM547.5 436q-33.5 -71 -40.5 -158q39 2 82 21t72.5 53.5t29.5 79.5q0 75 -52 75q-58 0 -91.5 -71zM366 506q-61 -5 -105 -51.5t-66 -115t-22 -135.5q0 -57 14 -93.5t42 -36.5q34 0 66.5 31t58.5 73l50 320q-13 8 -38 8z
M606 881l81 -79q-9 -16 -47 -51.5t-82 -69.5t-72 -46l-38 37z" />
    <glyph glyph-name="Oslashacute" unicode="&#x1fe;" horiz-adv-x="702" 
d="M656.5 586.5q24.5 -67.5 24.5 -150.5q0 -120 -41.5 -221.5t-125.5 -162.5t-203 -61q-84 0 -146 38l-64 -98l-41 24l68 103q-44 42 -66 107.5t-22 146.5q0 120 43.5 221t127 161t199.5 60q78 0 135 -31l65 99l40 -24l-67 -102q49 -42 73.5 -109.5zM397 697
q-62 0 -109.5 -52t-73 -139t-24.5 -189q0 -85 20 -151l278 469q-29 62 -91 62zM324 47q64 0 110.5 50t71 136.5t24.5 193.5q0 95 -24 161l-279 -472q33 -69 97 -69zM507 983l75 -63q-22 -30 -80 -68.5t-95 -52.5l-53 35z" />
    <glyph glyph-name="oslashacute" unicode="&#x1ff;" horiz-adv-x="576" 
d="M545 334q0 -93 -38 -172.5t-106.5 -126.5t-157.5 -47q-60 0 -108 23l-52 -75l-40 21l54 80q-67 61 -67 188q0 94 37.5 173t106 125.5t157.5 46.5q56 0 100 -19l57 83l40 -22l-57 -85q74 -59 74 -193zM315 507q-48 0 -80.5 -44.5t-47.5 -112.5t-13 -137q0 -33 9 -56
l189 314q-19 36 -57 36zM223.5 58q16.5 -12 40.5 -12q45 0 76 42.5t45.5 108.5t14.5 135q0 55 -12 80l-192 -316q11 -26 27.5 -38zM435 881l81 -79q-9 -16 -47 -51.5t-82 -69.5t-72 -46l-38 37z" />
    <glyph glyph-name="Scommaaccent" unicode="&#x218;" horiz-adv-x="553" 
d="M338 696q-55 0 -89.5 -26.5t-34.5 -71.5q0 -53 32.5 -89.5t107.5 -83.5q72 -45 113.5 -94t41.5 -118q1 -63 -31 -114t-94.5 -80.5t-149.5 -29.5q-71 0 -136 15.5t-85 30.5l26 149h83l5 -107q18 -14 45.5 -22t59.5 -8q68 0 106.5 30.5t38.5 82.5q0 48 -30 82.5t-98 77.5
q-75 47 -118.5 99t-44.5 122q0 65 34 113t93.5 73t134.5 25q127 0 190 -38l-25 -140h-76l-12 97q-31 25 -87 25zM158 -241q12 9 19.5 30.5t6.5 46.5q0 18 -8 33.5t-21 18.5v36l79 39q29 -13 43.5 -42t14.5 -64q0 -32 -13 -60t-33 -46t-39 -23l-49 20v11z" />
    <glyph glyph-name="scommaaccent" unicode="&#x219;" horiz-adv-x="427" 
d="M340.5 489q-27.5 15 -63.5 15q-40 0 -64.5 -17.5t-24.5 -51.5q0 -30 20.5 -53.5t66.5 -56.5q51 -38 78 -73.5t27 -90.5t-30 -93.5t-80 -58t-110 -19.5q-45 0 -92 10.5t-61 22.5l20 85q21 -18 57 -34t75 -16q37 0 63.5 17t26.5 53q0 31 -23 56t-69 57q-42 29 -70.5 68.5
t-28.5 95.5q0 48 27.5 85t76 57.5t111.5 20.5q37 0 75 -6t51 -13l-19 -89q-12 14 -39.5 29zM89 -241q12 9 19.5 30.5t6.5 46.5q0 18 -8 33.5t-21 18.5v36l79 39q29 -13 43.5 -42t14.5 -64q0 -32 -13 -60t-33 -46t-39 -23l-49 20v11z" />
    <glyph glyph-name="uni021A" unicode="&#x21a;" horiz-adv-x="672" 
d="M713 743l-38 -263l-73 -1l-3 200l-139 11l-83 -630l133 -13l-5 -47h-395l5 47l122 13l82 630l-138 -11l-69 -199h-75l44 263h632zM223 -241q12 9 19.5 30.5t6.5 46.5q0 18 -8 33.5t-21 18.5v36l79 39q29 -13 43.5 -42t14.5 -64q0 -32 -13 -60t-33 -46t-39 -23l-49 20v11z
" />
    <glyph glyph-name="uni021B" unicode="&#x21b;" horiz-adv-x="355" 
d="M194 113q0 -23 9 -32.5t31 -9.5q20 0 45.5 9.5t42.5 23.5l11 -37q-26 -29 -74 -53t-108 -24q-42 0 -66.5 21.5t-24.5 68.5q0 20 10 94l42 310h-60l11 48l60 21q30 28 71 138h75l-17 -136h120l-10 -71h-120l-41 -301q-7 -58 -7 -70zM55 -241q12 9 19.5 30.5t6.5 46.5
q0 18 -8 33.5t-21 18.5v36l79 39q29 -13 43.5 -42t14.5 -64q0 -32 -13 -60t-33 -46t-39 -23l-49 20v11z" />
    <glyph glyph-name="uni0228" unicode="&#x228;" horiz-adv-x="624" 
d="M-2 46l76 13l81 623l-70 12l6 49h513l-12 -171h-82l-19 107l-195 11l-35 -266l227 15l-13 -96l-223 12l-36 -290l251 14l53 130l83 -9l-37 -200h-210q16 -37 16 -93q0 -65 -37 -102t-108 -37q-20 0 -41.5 5t-33.5 14l16 74q11 -7 43 -7q46 0 64 21.5t18 70.5q0 33 -6 54
h-295z" />
    <glyph glyph-name="uni0229" unicode="&#x229;" horiz-adv-x="522" 
d="M75.5 390.5q40.5 82.5 110.5 130.5t156 48q77 0 114.5 -35.5t37.5 -92.5q0 -72 -52 -120t-125 -71.5t-138 -25.5q-2 -72 23.5 -116t77.5 -44q86 0 156 80l26 -44q-22 -35 -72 -69t-116 -42q13 -31 13 -72q0 -66 -39 -109.5t-109 -43.5q-20 0 -41.5 5t-33.5 13l10 76
q6 -3 19 -5.5t26 -2.5q94 0 94 105q0 16 -4 34q-88 11 -131 72.5t-43 146.5q0 100 40.5 182.5zM261.5 299q43.5 19 73 53.5t29.5 79.5q0 36 -13.5 55.5t-38.5 19.5q-59 0 -93 -71t-40 -158q39 2 82.5 21z" />
    <glyph glyph-name="uni0237" unicode="&#x237;" horiz-adv-x="318" 
d="M159.5 -137.5q-32.5 -57.5 -82 -88t-107.5 -30.5q-29 0 -53 4.5t-33 13.5l19 54q7 -3 20 -5t25 -2q59 0 85 58t38 164l52 453l-77 23l10 37l189 23l23 -11l-66 -556q-10 -80 -42.5 -137.5z" />
    <glyph glyph-name="uni0259" unicode="&#x259;" horiz-adv-x="523" 
d="M145.5 533.5q58.5 35.5 136.5 35.5q106 0 156.5 -64.5t50.5 -158.5q0 -99 -41 -181t-111 -129.5t-155 -47.5q-76 0 -114.5 35t-38.5 91q0 72 52 121t125.5 72.5t138.5 25.5q2 73 -24 116.5t-78 43.5q-84 0 -155 -81l-27 46q26 40 84.5 75.5zM262 258q-43 -19 -72.5 -53.5
t-29.5 -79.5q0 -75 52 -75q58 0 92 71t41 158q-40 -2 -83 -21z" />
    <glyph glyph-name="uni02BC" unicode="&#x2bc;" horiz-adv-x="192" 
d="M175 793.5q23 -40.5 23 -93.5q0 -90 -57.5 -154.5t-135.5 -97.5l-26 44v10q26 9 50.5 34t39.5 59.5t15 69.5q0 33 -14 55t-39 26l2 18l73 82q46 -12 69 -52.5z" />
    <glyph glyph-name="circumflex" unicode="&#x2c6;" horiz-adv-x="388" 
d="M201 812h80l101 -182l-49 -26l-104 111l-161 -110l-43 26z" />
    <glyph glyph-name="caron" unicode="&#x2c7;" horiz-adv-x="398" 
d="M143 812l105 -112l157 112l44 -26l-172 -178h-79l-106 178z" />
    <glyph glyph-name="uni02C9" unicode="&#x2c9;" horiz-adv-x="626" 
d="M531 815l-8 -86h-414l8 86h414z" />
    <glyph glyph-name="breve" unicode="&#x2d8;" horiz-adv-x="350" 
d="M63 681.5q-37 45.5 -37 108.5q0 8 2 26h74v-20q4 -70 75 -70q84 0 93 90h72v-17q-2 -40 -21 -77.5t-56.5 -61.5t-89.5 -24q-75 0 -112 45.5z" />
    <glyph glyph-name="dotaccent" unicode="&#x2d9;" horiz-adv-x="189" 
d="M13.5 683.5q-19.5 20.5 -19.5 47.5q0 37 24.5 62t62.5 25q31 0 49 -19.5t18 -46.5q0 -38 -23 -63.5t-65 -25.5q-27 0 -46.5 20.5z" />
    <glyph glyph-name="ring" unicode="&#x2da;" horiz-adv-x="353" 
d="M73 643q-39 31 -39 86q0 52 28 85t69.5 48t83.5 15q65 0 103.5 -30t38.5 -83q0 -49 -25.5 -83.5t-66 -51.5t-85.5 -17q-68 0 -107 31zM252 689q26 19 26 63q0 30 -21 49t-52 19q-37 0 -63.5 -19.5t-26.5 -61.5q0 -29 21.5 -49t51.5 -20q38 0 64 19z" />
    <glyph glyph-name="ogonek" unicode="&#x2db;" horiz-adv-x="290" 
d="M82.5 -30.5q26.5 19.5 50.5 32t32 16.5l27 9l43 -13q-50 -34 -79.5 -64t-29.5 -55q0 -37 32 -37q18 0 35.5 8.5t38.5 25.5l14 -48q-28 -29 -66 -46.5t-84 -17.5q-42 0 -63.5 21t-21.5 55q0 12 6 28t14 29q25 37 51.5 56.5z" />
    <glyph glyph-name="tilde" unicode="&#x2dc;" horiz-adv-x="398" 
d="M66.5 786q35.5 25 70.5 25q26 0 42.5 -10t38.5 -31q16 -16 26.5 -23.5t25.5 -7.5q25 0 41 13t35 39l37 -55q-13 -35 -48.5 -61.5t-72.5 -26.5q-30 0 -48 10.5t-38 30.5q-16 16 -27.5 23.5t-28.5 8.5q-35 0 -75 -44l-30 52q16 32 51.5 57z" />
    <glyph glyph-name="hungarumlaut" unicode="&#x2dd;" horiz-adv-x="448" 
d="M0 845l74 -52q-7 -24 -35 -64t-62 -75.5t-57 -48.5l-44 27zM230 845l72 -51q-7 -25 -35.5 -65t-63 -75.5t-56.5 -47.5l-45 27z" />
    <glyph glyph-name="gravecomb" unicode="&#x300;" 
d="M-32.5 713q-64.5 55 -84.5 91l85 76l143 -209l-43 -31q-36 18 -100.5 73z" />
    <glyph glyph-name="acutecomb" unicode="&#x301;" 
d="M145 881l81 -79q-9 -16 -47 -51.5t-82 -69.5t-72 -46l-38 37z" />
    <glyph glyph-name="uni0302" unicode="&#x302;" 
d="M71 849l79 -48l60 -149l-75 16l-115 45l-115 -74l12 68z" />
    <glyph glyph-name="tildecomb" unicode="&#x303;" 
d="M-70 765q30 22 64 22q28 0 46.5 -9.5t38.5 -26.5q16 -13 27 -19t25 -6q25 0 38 10.5t32 34.5l38 -45q-12 -34 -45 -58t-71 -24q-27 0 -43.5 8.5t-35.5 25.5q-17 14 -29 20.5t-30 6.5q-22 0 -36 -9t-32 -28l-33 44q16 31 46 53z" />
    <glyph glyph-name="uni0304" unicode="&#x304;" 
d="M200 747l-10 -88h-271l10 88h271z" />
    <glyph glyph-name="uni0306" unicode="&#x306;" 
d="M-56 685q-39 44 -39 107q0 11 2 27h73l1 -20q2 -28 21.5 -48t57.5 -20q49 0 67 24.5t22 63.5h72v-16q-2 -40 -21 -77.5t-56.5 -61t-90.5 -23.5q-70 0 -109 44z" />
    <glyph glyph-name="uni0307" unicode="&#x307;" 
d="M9.5 678q-20.5 21 -20.5 50q0 38 23.5 62.5t61.5 24.5q31 0 51 -19.5t20 -46.5q0 -42 -22.5 -67t-65.5 -25q-27 0 -47.5 21z" />
    <glyph glyph-name="uni0308" unicode="&#x308;" 
d="M-95.5 676.5q-18.5 20.5 -18.5 47.5q0 37 21 62t55 25q29 0 46.5 -20t17.5 -46q0 -39 -20 -64t-59 -25q-24 0 -42.5 20.5zM120.5 676.5q-18.5 20.5 -18.5 47.5q0 37 21 62t55 25q28 0 46 -20t18 -46q0 -39 -20.5 -64t-58.5 -25q-24 0 -42.5 20.5z" />
    <glyph glyph-name="hookabovecomb" unicode="&#x309;" 
d="M-260 639.5q-5 13.5 -4 24.5q2 11 9.5 18t23.5 18q15 9 24.5 17t13.5 20v4q2 17 -9 28t-36 12q-26 0 -30 -2l12 81q3 2 16.5 4t24.5 2q58 0 91 -22t33 -66q0 -11 -3 -25q-4 -24 -20.5 -39.5t-44.5 -33.5l-18 -12q-10 -8 -15 -17.5t-4 -26.5l-53 -6q-6 8 -11 21.5z" />
    <glyph glyph-name="uni030A" unicode="&#x30a;" 
d="M-57 677q-40 31 -40 86q0 52 27.5 86t69.5 49.5t87 15.5q65 0 105.5 -31.5t40.5 -84.5q0 -74 -53 -113t-128 -39q-69 0 -109 31zM126 722.5q27 18.5 27 62.5q0 30 -22.5 51.5t-53.5 21.5q-37 0 -65 -21.5t-28 -63.5q0 -29 23 -49t53 -20q39 0 66 18.5z" />
    <glyph glyph-name="uni030B" unicode="&#x30b;" 
d="M23 869l82 -58q-9 -24 -41 -60t-70.5 -69t-62.5 -47l-45 37zM253 869l82 -56q-10 -25 -43 -62t-72 -70t-64 -46l-44 37z" />
    <glyph glyph-name="uni030C" unicode="&#x30c;" 
d="M-37 845l101 -113l158 113l44 -27l-173 -177h-79l-102 177z" />
    <glyph glyph-name="uni0312" unicode="&#x312;" 
d="M7.5 655.5q-17.5 16.5 -17.5 48.5q0 10 1 16q5 34 24.5 66t43 53t36.5 26h2l47 -15l1 -8q-11 -4 -21 -23.5t-13 -39.5q-2 -13 2 -20.5t12 -14.5q17 -15 17 -36q0 -36 -26 -52.5t-56 -16.5h-4q-31 0 -48.5 16.5z" />
    <glyph glyph-name="uni031B" unicode="&#x31b;" 
d="M237 664q0 -19 -2 -33q-20 -132 -192 -132q-13 0 -41 2l12 59q65 0 89 25t25 64v15h109z" />
    <glyph glyph-name="dotbelowcomb" unicode="&#x323;" 
d="M-120.5 -217q-17.5 20 -17.5 51q0 37 24.5 62t61.5 25q33 0 50 -18.5t17 -49.5q0 -38 -23.5 -64t-64.5 -26q-30 0 -47.5 20z" />
    <glyph glyph-name="uni0326" unicode="&#x326;" 
d="M-118 -241q12 9 19.5 30.5t6.5 46.5q0 18 -8 33.5t-21 18.5v36l79 39q29 -13 43.5 -42t14.5 -64q0 -32 -13 -60t-33 -46t-39 -23l-49 20v11z" />
    <glyph glyph-name="uni0327" unicode="&#x327;" 
d="M-8 13q10 -14 16.5 -40.5t6.5 -55.5q0 -66 -39 -109.5t-109 -43.5q-20 0 -41 5t-33 13l9 76q6 -3 19.5 -5.5t25.5 -2.5q45 0 70 25.5t25 76.5q0 23 -4.5 39.5t-5.5 21.5l31 2z" />
    <glyph glyph-name="uni0328" unicode="&#x328;" 
d="M-273.5 -30.5q26.5 19.5 50.5 32t32 16.5l27 9l43 -13q-50 -34 -79.5 -64t-29.5 -55q0 -37 32 -37q18 0 35.5 8.5t38.5 25.5l14 -48q-28 -29 -66 -46.5t-84 -17.5q-42 0 -63.5 21t-21.5 55q0 12 6 28t14 29q25 37 51.5 56.5z" />
    <glyph glyph-name="uni0335" unicode="&#x335;" 
d="M196 229h-407l16 102h407z" />
    <glyph glyph-name="uni0336" unicode="&#x336;" 
d="M254 229h-508v102h508v-102z" />
    <glyph glyph-name="uni0337" unicode="&#x337;" 
d="M213 556l-346 -655h-94l346 655h94z" />
    <glyph glyph-name="uni0338" unicode="&#x338;" 
d="M231 804l-347 -906l-94 3l347 903h94z" />
    <glyph glyph-name="uni0394" unicode="&#x394;" horiz-adv-x="687" 
d="M351 743h28l278 -730l-8 -13h-666l-6 11zM330 553l-224 -454h391z" />
    <glyph glyph-name="uni03A9" unicode="&#x3a9;" horiz-adv-x="818" 
d="M-25 202l75 -7l10 -116h159q-35 30 -68 80t-54 110.5t-21 119.5q0 104 42 185.5t126.5 129t207.5 47.5q137 0 217.5 -71.5t80.5 -201.5q0 -66 -25.5 -141t-71.5 -142.5t-104 -111.5h149l40 125l76 -1l-34 -207h-334l-16 66q52 32 92.5 92t63 139t22.5 165q0 61 -19.5 114
t-59 85.5t-96.5 32.5q-71 0 -121 -40t-75.5 -110t-25.5 -159q0 -63 18 -128t45 -116.5t53 -74.5l-21 -66h-334z" />
    <glyph glyph-name="uni03BC" unicode="&#x3bc;" horiz-adv-x="666" 
d="M34 -182l52 357q4 31 14 91q20 121 26 191q1 32 -18 32q-16 0 -36 -18l-14 34q21 23 50 42t80 19q36 0 56.5 -15t19.5 -48q-5 -60 -22 -170l-7 -41q-5 -31 -9.5 -64t-4.5 -63q0 -51 19.5 -73t48.5 -22q33 0 56 17.5t48 48.5l59 426h131l-62 -457q-1 -6 -1 -16
q0 -25 18 -25q8 0 20.5 6.5t22.5 15.5l13 -31q-12 -20 -46 -42.5t-76 -22.5q-30 0 -47 12.5t-17 44.5q0 8 1 13q-3 -3 -22.5 -23t-51 -33.5t-66.5 -13.5q-30 0 -57 10t-38 27l-31 -209h-109z" />
    <glyph glyph-name="pi" unicode="&#x3c0;" horiz-adv-x="792" 
d="M216 244l51 195h-56q-28 1 -50 -18.5t-29 -45.5l-60 7q0 66 12 94q20 42 59.5 62t86.5 20h371q38 0 58 12t27 41h68q-4 -76 -42 -124t-114 -48h-27q-22 -184 -30 -292q-3 -52 34 -53q25 0 47.5 19t35.5 63h67q-14 -79 -62.5 -133t-131.5 -54q-51 0 -79.5 27t-28.5 75
q0 28 6.5 71.5t22.5 138.5l24 138h-115l-38 -222q-35 -219 -187 -228l-82 80q120 20 162 175z" />
    <glyph glyph-name="uni0400" unicode="&#x400;" horiz-adv-x="624" 
d="M604 743l-12 -171h-82l-19 107l-195 11l-35 -266l227 15l-13 -96l-223 12l-36 -290l251 14l53 130l83 -9l-37 -200h-574l6 46l76 13l81 623l-70 12l6 49h513zM303.5 844q-50.5 39 -71.5 76l74 56l135 -153l-49 -32q-38 14 -88.5 53z" />
    <glyph glyph-name="uni0401" unicode="&#x401;" horiz-adv-x="624" 
d="M604 743l-12 -171h-82l-19 107l-195 11l-35 -266l227 15l-13 -96l-223 12l-36 -290l251 14l53 130l83 -9l-37 -200h-574l6 46l76 13l81 623l-70 12l6 49h513zM224 839.5q-17 17.5 -17 44.5q0 35 21 57.5t53 22.5q28 0 44.5 -17t16.5 -43q0 -38 -19.5 -60t-56.5 -22
q-25 0 -42 17.5zM453.5 839.5q-16.5 17.5 -16.5 44.5q0 36 20.5 58t52.5 22q28 0 44.5 -17t16.5 -43q0 -37 -20 -59.5t-56 -22.5q-25 0 -41.5 17.5z" />
    <glyph glyph-name="uni0402" unicode="&#x402;" horiz-adv-x="829" 
d="M509.5 412q45.5 13 104.5 13q108 0 148 -53t40 -123q0 -54 -28 -113t-80 -98.5t-118 -39.5q-19 0 -35 2l4 47q9 -1 23 0t22 4q38 10 58 60.5t20 103.5q0 71 -29 106t-101 35q-32 0 -59.5 -9t-62.5 -25l-34 -262l84 -14l-4 -46h-340l6 46l115 14l82 631l-141 -11l-69 -162
h-77l44 225h687l-34 -224h-75l-7 161l-189 11l-40 -311q40 19 85.5 32z" />
    <glyph glyph-name="uni0403" unicode="&#x403;" horiz-adv-x="539" 
d="M568 743l-31 -266h-76l-12 203l-151 10l-82 -630l126 -14l-4 -46h-339l4 46l72 14l81 622l-75 12l6 49h481zM433 983l75 -63q-22 -30 -80 -68.5t-95 -52.5l-53 35z" />
    <glyph glyph-name="uni0404" unicode="&#x404;" horiz-adv-x="623" 
d="M423 694q-95 0 -153 -80.5t-76 -198.5l298 11l-15 -93q-170 6 -288 17q-1 -11 -1 -31q8 -258 155 -258q32 0 64.5 8.5t54.5 31.5q16 26 36 101h82l-21 -146q-95 -64 -239 -64q-100 0 -164 44t-93 116.5t-29 161.5q0 134 52 233t145 152t213 53q57 0 90.5 -5t54.5 -10.5
t29 -7.5l18 -5l-30 -190h-98l-14 146q-30 14 -71 14z" />
    <glyph glyph-name="uni0405" unicode="&#x405;" horiz-adv-x="553" 
d="M338 696q-55 0 -89.5 -26.5t-34.5 -71.5q0 -53 32.5 -89.5t107.5 -83.5q72 -45 113.5 -94t41.5 -118q1 -63 -31 -114t-94.5 -80.5t-149.5 -29.5q-71 0 -136 15.5t-85 30.5l26 149h83l5 -107q18 -14 45.5 -22t59.5 -8q68 0 106.5 30.5t38.5 82.5q0 48 -30 82.5t-98 77.5
q-75 47 -118.5 99t-44.5 122q0 65 34 113t93.5 73t134.5 25q127 0 190 -38l-25 -140h-76l-12 97q-31 25 -87 25z" />
    <glyph glyph-name="uni0406" unicode="&#x406;" horiz-adv-x="363" 
d="M387 743l-5 -49l-81 -12l-81 -622l83 -14l-3 -46h-299l6 46l73 14l81 622l-70 12l5 49h291z" />
    <glyph glyph-name="uni0407" unicode="&#x407;" horiz-adv-x="363" 
d="M387 743l-5 -49l-81 -12l-81 -622l83 -14l-3 -46h-299l6 46l73 14l81 622l-70 12l5 49h291zM98 839.5q-17 17.5 -17 44.5q0 35 21 57.5t53 22.5q28 0 44.5 -17t16.5 -43q0 -38 -19.5 -60t-56.5 -22q-25 0 -42 17.5zM327.5 839.5q-16.5 17.5 -16.5 44.5q0 36 20.5 58
t52.5 22q28 0 44.5 -17t16.5 -43q0 -37 -20 -59.5t-56 -22.5q-25 0 -41.5 17.5z" />
    <glyph glyph-name="uni0408" unicode="&#x408;" horiz-adv-x="354" 
d="M294 612q-33 -278 -50.5 -412.5t-26.5 -162.5q-29 -86 -105.5 -138.5t-176.5 -66.5l-22 46q72 21 113 65t52 100q23 120 43.5 276t42.5 363l-74 12l6 49h287l-5 -49l-75 -11z" />
    <glyph glyph-name="uni0409" unicode="&#x409;" horiz-adv-x="974" 
d="M700 442q120 0 181.5 -46t61.5 -133q0 -132 -86.5 -202t-230.5 -70l-55 3q-66 6 -98 6h-133l4 46l78 14l82 630h-188l-9 -74q-32 -290 -95 -457t-158 -167q-43 0 -81 26l26 114q6 -7 36 -16.5t59 -9.5q26 0 56.5 68.5t57 186.5t40.5 259l6 62l-105 12l6 49h583l-6 -49
l-88 -12l-33 -251q46 11 89 11zM628 47q79 0 124.5 55t45.5 148q0 58 -34 93t-92 35q-41 0 -69 -7l-41 -320q30 -4 66 -4z" />
    <glyph glyph-name="uni040A" unicode="&#x40a;" horiz-adv-x="1059" 
d="M794 442q119 0 180.5 -46t61.5 -133q0 -132 -86.5 -202t-230.5 -70q-7 0 -59 4q-87 5 -98 5h-143l5 46l89 14l37 287h-297l-37 -287l82 -14l-4 -46h-293l5 46l70 14l81 622l-70 12l6 49h293l-6 -49l-83 -12l-35 -272h296l35 272l-81 12l5 49h295l-6 -49l-73 -12l-32 -252
q50 12 93 12zM721 47q80 0 125 55t45 148q0 58 -34 93t-92 35q-47 0 -71 -8l-42 -319q32 -4 69 -4z" />
    <glyph glyph-name="uni040B" unicode="&#x40b;" horiz-adv-x="867" 
d="M505.5 447q45.5 9 86.5 9q68 0 111.5 -12.5t67.5 -47.5t24 -100q0 -30 -4 -59l-23 -177l71 -13l-6 -47h-288l6 47l73 13l16 110q12 86 12 121q0 57 -22.5 79t-78.5 22q-33 0 -70.5 -6t-61.5 -17l-42 -309l90 -14l-3 -46h-348l5 46l116 14l84 630l-141 -11l-69 -164h-75
l44 228h651l-36 -227h-74l-7 164l-152 10l-36 -268q34 16 79.5 25z" />
    <glyph glyph-name="uni040C" unicode="&#x40c;" horiz-adv-x="688" 
d="M457 331q31 -50 77 -141q30 -61 48.5 -92.5t32.5 -36.5l40 -13l-6 -48h-152q-19 0 -39 37.5t-54 119.5q-38 91 -63.5 137.5t-50.5 46.5h-40l-36 -281l82 -14l-4 -46h-292l5 46l69 14l81 622l-69 12l5 49h292l-5 -49l-83 -12l-37 -283h69l223 283l-67 12l6 49h223l-7 -49
l-68 -13l-243 -286q32 -14 63 -64zM530 983l75 -63q-22 -30 -80 -68.5t-95 -52.5l-53 35z" />
    <glyph glyph-name="uni040D" unicode="&#x40d;" horiz-adv-x="801" 
d="M386 743l-6 -49l-83 -12l-62 -473l39 52l325 364l8 57l-71 12l6 49h292l-6 -49l-82 -12l-81 -622l82 -14l-3 -46h-293l4 46l71 14l61 474l-55 -71l-309 -349l-7 -54l82 -14l-4 -46h-293l5 46l70 14l81 622l-70 12l6 49h293zM396.5 844q-50.5 39 -71.5 76l74 56l135 -153
l-49 -32q-38 14 -88.5 53z" />
    <glyph glyph-name="uni040E" unicode="&#x40e;" horiz-adv-x="604" 
d="M317 70.5q-22 -32.5 -59 -57t-90 -24.5q-24 0 -49.5 5t-39.5 12l3 87h76q50 0 75.5 11.5t37.5 42.5l-170 536l-47 11l6 49h282l-5 -49l-80 -12l82 -312l22 -99l39 100l130 311l-73 12l5 49h201l-6 -49l-52 -11l-244 -534q-22 -46 -44 -78.5zM312 953q0 -7 -2 -23l-1 -24
q0 -59 72 -59q37 0 57.5 12t28.5 30.5t12 48.5q4 37 21 37h89q0 -11 -1 -16q-16 -83 -68.5 -122t-147.5 -39q-188 0 -188 138q0 25 4 39h112q14 0 12 -22z" />
    <glyph glyph-name="uni040F" unicode="&#x40f;" horiz-adv-x="754" 
d="M369 743l-6 -49l-65 -12l-82 -623h264l82 623l-63 12l4 49h274l-4 -49l-71 -12l-81 -622l78 -14l-5 -46h-288l-51 -171h-68l8 171h-301l5 46l77 14l81 622l-75 12l6 49h281z" />
    <glyph glyph-name="uni0410" unicode="&#x410;" horiz-adv-x="658" 
d="M467 744l123 -683l79 -15l-3 -46h-307l2 46l82 13l-24 151h-253l-67 -150l91 -14l-3 -46h-260l4 46l68 13l329 685h139zM194 275h216l-44 295l-5 82z" />
    <glyph glyph-name="uni0411" unicode="&#x411;" horiz-adv-x="631" 
d="M358 455q119 0 180.5 -47t61.5 -137q0 -88 -39.5 -151t-111 -96t-167.5 -33q-6 0 -62 4q-90 5 -101 5h-121l4 46l74 14l80 622l-72 12l6 49h517l-15 -179h-78l-15 117l-208 9l-32 -249q49 14 99 14zM282 47q81 0 126.5 58.5t45.5 152.5q0 60 -33.5 96t-91.5 36
q-46 0 -78 -8l-43 -331q23 -4 74 -4z" />
    <glyph glyph-name="uni0412" unicode="&#x412;" horiz-adv-x="666" 
d="M312 747q58 4 92 4q227 0 227 -169q0 -146 -173 -189q50 -1 88.5 -21.5t59.5 -54.5t21 -75q1 -131 -89 -191t-258 -60q-32 0 -77 5q-50 4 -70 4h-133l4 46l70 14l81 622l-69 12l5 49h150q23 0 71 4zM284.5 414.5q12.5 0.5 21.5 0.5h27q72 0 119 39.5t47 119.5
q0 120 -127 120q-53 0 -81 -6l-36 -273q17 -1 29.5 -0.5zM253.5 51q28.5 -3 46.5 -3q87 0 134 41.5t47 129.5q0 69 -35.5 102t-113.5 33q-53 0 -85 -2l-39 -293q17 -5 45.5 -8z" />
    <glyph glyph-name="uni0413" unicode="&#x413;" horiz-adv-x="539" 
d="M568 743l-31 -266h-76l-12 203l-151 10l-82 -630l126 -14l-4 -46h-339l4 46l72 14l81 622l-75 12l6 49h481z" />
    <glyph glyph-name="uni0414" unicode="&#x414;" horiz-adv-x="689" 
d="M634 -43.5q-12 -46.5 -29 -101.5l-10 -35h-72l3 47q6 70 6 107q0 19 -1 26h-443q-8 -17 -28.5 -85t-25.5 -95h-73q1 62 7.5 130.5t12.5 109.5h69q24 26 58.5 91.5t71 184.5t56.5 284l7 62l-104 12l7 49h560l-6 -49l-72 -12l-82 -621h109q-9 -58 -21 -104.5zM253.5 352.5
q-30.5 -117.5 -61.5 -191.5t-52 -101h267l82 633h-179l-9 -79q-17 -144 -47.5 -261.5z" />
    <glyph glyph-name="uni0415" unicode="&#x415;" horiz-adv-x="624" 
d="M604 743l-12 -171h-82l-19 107l-195 11l-35 -266l227 15l-13 -96l-223 12l-36 -290l251 14l53 130l83 -9l-37 -200h-574l6 46l76 13l81 623l-70 12l6 49h513z" />
    <glyph glyph-name="uni0416" unicode="&#x416;" horiz-adv-x="1024" 
d="M792.5 334.5q31.5 -49.5 78.5 -140.5q32 -63 51.5 -95.5t34.5 -38.5l39 -14l-6 -46h-154q-19 0 -40 39t-53 118q-37 90 -63 137t-52 47h-40l-37 -281l80 -14l-3 -46h-293l5 46l75 14l36 277h-43q-30 0 -67 -50.5t-93 -146.5q-42 -73 -65.5 -106.5t-39.5 -33.5h-166l7 46
l30 14q15 6 37.5 33.5t65.5 86.5q71 98 119.5 153t92.5 64l-180 285l-76 12l5 49h239l-5 -49l-75 -12l158 -283h64l37 283l-76 12l7 49h290l-5 -49l-80 -12l-36 -283h67l226 283l-67 12l6 49h223l-6 -49l-69 -13l-247 -285q32 -12 63.5 -61.5z" />
    <glyph glyph-name="uni0417" unicode="&#x417;" horiz-adv-x="599" 
d="M186 730q56 11 87 16t60 5q116 0 174 -42.5t58 -111.5q0 -98 -54 -140.5t-134 -60.5q87 -1 136.5 -42.5t49.5 -108.5q0 -129 -89 -190t-231 -61q-68 0 -139 17t-106 38l43 158h90l-2 -131q43 -25 119 -25q70 0 112 52.5t42 135.5q0 55 -28 85.5t-83 30.5l-76 -7l6 65
l64 2q33 0 63.5 19t50 59.5t19.5 100.5q0 100 -103 100q-75 0 -100 -39l-22 -84h-85l10 147q17 1 68 12z" />
    <glyph glyph-name="uni0418" unicode="&#x418;" horiz-adv-x="801" 
d="M386 743l-6 -49l-83 -12l-62 -473l39 52l325 364l8 57l-71 12l6 49h292l-6 -49l-82 -12l-81 -622l82 -14l-3 -46h-293l4 46l71 14l61 474l-55 -71l-309 -349l-7 -54l82 -14l-4 -46h-293l5 46l70 14l81 622l-70 12l6 49h293z" />
    <glyph glyph-name="uni0419" unicode="&#x419;" horiz-adv-x="801" 
d="M386 743l-6 -49l-83 -12l-62 -473l39 52l325 364l8 57l-71 12l6 49h292l-6 -49l-82 -12l-81 -622l82 -14l-3 -46h-293l4 46l71 14l61 474l-55 -71l-309 -349l-7 -54l82 -14l-4 -46h-293l5 46l70 14l81 622l-70 12l6 49h293zM409 953q0 -7 -2 -23l-1 -24q0 -59 72 -59
q37 0 57.5 12t28.5 30.5t12 48.5q4 37 21 37h89q0 -11 -1 -16q-16 -83 -68.5 -122t-147.5 -39q-188 0 -188 138q0 25 4 39h112q14 0 12 -22z" />
    <glyph glyph-name="uni041A" unicode="&#x41a;" horiz-adv-x="688" 
d="M457 331q31 -50 77 -141q30 -61 48.5 -92.5t32.5 -36.5l40 -13l-6 -48h-152q-19 0 -39 37.5t-54 119.5q-38 91 -63.5 137.5t-50.5 46.5h-40l-36 -281l82 -14l-4 -46h-292l5 46l69 14l81 622l-69 12l5 49h292l-5 -49l-83 -12l-37 -283h69l223 283l-67 12l6 49h223l-7 -49
l-68 -13l-243 -286q32 -14 63 -64z" />
    <glyph glyph-name="uni041B" unicode="&#x41b;" horiz-adv-x="694" 
d="M210 138q-30 -81 -61 -113.5t-79 -32.5q-24 0 -48.5 5t-37.5 15l29 127q36 -23 80 -23q19 0 32 11.5t25 35.5q30 61 56 180.5t41 276.5l7 62l-106 12l6 49h583l-5 -49l-89 -12l-81 -622l87 -21l-4 -39h-305l4 46l78 14l81 630h-188l-9 -74q-34 -312 -96 -478z" />
    <glyph glyph-name="uni041C" unicode="&#x41c;" horiz-adv-x="964" 
d="M614 520q72 171 93 223h261l-6 -49l-87 -12l-19 -622l86 -14l-3 -46h-316l4 47l92 12l25 428l11 198l-72 -174l-222 -512l-70 -8l-73 508l-29 186l-42 -191l-104 -434l106 -14l-4 -46h-282l5 46l81 14l160 622l-94 12l7 49h291l61 -445l12 -91l34 90q40 100 94 223z" />
    <glyph glyph-name="uni041D" unicode="&#x41d;" horiz-adv-x="787" 
d="M386 743l-6 -49l-83 -12l-35 -272h296l35 272l-81 12l5 49h295l-6 -49l-73 -12l-80 -622l76 -14l-5 -46h-305l5 46l89 14l37 287h-297l-37 -287l82 -14l-4 -46h-293l5 46l70 14l81 622l-70 12l6 49h293z" />
    <glyph glyph-name="uni041E" unicode="&#x41e;" horiz-adv-x="701" 
d="M562.5 710q60.5 -43 88.5 -115.5t28 -162.5q0 -119 -42 -219.5t-125.5 -161.5t-202.5 -61q-135 0 -202.5 89t-67.5 234q0 120 43.5 220.5t127.5 160t199 59.5q93 0 153.5 -43zM286.5 644q-47.5 -52 -73 -139t-24.5 -189q0 -117 31.5 -193.5t101.5 -76.5q64 0 110.5 49.5
t71 135t24.5 191.5q0 131 -32 202.5t-100 71.5q-62 0 -109.5 -52z" />
    <glyph glyph-name="uni041F" unicode="&#x41f;" horiz-adv-x="752" 
d="M775 743l-4 -49l-72 -12l-80 -622l76 -14l-5 -46h-288l6 46l70 13l82 628h-263l-81 -627l82 -14l-4 -46h-292l4 46l70 14l80 621l-78 13l6 49h691z" />
    <glyph glyph-name="uni0420" unicode="&#x420;" horiz-adv-x="636" 
d="M314 747q50 4 74 4q135 0 196 -51t61 -155q0 -91 -42 -156t-117.5 -99t-174.5 -34q-41 0 -71 2l-23 -198l120 -14l-3 -46h-334l5 46l69 14l81 622l-70 12l6 49h141q30 0 82 4zM316 314q88 1 135.5 64t48.5 173q0 143 -135 143q-33 0 -68 -6l-49 -368q28 -6 68 -6z" />
    <glyph glyph-name="uni0421" unicode="&#x421;" horiz-adv-x="624" 
d="M423 694q-79 0 -132.5 -57t-79 -143.5t-23.5 -174.5q8 -258 155 -258q32 0 64.5 8.5t54.5 31.5q16 26 36 101h82l-21 -146q-95 -64 -239 -64q-100 0 -164 44t-93 116.5t-29 161.5q0 134 52 233t145 152t213 53q57 0 90.5 -5t54.5 -10.5t29 -7.5l18 -5l-30 -190h-98
l-14 146q-30 14 -71 14z" />
    <glyph glyph-name="uni0422" unicode="&#x422;" horiz-adv-x="672" 
d="M713 743l-38 -263l-73 -1l-3 200l-139 11l-83 -630l133 -13l-5 -47h-395l5 47l122 13l82 630l-138 -11l-69 -199h-75l44 263h632z" />
    <glyph glyph-name="uni0423" unicode="&#x423;" horiz-adv-x="604" 
d="M317 70.5q-22 -32.5 -59 -57t-90 -24.5q-24 0 -49.5 5t-39.5 12l3 87h76q50 0 75.5 11.5t37.5 42.5l-170 536l-47 11l6 49h282l-5 -49l-80 -12l82 -312l22 -99l39 100l130 311l-73 12l5 49h201l-6 -49l-52 -11l-244 -534q-22 -46 -44 -78.5z" />
    <glyph glyph-name="uni0424" unicode="&#x424;" horiz-adv-x="793" 
d="M730.5 594q60.5 -60 60.5 -159q0 -140 -87 -232.5t-263 -108.5l-9 -66l82 -14l-4 -47h-298l6 48l78 13l9 64q-157 9 -218 70t-61 163q0 140 87.5 231.5t264.5 106.5l8 57l-80 12l5 49h298l-5 -49l-82 -12l-7 -55q155 -11 215.5 -71zM207.5 518.5
q-47.5 -81.5 -47.5 -192.5q0 -68 34 -119t116 -67l62 480q-117 -20 -164.5 -101.5zM610 242q48 82 48 194q0 68 -33.5 117.5t-115.5 65.5l-62 -479q115 20 163 102z" />
    <glyph glyph-name="uni0425" unicode="&#x425;" horiz-adv-x="660" 
d="M364 743l-4 -48l-76 -12l92 -234l159 233l-71 12l3 49h245l-3 -49l-69 -11l-233 -298l163 -325l68 -14l-4 -46h-311l4 46l76 13l-99 240l-166 -239l79 -14l-5 -46h-247l5 46l59 13l244 308l-149 315l-63 12l5 49h298z" />
    <glyph glyph-name="uni0426" unicode="&#x426;" horiz-adv-x="787" 
d="M677 -141l-11 -39h-73l3 39q5 90 5 112q0 21 -1 29h-610l5 46l81 14l80 622l-70 12l5 49h296l-6 -49l-85 -12l-79 -627h260l80 627l-71 12l5 49h290l-5 -49l-80 -12l-80 -621h109q-12 -75 -48 -202z" />
    <glyph glyph-name="uni0427" unicode="&#x427;" horiz-adv-x="682" 
d="M359.5 297q-47.5 -11 -90.5 -11q-66 0 -107.5 12.5t-65 47.5t-23.5 101q0 31 4 59l23 176l-70 12l6 49h292l-5 -49l-80 -12l-16 -109q-8 -77 -8 -117q0 -60 19.5 -82.5t71.5 -22.5q39 0 77.5 7t60.5 22l40 302l-82 12l5 49h295l-6 -49l-72 -12l-81 -622l77 -14l-5 -46
h-310l6 46l92 14l35 267q-35 -19 -82.5 -30z" />
    <glyph glyph-name="uni0428" unicode="&#x428;" horiz-adv-x="1088" 
d="M393 743l-6 -49l-92 -12l-82 -628h235l81 627l-82 13l5 49h299l-5 -49l-77 -12l-82 -628h222l82 628l-84 12l5 49h302l-6 -49l-78 -12l-80 -621l82 -13l-5 -48h-1025l4 46l70 14l81 622l-70 12l6 49h300z" />
    <glyph glyph-name="uni0429" unicode="&#x429;" horiz-adv-x="1094" 
d="M1021 -138l-12 -42h-73l3 47q6 70 6 107q0 19 -1 26h-942l4 46l70 14l81 622l-70 12l6 49h300l-6 -49l-92 -12l-82 -628h235l81 627l-82 13l5 49h299l-5 -49l-78 -12l-81 -628h223l82 628l-85 12l6 49h301l-6 -49l-78 -12l-81 -622h120q-12 -72 -48 -198z" />
    <glyph glyph-name="uni042A" unicode="&#x42a;" horiz-adv-x="801" 
d="M534 455q119 0 179.5 -47t60.5 -137q0 -88 -39 -151t-110 -96t-167 -33q-6 0 -62 4q-92 5 -102 5h-130l6 46l76 14l82 630l-135 -7l-70 -206h-77l45 266h470l-5 -46l-89 -15l-32 -241q51 14 99 14zM457 47q81 0 127 58.5t46 152.5q0 60 -34 96t-91 36q-19 0 -42 -2.5
t-35 -5.5l-43 -331q23 -4 72 -4z" />
    <glyph glyph-name="uni042B" unicode="&#x42b;" horiz-adv-x="1000" 
d="M363 442q119 0 180.5 -46t61.5 -133q0 -132 -86.5 -202t-230.5 -70q-7 0 -61 4q-90 5 -101 5h-127l5 46l73 14l81 622l-70 12l5 49h294l-5 -46l-84 -15l-32 -253q43 13 97 13zM1025 743l-5 -49l-81 -12l-80 -622l82 -14l-3 -46h-299l6 46l73 14l81 622l-70 12l5 49h291z
M290 47q79 0 124.5 55t45.5 148q0 58 -34 93t-92 35q-20 0 -42.5 -2.5t-33.5 -5.5l-42 -319q34 -4 74 -4z" />
    <glyph glyph-name="uni042C" unicode="&#x42c;" horiz-adv-x="637" 
d="M362 442q119 0 180.5 -46t61.5 -133q0 -132 -86.5 -202t-230.5 -70q-6 0 -62 4q-90 5 -101 5h-127l6 46l73 14l81 622l-70 12l5 49h294l-6 -46l-84 -15l-32 -253q46 13 98 13zM289 47q79 0 124.5 55t45.5 148q0 58 -34.5 93t-91.5 35q-20 0 -42.5 -2.5t-34.5 -5.5
l-41 -319q32 -4 74 -4z" />
    <glyph glyph-name="uni042D" unicode="&#x42d;" horiz-adv-x="629" 
d="M162 725q46 12 83.5 19t89.5 7q90 0 155.5 -39.5t100 -111t34.5 -166.5q0 -129 -48.5 -230t-138 -158t-210.5 -57q-40 0 -69.5 6.5t-63.5 17.5q-40 14 -63 14l-9 163l71 2l33 -96q19 -22 45 -35t81 -13q54 0 100.5 36t77.5 104.5t40 160.5q-65 -6 -222 -13l-62 -3l-15 93
l304 -11v17q0 116 -40.5 189.5t-122.5 73.5q-51 0 -77 -12t-50 -36l-37 -107h-79l31 172q20 1 61 13z" />
    <glyph glyph-name="uni042E" unicode="&#x42e;" horiz-adv-x="1059" 
d="M466 583.5q47 78.5 124 124t177 45.5q93 0 153.5 -43t88.5 -115.5t28 -162.5q0 -119 -42 -219.5t-125 -161.5t-202 -61q-135 0 -203 87.5t-69 230.5q0 25 2 37h-145l-37 -285l82 -14l-3 -46h-298l6 46l73 14l80 622l-69 12l5 49h290l-5 -49l-80 -12l-36 -276h143
q15 99 62 177.5zM644.5 644q-47.5 -52 -73 -139t-24.5 -189q0 -118 31.5 -194t102.5 -76q63 0 109.5 49.5t71 135t24.5 191.5q0 131 -32 202.5t-100 71.5q-62 0 -109.5 -52z" />
    <glyph glyph-name="uni042F" unicode="&#x42f;" horiz-adv-x="697" 
d="M346 328q-24 -19 -50 -63t-63 -118t-59.5 -110.5t-39.5 -36.5h-182l5 39l38 14q17 4 40 34.5t60 89.5q44 69 72.5 106.5t55.5 54.5q-62 19 -94.5 64t-32.5 103q0 113 81 179.5t231 66.5q37 0 83 -4q44 -4 85 -4h152l-5 -49l-78 -12l-80 -622l76 -14l-4 -46h-295l4 46
l78 14l36 270q-21 -2 -114 -2zM484 688q-30 6 -74 6q-79 0 -118 -48.5t-39 -131.5q0 -64 35 -99t94 -35q65 0 85 3l38 303q-5 0 -21 2z" />
    <glyph glyph-name="uni0430" unicode="&#x430;" horiz-adv-x="587" 
d="M475 90q0 -26 20 -26q16 0 45 24l14 -31q-13 -20 -46.5 -43.5t-77.5 -23.5q-34 0 -54 15t-21 46l2 17q-28 -33 -68 -55.5t-88 -22.5q-84 0 -125.5 57.5t-41.5 150.5q0 92 38.5 177t112.5 139t176 54q26 0 56.5 -6t53.5 -14l69 20l-64 -466q-1 -4 -1 -12zM350 506
q-60 0 -100 -45.5t-58.5 -115t-18.5 -140.5q0 -66 20 -102.5t59 -36.5q25 0 50.5 17t45.5 40l51 374q-19 9 -49 9z" />
    <glyph glyph-name="uni0431" unicode="&#x431;" horiz-adv-x="561" 
d="M520.5 704.5q-7.5 -6.5 -28.5 -6.5q-138 0 -240 -77t-130 -258q29 76 92.5 127t147.5 51q98 0 139.5 -53t41.5 -146q0 -97 -38.5 -177t-106.5 -126.5t-153 -46.5q-106 0 -160.5 74.5t-54.5 190.5q0 171 66.5 292t161 181.5t174.5 60.5q18 0 32 22l25 49h63l-22 -131
q-2 -20 -9.5 -26.5zM241.5 434.5q-37.5 -34.5 -60.5 -89.5t-23 -112q0 -85 28 -135.5t75 -50.5t81 39.5t51.5 100.5t17.5 125q0 83 -23 120t-66 37t-80.5 -34.5z" />
    <glyph glyph-name="uni0432" unicode="&#x432;" horiz-adv-x="552" 
d="M466.5 533.5q39.5 -28.5 39.5 -68.5q0 -48 -30 -85t-102 -61q70 1 103 -31t33 -81q0 -57 -33 -106.5t-96 -79.5t-150 -30q-91 0 -147 61t-56 168q0 112 50.5 189t124.5 115t144 38q80 0 119.5 -28.5zM340 367.5q34 27.5 34 76.5q0 63 -62 63q-25 0 -56 -21t-55.5 -64.5
t-28.5 -107.5l66 14q68 12 102 39.5zM160 228v-38q0 -66 24.5 -106t67.5 -40q33 0 61 17.5t45 49.5t17 73q0 44 -20 72.5t-62 28.5q-17 0 -28 -1l-103 -17q-2 -11 -2 -39z" />
    <glyph glyph-name="uni0433" unicode="&#x433;" horiz-adv-x="433" 
d="M154 551.5q45 16.5 102 16.5q79 0 121.5 -29t42.5 -81q0 -45 -22.5 -79.5t-53 -57.5t-79.5 -52l-25 -15q-52 -33 -74 -55.5t-22 -57.5q0 -33 20 -54t59 -21q38 0 65.5 11.5t61.5 35.5l14 -57q-29 -29 -82.5 -47.5t-105.5 -18.5q-51 0 -89.5 17t-59 45.5t-20.5 63.5
q0 43 20.5 75t50.5 54.5t81 52.5l22 13q52 35 74 64t22 67q0 22 -17.5 36t-46.5 14q-39 0 -74.5 -14t-45.5 -24l-9 62q25 19 70 35.5z" />
    <glyph glyph-name="uni0434" unicode="&#x434;" horiz-adv-x="563" 
d="M212 806q49 15 91 15q131 0 188 -88t57 -233q0 -117 -31 -233t-102.5 -196t-186.5 -80q-90 0 -143.5 61t-53.5 162q0 87 36.5 165.5t104.5 127t160 48.5q46 0 81 -20q-3 84 -17.5 132t-43.5 69t-78 21q-61 0 -114 -37l-34 40q37 31 86 46zM248 460.5
q-37 -39.5 -57 -103.5t-20 -136q0 -90 18.5 -132t57.5 -42q83 0 123 125.5t43 304.5q-30 23 -80 23q-48 0 -85 -39.5z" />
    <glyph glyph-name="uni0435" unicode="&#x435;" horiz-adv-x="522" 
d="M377.5 23q-58.5 -36 -135.5 -36q-72 0 -118.5 31t-67.5 81t-21 109q0 100 40.5 182.5t110.5 130.5t156 48q77 0 114.5 -35.5t37.5 -92.5q0 -72 -52 -120t-125 -71.5t-138 -25.5q-2 -72 23.5 -116t77.5 -44q86 0 156 80l26 -44q-26 -41 -84.5 -77zM219 436
q-34 -71 -40 -158q39 2 82.5 21t73 53.5t29.5 79.5q0 36 -13.5 55.5t-38.5 19.5q-59 0 -93 -71z" />
    <glyph glyph-name="uni0436" unicode="&#x436;" horiz-adv-x="961" 
d="M704 435.5q38 56.5 88.5 90.5t104.5 34q44 0 63 -18l-38 -100q-37 37 -50 48q-26 0 -53 -32t-45 -89t-18 -129q0 -76 21 -117t54 -41q46 0 86 43l25 -37q-24 -34 -66.5 -66t-98.5 -32q-68 0 -107 57t-39 161q0 29 4 53h-93l-34 -261h-131l34 261h-98q-16 -71 -54 -133.5
t-91 -100t-110 -37.5q-42 0 -64 17l39 101q37 -37 49 -48q27 0 54 32t44.5 89t17.5 129q0 76 -21 117t-53 41q-47 0 -86 -43l-25 36q21 33 64.5 66t99.5 33q68 0 107 -57t39 -161q0 -19 -1 -29h96l33 248h131l-33 -248h98q19 66 57 122.5z" />
    <glyph glyph-name="uni0437" unicode="&#x437;" horiz-adv-x="517" 
d="M153 551q29 8 55.5 12t64.5 4q96 0 150 -32t54 -88q0 -57 -36 -95.5t-93 -54.5q61 -1 95 -31.5t34 -81.5q0 -61 -38 -104.5t-102.5 -65.5t-142.5 -22q-63 0 -110 13t-73 30l61 120l54 -74q15 -15 36.5 -24.5t47.5 -9.5q63 0 97.5 34t34.5 92q0 44 -28 67t-92 23l-55 -11
l11 61l46 5q66 6 94.5 40t28.5 85q0 33 -24.5 51.5t-68.5 18.5q-28 0 -52 -10t-36 -21l-29 -87h-74l18 145q30 0 72 11z" />
    <glyph glyph-name="uni0438" unicode="&#x438;" horiz-adv-x="613" 
d="M209 237q-10 -78 -10 -100q0 -40 14 -57t42 -17q32 0 63.5 20t53.5 48l58 432h132l-64 -463q-2 -18 3 -27t15 -9q9 0 19 5.5t28 20.5l14 -31q-13 -21 -48 -45t-80 -24q-35 0 -53.5 15t-20.5 41l-1 12q0 8 2 20l-2 1q-74 -89 -174 -89q-56 0 -95 30.5t-40 97.5
q0 39 14 141q4 25 5 34l27 182l-58 34l8 41l166 17l23 -11l-34 -267q-4 -37 -7 -52z" />
    <glyph glyph-name="uni0439" unicode="&#x439;" horiz-adv-x="613" 
d="M209 237q-10 -78 -10 -100q0 -40 14 -57t42 -17q32 0 63.5 20t53.5 48l58 432h132l-64 -463q-2 -18 3 -27t15 -9q9 0 19 5.5t28 20.5l14 -31q-13 -21 -48 -45t-80 -24q-35 0 -53.5 15t-20.5 41l-1 12q0 8 2 20l-2 1q-74 -89 -174 -89q-56 0 -95 30.5t-40 97.5
q0 39 14 141q4 25 5 34l27 182l-58 34l8 41l166 17l23 -11l-34 -267q-4 -37 -7 -52zM295 811q0 -8 -2 -24t-2 -22q0 -66 72 -66q37 0 56.5 13t27 33t11.5 52q6 36 22 36h89q0 -10 -1 -16q-15 -87 -67.5 -127t-148.5 -40q-85 0 -132 35.5t-47 108.5q0 22 4 39h105
q13 0 13 -22z" />
    <glyph glyph-name="uni043A" unicode="&#x43a;" horiz-adv-x="558" 
d="M379 381q29 34 32 60q0 10 -5 22q-8 16 -8 33q0 32 24 49.5t59 17.5q27 0 45 -16t18 -44q0 -57 -53 -107t-134 -101q20 -25 59 -97q34 -63 58 -99t43 -40l36 -17l-6 -42h-132q-29 0 -50.5 36t-49.5 106q-24 61 -42.5 92.5t-40.5 31.5h-17l-35 -266h-131l64 475l-51 28
l8 40l156 24l28 -13l-33 -242h87q38 30 71 69z" />
    <glyph glyph-name="uni043B" unicode="&#x43b;" horiz-adv-x="575" 
d="M462 89q0 -13 5 -19t12 -6q18 0 46 23l14 -31q-16 -22 -54.5 -44t-79.5 -22q-37 0 -58.5 17t-21.5 49q0 9 1 14l56 429h-96q-40 -158 -75 -263t-74 -166q-22 -39 -51 -58.5t-70 -19.5q-10 0 -28.5 4.5t-19.5 7.5l28 122q4 -3 33 -10t38 -7q13 0 32 29q34 48 72.5 155.5
t56.5 186.5l-120 23l8 58h408l-61 -461q-1 -4 -1 -11z" />
    <glyph glyph-name="uni043C" unicode="&#x43c;" horiz-adv-x="808" 
d="M731 63q23 0 50 27l16 -37q-5 -8 -28 -23.5t-55.5 -27.5t-66.5 -12q-66 0 -67 64l15 292l10 162l-224 -515h-78l-64 338l-26 147l-32 -177q-15 -84 -33.5 -142t-44.5 -115q-14 -30 -35 -41t-67 -11q-8 0 -24.5 4.5t-17.5 7.5l29 125q5 -3 35 -10t39 -6q43 91 94 369
l-83 21l7 58h246l56 -318l12 -94l35 94l135 318h171l-24 -446q-1 -52 20 -52z" />
    <glyph glyph-name="uni043D" unicode="&#x43d;" horiz-adv-x="642" 
d="M529 88q0 -24 17 -24q9 0 19 5t27 18l14 -31q-6 -10 -23.5 -25.5t-44 -28t-57.5 -12.5q-40 0 -64.5 17t-24.5 45q0 7 1 11l26 191h-206l-34 -254h-130l64 475l-51 28l8 40l156 24l28 -13l-32 -239h205l33 246h130l-60 -461q-1 -4 -1 -12z" />
    <glyph glyph-name="uni043E" unicode="&#x43e;" horiz-adv-x="589" 
d="M498 508.5q55 -60.5 55 -173.5q0 -93 -38 -173t-107 -127.5t-158 -47.5q-104 0 -158.5 61.5t-54.5 175.5q0 94 37.5 173t106.5 125.5t158 46.5q104 0 159 -60.5zM244 464.5q-32 -41.5 -47.5 -105.5t-15.5 -131q0 -95 21.5 -139t67.5 -44q45 0 76 42t46 107t15 133
q0 95 -20.5 137t-64.5 42q-46 0 -78 -41.5z" />
    <glyph glyph-name="uni043F" unicode="&#x43f;" horiz-adv-x="630" 
d="M327 535q51 33 107 33q124 0 124 -147q0 -39 -25 -174q-4 -26 -7 -40q-14 -79 -15 -114v-4q0 -25 16 -25q9 0 19 5t26 18l14 -31q-15 -21 -49 -43.5t-83 -22.5q-47 0 -65 20.5t-18 54.5q1 30 19 119l6 34q2 9 8.5 48t10.5 74.5t4 61.5q0 46 -10.5 63t-37.5 17
q-33 0 -73.5 -37t-69.5 -89l-48 -356h-131l64 476l-51 27l8 41l156 24l23 -11l-10 -110q37 55 88 88z" />
    <glyph glyph-name="uni0440" unicode="&#x440;" horiz-adv-x="586" 
d="M302 549.5q37 18.5 81 18.5q83 0 126 -56t43 -156q0 -95 -40 -179t-113.5 -135.5t-169.5 -51.5q-26 0 -59 7l-35 -251h-128l99 733l-53 25l8 40l162 24l23 -11l-7 -55q26 29 63 47.5zM242 52q57 0 95.5 44t57 113t18.5 145q0 62 -20.5 100t-59.5 38q-31 0 -57 -18.5
t-46 -45.5l-51 -364q23 -12 63 -12z" />
    <glyph glyph-name="uni0441" unicode="&#x441;" horiz-adv-x="458" 
d="M345.5 475.5q-21.5 21.5 -37.5 21.5q-37 0 -68.5 -34t-51 -95t-19.5 -137q0 -83 24 -121.5t73 -38.5q42 0 71.5 16t57.5 45l26 -44q-25 -37 -78.5 -67.5t-126.5 -30.5q-86 0 -135 60.5t-49 171.5q0 84 35 163.5t104 131t166 51.5q31 0 64.5 -5.5t54.5 -15.5l-34 -130
l-27 2q-28 35 -49.5 56.5z" />
    <glyph glyph-name="uni0442" unicode="&#x442;" horiz-adv-x="946" 
d="M325 534q50 34 105 34q56 0 87.5 -29.5t36.5 -94.5q35 58 85.5 91t109.5 33q125 0 125 -147q0 -32 -20 -148l-4 -26l-5 -26q-17 -93 -18 -128q0 -29 17 -29q9 0 19.5 5.5t28.5 20.5l13 -31q-14 -21 -49 -45t-84 -24q-47 0 -65 19t-18 51q0 20 6 58.5t13 77.5l4 23
q12 68 17.5 107t5.5 76q0 46 -10.5 63t-36.5 17q-32 0 -69.5 -31t-64.5 -79q-4 -59 -13 -125l-31 -247h-135l29 218q18 124 18 188q-1 46 -12.5 61t-40.5 15q-32 0 -72.5 -35t-67.5 -84l-50 -363h-130l64 476l-51 27l8 41l156 24l23 -11l-10 -111q36 54 86 88z" />
    <glyph glyph-name="uni0443" unicode="&#x443;" horiz-adv-x="534" 
d="M62 483.5q-5 6.5 -13 6.5q-13 0 -30 -14l-14 34q12 16 45.5 36.5t71.5 20.5q39 0 58 -16.5t24 -50.5l58 -380l14 -110l47 95q43 90 65.5 158t22.5 130q0 19 -3 32t-9 30q-11 28 -11 53q0 27 16.5 43t47.5 16q36 0 56.5 -28t20.5 -68q0 -71 -23 -134.5t-70 -157.5
q-33 -72 -85.5 -159.5t-92.5 -147.5q-41 -65 -87.5 -94t-110.5 -29q-26 0 -56.5 6.5t-41.5 13.5l31 87q11 -10 37 -18t51 -8q45 0 86.5 31.5t82.5 102.5h-72l-107 496q-4 17 -9 23.5z" />
    <glyph glyph-name="uni0444" unicode="&#x444;" horiz-adv-x="842" 
d="M643 568q84 0 125 -57.5t41 -150.5t-35.5 -178t-106.5 -138.5t-170 -53.5q-19 0 -49 8l-20 -142q-1 -4 -1 -11q0 -25 17 -25q9 0 19.5 5.5t28.5 20.5l13 -32q-18 -23 -49 -45.5t-77 -22.5q-38 0 -61 15.5t-22 48.5q4 40 26 193l5 32q-55 -45 -130 -45q-83 0 -123.5 57.5
t-40.5 150.5t35.5 178t106.5 138.5t171 53.5q27 0 56 -11l25 172l-63 20l9 37l165 20l23 -13l-38 -264q52 39 120 39zM334 509q-56 0 -92.5 -47t-53.5 -117t-17 -141q0 -66 20.5 -104t56.5 -38q48 0 90 42l55 389q-21 16 -59 16zM508 49q56 0 92.5 47t53.5 117t17 141
q0 66 -21 104t-58 38q-40 0 -78 -34l-57 -401q20 -12 51 -12z" />
    <glyph glyph-name="uni0445" unicode="&#x445;" horiz-adv-x="501" 
d="M91.5 481q-8.5 10 -19.5 10q-25 0 -43 -15l-17 35q6 8 24 21.5t46 24t62 10.5q36 0 58.5 -13.5t28.5 -37.5l42 -155l129 202h126l-218 -278l79 -163q7 -18 19.5 -33.5t24.5 -15.5q21 0 50 24l20 -35q-6 -10 -25 -27t-50.5 -31t-70.5 -14q-33 0 -52 13.5t-28 38.5l-48 166
l-134 -208h-131l226 283l-81 171q-9 17 -17.5 27z" />
    <glyph glyph-name="uni0446" unicode="&#x446;" horiz-adv-x="613" 
d="M209 237q-10 -78 -10 -100q0 -40 14 -57t42 -17q32 0 63.5 20t53.5 48l58 432h132l-64 -463q-2 -18 3 -27t15 -9q9 0 19 5.5t28 20.5l14 -31q-8 -12 -27 -29t-45 -28q-20 -10 -33 -22t-13 -28q0 -12 9 -32q1 -3 6.5 -18.5t5.5 -34.5q0 -24 -20.5 -50.5t-51 -46
t-59.5 -26.5l-30 35q21 8 38.5 29t17.5 42q0 10 -2 19t-3 12q-7 19 -7 41q0 42 58 73q-47 11 -47 60q0 15 2 23l-2 1q-76 -89 -174 -89q-56 0 -95 30.5t-40 97.5q0 39 14 141q4 25 5 34l27 182l-58 34l8 41l166 17l23 -11l-34 -267q-4 -37 -7 -52z" />
    <glyph glyph-name="uni0447" unicode="&#x447;" horiz-adv-x="584" 
d="M191 314q0 -33 15 -48t53 -15q61 0 103 22l38 288h131l-59 -461q-1 -4 -1 -12q0 -24 18 -24q19 0 46 23l13 -31q-13 -22 -48.5 -44t-76.5 -22q-42 0 -64.5 20.5t-22.5 51.5q0 7 1 11l18 140q-85 -40 -157 -40q-73 0 -105 30t-32 102q0 26 7 80l12 89l-59 35l8 41l166 17
l23 -11l-24 -201q-3 -22 -3 -41z" />
    <glyph glyph-name="uni0448" unicode="&#x448;" horiz-adv-x="920" 
d="M212 257q-1 -8 -7 -52t-6 -71q0 -40 14 -57t42 -17q31 0 62.5 20t53.5 48q6 56 22 170q11 87 35 263h132q-55 -398 -55 -427q0 -40 14 -57t42 -17q32 0 63.5 20.5t53.5 49.5l58 431h131l-63 -464q-4 -37 18 -37q9 0 18.5 5.5t29.5 21.5l12 -31q-5 -10 -23 -26.5
t-45 -29.5t-58 -13q-38 0 -57.5 15.5t-19.5 43.5q0 5 2 17l-2 14q-77 -90 -180 -90q-61 0 -90 26.5t-26 73.5h-2q-34 -43 -77.5 -71.5t-103.5 -28.5q-56 0 -95 30.5t-40 97.5q0 39 15 144l4 31l27 183l-57 34l7 40l166 18l23 -12l-34 -267z" />
    <glyph glyph-name="uni0449" unicode="&#x449;" horiz-adv-x="919" 
d="M212 260q-1 -8 -7 -52t-6 -71q0 -40 14 -57t42 -17q31 0 62.5 20t53.5 49q8 72 25 192l16 120q6 40 16 120h132q-23 -160 -41 -301q-14 -101 -14 -126q0 -40 14 -57t42 -17q32 0 63.5 20.5t53.5 50.5l58 430h131l-63 -464q-2 -18 3 -27t15 -9q9 0 18.5 5.5t29.5 20.5
l12 -31q-6 -11 -23 -27t-41 -27q-25 -14 -37.5 -24.5t-12.5 -28.5q0 -10 9 -32q1 -2 6.5 -17.5t5.5 -35.5q0 -24 -20.5 -50.5t-51 -46t-59.5 -26.5l-30 35q21 8 38.5 29t17.5 43q0 10 -2 18.5t-3 12.5q-7 17 -7 40q0 43 56 72q-48 12 -48 64q0 5 2 19l-3 3q-79 -90 -180 -90
q-61 0 -90 26.5t-26 73.5h-2q-78 -100 -181 -100q-56 0 -95 30.5t-40 97.5q0 41 15 148q2 9 4 27l27 183l-57 34l7 40l166 18l23 -11l-34 -268z" />
    <glyph glyph-name="uni044A" unicode="&#x44a;" horiz-adv-x="633" 
d="M22 415q0 49 8.5 90.5t28.5 51.5q18 11 49 11q34 0 81 -4t58 -5q86 -8 113 -8q17 0 36.5 5t32.5 12q4 2 12 -3t13 -13t2 -13q-105 -116 -145 -220q29 30 66 48t81 18q138 0 138 -155q0 -63 -35.5 -118.5t-96.5 -89t-133 -33.5q-81 0 -133.5 46.5t-52.5 132.5
q0 75 33.5 147t97.5 137l-129 2q-21 0 -38 -8t-28 -22q-17 -20 -19 -52h-38q-2 22 -2 43zM337 291q-28 -15 -48 -39q-12 -37 -12 -80q0 -54 18 -90t46 -36q60 0 93.5 48t33.5 116q0 41 -19 68.5t-60 27.5q-24 0 -52 -15z" />
    <glyph glyph-name="uni044B" unicode="&#x44b;" horiz-adv-x="821" 
d="M279.5 363.5q40.5 21.5 88.5 21.5q140 0 140 -160q0 -63 -34.5 -117t-94.5 -86.5t-133 -32.5q-81 0 -131.5 44t-50.5 132q0 30 8 73l38 238l-51 27l8 41l155 24l25 -11l-35 -243q27 28 67.5 49.5zM697 88q0 -24 18 -24t48 26l14 -31q-14 -23 -50.5 -46t-77.5 -23t-63 21
t-22 53q0 8 1 12l63 487h133l-63 -463q-1 -4 -1 -12zM248.5 291.5q-26.5 -14.5 -44.5 -35.5q-3 -17 -4 -29.5t-2 -20.5l-3 -25q-4 -23 -4 -45q0 -47 18.5 -68.5t47.5 -21.5q59 0 89 50t30 114q0 43 -18 69.5t-60 26.5q-23 0 -49.5 -14.5z" />
    <glyph glyph-name="uni044C" unicode="&#x44c;" horiz-adv-x="550" 
d="M279.5 363.5q40.5 21.5 88.5 21.5q140 0 140 -160q0 -63 -34.5 -117t-94.5 -86.5t-133 -32.5q-81 0 -131.5 44t-50.5 132q0 30 8 73l38 238l-51 27l8 41l156 24l24 -11l-35 -243q27 28 67.5 49.5zM249 291.5q-27 -14.5 -45 -35.5q-8 -44 -12 -85q-3 -19 -3 -35
q0 -47 19 -68.5t49 -21.5q59 0 89 50t30 114q0 43 -18 69.5t-60 26.5q-22 0 -49 -14.5z" />
    <glyph glyph-name="uni044D" unicode="&#x44d;" horiz-adv-x="509" 
d="M149.5 564q60.5 9 98.5 9q114 0 176 -60.5t62 -177.5q0 -97 -39 -176t-110 -124.5t-164 -45.5q-51 0 -94 12.5t-74 29.5l24 138h55q-1 3 11 -39q12 -50 22 -67q26 -21 61 -21q62 0 105.5 61.5t57.5 159.5q-96 -12 -224 -17l-15 82h245v19q0 90 -33.5 132t-85.5 42
q-48 0 -76 -25l-32 -75h-71l15 127q25 7 85.5 16z" />
    <glyph glyph-name="uni044E" unicode="&#x44e;" horiz-adv-x="852" 
d="M372.5 445.5q40.5 57.5 101 90.5t134.5 33q104 0 158.5 -60.5t54.5 -175.5q0 -93 -38 -172.5t-106.5 -126.5t-157.5 -47q-101 0 -155 58t-58 168q0 28 1 41h-94l-34 -254h-130l64 476l-51 27l8 41l156 24l28 -11l-32 -242h94q16 73 56.5 130.5zM513 464.5
q-32 -41.5 -47.5 -105.5t-15.5 -131q0 -95 21.5 -139t67.5 -44q45 0 76 42t46 107t15 133q0 95 -20.5 137t-64.5 42q-46 0 -78 -41.5z" />
    <glyph glyph-name="uni044F" unicode="&#x44f;" horiz-adv-x="585" 
d="M41.5 72.5q9.5 13.5 25.5 42.5q27 49 51 79.5t60 46.5q-122 25 -122 139q0 93 67.5 139.5t195.5 46.5q8 0 89 -3q44 -2 55 -2h70q-10 -73 -31 -235.5t-30 -238.5q0 -10 6 -16.5t13 -6.5q18 0 47 26l13 -31q-5 -10 -24.5 -26.5t-48 -29.5t-60.5 -13q-39 0 -58.5 19
t-19.5 48q3 29 10.5 88.5t10.5 86.5h-87q-19 -15 -33 -44.5t-34 -80.5q-20 -54 -35 -80.5t-33 -26.5h-153l6 46l30 12q10 1 19.5 14.5zM371 508q-20 2 -49 2q-66 0 -99.5 -27.5t-33.5 -97.5q0 -94 117 -94q55 0 63 2l27 213q-5 0 -25 2z" />
    <glyph glyph-name="uni0450" unicode="&#x450;" horiz-adv-x="522" 
d="M377.5 23q-58.5 -36 -135.5 -36q-72 0 -118.5 31t-67.5 81t-21 109q0 100 40.5 182.5t110.5 130.5t156 48q77 0 114.5 -35.5t37.5 -92.5q0 -72 -52 -120t-125 -71.5t-138 -25.5q-2 -72 23.5 -116t77.5 -44q86 0 156 80l26 -44q-26 -41 -84.5 -77zM219 436
q-34 -71 -40 -158q39 2 82.5 21t73 53.5t29.5 79.5q0 36 -13.5 55.5t-38.5 19.5q-59 0 -93 -71zM257.5 713q-64.5 55 -84.5 91l85 76l143 -209l-43 -31q-36 18 -100.5 73z" />
    <glyph glyph-name="uni0451" unicode="&#x451;" horiz-adv-x="522" 
d="M377.5 23q-58.5 -36 -135.5 -36q-72 0 -118.5 31t-67.5 81t-21 109q0 100 40.5 182.5t110.5 130.5t156 48q77 0 114.5 -35.5t37.5 -92.5q0 -72 -52 -120t-125 -71.5t-138 -25.5q-2 -72 23.5 -116t77.5 -44q86 0 156 80l26 -44q-26 -41 -84.5 -77zM219 436
q-34 -71 -40 -158q39 2 82.5 21t73 53.5t29.5 79.5q0 36 -13.5 55.5t-38.5 19.5q-59 0 -93 -71zM194.5 676.5q-18.5 20.5 -18.5 47.5q0 37 21 62t55 25q29 0 46.5 -20t17.5 -46q0 -39 -20 -64t-59 -25q-24 0 -42.5 20.5zM410.5 676.5q-18.5 20.5 -18.5 47.5q0 37 21 62
t55 25q28 0 46 -20t18 -46q0 -39 -20.5 -64t-58.5 -25q-24 0 -42.5 20.5z" />
    <glyph glyph-name="uni0452" unicode="&#x452;" horiz-adv-x="606" 
d="M319.5 533q51.5 35 109.5 35q124 0 124 -143q0 -24 -51 -422q-18 -124 -80.5 -190.5t-151.5 -66.5q-26 0 -46 4t-27 11l13 52q11 -3 27 -3q11 0 16 1q40 2 63 33t34 74t21 110q6 29 24.5 187.5t18.5 192.5q0 42 -11 58t-37 16q-34 0 -75 -38.5t-71 -93.5l-44 -350h-133
l79 631h-79l7 50h77l7 48l-60 20l7 37l171 20l24 -13l-14 -112h139l-7 -50h-138l-25 -191q37 58 88.5 93z" />
    <glyph glyph-name="uni0453" unicode="&#x453;" horiz-adv-x="433" 
d="M416 875l78 -79q-9 -16 -46 -52t-80.5 -69.5t-71.5 -45.5l-38 37zM154 551.5q45 16.5 102 16.5q79 0 121.5 -29t42.5 -81q0 -45 -22.5 -79.5t-53 -57.5t-79.5 -52l-25 -15q-52 -33 -74 -55.5t-22 -57.5q0 -33 20 -54t59 -21q38 0 65.5 11.5t61.5 35.5l14 -57
q-29 -29 -82.5 -47.5t-105.5 -18.5q-51 0 -89.5 17t-59 45.5t-20.5 63.5q0 43 20.5 75t50.5 54.5t81 52.5l22 13q52 35 74 64t22 67q0 22 -17.5 36t-46.5 14q-39 0 -74.5 -14t-45.5 -24l-9 62q25 19 70 35.5z" />
    <glyph glyph-name="uni0454" unicode="&#x454;" horiz-adv-x="510" 
d="M374 513.5q-13 6.5 -36 6.5q-59 0 -100.5 -53t-56.5 -142h235l-16 -84q-80 3 -226 25q-1 -12 -1 -38q0 -92 31.5 -140t81.5 -48q45 0 79 24l30 75h73l-15 -118q-25 -10 -84.5 -21t-102.5 -11q-115 0 -174.5 60t-59.5 176q0 95 38.5 174.5t110 126.5t167.5 47
q47 0 89.5 -10.5t72.5 -24.5l-26 -145h-53l-33 104q-11 10 -24 16.5z" />
    <glyph glyph-name="uni0455" unicode="&#x455;" horiz-adv-x="427" 
d="M340.5 489q-27.5 15 -63.5 15q-40 0 -64.5 -17.5t-24.5 -51.5q0 -30 20.5 -53.5t66.5 -56.5q51 -38 78 -73.5t27 -90.5t-30 -93.5t-80 -58t-110 -19.5q-45 0 -92 10.5t-61 22.5l20 85q21 -18 57 -34t75 -16q37 0 63.5 17t26.5 53q0 31 -23 56t-69 57q-42 29 -70.5 68.5
t-28.5 95.5q0 48 27.5 85t76 57.5t111.5 20.5q37 0 75 -6t51 -13l-19 -89q-12 14 -39.5 29z" />
    <glyph glyph-name="uni0456" unicode="&#x456;" horiz-adv-x="322" 
d="M200 88q0 -24 17 -24q9 0 20 6t28 20l13 -31q-17 -23 -50.5 -46t-81.5 -23q-39 0 -61 15.5t-22 42.5l1 10q6 52 41 302l16 116l-59 28l7 39l172 24l24 -11l-64 -456q-1 -5 -1 -12zM165.5 683.5q-19.5 20.5 -19.5 47.5q0 37 24.5 62t62.5 25q31 0 49 -19.5t18 -46.5
q0 -38 -23 -63.5t-65 -25.5q-27 0 -46.5 20.5z" />
    <glyph glyph-name="uni0457" unicode="&#x457;" horiz-adv-x="322" 
d="M200 88q0 -24 17 -24q9 0 20 6t28 20l13 -31q-17 -23 -50.5 -46t-81.5 -23q-39 0 -61 15.5t-22 42.5l1 10q6 52 41 302l16 116l-59 28l7 39l172 24l24 -11l-64 -456q-1 -5 -1 -12zM56.5 676.5q-18.5 20.5 -18.5 47.5q0 37 21 62t55 25q29 0 46.5 -20t17.5 -46
q0 -39 -20 -64t-59 -25q-24 0 -42.5 20.5zM272.5 676.5q-18.5 20.5 -18.5 47.5q0 37 21 62t55 25q28 0 46 -20t18 -46q0 -39 -20.5 -64t-58.5 -25q-24 0 -42.5 20.5z" />
    <glyph glyph-name="uni0458" unicode="&#x458;" horiz-adv-x="318" 
d="M159.5 -137.5q-32.5 -57.5 -82 -88t-107.5 -30.5q-29 0 -53 4.5t-33 13.5l19 54q7 -3 20 -5t25 -2q59 0 85 58t38 164l52 453l-77 23l10 37l189 23l23 -11l-66 -556q-10 -80 -42.5 -137.5zM156.5 683.5q-19.5 20.5 -19.5 47.5q0 37 24.5 62t62.5 25q31 0 49 -19.5
t18 -46.5q0 -38 -23 -63.5t-65 -25.5q-27 0 -46.5 20.5z" />
    <glyph glyph-name="uni0459" unicode="&#x459;" horiz-adv-x="826" 
d="M556 364q41 21 90 21q64 0 101.5 -39t37.5 -122q0 -62 -34 -116t-94 -86.5t-133 -32.5q-82 0 -131.5 48t-49.5 144q0 23 3 48l17 128q9 80 18 142h-153l-7 -61q-13 -106 -38 -217t-49 -152q-23 -39 -47.5 -58t-70.5 -19q-10 0 -28.5 4.5t-19.5 7.5l28 122q4 -4 33 -10.5
t38 -6.5q10 0 17 9t15 27q19 44 38 136t34 199l-111 23l8 58h454l-33 -248q26 30 67 51zM469 143q0 -50 17 -73.5t48 -23.5q59 0 89.5 49.5t30.5 114.5q0 96 -78 96q-25 0 -50 -14t-44 -35l-9 -65q-4 -36 -4 -49z" />
    <glyph glyph-name="uni045A" unicode="&#x45a;" horiz-adv-x="895" 
d="M623.5 362.5q44.5 22.5 90.5 22.5q64 0 101.5 -39t37.5 -122q0 -62 -34 -116t-94 -86.5t-133 -32.5q-80 0 -131 45t-51 132q0 29 6 63l3 25h-206l-34 -254h-130l64 475l-51 28l8 40l156 24l28 -11l-33 -241h205l33 246h126l-31 -250q25 29 69.5 51.5zM593.5 291.5
q-27.5 -14.5 -45.5 -34.5q-3 -17 -4 -29.5t-2 -20.5l-3 -25q-4 -23 -4 -44q0 -47 18.5 -69.5t48.5 -22.5q59 0 89 49.5t30 114.5q0 43 -18 69.5t-60 26.5q-22 0 -49.5 -14.5z" />
    <glyph glyph-name="uni045B" unicode="&#x45b;" horiz-adv-x="624" 
d="M319.5 532.5q51.5 35.5 109.5 35.5q59 0 91.5 -34t32.5 -113q0 -31 -11.5 -98t-12.5 -76l-6 -32q-6 -33 -11.5 -68t-5.5 -57q0 -27 17 -27q9 0 19 5.5t28 19.5l13 -31q-13 -20 -48 -43.5t-84 -23.5t-67 19.5t-18 55.5q1 30 19 119l6 34q2 9 8.5 48t10.5 74.5t4 61.5
q0 46 -11 63t-37 17q-34 0 -75.5 -38.5t-70.5 -93.5l-44 -350h-133l77 623h-59l6 49h59l8 57l-60 20l7 37l171 20l24 -13l-15 -121h105l-7 -49h-104l-24 -184q37 58 88.5 93.5z" />
    <glyph glyph-name="uni045C" unicode="&#x45c;" horiz-adv-x="558" 
d="M379 381q29 34 32 60q0 10 -5 22q-8 16 -8 33q0 32 24 49.5t59 17.5q27 0 45 -16t18 -44q0 -57 -53 -107t-134 -101q20 -25 59 -97q34 -63 58 -99t43 -40l36 -17l-6 -42h-132q-29 0 -50.5 36t-49.5 106q-24 61 -42.5 92.5t-40.5 31.5h-17l-35 -266h-131l64 475l-51 28
l8 40l156 24l28 -13l-33 -242h87q38 30 71 69zM438 881l81 -79q-9 -16 -47 -51.5t-82 -69.5t-72 -46l-38 37z" />
    <glyph glyph-name="uni045D" unicode="&#x45d;" horiz-adv-x="613" 
d="M209 237q-10 -78 -10 -100q0 -40 14 -57t42 -17q32 0 63.5 20t53.5 48l58 432h132l-64 -463q-2 -18 3 -27t15 -9q9 0 19 5.5t28 20.5l14 -31q-13 -21 -48 -45t-80 -24q-35 0 -53.5 15t-20.5 41l-1 12q0 8 2 20l-2 1q-74 -89 -174 -89q-56 0 -95 30.5t-40 97.5
q0 39 14 141q4 25 5 34l27 182l-58 34l8 41l166 17l23 -11l-34 -267q-4 -37 -7 -52zM270.5 713q-64.5 55 -84.5 91l85 76l143 -209l-43 -31q-36 18 -100.5 73z" />
    <glyph glyph-name="uni045E" unicode="&#x45e;" horiz-adv-x="534" 
d="M62 483.5q-5 6.5 -13 6.5q-13 0 -30 -14l-14 34q12 16 45.5 36.5t71.5 20.5q39 0 58 -16.5t24 -50.5l58 -380l14 -110l47 95q43 90 65.5 158t22.5 130q0 19 -3 32t-9 30q-11 28 -11 53q0 27 16.5 43t47.5 16q36 0 56.5 -28t20.5 -68q0 -71 -23 -134.5t-70 -157.5
q-33 -72 -85.5 -159.5t-92.5 -147.5q-41 -65 -87.5 -94t-110.5 -29q-26 0 -56.5 6.5t-41.5 13.5l31 87q11 -10 37 -18t51 -8q45 0 86.5 31.5t82.5 102.5h-72l-107 496q-4 17 -9 23.5zM256 811q0 -8 -2 -24t-2 -22q0 -66 72 -66q37 0 56.5 13t27 33t11.5 52q6 36 22 36h89
q0 -10 -1 -16q-15 -87 -67.5 -127t-148.5 -40q-85 0 -132 35.5t-47 108.5q0 22 4 39h105q13 0 13 -22z" />
    <glyph glyph-name="uni045F" unicode="&#x45f;" horiz-adv-x="620" 
d="M209 237q-10 -78 -10 -100q0 -40 14 -57t42 -17q32 0 63.5 20t53.5 48q20 143 58 432h132l-64 -463q-2 -18 3 -27t15 -9q9 0 19 5.5t28 20.5l14 -31q-13 -21 -48 -45t-80 -24q-37 0 -56 17.5t-19 48.5q0 6 2 22q-23 -38 -74 -63t-102 -25q-56 0 -95 30.5t-40 97.5
q0 39 14 141q4 25 5 34l27 182l-58 34l8 41l166 17l23 -11l-34 -267q-4 -37 -7 -52zM342.5 -54q-7.5 -12 -7.5 -27q0 -7 1 -11q2 -9 6.5 -28.5t4.5 -46.5q0 -35 -35 -59.5t-84 -35.5l-31 35q26 9 38.5 18.5t12.5 29.5q0 9 -1.5 17.5t-1.5 12.5q-4 22 -4 39q0 27 17.5 48
t41 33.5t40.5 14.5l23 -21q-13 -7 -20.5 -19z" />
    <glyph glyph-name="uni0462" unicode="&#x462;" horiz-adv-x="725" 
d="M461 406q112 0 173 -46.5t61 -131.5q0 -116 -85 -176.5t-231 -60.5q-6 0 -60 4q-87 5 -99 5h-132l6 48l76 13l67 506l-129 -8l-30 -75h-72l28 139h211l8 61l-70 12l6 47h292l-4 -44l-84 -16l-8 -60h278l-35 -139h-71l7 75l-186 8l-23 -172q59 11 106 11zM379 47
q80 0 125 46.5t45 122.5q0 57 -30.5 92t-92.5 35q-19 0 -42 -2.5t-37 -5.5l-38 -284q23 -4 70 -4z" />
    <glyph glyph-name="uni0463" unicode="&#x463;" horiz-adv-x="855" 
d="M325 535q51 33 107 33q59 0 91 -34.5t32 -112.5q0 -23 -13 -101q25 25 64.5 45t85.5 20q64 0 101.5 -39t37.5 -122q0 -62 -34 -116t-93.5 -86.5t-132.5 -32.5q-81 0 -132 45.5t-51 133.5q0 28 6 61q11 61 17 101t6 78q-1 43 -11.5 58.5t-36.5 15.5q-34 0 -74 -36.5
t-69 -89.5l-49 -356h-130l64 476l-51 27l8 41l156 24l23 -11l-10 -110q37 55 88 88zM514 139q0 -47 18 -70t49 -23q59 0 89 50t30 114q0 42 -18 69t-60 27q-22 0 -48 -14t-42 -34l-13 -66q-5 -33 -5 -53z" />
    <glyph glyph-name="uni046A" unicode="&#x46a;" horiz-adv-x="1021" 
d="M337 285.5q-38 -51.5 -92 -145.5q-41 -71 -65.5 -105.5t-39.5 -34.5h-166l7 46l30 14q15 6 37 33t68 90q54 75 94.5 124t75.5 72q18 12 36 16t45 4h55l-212 286l13 58h700l-3 -58l-298 -288h64q28 0 48.5 -11.5t42.5 -43.5q22 -24 43 -59t55 -101q31 -59 48 -87.5
t31 -34.5l39 -14l-5 -46h-155q-19 0 -40 39t-53 118q-37 90 -63 137t-52 47h-40l-36 -281l79 -14l-3 -46h-293l5 46l75 14l36 277h-42q-31 0 -69 -51.5zM521 397l260 260h-439z" />
    <glyph glyph-name="uni046B" unicode="&#x46b;" horiz-adv-x="952" 
d="M933 65l-9 -65h-129q-29 0 -45 30.5t-34 91.5q-14 45 -24 70t-25.5 43t-38.5 18h-70l-35 -253h-133l35 253h-72q-33 0 -60.5 -33t-64.5 -98q-34 -60 -59 -91t-54 -31h-129l9 65l45 10q11 4 23.5 19.5t37.5 52.5q34 50 61.5 83.5t64 58.5t78.5 25h75l-172 193l11 49h625
l-1 -49l-227 -193h75q42 0 72 -25t48 -58.5t39 -83.5q14 -36 23 -52.5t19 -20.5zM685 475h-329l141 -161h3z" />
    <glyph glyph-name="uni0472" unicode="&#x472;" horiz-adv-x="701" 
d="M563 710.5q61 -42.5 89.5 -114.5t28.5 -161q0 -120 -41.5 -221.5t-125.5 -162.5t-203 -61q-136 0 -203.5 88.5t-67.5 232.5q0 120 43.5 221t127 161t199.5 60q92 0 153 -42.5zM300.5 657q-42.5 -39 -70 -106.5t-36.5 -151.5q48 59 108 59q24 0 42 -9t43 -26
q18 -14 31 -20.5t26 -6.5q48 0 86 43q-5 257 -133 257q-54 0 -96.5 -39zM222.5 122q31.5 -76 101.5 -76q57 0 101 40.5t70 112t32 163.5q-43 -56 -105 -56q-24 0 -43 10t-43 29q-18 14 -30 21t-25 7q-27 0 -51 -13t-40 -32v-12q1 -118 32.5 -194z" />
    <glyph glyph-name="uni0473" unicode="&#x473;" horiz-adv-x="576" 
d="M490.5 508q54.5 -61 54.5 -175q0 -93 -38 -172.5t-107 -126.5t-157 -47q-104 0 -159 61t-55 174q0 94 37.5 173.5t106.5 126.5t158 47q105 0 159.5 -61zM377 468q-21 38 -62 38q-51 0 -84.5 -48.5t-47.5 -123.5q26 24 54 24q20 0 33.5 -10t30.5 -31q12 -16 21.5 -24
t21.5 -8q19 0 31 12t25 35v13q-2 85 -23 123zM173 238v-26q2 -86 24 -126.5t66 -40.5q49 0 81.5 49t46.5 126q-26 -24 -54 -24q-24 0 -38.5 10.5t-29.5 30.5q-14 17 -23 24.5t-23 7.5q-25 0 -50 -31z" />
    <glyph glyph-name="uni0474" unicode="&#x474;" horiz-adv-x="628" 
d="M567.5 717.5q40.5 30.5 84.5 30.5q17 0 29.5 -2t16.5 -5l-8 -86q-10 2 -15 2q-33 0 -66.5 -27t-57.5 -93l-212 -543h-144l-121 688l-68 13l6 48h298l-5 -49l-86 -12l67 -446l24 -157l46 130l148 412q23 66 63.5 96.5z" />
    <glyph glyph-name="uni0475" unicode="&#x475;" horiz-adv-x="511" 
d="M453 534q38 33 77 33q15 0 30.5 -2t18.5 -4l-12 -91q-3 1 -11 1q-28 0 -57 -23t-56 -78l-181 -379h-101l-92 469q-4 16 -9 23t-13 7q-17 0 -37 -18l-13 35q13 17 45 39t72 22q39 0 61 -17.5t27 -49.5l43 -295l10 -99l39 99l94 226q27 69 65 102z" />
    <glyph glyph-name="uni048A" unicode="&#x48a;" horiz-adv-x="801" 
d="M281 936q0 25 4 39h112q14 0 12 -22l-1 -23q-2 -16 -2 -24q0 -59 72 -59q37 0 57.5 12t28.5 30.5t12 48.5q4 37 21 37h89q0 -11 -1 -16q-16 -83 -68.5 -122t-147.5 -39q-188 0 -188 138zM746 682l-81 -621h108q-12 -75 -48 -202l-11 -39h-72l3 41q5 90 5 113q0 19 -1 26
h-198l4 46l71 14v1l61 473l-55 -71l-309 -349l-7 -54l82 -14l-4 -46h-293l5 46l70 14l81 622l-70 12l6 49h293l-6 -49l-83 -12l-62 -473l39 52l325 364l8 57l-71 12l6 49h292l-6 -49z" />
    <glyph glyph-name="uni048B" unicode="&#x48b;" horiz-adv-x="613" 
d="M209 237q-10 -78 -10 -100q0 -40 14 -57t42 -17q32 0 63.5 20t53.5 48l58 432h132l-64 -463q-2 -18 3 -27t15 -9q9 0 19 5.5t28 20.5l14 -31q-8 -12 -27 -29t-45 -28q-20 -10 -33 -22t-13 -28q0 -12 9 -32q1 -3 6.5 -18.5t5.5 -34.5q0 -24 -20.5 -50.5t-51 -46
t-59.5 -26.5l-30 35q21 8 38.5 29t17.5 42q0 10 -2 19t-3 12q-7 19 -7 41q0 42 58 73q-47 11 -47 60q0 15 2 23l-2 1q-76 -89 -174 -89q-56 0 -95 30.5t-40 97.5q0 39 14 141q4 25 5 34l27 182l-58 34l8 41l166 17l23 -11l-34 -267q-4 -37 -7 -52zM297 811q0 -8 -2 -24
t-2 -22q0 -66 72 -66q37 0 56.5 13t27 33t11.5 52q6 36 22 36h89q0 -10 -1 -16q-15 -87 -67.5 -127t-148.5 -40q-85 0 -132 35.5t-47 108.5q0 22 4 39h105q13 0 13 -22z" />
    <glyph glyph-name="uni048C" unicode="&#x48c;" horiz-adv-x="633" 
d="M362 442q119 0 180.5 -46t61.5 -133q0 -132 -86.5 -202t-230.5 -70q-6 0 -62 4q-90 5 -101 5h-127l6 46l73 14l60 467h-86l5 49h88l14 106l-70 12l5 49h294l-6 -46l-84 -15l-13 -106h145l-6 -49h-145l-13 -98q46 13 98 13zM289 47q79 0 124.5 55t45.5 148q0 58 -34.5 93
t-91.5 35q-20 0 -42.5 -2.5t-34.5 -5.5l-41 -319q32 -4 74 -4z" />
    <glyph glyph-name="uni048D" unicode="&#x48d;" horiz-adv-x="536" 
d="M284.5 363q44.5 22 89.5 22q63 0 99.5 -37.5t36.5 -116.5q0 -62 -34 -118t-94 -90t-132 -34q-82 0 -131.5 48t-49.5 143q0 24 3 49l36 273h-78l7 50h77l24 177l-61 20l8 37l171 20l25 -13l-33 -241h149l-7 -50h-149l-27 -190q26 29 70.5 51zM251 289.5
q-27 -14.5 -44 -33.5q-2 -20 -4 -30q-4 -34 -5 -51q-2 -24 -2 -33q0 -50 18 -73t46 -23q59 0 89 49.5t30 114.5q0 94 -78 94q-23 0 -50 -14.5z" />
    <glyph glyph-name="uni048E" unicode="&#x48e;" horiz-adv-x="637" 
d="M314 747q50 4 74 4q135 0 196 -51t61 -154q0 -91 -42.5 -156.5t-119.5 -99.5l68 -104l-40 -27l-75 114q-54 -17 -125 -17q-41 0 -71 2l-23 -198l120 -14l-3 -46h-334l5 46l69 14l81 622l-70 12l6 49h141q30 0 82 4zM500 551q0 143 -135 143q-33 0 -68 -6l-49 -368
q28 -6 68 -6q48 2 81 19l-62 96l41 27l61 -94q62 63 63 189z" />
    <glyph glyph-name="uni048F" unicode="&#x48f;" horiz-adv-x="586" 
d="M302 549.5q37 18.5 81 18.5q83 0 126 -56t43 -156q0 -89 -35 -168.5t-98 -130.5l73 -85l-37 -33l-77 90q-70 -39 -149 -39q-26 0 -59 7l-35 -251h-128l99 733l-53 25l8 40l162 24l23 -11l-7 -55q26 29 63 47.5zM399.5 229.5q13.5 60.5 13.5 124.5q0 62 -20.5 100
t-59.5 38q-31 0 -57 -18.5t-46 -45.5l-51 -364q23 -12 63 -12q52 0 87 35l-83 97l36 32l78 -90q26 43 39.5 103.5z" />
    <glyph glyph-name="uni0490" unicode="&#x490;" horiz-adv-x="488" 
d="M574 918l-40 -250l-238 16l-80 -624l141 -14l-4 -46h-362l5 46l79 14l81 622l-80 12l6 49h357l55 175h80z" />
    </font>
</defs>
</svg>
