<?xml version="1.0" standalone="no"?>
<!DOCTYPE svg PUBLIC "-//W3C//DTD SVG 1.1//EN" "http://www.w3.org/Graphics/SVG/1.1/DTD/svg11.dtd" >
<svg xmlns="http://www.w3.org/2000/svg" xmlns:xlink="http://www.w3.org/1999/xlink" version="1.1">
<metadata>
Created by FontForge 20170731 at Tue Oct 31 15:01:06 2017
 By Aleksey,,,
Copyright 2016 The Merriweather Project Authors (https://github.com/EbenSorkin/Merriweather), with Reserved Font Name "Merriweather".
</metadata>
<defs>
<font id="Merriweather-Light" horiz-adv-x="0" >
  <font-face 
    font-family="Merriweather Light"
    font-weight="300"
    font-stretch="normal"
    units-per-em="1000"
    panose-1="0 0 4 0 0 0 0 0 0 0"
    ascent="800"
    descent="-200"
    x-height="555"
    cap-height="743"
    bbox="-431 -272 1392 1056"
    underline-thickness="50"
    underline-position="-150"
    unicode-range="U+000D-FB02"
  />
<missing-glyph horiz-adv-x="864" 
d="M778 0h-692v691h692v-691zM596 123l55 55l-170 168l170 163l-58 56l-160 -171l-163 172l-56 -57l168 -165l-167 -155l58 -66l158 172z" />
    <glyph glyph-name="fi" unicode="fi" horiz-adv-x="719" 
d="M132 495h-101v40l101 19v49q0 60 31 110.5t80.5 80.5t103.5 30q32 0 56 -8v-82q-8 6 -32.5 12t-56.5 6q-53 0 -77 -28t-24 -95v-75h145v-59h-145v-445l114 -7v-43h-283v43l88 8v444zM503 717q0 29 17 47.5t46 18.5q30 0 43 -16.5t13 -40.5q0 -31 -16.5 -48.5t-47.5 -17.5
h-1q-54 0 -54 57zM525 489l-78 17v45l137 16h2l20 -16v-501l87 -7v-43h-256v43l88 8v438z" />
    <glyph glyph-name="fl" unicode="fl" horiz-adv-x="724" 
d="M132 495h-101v40l101 19v49q0 60 31 110.5t80.5 80.5t103.5 30q32 0 56 -8v-82q-8 6 -32.5 12t-56.5 6q-53 0 -77 -28t-24 -95v-75h145v-59h-145v-445l114 -7v-43h-283v43l88 8v444zM522 756l-85 9v37l146 17h1l19 -13v-756l94 -7v-43h-263v43l88 8v705z" />
    <glyph glyph-name="f_f" unicode="ff" horiz-adv-x="790" 
d="M132 495h-101v40l101 19v49q0 60 31 110.5t80.5 80.5t103.5 30q32 0 56 -8v-82q-8 6 -32.5 12t-56.5 6q-53 0 -77 -28t-24 -95v-75h145v-59h-145v-445l114 -7v-43h-283v43l88 8v444zM527 495h-101v40l101 19v49q0 60 31 110.5t80.5 80.5t103.5 30q32 0 56 -8v-82
q-8 6 -32.5 12t-56.5 6q-53 0 -77 -28t-24 -95v-75h145v-59h-145v-445l114 -7v-43h-283v43l88 8v444z" />
    <glyph glyph-name="f_f_i" unicode="ffi" horiz-adv-x="1114" 
d="M132 495h-101v40l101 19v49q0 60 31 110.5t80.5 80.5t103.5 30q32 0 56 -8v-82q-8 6 -32.5 12t-56.5 6q-53 0 -77 -28t-24 -95v-75h145v-59h-145v-445l114 -7v-43h-283v43l88 8v444zM527 495h-101v40l101 19v49q0 60 31 110.5t80.5 80.5t103.5 30q32 0 56 -8v-82
q-8 6 -32.5 12t-56.5 6q-53 0 -77 -28t-24 -95v-75h145v-59h-145v-445l114 -7v-43h-283v43l88 8v444zM898 717q0 29 17 47.5t46 18.5q30 0 43 -16.5t13 -40.5q0 -31 -16.5 -48.5t-47.5 -17.5h-1q-54 0 -54 57zM920 489l-78 17v45l137 16h2l20 -16v-501l87 -7v-43h-256v43
l88 8v438z" />
    <glyph glyph-name="f_f_l" unicode="ffl" horiz-adv-x="1119" 
d="M132 495h-101v40l101 19v49q0 60 31 110.5t80.5 80.5t103.5 30q32 0 56 -8v-82q-8 6 -32.5 12t-56.5 6q-53 0 -77 -28t-24 -95v-75h145v-59h-145v-445l114 -7v-43h-283v43l88 8v444zM527 495h-101v40l101 19v49q0 60 31 110.5t80.5 80.5t103.5 30q32 0 56 -8v-82
q-8 6 -32.5 12t-56.5 6q-53 0 -77 -28t-24 -95v-75h145v-59h-145v-445l114 -7v-43h-283v43l88 8v444zM917 756l-85 9v37l146 17h1l19 -13v-756l94 -7v-43h-263v43l88 8v705z" />
    <glyph glyph-name=".notdef" horiz-adv-x="864" 
d="M778 0h-692v691h692v-691zM596 123l55 55l-170 168l170 163l-58 56l-160 -171l-163 172l-56 -57l168 -165l-167 -155l58 -66l158 172z" />
    <glyph glyph-name=".null" 
 />
    <glyph glyph-name="nonmarkingreturn" unicode="&#xd;" horiz-adv-x="237" 
 />
    <glyph glyph-name="NULL" 
 />
    <glyph glyph-name="NULL" 
 />
    <glyph glyph-name="space" unicode=" " horiz-adv-x="237" 
 />
    <glyph glyph-name="exclam" unicode="!" horiz-adv-x="355" 
d="M199 230h-51l-25 652h97zM136.5 90q20.5 19 45.5 19q28 0 42.5 -15.5t14.5 -39.5q0 -28 -20 -46.5t-47 -18.5q-23 0 -39.5 15t-16.5 40q0 27 20.5 46z" />
    <glyph glyph-name="quotedbl" unicode="&#x22;" horiz-adv-x="599" 
d="M200 469h-53l-18 353h90zM452 469h-53l-18 353h90z" />
    <glyph glyph-name="numbersign" unicode="#" horiz-adv-x="744" 
d="M87 259h118l20 221h-118v51h122l21 212h67l-22 -212h181l22 212h66l-22 -212h122v-51h-126l-19 -221h123v-51h-128l-20 -208h-66l20 208h-182l-21 -208h-68l22 208h-112v51zM291 480l-20 -221h179l22 221h-181z" />
    <glyph glyph-name="dollar" unicode="$" horiz-adv-x="656" 
d="M509 49.5q-57 -52.5 -158 -59.5l-1 -116h-63l1 116q-57 4 -111 18t-77 26l7 168h50l20 -125q23 -19 61 -29.5t87 -10.5q78 0 119 33.5t41 100.5q0 37 -21.5 65.5t-55 49.5t-90.5 51q-8 5 -24 13q-65 34 -103.5 63t-59.5 68t-21 94q0 73 55.5 119.5t138.5 55.5v110h64
v-109q81 -4 158 -38l-5 -158h-48l-23 119q-39 30 -108 30q-67 0 -110.5 -28t-43.5 -89q0 -40 21.5 -69.5t49.5 -47.5t87 -51q8 -5 24 -13q75 -42 112.5 -68.5t60.5 -63t23 -89.5q0 -83 -57 -135.5z" />
    <glyph glyph-name="percent" unicode="%" horiz-adv-x="1020" 
d="M637 751h65l-320 -751h-66zM139.5 351q-39.5 27 -61 73t-21.5 100q0 64 26 111t69.5 72t94.5 25q86 0 129.5 -56t43.5 -146q0 -64 -26.5 -110.5t-70 -71t-93.5 -24.5q-51 0 -90.5 27zM315 413.5q29 41.5 29 112.5q0 72 -26.5 115t-76.5 43q-49 0 -78 -42t-29 -114
q0 -67 27 -111.5t75 -44.5q50 0 79 41.5zM679.5 51q-39.5 27 -60.5 73t-21 100q0 64 26 111t69.5 72t94.5 25q85 0 129 -56.5t44 -145.5q0 -64 -26.5 -110.5t-70 -71t-93.5 -24.5q-52 0 -91.5 27zM855.5 113.5q29.5 41.5 29.5 112.5t-26.5 114.5t-76.5 43.5t-79 -42
t-29 -113q0 -68 27.5 -112.5t74.5 -44.5q50 0 79.5 41.5z" />
    <glyph glyph-name="ampersand" unicode="&#x26;" horiz-adv-x="753" 
d="M733 356l-85 -10q1 -71 -20.5 -135t-60.5 -105q35 -33 64 -48.5t68 -17.5v-37q-9 -4 -28.5 -6.5t-32.5 -2.5q-33 0 -60.5 14.5t-66.5 48.5q-40 -34 -90.5 -49.5t-95.5 -15.5q-117 0 -187 51.5t-70 141.5q0 123 150 186q-38 49 -63.5 104.5t-25.5 107.5q0 45 24.5 83.5
t67.5 62t96 23.5q55 0 93.5 -20t58 -51.5t19.5 -64.5q0 -58 -22.5 -99t-53 -67t-97.5 -73q35 -42 92.5 -106t94.5 -102l28 -27q28 34 41 80.5t13 93.5q0 21 -1 30l-83 10v49h233v-49zM230.5 493q22.5 -42 57.5 -82q49 38 75 64.5t39 58t13 76.5q0 38 -22.5 69.5t-77.5 31.5
q-45 0 -76 -36t-31 -86q0 -54 22.5 -96zM405.5 54q39.5 12 68.5 36q-63 59 -215 233l-13 15q-45 -34 -71.5 -69.5t-26.5 -79.5q0 -63 47 -105t134 -42q37 0 76.5 12z" />
    <glyph glyph-name="quotesingle" unicode="'" horiz-adv-x="348" 
d="M200 469h-53l-18 353h90z" />
    <glyph glyph-name="parenleft" unicode="(" horiz-adv-x="423" 
d="M118 569.5q45 105.5 102 171t94 85.5l36 -23q-31 -20 -76.5 -80.5t-82.5 -161t-37 -228.5q0 -133 37 -236.5t83.5 -166t79.5 -85.5l-40 -27q-38 23 -93.5 84.5t-101.5 172t-46 259.5q0 130 45 235.5z" />
    <glyph glyph-name="parenright" unicode=")" horiz-adv-x="423" 
d="M305 75.5q-45 -105.5 -102 -171t-94 -85.5l-36 23q31 20 76.5 80.5t82.5 161t37 228.5q0 133 -37 236.5t-83.5 166t-79.5 85.5l40 27q38 -23 93.5 -84.5t101.5 -172t46 -259.5q0 -130 -45 -235.5z" />
    <glyph glyph-name="asterisk" unicode="*" horiz-adv-x="633" 
d="M297 564l-76 24l-140 65l38 68l126 -89l62 -52l-17 79l-16 154h80l-13 -153l-15 -79l59 53l126 90l39 -67l-138 -66l-76 -27l76 -25l141 -63l-40 -70l-125 89l-62 52l16 -79l17 -154l-79 -1l12 155l14 79l-59 -54l-125 -90l-40 68l139 67z" />
    <glyph glyph-name="plus" unicode="+" horiz-adv-x="661" 
d="M301 346l-3 88v111h65v-111l-4 -88l74 5h121v-65h-121l-74 3l4 -86v-118h-65v118l3 86l-86 -3h-108v65h108z" />
    <glyph glyph-name="comma" unicode="," horiz-adv-x="335" 
d="M223 109q19 -30 19 -85t-16 -104t-41 -84t-50 -50h-1l-29 20v9q12 9 26.5 36.5t25 63.5t10.5 70q0 15 -5.5 24t-16.5 21q-13 13 -19.5 25t-6.5 33q0 23 14.5 37t34.5 14h4q32 0 51 -30z" />
    <glyph glyph-name="hyphen" unicode="-" horiz-adv-x="627" 
d="M515 291h-403v60h403v-60z" />
    <glyph glyph-name="period" unicode="." horiz-adv-x="247" 
d="M80 4.5q-16 15.5 -16 40.5q0 28 19.5 47t45.5 19q27 0 40.5 -16t13.5 -40q0 -28 -19 -47t-45 -19q-23 0 -39 15.5z" />
    <glyph glyph-name="slash" unicode="/" horiz-adv-x="431" 
d="M113 -177h-75l280 958h75z" />
    <glyph glyph-name="zero" unicode="0" horiz-adv-x="634" 
d="M125 83q-60 92 -60 229q0 94 35 166.5t94.5 112.5t131.5 40q131 0 187.5 -85t56.5 -227q0 -93 -33.5 -168t-92 -117.5t-131.5 -42.5q-128 0 -188 92zM442 109q40 72 40 201q0 275 -162 275q-86 0 -127 -69t-41 -192q0 -122 39.5 -204.5t124.5 -82.5q86 0 126 72z" />
    <glyph glyph-name="one" unicode="1" horiz-adv-x="428" 
d="M194 533q-21 -9 -67 -22t-77 -17l-10 47q50 11 100 36t86 56h1l48 -10v-572l131 -8v-43h-346v43l134 8v482z" />
    <glyph glyph-name="two" unicode="2" horiz-adv-x="594" 
d="M225.5 156.5q80.5 70.5 129 146.5t48.5 140q0 59 -35 94t-100 35q-60 0 -104.5 -24.5t-79.5 -58.5l-28 38q37 41 99 73.5t135 32.5q68 0 114.5 -25.5t69 -67t22.5 -89.5q0 -102 -97.5 -211.5t-239.5 -192.5l323 21l33 87l44 -9l-24 -146h-471l-12 34q93 52 173.5 122.5z
" />
    <glyph glyph-name="three" unicode="3" horiz-adv-x="556" 
d="M66 -152v47q28 -8 71 -8q85 0 146.5 26.5t94 71.5t32.5 98q0 70 -44 109.5t-136 40.5q-8 -4 -44 -12l-21 -6l-15 48q46 9 78 23q65 26 107 73t42 101q0 60 -35.5 87.5t-91.5 27.5q-45 0 -88.5 -16.5t-75.5 -41.5l-22 36q28 28 86 54t121 26q87 0 141.5 -39t54.5 -120
q0 -47 -27 -90t-69.5 -75.5t-90.5 -49.5q9 1 27 1q60 0 104.5 -22.5t68 -60.5t23.5 -83q0 -74 -44 -132t-124 -90.5t-185 -32.5q-46 0 -84 9z" />
    <glyph glyph-name="four" unicode="4" horiz-adv-x="633" 
d="M396 0h-333l-21 40q66 125 154 308t154 331h24l59 -33l-280 -541l-38 -59l281 14v200l71 6v-203l148 7v-70h-148v-161h-71v161z" />
    <glyph glyph-name="five" unicode="5" horiz-adv-x="583" 
d="M157 -119q73 0 133.5 29t95.5 82.5t35 121.5q0 90 -41.5 132t-114.5 42q-33 0 -75 -10t-72 -24l-23 17l50 354h269l10 19h58l-16 -89h-260l-48 -249q26 15 68 25t83 10q93 0 148 -54.5t55 -161.5q0 -73 -43 -139t-121.5 -106.5t-180.5 -40.5q-43 0 -70 7v38q29 -3 60 -3z
" />
    <glyph glyph-name="six" unicode="6" horiz-adv-x="659" 
d="M196 29.5q-57 40.5 -86 109t-29 150.5q0 125 59.5 232t153.5 176.5t195 88.5l19 -37q-124 -39 -208.5 -130.5t-114.5 -205.5q26 32 73 55t108 23q106 0 161 -61t55 -169q0 -72 -29.5 -134.5t-86 -100t-133.5 -37.5q-80 0 -137 40.5zM268 422.5q-36 -14.5 -60.5 -35
t-33.5 -39.5q-2 -18 -2 -28q-3 -122 35.5 -204t131.5 -82q51 0 86 30.5t52 77.5t17 98q0 103 -39.5 150t-107.5 47q-43 0 -79 -14.5z" />
    <glyph glyph-name="seven" unicode="7" horiz-adv-x="584" 
d="M169 -144q48 107 92 215t127 316l69 174l-316 -3l-35 -125l-53 9l20 183h442l17 -22q-4 -8 -137 -385q-136 -382 -138 -386z" />
    <glyph glyph-name="eight" unicode="8" horiz-adv-x="627" 
d="M111 295q39 52 118 88q-61 37 -93.5 78.5t-32.5 105.5q0 58 31 100t81 63.5t106 21.5q92 0 150 -45t58 -120q0 -58 -35.5 -108.5t-100.5 -88.5q80 -44 123.5 -89t43.5 -110q0 -60 -35 -105.5t-91.5 -70t-120.5 -24.5q-61 0 -115.5 20t-90 63t-35.5 109q0 60 39 112z
M197 517q23 -29 56 -49.5t96 -53.5q50 25 79.5 64t29.5 86q0 69 -38.5 108t-102.5 39q-60 0 -101.5 -34.5t-41.5 -91.5q0 -39 23 -68zM456 238.5q-22 28.5 -54 49t-89 49.5l-43 23q-53 -25 -86 -67.5t-33 -92.5q0 -76 46 -120.5t125 -44.5q39 0 75 17.5t58.5 49t22.5 71.5
q0 37 -22 65.5z" />
    <glyph glyph-name="nine" unicode="9" horiz-adv-x="659" 
d="M470 594.5q56 -38.5 83.5 -104t27.5 -147.5q0 -131 -54 -240t-142.5 -179t-189.5 -90l-19 38q122 41 198.5 131t102.5 207q-25 -32 -70.5 -55.5t-97.5 -23.5q-108 0 -169.5 65.5t-61.5 175.5q0 70 30.5 129.5t88 95.5t134.5 36q83 0 139 -38.5zM395 198q36 15 60 37
t33 42q2 24 2 35q0 123 -35 199.5t-130 76.5q-51 0 -87 -29t-54 -74.5t-18 -94.5q0 -107 41 -157t110 -50q42 0 78 15z" />
    <glyph glyph-name="colon" unicode=":" horiz-adv-x="345" 
d="M128 420.5q-16 15.5 -16 40.5q0 28 19.5 47t45.5 19q27 0 40.5 -16t13.5 -40q0 -28 -19 -47t-45 -19q-23 0 -39 15.5zM128 4.5q-16 15.5 -16 40.5q0 28 19.5 47t45.5 19q27 0 40.5 -16t13.5 -40q0 -28 -19 -47t-45 -19q-23 0 -39 15.5z" />
    <glyph glyph-name="semicolon" unicode=";" horiz-adv-x="345" 
d="M130 420.5q-16 15.5 -16 40.5q0 28 19.5 47t45.5 19q27 0 40.5 -16t13.5 -40q0 -28 -19 -47t-45 -19q-23 0 -39 15.5zM223 109q19 -30 19 -85t-16 -104t-41 -84t-50 -50h-1l-29 20v9q12 9 26.5 36.5t25 63.5t10.5 70q0 15 -5.5 24t-16.5 21q-13 13 -19.5 25t-6.5 33
q0 23 14.5 37t34.5 14h4q32 0 51 -30z" />
    <glyph glyph-name="less" unicode="&#x3c;" horiz-adv-x="669" 
d="M555 500l-400 -199l400 -198v-76l-473 247v53l473 248v-75z" />
    <glyph glyph-name="equal" unicode="=" horiz-adv-x="653" 
d="M550 408h-447v62h447v-62zM550 131h-447v62h447v-62z" />
    <glyph glyph-name="greater" unicode="&#x3e;" horiz-adv-x="669" 
d="M114 27v76l400 198l-400 199v75l473 -248v-53z" />
    <glyph glyph-name="question" unicode="?" horiz-adv-x="476" 
d="M142 374q0 42 31.5 71.5t92.5 65.5q45 26 70 46t34 44v57q0 48 -29.5 91t-83.5 69.5t-126 26.5q-45 0 -75 -13l-13 52q16 9 46.5 15t59.5 6q146 0 216.5 -68t70.5 -179q0 -45 -19 -81t-45.5 -61t-68.5 -58q-33 -26 -50 -42t-26 -33v-5q0 -92 4 -144h-61q-23 57 -28 140z
M131.5 4q-16.5 15 -16.5 40q0 27 20.5 46t45.5 19q28 0 42.5 -15.5t14.5 -39.5q0 -28 -20 -46.5t-47 -18.5q-23 0 -39.5 15z" />
    <glyph glyph-name="at" unicode="@" horiz-adv-x="1074" 
d="M171.5 479q71.5 130 190 201.5t254.5 71.5q101 0 179.5 -41t122.5 -123t44 -202q0 -122 -46.5 -212.5t-110 -138.5t-109.5 -48q-27 0 -49.5 23.5t-24.5 63.5q-3 53 13 143q-36 -95 -88 -162.5t-105 -67.5q-34 0 -65 24t-50.5 69t-19.5 104q0 70 31.5 146t89 127t131.5 51
q28 0 60.5 -7.5t56.5 -21.5q4 13 8.5 19.5t11.5 4.5q12 -3 48 -17q-15 -72 -30.5 -165t-20.5 -158q-2 -32 -2 -41q0 -71 24 -71q38 0 82.5 40t76 112t31.5 164q0 112 -43.5 185.5t-115.5 108t-159 34.5q-111 0 -208.5 -61.5t-156 -175t-58.5 -262.5q0 -124 40.5 -212
t111.5 -132.5t164 -44.5q55 0 115 14t90 34l16 -34q-38 -31 -101.5 -51t-132.5 -20q-117 0 -199.5 52.5t-125 150t-42.5 228.5q0 168 71.5 298zM401.5 103q18.5 -43 56.5 -43q24 0 54.5 32.5t60.5 87t52 118.5q22 62 31 115q-14 14 -52 25t-66 11q-47 0 -82.5 -35.5t-54 -92
t-18.5 -118.5q0 -57 18.5 -100z" />
    <glyph glyph-name="A" unicode="A" horiz-adv-x="686" 
d="M301 750h82l251 -698l65 -9v-43h-244v43l88 9l-53 159h-312l-53 -158l89 -10v-43h-225v43l64 9zM359 596l-28 95l-27 -98l-109 -330h277z" />
    <glyph glyph-name="B" unicode="B" horiz-adv-x="672" 
d="M136 689l-84 11v43h125q33 0 85 4q48 4 71 4q130 0 188.5 -43t58.5 -125q0 -70 -38.5 -121.5t-109.5 -65.5q94 3 147.5 -45t53.5 -129q0 -100 -70.5 -164t-230.5 -64q-19 0 -61 2q-52 4 -98 4h-123v43l86 9v637zM281 412h60q76 0 116 39t40 113q0 73 -39.5 107t-135.5 34
q-36 0 -74 -4q-24 -2 -30 -2v-286q16 -1 63 -1zM331 42q112 0 162 42.5t50 122.5t-43 116.5t-139 36.5h-74q-54 0 -69 -1v-309q26 -8 113 -8z" />
    <glyph glyph-name="C" unicode="C" horiz-adv-x="649" 
d="M193 37q-77 48 -117 135t-40 203q0 109 47 195t128 133.5t181 47.5q51 0 98.5 -8t76.5 -15t36 -9l-8 -163h-52l-22 116q-15 13 -54 22t-95 9q-69 0 -124 -37.5t-86.5 -109.5t-31.5 -172q0 -94 27.5 -173t83.5 -126.5t138 -47.5q57 0 89 9.5t54 27.5l40 94l49 -7l-25 -134
q-24 -1 -58 -13q-36 -12 -69 -18.5t-82 -6.5q-107 0 -184 48z" />
    <glyph glyph-name="D" unicode="D" horiz-adv-x="756" 
d="M136 689l-80 11v43h121q31 0 89 4t88 4q187 0 276.5 -94.5t89.5 -262.5q0 -119 -47 -210t-130.5 -141.5t-191.5 -50.5q-23 0 -77 4q-62 4 -96 4h-128v43l86 9v637zM319 41h34q82 1 145 40t98.5 114t35.5 181q0 327 -304 327q-33 0 -75 -4q-26 -2 -35 -2v-648
q41 -8 101 -8z" />
    <glyph glyph-name="E" unicode="E" horiz-adv-x="649" 
d="M136 689l-84 11v43h495l14 -147h-48l-27 96l-268 5v-291l184 3l13 83h50v-221h-50l-13 85l-184 3v-308l306 8l51 125l48 -15l-31 -169h-542v43l86 9v637z" />
    <glyph glyph-name="F" unicode="F" horiz-adv-x="617" 
d="M136 689l-88 11v43h524l10 -164h-55l-27 113l-282 5v-296l200 3l17 81h46v-221h-46l-17 85l-200 4v-301l157 -9v-43h-321v43l82 9v637z" />
    <glyph glyph-name="G" unicode="G" horiz-adv-x="738" 
d="M208 37q-78 48 -119 132t-41 190q0 122 49.5 210.5t134.5 135t191 46.5q66 0 118 -9t108 -22l-8 -166h-52l-22 115q-16 13 -53.5 23.5t-99.5 10.5q-79 0 -140.5 -36t-96.5 -107.5t-35 -174.5q0 -92 28.5 -171t86.5 -128t141 -49q53 0 100.5 12.5t74.5 33.5v228l-139 10
v53h284v-53l-61 -10v-271q-21 -1 -71 -17q-51 -16 -94.5 -25t-99.5 -9q-106 0 -184 48z" />
    <glyph glyph-name="H" unicode="H" horiz-adv-x="824" 
d="M139 689l-82 11v43h251v-43l-87 -11v-281h382v281l-83 11v43h248v-43l-82 -11v-637l82 -9v-43h-249v43l84 9v303h-382v-303l88 -9v-43h-255v43l85 9v637z" />
    <glyph glyph-name="I" unicode="I" horiz-adv-x="397" 
d="M157 689l-97 11v43h277v-43l-97 -11v-637l97 -10v-42h-277v43l97 9v637z" />
    <glyph glyph-name="J" unicode="J" horiz-adv-x="375" 
d="M81 -91.5q36 33.5 51 82.5q13 41 16.5 92t3.5 170v435l-100 12v43h279v-43l-96 -12v-413v-78q0 -63 -2 -103.5t-8 -72.5q-16 -81 -74.5 -131t-129.5 -63l-22 36q46 12 82 45.5z" />
    <glyph glyph-name="K" unicode="K" horiz-adv-x="714" 
d="M545.5 41.5q-28.5 41.5 -79.5 130.5q-49 84 -78.5 130t-57.5 75l-109 -123v-202l94 -10v-42h-262v43l86 9v637l-84 11v43h252v-43l-86 -11v-364l313 364l-85 11v43h232v-43l-73 -11l-230 -257q35 -29 72 -81t101 -149q49 -76 75.5 -112t39.5 -37l47 -11v-42h-120
q-19 0 -47.5 41.5z" />
    <glyph glyph-name="L" unicode="L" horiz-adv-x="631" 
d="M139 689l-84 11v43h266v-43l-100 -11v-637l285 8l56 156l48 -8l-37 -208h-520v43l86 9v637z" />
    <glyph glyph-name="M" unicode="M" horiz-adv-x="973" 
d="M167 689l-111 11v43h236l155 -462l37 -134l33 134l154 462h234v-43l-110 -11l79 -636l91 -10v-43h-269v43l93 9l-46 456l-22 200l-44 -138l-181 -534h-40l-170 478l-65 194l-20 -200l-41 -456l98 -9v-43h-250v43l85 9z" />
    <glyph glyph-name="N" unicode="N" horiz-adv-x="797" 
d="M136 689l-80 11v43h161l354 -513l57 -100v559l-88 11v43h228v-43l-82 -11v-689h-52l-358 515l-82 133v-596l91 -9v-43h-229v43l80 10v636z" />
    <glyph glyph-name="O" unicode="O" horiz-adv-x="719" 
d="M178.5 36.5q-69.5 47.5 -105.5 132.5t-36 197q0 115 44 202.5t120 135t169 47.5q99 0 169.5 -46t107 -130t36.5 -197q0 -116 -45 -204.5t-122 -136.5t-171 -48q-97 0 -166.5 47.5zM191 617.5q-63 -86.5 -63 -251.5q0 -96 27 -171t79 -117t124 -42q70 0 122 38.5t81 115.5
t29 188q0 97 -27 170.5t-78.5 114.5t-123.5 41q-107 0 -170 -86.5z" />
    <glyph glyph-name="P" unicode="P" horiz-adv-x="641" 
d="M139 689l-80 11v43h121q22 0 43.5 1.5t31.5 1.5q52 4 100 4q141 0 199.5 -52.5t58.5 -157.5q0 -79 -38 -137t-103 -88.5t-145 -30.5q-32 0 -65.5 1.5t-40.5 2.5v-235l139 -10v-43h-307v43l86 9v637zM329 333q86 0 141 48.5t55 158.5q0 87 -47 124.5t-148 37.5
q-31 0 -69 -4q-30 -2 -40 -2v-359q25 -4 108 -4z" />
    <glyph glyph-name="Q" unicode="Q" horiz-adv-x="725" 
d="M728.5 -186.5q-40.5 15.5 -72.5 37t-79 57.5q-50 40 -84.5 61t-72.5 28q-31 -8 -73 -8q-97 0 -166 47.5t-105 132.5t-36 197q0 115 44 202.5t120 135t169 47.5q99 0 169.5 -46t107 -130t36.5 -197q0 -131 -56 -225.5t-150 -136.5q49 -3 92.5 -22.5t104.5 -55.5
q62 -35 102.5 -52.5t83.5 -17.5l23 1l10 -41q-16 -14 -38.5 -22t-43.5 -8q-45 0 -85.5 15.5zM483 74.5q52 38.5 81 115.5t29 188q0 97 -27 170.5t-78.5 114.5t-123.5 41q-107 0 -170 -86.5t-63 -251.5q0 -96 27 -171t79 -117t124 -42q70 0 122 38.5z" />
    <glyph glyph-name="R" unicode="R" horiz-adv-x="693" 
d="M50 43l86 9v638l-80 12v41h122q27 0 77 4q48 4 71 4q143 0 204 -48t61 -148q0 -73 -40.5 -132t-109.5 -79q26 -17 52.5 -56.5t65.5 -109.5q34 -61 54.5 -91.5t36.5 -33.5l42 -11v-42h-117q-16 0 -37 34t-59 110q-41 83 -67.5 127t-52.5 59q-122 0 -141 1v-279l103 -9v-43
h-271v43zM462 422q40 43 40 126q0 73 -41 113.5t-143 40.5q-35 0 -69 -4q-24 -2 -31 -2v-316q18 -1 72 -1h63q69 0 109 43z" />
    <glyph glyph-name="S" unicode="S" horiz-adv-x="588" 
d="M196 -2q-39 9 -90 25q-34 11 -41 12l8 178h52l15 -131q19 -18 60.5 -31t90.5 -13q81 0 124 37t43 102q0 42 -22.5 71t-58 49t-98.5 47q-59 25 -100.5 50t-72.5 67.5t-31 101.5q0 55 30 98t83.5 66.5t122.5 23.5q42 0 74.5 -6.5t82.5 -20.5q27 -8 32 -9l-6 -164h-50
l-18 124q-12 10 -46.5 19.5t-73.5 9.5q-74 0 -113 -30.5t-39 -90.5q0 -41 21 -68.5t54 -46.5t102 -51q72 -34 112.5 -58.5t71 -64t30.5 -95.5q0 -53 -31 -101.5t-90 -78.5t-138 -30q-51 0 -90 9z" />
    <glyph glyph-name="T" unicode="T" horiz-adv-x="679" 
d="M295 698l-190 -6l-32 -203h-55l17 254h609l11 -254h-53l-28 203l-193 6v-646l143 -9v-43h-360v43l131 9v646z" />
    <glyph glyph-name="U" unicode="U" horiz-adv-x="738" 
d="M168.5 71.5q-66.5 79.5 -66.5 246.5v371l-75 11v43h245v-43l-86 -11v-380q0 -146 52.5 -207t148.5 -61t145 66t49 194v387l-83 12v43h222v-43l-76 -11v-384q0 -156 -72.5 -234.5t-192.5 -78.5q-144 0 -210.5 79.5z" />
    <glyph glyph-name="V" unicode="V" horiz-adv-x="660" 
d="M-15 743h243v-43l-92 -11l174 -482l42 -136l38 138l156 480l-80 11v43h211v-43l-64 -11l-241 -697h-66l-259 697l-62 11v43z" />
    <glyph glyph-name="W" unicode="W" horiz-adv-x="989" 
d="M-20 743h252v-43l-98 -11l145 -475l33 -158l39 158l120 391l-27 84l-74 11v43h260v-43l-99 -11l141 -475l39 -170l33 170l133 475l-105 11v43h237v-43l-67 -11l-205 -694h-77l-162 523l-159 -523h-73l-216 693l-70 12v43z" />
    <glyph glyph-name="X" unicode="X" horiz-adv-x="708" 
d="M313 376l-211 312l-77 12v43h280v-43l-102 -12l168 -269l166 270l-90 11v43h239v-43l-79 -12l-209 -302l227 -334l80 -9v-43h-279v43l98 9l-182 290l-175 -290l103 -9v-43h-263v43l87 9z" />
    <glyph glyph-name="Y" unicode="Y" horiz-adv-x="640" 
d="M284 286l-231 402l-62 12v43h239v-43l-84 -11l151 -283l36 -80l39 80l145 283l-84 11v43h217v-43l-66 -11l-216 -402v-234l114 -10v-43h-309v43l111 9v234z" />
    <glyph glyph-name="Z" unicode="Z" horiz-adv-x="653" 
d="M498 700l-318 -10l-49 -130l-46 5l21 181h471l22 -37l-392 -584l-65 -78l370 17l50 158l48 -11l-24 -211h-520l-24 39l399 589z" />
    <glyph glyph-name="bracketleft" unicode="[" horiz-adv-x="426" 
d="M106.5 770.5q7.5 19.5 24.5 26.5t50 7q67 0 150 -17v-37h-160v-832h160v-37q-76 -18 -150 -18q-33 0 -50 7t-24.5 26.5t-7.5 59.5v755q0 40 7.5 59.5z" />
    <glyph glyph-name="backslash" unicode="\" horiz-adv-x="431" 
d="M315 -177l-280 958h75l280 -958h-75z" />
    <glyph glyph-name="bracketright" unicode="]" horiz-adv-x="426" 
d="M319.5 -103.5q-7.5 -19.5 -24.5 -26.5t-50 -7q-74 0 -150 18v37h160v832h-160v37q83 17 150 17q33 0 50 -7t24.5 -26.5t7.5 -59.5v-755q0 -40 -7.5 -59.5z" />
    <glyph glyph-name="asciicircum" unicode="^" horiz-adv-x="666" 
d="M575 133h-65l-178 529l-177 -529h-65l201 615h82z" />
    <glyph glyph-name="underscore" unicode="_" horiz-adv-x="835" 
d="M-10 -177v55h855v-55h-855z" />
    <glyph glyph-name="grave" unicode="`" horiz-adv-x="333" 
d="M90.5 732.5q-71.5 62.5 -90.5 91.5l63 54l156 -192l-29 -27h-1q-27 11 -98.5 73.5z" />
    <glyph glyph-name="a" unicode="a" horiz-adv-x="557" 
d="M147 286.5q96 43.5 239 46.5v31q0 51 -10.5 80.5t-36.5 43t-73 13.5q-51 0 -92.5 -15.5t-80.5 -37.5l-22 44q11 10 46 28t80 32t87 14q68 0 107.5 -19t57 -61t17.5 -113v-330h62v-37q-55 -15 -93 -15q-24 0 -33 7.5t-9 34.5v37q-36 -32 -78.5 -56.5t-96.5 -24.5
q-72 0 -119.5 40t-47.5 117q0 97 96 140.5zM315 66q39 18 71 43v177q-121 -1 -183.5 -36t-62.5 -94q0 -57 29 -82.5t79 -25.5q28 0 67 18z" />
    <glyph glyph-name="b" unicode="b" horiz-adv-x="600" 
d="M-3 802l146 17h2l19 -14v-304q31 29 74.5 49t96.5 20q59 0 108.5 -29t80 -90t30.5 -153q0 -86 -35 -156.5t-100 -111.5t-150 -41q-62 0 -118 13t-68 25v729l-86 9v37zM223 489q-37 -20 -59 -44v-370q7 -16 39.5 -25.5t72.5 -9.5q86 0 138 63.5t52 186.5
q0 110 -46.5 164.5t-117.5 54.5q-42 0 -79 -20z" />
    <glyph glyph-name="c" unicode="c" horiz-adv-x="509" 
d="M65.5 422.5q31.5 67.5 94 107.5t152.5 40q39 0 76 -9.5t64 -20.5l-4 -143h-50l-21 96q-6 30 -86 30q-78 0 -124.5 -60t-46.5 -164q0 -124 50 -188t130 -64q42 0 81.5 14t65.5 32l16 -33q-29 -29 -80 -50t-101 -21q-79 0 -135 37.5t-84.5 102t-28.5 145.5t31.5 148.5z" />
    <glyph glyph-name="d" unicode="d" horiz-adv-x="618" 
d="M156 19.5q-50 30.5 -80 92.5t-30 152q0 86 35 155.5t99.5 110t150.5 40.5q55 0 106 -12v198l-104 10v36l164 17h2l19 -14v-760h61v-39q-5 -1 -34 -8t-62 -7q-23 0 -32.5 8t-9.5 35v35q-31 -34 -75.5 -57t-100.5 -23q-59 0 -109 30.5zM379.5 72.5q38.5 20.5 57.5 45.5v368
q-8 14 -41.5 24t-71.5 10q-86 0 -138 -61.5t-52 -186.5q0 -112 46 -166t118 -54q43 0 81.5 20.5z" />
    <glyph glyph-name="e" unicode="e" horiz-adv-x="540" 
d="M109.5 68.5q-62.5 79.5 -62.5 211.5q0 85 33 151t91.5 102.5t131.5 36.5q89 0 138.5 -51t53.5 -147q0 -62 -6 -88h-356q0 -105 47.5 -171.5t133.5 -66.5q42 0 86 15t68 36l16 -37q-29 -30 -84.5 -50.5t-111.5 -20.5q-116 0 -178.5 79.5zM405 331q3 21 3 44
q-1 66 -31.5 105t-93.5 39q-137 0 -149 -188h271z" />
    <glyph glyph-name="f" unicode="f" horiz-adv-x="395" 
d="M132 495h-101v40l101 19v49q0 60 31 110.5t80.5 80.5t103.5 30q32 0 56 -8v-82q-8 6 -32.5 12t-56.5 6q-53 0 -77 -28t-24 -95v-75h145v-59h-145v-445l114 -7v-43h-283v43l88 8v444z" />
    <glyph glyph-name="g" unicode="g" horiz-adv-x="597" 
d="M46 -120q0 45 27.5 82t65.5 58q-47 25 -47 83q0 37 21 69.5t54 49.5q-47 22 -73.5 62.5t-26.5 94.5q0 58 32 101.5t83.5 66.5t107.5 23q93 0 149 -41q15 14 46.5 27.5t67.5 13.5h33v-74h-114q29 -40 29 -97q0 -59 -30 -104.5t-80.5 -70.5t-111.5 -25q-41 0 -75 9
q-18 -14 -28.5 -32.5t-10.5 -37.5q0 -38 24.5 -53t85.5 -15h118q93 0 137.5 -36t44.5 -101q0 -54 -39 -100.5t-106.5 -74.5t-147.5 -28q-236 0 -236 150zM416 388q0 133 -132 133t-132 -131q0 -63 34 -102.5t103 -39.5q127 0 127 140zM390 -203.5q49 15.5 79 45t30 68.5
q0 31 -9.5 50t-37 29.5t-79.5 10.5h-124q-48 0 -73 6q-49 -47 -49 -110q0 -57 36 -86t124 -29q54 0 103 15.5z" />
    <glyph glyph-name="h" unicode="h" horiz-adv-x="652" 
d="M103 756l-89 9v37l148 17h2l19 -13v-238l-2 -83q32 29 90 56t114 27q63 0 98 -24t49 -74.5t14 -136.5v-282l73 -8v-43h-224v43l70 8v283q0 64 -8.5 100t-33.5 54t-73 18q-40 0 -86 -19.5t-81 -46.5v-389l74 -8v-43h-217v43l63 7v706z" />
    <glyph glyph-name="i" unicode="i" horiz-adv-x="324" 
d="M108 717q0 29 17 47.5t46 18.5q30 0 43 -16.5t13 -40.5q0 -31 -16.5 -48.5t-47.5 -17.5h-1q-54 0 -54 57zM130 489l-78 17v45l137 16h2l20 -16v-501l87 -7v-43h-256v43l88 8v438z" />
    <glyph glyph-name="j" unicode="j" horiz-adv-x="308" 
d="M106 717q0 29 17 47.5t46 18.5q30 0 43 -16.5t13 -40.5q0 -31 -16.5 -48.5t-47.5 -17.5h-1q-54 0 -54 57zM44 551l139 16h2l19 -16v-545q0 -235 -153 -249q-12 -1 -32.5 0t-24.5 4l-4 41q8 -1 24 1.5t33 8.5q43 13 60 68t17 145l-1 460l-79 18v48z" />
    <glyph glyph-name="k" unicode="k" horiz-adv-x="581" 
d="M102 756l-82 9v37l143 17h1l19 -13v-497l-2 -63l248 255l-75 14v40h230v-40l-77 -14l-162 -159l199 -292l66 -7v-43h-229v43l69 8l-157 246l-112 -110l2 -51v-85l77 -8v-43h-224v43l66 8v705z" />
    <glyph glyph-name="l" unicode="l" horiz-adv-x="329" 
d="M127 756l-85 9v37l146 17h1l19 -13v-756l94 -7v-43h-263v43l88 8v705z" />
    <glyph glyph-name="m" unicode="m" horiz-adv-x="984" 
d="M44 43l64 8v438l-77 17v45l127 16l22 -16v-44l-1 -25q37 32 97 59t109 27q54 0 86.5 -18t49.5 -56q31 26 90.5 50t109.5 24q63 0 97.5 -24t48.5 -74t14 -135v-284l76 -8v-43h-224v43l68 8v281q0 63 -9 100t-35 56t-76 19q-37 0 -77.5 -16.5t-69.5 -37.5q10 -46 10 -120
v-282l76 -8v-43h-229v43l72 8v283q0 64 -7.5 100t-31.5 54t-71 18q-39 0 -84.5 -19.5t-79.5 -46.5v-389l71 -8v-43h-216v43z" />
    <glyph glyph-name="n" unicode="n" horiz-adv-x="653" 
d="M108 489l-77 17v45l127 16h3l19 -16v-44l-1 -25q37 32 98 59t113 27q64 0 98.5 -24.5t48 -75t13.5 -135.5v-283l75 -7v-43h-223v43l67 7v284q0 63 -8.5 99t-33 54.5t-71.5 18.5q-40 0 -86.5 -20t-80.5 -47v-388l73 -8v-43h-221v43l67 8v438z" />
    <glyph glyph-name="o" unicode="o" horiz-adv-x="595" 
d="M81.5 434q36.5 66 96 101t124.5 35q126 0 186.5 -82t60.5 -210q0 -87 -36.5 -153t-96 -101t-124.5 -35q-126 0 -186.5 82t-60.5 210q0 87 36.5 153zM416 100q42 59 42 172q0 108 -39 177t-121 69q-77 0 -119.5 -59t-42.5 -172q0 -109 39.5 -177.5t121.5 -68.5
q77 0 119 59z" />
    <glyph glyph-name="p" unicode="p" horiz-adv-x="624" 
d="M543 141.5q-35 -70.5 -99.5 -111.5t-147.5 -41q-28 0 -59 4.5t-51 11.5l2 -85v-108l111 -10v-44h-268v44l77 10v677l-78 17v45l128 16h2l18 -16v-61q32 33 78 56.5t103 23.5q58 0 108 -29t80.5 -90t30.5 -153q0 -86 -35 -156.5zM246 491q-37 -18 -58 -40v-381
q8 -13 40.5 -23.5t71.5 -10.5q86 0 138.5 63.5t52.5 187.5q0 111 -46.5 166.5t-118.5 55.5q-43 0 -80 -18z" />
    <glyph glyph-name="q" unicode="q" horiz-adv-x="605" 
d="M324 -201l112 10v168l3 86q-76 -74 -173 -74q-58 0 -108.5 30.5t-81 93.5t-30.5 154q0 86 35 155t99.5 108.5t150.5 39.5q60 0 124 -17l45 14l17 -16v-742l70 -10v-41h-263v41zM378 65.5q36 18.5 58 41.5v384q-6 13 -40.5 24t-72.5 11q-85 0 -137 -63t-52 -188
q0 -75 22 -126t59.5 -76.5t83.5 -25.5q43 0 79 18.5z" />
    <glyph glyph-name="r" unicode="r" horiz-adv-x="450" 
d="M49 42l80 6v441l-77 17v45l127 16h2l19 -16v-16l-2 -76h2q2 2 26.5 30.5t73 54.5t97.5 26q16 0 30 -4v-88q-4 3 -17.5 6t-28.5 3q-57 0 -97 -17t-74 -42v-379l133 -8v-41h-294v42z" />
    <glyph glyph-name="s" unicode="s" horiz-adv-x="496" 
d="M127 79q11 -17 46 -30t75 -13q122 0 122 90q0 41 -34 66.5t-116 56.5q-81 29 -118 69t-37 107q0 43 26.5 75t71 49.5t96.5 17.5q51 0 85.5 -9t68.5 -22v-119h-49l-18 73q-7 13 -35.5 22t-62.5 9q-48 0 -78 -21.5t-30 -57.5q0 -32 15 -53t37 -33.5t61 -28.5l19 -8
q57 -22 92 -41.5t58 -51t23 -78.5q0 -74 -56.5 -116.5t-150.5 -42.5q-43 0 -98 14t-82 28v126h54z" />
    <glyph glyph-name="t" unicode="t" horiz-adv-x="406" 
d="M138 13.5q-27 24.5 -27 87.5v395h-76v39q50 11 58 16q15 8 22 31q6 15 16 54t15 61h46v-142h177v-59h-177v-324q0 -58 4 -81.5t16 -30.5t42 -7q29 0 65 8t54 17l13 -38q-23 -18 -76 -34.5t-92 -16.5q-53 0 -80 24.5z" />
    <glyph glyph-name="u" unicode="u" horiz-adv-x="628" 
d="M465 0q-12 9 -12 33v39q-37 -33 -87 -58t-100 -25q-91 0 -129.5 51t-38.5 166v294l-59 17v37l121 13h1l18 -12v-337q0 -63 9 -98.5t33 -52.5t70 -17q44 0 84 19t69 45v386l-76 17v37l133 13h1l23 -12v-511h62l-1 -38q-5 -1 -29 -8t-54 -7q-26 0 -38 9z" />
    <glyph glyph-name="v" unicode="v" horiz-adv-x="566" 
d="M2 555h212v-41l-74 -13l107 -297l49 -142l42 137l107 302l-70 13v41h191v-41l-51 -13l-197 -509h-67l-202 509l-47 13v41z" />
    <glyph glyph-name="w" unicode="w" horiz-adv-x="838" 
d="M-3 555h217v-41l-80 -12l89 -311l33 -139l33 140l100 363h83l100 -363l32 -141l36 140l88 310l-77 13v41h196v-41l-55 -13l-156 -509h-81l-109 372l-28 126l-24 -126l-105 -372h-79l-160 510l-53 12v41z" />
    <glyph glyph-name="x" unicode="x" horiz-adv-x="589" 
d="M254 279l-171 223l-59 12v41h231v-41l-73 -12l99 -140l30 -44l27 43l105 141l-77 12v41h207v-41l-62 -12l-171 -214l180 -238l60 -8v-42h-237v42l71 9l-100 147l-31 45l-28 -44l-106 -148l88 -9v-42h-229v42l69 9z" />
    <glyph glyph-name="y" unicode="y" horiz-adv-x="572" 
d="M91.5 -247q-14.5 2 -20.5 5v74q12 -6 51 -6q31 0 56.5 12.5t52.5 50.5t53 111h-44l-191 501l-47 13v41h221v-41l-81 -12l105 -306l52 -163l50 164l94 305l-70 12v41h192v-41l-52 -12q-75 -230 -118.5 -359.5t-55.5 -158.5q-35 -88 -62 -135.5t-64 -72.5t-93 -25
q-14 0 -28.5 2z" />
    <glyph glyph-name="z" unicode="z" horiz-adv-x="551" 
d="M140 496l-14 -94h-55v153h416l17 -37l-311 -410l-68 -57l296 9l39 109l51 -6l-19 -163h-439l-18 38l315 407l62 58z" />
    <glyph glyph-name="braceleft" unicode="{" horiz-adv-x="501" 
d="M149 -12q0 33 6.5 63.5t17.5 67.5q10 38 15 60t5 46q0 40 -30 60t-112 19v70q57 0 88 7t42.5 22t11.5 41q0 24 -5 46t-15 60q-12 37 -18 67t-6 63q0 124 170 124q42 0 101 -16v-40q-4 1 -29.5 2t-38.5 1q-123 0 -123 -85q0 -27 6.5 -63t8.5 -45q17 -76 17 -119
q0 -44 -38 -69t-95 -34q55 -8 94 -35t39 -72q0 -42 -17 -119q-2 -8 -8.5 -44t-6.5 -63q0 -86 123 -86q13 0 38 1.5t30 2.5v-40q-33 -9 -55 -13t-46 -4q-170 0 -170 124z" />
    <glyph glyph-name="bar" unicode="|" horiz-adv-x="422" 
d="M247 -91h-72v960h72v-960z" />
    <glyph glyph-name="braceright" unicode="}" horiz-adv-x="501" 
d="M136 -132q-22 4 -55 13v40q5 -1 30 -2.5t38 -1.5q123 0 123 86q0 27 -6.5 63t-8.5 44q-17 77 -17 119q0 45 39 72t94 35q-57 9 -95 34t-38 69q0 43 17 119q2 9 8.5 45t6.5 63q0 85 -123 85q-13 0 -38.5 -1t-29.5 -2v40q59 16 101 16q170 0 170 -124q0 -33 -6 -63t-18 -67
q-10 -38 -15 -60t-5 -46q0 -26 11.5 -41t42.5 -22t88 -7v-70q-82 1 -112 -19t-30 -60q0 -24 5 -46t15 -60q11 -37 17.5 -67.5t6.5 -63.5q0 -124 -170 -124q-24 0 -46 4z" />
    <glyph glyph-name="asciitilde" unicode="~" horiz-adv-x="689" 
d="M170.5 348q40.5 26 89.5 26q30 0 52 -11.5t53 -34.5q25 -19 40.5 -27.5t35.5 -8.5q33 0 59 16.5t45 41.5l34 -37q-21 -35 -61 -60.5t-88 -25.5q-31 0 -53 11.5t-50 33.5q-24 19 -40.5 28t-37.5 9q-61 0 -105 -59l-34 38q20 34 60.5 60z" />
    <glyph glyph-name="uni00A0" unicode="&#xa0;" horiz-adv-x="237" 
 />
    <glyph glyph-name="exclamdown" unicode="&#xa1;" horiz-adv-x="355" 
d="M219.5 601q-20.5 -19 -45.5 -19q-28 0 -42.5 15.5t-14.5 39.5q0 28 20 46.5t47 18.5q23 0 39.5 -15t16.5 -40q0 -27 -20.5 -46zM157 461h51l23 -639h-95z" />
    <glyph glyph-name="cent" unicode="&#xa2;" horiz-adv-x="582" 
d="M102 415q28 65 84.5 106.5t137.5 47.5l8 113h57l-9 -113q56 -6 113 -29l-5 -143h-50l-21 96q-6 30 -86 30q-78 0 -124 -60t-46 -164q0 -124 50 -188t129 -64q42 0 82 14t65 32l16 -33q-26 -27 -72 -47t-94 -24l-6 -108h-56l6 111q-99 14 -153 91.5t-54 190.5q0 76 28 141
z" />
    <glyph glyph-name="sterling" unicode="&#xa3;" horiz-adv-x="728" 
d="M197 499q0 74 32 131.5t86.5 89t118.5 31.5q54 0 98.5 -16t73.5 -41l-45 -66q-6 11 -28.5 27.5t-56 29t-71.5 12.5q-123 0 -123 -179v-88h158v-48h-158v-110q0 -101 -60 -175q40 -3 118 -19q46 -10 77 -15t62 -5q59 0 82 22.5t23 75.5q0 29 -6.5 55.5t-16.5 36.5h88
q18 -24 18 -79q0 -45 -24.5 -86t-68 -65.5t-96.5 -24.5q-41 0 -76 8.5t-82 25.5q-45 16 -72.5 23t-58.5 7q-47 -57 -92 -57q-16 0 -30 9t-14 28q0 18 15.5 34.5t42 26t56.5 8.5q12 18 21 66.5t9 89.5v120h-102v48h102v69z" />
    <glyph glyph-name="currency" unicode="&#xa4;" horiz-adv-x="755" 
d="M167 373q0 75 41 133l-103 104l50 51l104 -104q53 37 117 37q66 0 120 -35l104 103l50 -51l-101 -101q42 -57 42 -128q0 -75 -45 -134l102 -102l-50 -51l-103 103q-55 -37 -119 -37q-63 0 -118 34l-103 -102l-50 51l101 101q-39 55 -39 128zM484.5 265.5
q37.5 43.5 37.5 110.5q0 41 -20 77.5t-54 58t-74 21.5q-67 0 -105 -46.5t-38 -112.5q0 -42 19.5 -77t52.5 -55t73 -20q71 0 108.5 43.5z" />
    <glyph glyph-name="yen" unicode="&#xa5;" horiz-adv-x="752" 
d="M122 694l-64 12v37h239v-37l-74 -10l137 -217l32 -63l38 65l121 215l-75 10v37h218v-37l-70 -12l-183 -279h203v-48h-228v-139h228v-48h-228v-131l117 -11v-38h-303v38l116 11v131h-228v48h228v139h-228v48h196z" />
    <glyph glyph-name="brokenbar" unicode="&#xa6;" horiz-adv-x="422" 
d="M247 464h-72v405h72v-405zM247 -91h-72v404h72v-404z" />
    <glyph glyph-name="section" unicode="&#xa7;" horiz-adv-x="666" 
d="M171 -6q19 -17 62 -30t90 -13q83 0 125 27t42 71q0 36 -25.5 62.5t-62.5 43.5t-106 43q-89 34 -146 84t-57 134q0 42 18 72.5t53 55.5q-54 52 -54 117q0 48 29 84.5t82 56.5t125 20q44 0 80 -7.5t76 -19.5q30 -9 33 -9l-6 -159h-49l-23 119q-8 8 -40.5 16.5t-73.5 8.5
q-75 0 -115.5 -24t-40.5 -69q0 -38 20 -63.5t51 -42t85 -38.5l22 -9q58 -24 102 -49t77 -66t33 -96q0 -75 -71 -135q62 -50 62 -109q0 -44 -27 -82.5t-83 -62.5t-140 -24q-51 0 -92.5 9.5t-90.5 24.5q-33 11 -42 12l11 173h52zM385.5 245.5q38.5 -15.5 73.5 -35.5
q38 36 38 87q0 56 -44.5 92t-132.5 69q-72 27 -115 55q-20 -17 -29.5 -35.5t-9.5 -43.5q0 -42 21.5 -72.5t58 -52t95.5 -45.5q6 -3 44.5 -18.5z" />
    <glyph glyph-name="dieresis" unicode="&#xa8;" horiz-adv-x="500" 
d="M99 686q-14 16 -14 41q0 27 15.5 46.5t43.5 19.5q24 0 38.5 -17.5t14.5 -40.5q0 -28 -16 -46.5t-45 -18.5q-23 0 -37 16zM317 686.5q-14 16.5 -14 40.5q0 27 15.5 46.5t43.5 19.5q24 0 38.5 -17.5t14.5 -40.5q0 -28 -16 -46.5t-46 -18.5q-22 0 -36 16.5z" />
    <glyph glyph-name="copyright" unicode="&#xa9;" horiz-adv-x="1040" 
d="M151.5 705q56.5 98 154 155.5t214.5 57.5t214.5 -57.5t154 -155.5t56.5 -215t-56.5 -216t-154 -156.5t-214.5 -57.5t-214.5 57.5t-154 156.5t-56.5 216t56.5 215zM198 299.5q49 -87.5 134 -139.5t188 -52q102 0 187 52t134 139.5t49 190.5q0 102 -49 189.5t-134 139.5
t-187 52q-103 0 -188 -52t-134 -139.5t-49 -189.5q0 -103 49 -190.5zM360.5 316q-56.5 64 -56.5 169q0 68 32 124t88.5 88.5t126.5 32.5q36 0 74 -8t51 -21v-105h-48l-19 64q-12 9 -32 13.5t-56 4.5q-64 0 -101.5 -47.5t-37.5 -129.5q0 -85 46 -136t122 -51q65 0 111 46
l20 -34q-24 -30 -67 -52t-92 -22q-105 0 -161.5 64z" />
    <glyph glyph-name="ordfeminine" unicode="&#xaa;" horiz-adv-x="503" 
d="M101.5 386.5q-38.5 34.5 -38.5 88.5q0 72 72 108t215 40v14q0 46 -10 70.5t-32.5 34t-64.5 9.5q-38 0 -76.5 -11.5t-70.5 -27.5l-24 42q31 20 87 37.5t100 17.5q87 0 126.5 -36.5t39.5 -125.5v-247h56v-35q-48 -12 -80 -12q-25 0 -36 6t-11 27v34q-70 -68 -154 -68
q-60 0 -98.5 34.5zM299.5 423q36.5 18 50.5 34v124q-111 -3 -158 -26.5t-47 -73.5q0 -34 23 -55t64 -21q31 0 67.5 18z" />
    <glyph glyph-name="guillemotleft" unicode="&#xab;" horiz-adv-x="659" 
d="M317 514l-166 -214l166 -207l-45 -36l-216 209v66l216 215zM593 514l-180 -214l180 -207l-45 -36l-230 209v66l230 215z" />
    <glyph glyph-name="logicalnot" unicode="&#xac;" horiz-adv-x="688" 
d="M586 92h-67v205h-416v54h483v-259z" />
    <glyph glyph-name="uni00AD" unicode="&#xad;" horiz-adv-x="627" 
d="M515 291h-403v60h403v-60z" />
    <glyph glyph-name="registered" unicode="&#xae;" horiz-adv-x="1040" 
d="M151.5 705q56.5 98 154 155.5t214.5 57.5t214.5 -57.5t154 -155.5t56.5 -215t-56.5 -216t-154 -156.5t-214.5 -57.5t-214.5 57.5t-154 156.5t-56.5 216t56.5 215zM198 299.5q49 -87.5 134 -139.5t188 -52q102 0 187 52t134 139.5t49 190.5q0 102 -49 189.5t-134 139.5
t-187 52q-103 0 -188 -52t-134 -139.5t-49 -189.5q0 -103 49 -190.5zM375 672l-47 10v41h74q29 0 75 2l51 1q86 0 132 -32t46 -89t-30 -95t-80 -50q28 -14 42.5 -35t29.5 -56q14 -36 28.5 -53t46.5 -20v-43h-65q-33 0 -47.5 21.5t-27.5 64.5q-13 44 -28 69.5t-47 38.5l-87 1
v-149l54 -9v-37h-167v37l47 11v371zM531 497q41 0 69.5 27.5t28.5 67.5q0 47 -28 67.5t-86 20.5q-44 0 -74 -5v-175q16 -3 90 -3z" />
    <glyph glyph-name="macron" unicode="&#xaf;" horiz-adv-x="333" 
d="M296 699h-261v61h261v-61z" />
    <glyph glyph-name="degree" unicode="&#xb0;" horiz-adv-x="447" 
d="M139.5 486.5q-38.5 22.5 -61 61t-22.5 83.5q0 47 22.5 85t61 60t83.5 22q48 0 86.5 -22.5t60.5 -61t22 -83.5q0 -47 -22.5 -85t-61.5 -60t-85 -22q-45 0 -83.5 22.5zM302.5 551q30.5 31 30.5 80q0 46 -32 79t-78 33q-47 0 -78 -32t-31 -80q0 -46 32.5 -78.5t77.5 -32.5
q48 0 78.5 31z" />
    <glyph glyph-name="plusminus" unicode="&#xb1;" horiz-adv-x="661" 
d="M300 346l-2 88v111h65v-111l-4 -88l74 5h121v-65h-121l-74 3l4 -86v-112h-65v112l2 86l-85 -3h-108v65h108zM546 0h-432v61h432v-61z" />
    <glyph glyph-name="uni00B2" unicode="&#xb2;" horiz-adv-x="493" 
d="M176 426q59 49 106.5 109.5t47.5 114.5q0 47 -26.5 75.5t-75.5 28.5q-42 0 -79.5 -18t-57.5 -40l-27 30q21 30 71 57t107 27q78 0 121 -38.5t43 -100.5q0 -47 -36.5 -105t-95.5 -113.5t-125 -97.5l216 13l36 77l43 -9l-25 -128h-334l-15 39q47 30 106 79z" />
    <glyph glyph-name="uni00B3" unicode="&#xb3;" horiz-adv-x="486" 
d="M148.5 315q-36.5 7 -67.5 21v47q67 -25 120 -25q82 0 123 25t41 78q0 23 -15.5 43.5t-43.5 32.5t-65 10q-6 -3 -59 -22l-15 45q29 6 71 26q81 41 81 98q0 33 -22 49.5t-70 16.5q-37 0 -72 -10.5t-56 -27.5l-25 40q25 25 71 39t102 14q67 0 107.5 -31.5t40.5 -79.5
q0 -41 -25 -74.5t-87 -58.5l18 1q49 0 80.5 -17.5t45.5 -43t14 -51.5q0 -67 -59 -109.5t-166 -42.5q-31 0 -67.5 7z" />
    <glyph glyph-name="acute" unicode="&#xb4;" horiz-adv-x="333" 
d="M113 686l156 192l63 -54q-19 -29 -89 -89.5t-102 -75.5z" />
    <glyph glyph-name="uni00B5" unicode="&#xb5;" horiz-adv-x="683" 
d="M131 501l-63 22v29l125 13l18 -11v-395q0 -20 14.5 -45.5t44 -44t72.5 -18.5q52 0 85.5 24.5t50.5 53.5v372l-73 21v31l140 12l13 -11v-511h62v-39q-14 -7 -41.5 -12t-50.5 -5q-43 0 -43 37v53q-20 -37 -59.5 -62t-87.5 -25q-39 0 -75.5 15.5t-57.5 41.5v-229h-74v683z
" />
    <glyph glyph-name="paragraph" unicode="&#xb6;" horiz-adv-x="697" 
d="M259 401q-107 0 -160.5 56.5t-53.5 163.5q0 62 30.5 110.5t91 76t146.5 27.5q42 0 106 -4q57 -5 121 -5h93v-44l-87 -10v-721l75 -9v-42h-151v769q-84 7 -117 7l-18 -1v-775h-174v42l98 9v350z" />
    <glyph glyph-name="periodcentered" unicode="&#xb7;" horiz-adv-x="149" 
d="M31 335.5q-16 15.5 -16 40.5q0 28 19.5 47t45.5 19q27 0 40.5 -16t13.5 -40q0 -28 -19 -47t-45 -19q-23 0 -39 15.5z" />
    <glyph glyph-name="cedilla" unicode="&#xb8;" horiz-adv-x="300" 
d="M34 -231q-20 4 -34 9l1 59q10 -3 23.5 -5.5t22.5 -2.5q40 0 58 14t18 57q0 27 -11.5 55.5t-22.5 44.5l23 6l18 -6q21 -19 42 -58t21 -79q0 -53 -30.5 -75.5t-91.5 -22.5q-17 0 -37 4z" />
    <glyph glyph-name="uni00B9" unicode="&#xb9;" horiz-adv-x="480" 
d="M230 732q-45 -18 -131 -37l-10 45q50 15 90 32.5t78 46.5h2l42 -8v-452l110 -10v-41h-309v41l128 9v374z" />
    <glyph glyph-name="ordmasculine" unicode="&#xba;" horiz-adv-x="507" 
d="M150.5 374.5q-45.5 24.5 -72 75t-26.5 124.5q0 75 31 126t78.5 76t97.5 25q91 0 143.5 -57.5t52.5 -163.5q0 -78 -30.5 -130t-77.5 -76t-95 -24q-56 0 -101.5 24.5zM342.5 431q31.5 38 31.5 138q0 88 -31.5 138t-85.5 50q-55 0 -89 -43t-34 -131q0 -59 16 -102
t42.5 -65.5t58.5 -22.5q60 0 91.5 38z" />
    <glyph glyph-name="guillemotright" unicode="&#xbb;" horiz-adv-x="659" 
d="M341 332v-66l-230 -209l-45 36l180 207l-180 214l45 33zM603 332v-66l-215 -209l-45 36l165 207l-165 214l45 33z" />
    <glyph glyph-name="onequarter" unicode="&#xbc;" horiz-adv-x="1165" 
d="M230 682q-45 -18 -131 -37l-10 45q50 15 90 32.5t78 46.5h2l42 -8v-452l110 -10v-41h-309v41l128 9v374zM788 808l-369 -879l-61 5l371 881zM922 530h66l14 -16l-202 -330l-33 -45l202 9l7 138l63 5v-140l91 5v-58h-91v-98h-70v98h-248l-26 34z" />
    <glyph glyph-name="onehalf" unicode="&#xbd;" horiz-adv-x="1159" 
d="M230 682q-45 -18 -131 -37l-10 45q50 15 90 32.5t78 46.5h2l42 -8v-452l110 -10v-41h-309v41l128 9v374zM788 808l-369 -879l-61 5l371 881zM842 108q59 49 106.5 109.5t47.5 114.5q0 47 -26.5 75.5t-75.5 28.5q-42 0 -79.5 -18t-57.5 -40l-27 30q21 30 71 57t107 27
q78 0 121 -38.5t43 -100.5q0 -47 -36.5 -105t-95.5 -113.5t-125 -97.5l216 13l36 77l43 -9l-25 -128h-334l-15 39q47 30 106 79z" />
    <glyph glyph-name="threequarters" unicode="&#xbe;" horiz-adv-x="1171" 
d="M148.5 265q-36.5 7 -67.5 21v47q67 -25 120 -25q82 0 123 25t41 78q0 23 -15.5 43.5t-43.5 32.5t-65 10q-6 -3 -59 -22l-15 45q29 6 71 26q81 41 81 98q0 33 -22 49.5t-70 16.5q-37 0 -72 -10.5t-56 -27.5l-25 40q25 25 71 39t102 14q67 0 107.5 -31.5t40.5 -79.5
q0 -41 -25 -74.5t-87 -58.5l18 1q49 0 80.5 -17.5t45.5 -43t14 -51.5q0 -67 -59 -109.5t-166 -42.5q-31 0 -67.5 7zM794 808l-369 -879l-61 5l371 881zM928 530h66l14 -16l-202 -330l-33 -45l202 9l7 138l63 5v-140l91 5v-58h-91v-98h-70v98h-248l-26 34z" />
    <glyph glyph-name="questiondown" unicode="&#xbf;" horiz-adv-x="476" 
d="M344.5 689q16.5 -15 16.5 -40q0 -27 -20.5 -46t-45.5 -19q-28 0 -42.5 15.5t-14.5 39.5q0 28 20 46.5t47 18.5q23 0 39.5 -15zM334 319q0 -42 -31.5 -71.5t-92.5 -65.5q-45 -26 -70 -46t-34 -44v-57q0 -48 29.5 -91t83.5 -69.5t126 -26.5q45 0 75 13l13 -52
q-16 -9 -46.5 -15t-59.5 -6q-146 0 -216.5 68t-70.5 179q0 45 19 81t45.5 61t68.5 58q33 26 50 42t26 33v5q0 92 -4 144h61q23 -57 28 -140z" />
    <glyph glyph-name="Agrave" unicode="&#xc0;" horiz-adv-x="686" 
d="M301 750h82l251 -698l65 -9v-43h-244v43l88 9l-53 159h-312l-53 -158l89 -10v-43h-225v43l64 9zM359 596l-28 95l-27 -98l-109 -330h277zM280 862.5q-50 40.5 -74 73.5l69 44l136 -153l-42 -25q-39 20 -89 60.5z" />
    <glyph glyph-name="Aacute" unicode="&#xc1;" horiz-adv-x="686" 
d="M301 750h82l251 -698l65 -9v-43h-244v43l88 9l-53 159h-312l-53 -158l89 -10v-43h-225v43l64 9zM359 596l-28 95l-27 -98l-109 -330h277zM269 827l136 153l69 -44q-24 -33 -74 -73.5t-89 -60.5z" />
    <glyph glyph-name="Acircumflex" unicode="&#xc2;" horiz-adv-x="686" 
d="M301 750h82l251 -698l65 -9v-43h-244v43l88 9l-53 159h-312l-53 -158l89 -10v-43h-225v43l64 9zM359 596l-28 95l-27 -98l-109 -330h277zM378 983l129 -144l-36 -22l-130 106l-133 -106l-33 21l128 145h75z" />
    <glyph glyph-name="Atilde" unicode="&#xc3;" horiz-adv-x="686" 
d="M301 750h82l251 -698l65 -9v-43h-244v43l88 9l-53 159h-312l-53 -158l89 -10v-43h-225v43l64 9zM359 596l-28 95l-27 -98l-109 -330h277zM368.5 830q-19.5 11 -45.5 32q-17 15 -29.5 22.5t-27.5 7.5q-26 0 -37.5 -15t-21.5 -43l-42 22q33 96 109 96q30 0 50 -11.5
t44 -33.5q15 -15 27 -23t26 -8q22 0 35.5 17.5t22.5 43.5l42 -22q-15 -45 -37 -70.5t-66 -25.5q-30 0 -49.5 11z" />
    <glyph glyph-name="Adieresis" unicode="&#xc4;" horiz-adv-x="686" 
d="M301 750h82l251 -698l65 -9v-43h-244v43l88 9l-53 159h-312l-53 -158l89 -10v-43h-225v43l64 9zM359 596l-28 95l-27 -98l-109 -330h277zM178.5 842.5q-13.5 16.5 -13.5 40.5q0 28 15 47.5t43 19.5h1q24 0 38.5 -18t14.5 -41q0 -28 -16 -46.5t-45 -18.5h-1
q-23 0 -36.5 16.5zM416.5 842.5q-13.5 16.5 -13.5 40.5q0 28 15 47.5t43 19.5h1q24 0 38 -17.5t14 -41.5q0 -28 -16 -46.5t-45 -18.5q-23 0 -36.5 16.5z" />
    <glyph glyph-name="Aring" unicode="&#xc5;" horiz-adv-x="686" 
d="M-11 43l64 9l245 691q-56 9 -85.5 40t-29.5 76q0 59 48.5 91.5t113.5 32.5q72 0 112 -32.5t40 -87.5q0 -48 -31 -78.5t-81 -40.5l249 -692l65 -9v-43h-244v43l88 9l-53 159h-312l-53 -158l89 -10v-43h-225v43zM269.5 803.5q24.5 -24.5 71.5 -24.5t71 20t24 58
q0 39 -23 62.5t-70 23.5t-72.5 -20t-25.5 -59q0 -36 24.5 -60.5zM472 263l-113 333l-28 95l-27 -98l-109 -330h277z" />
    <glyph glyph-name="AE" unicode="&#xc6;" horiz-adv-x="911" 
d="M401 220h-270l-70 -168l78 -10v-42h-229v42l73 10l288 639l-136 11v41h674l17 -150h-48l-30 101l-265 4v-292l181 3l12 83h51v-221h-51l-12 86l-181 2v-310l306 10l58 125l48 -13l-38 -171h-544v42l88 10v168zM401 695h-69l-56 -128l-123 -295h248v423z" />
    <glyph glyph-name="Ccedilla" unicode="&#xc7;" horiz-adv-x="649" 
d="M193 37q-77 48 -117 135t-40 203q0 109 47 195t128 133.5t181 47.5q51 0 98.5 -8t76.5 -15t36 -9l-8 -163h-52l-22 116q-15 13 -54 22t-95 9q-69 0 -124 -37.5t-86.5 -109.5t-31.5 -172q0 -94 27.5 -173t83.5 -126.5t138 -47.5q57 0 89 9.5t54 27.5l40 94l49 -7l-25 -134
q-24 -1 -58 -13q-36 -12 -69 -18.5t-82 -6.5q-107 0 -184 48zM289 -231q-20 4 -34 9l1 59q10 -3 23.5 -5.5t22.5 -2.5q40 0 58 14t18 57q0 27 -11.5 55.5t-22.5 44.5l23 6l18 -6q21 -19 42 -58t21 -79q0 -53 -30.5 -75.5t-91.5 -22.5q-17 0 -37 4z" />
    <glyph glyph-name="Egrave" unicode="&#xc8;" horiz-adv-x="649" 
d="M136 689l-84 11v43h495l14 -147h-48l-27 96l-268 5v-291l184 3l13 83h50v-221h-50l-13 85l-184 3v-308l306 8l51 125l48 -15l-31 -169h-542v43l86 9v637zM281 862.5q-50 40.5 -74 73.5l69 44l136 -153l-42 -25q-39 20 -89 60.5z" />
    <glyph glyph-name="Eacute" unicode="&#xc9;" horiz-adv-x="649" 
d="M136 689l-84 11v43h495l14 -147h-48l-27 96l-268 5v-291l184 3l13 83h50v-221h-50l-13 85l-184 3v-308l306 8l51 125l48 -15l-31 -169h-542v43l86 9v637zM270 827l136 153l69 -44q-24 -33 -74 -73.5t-89 -60.5z" />
    <glyph glyph-name="Ecircumflex" unicode="&#xca;" horiz-adv-x="649" 
d="M136 689l-84 11v43h495l14 -147h-48l-27 96l-268 5v-291l184 3l13 83h50v-221h-50l-13 85l-184 3v-308l306 8l51 125l48 -15l-31 -169h-542v43l86 9v637zM379 983l129 -144l-36 -22l-130 106l-133 -106l-33 21l128 145h75z" />
    <glyph glyph-name="Edieresis" unicode="&#xcb;" horiz-adv-x="649" 
d="M136 689l-84 11v43h495l14 -147h-48l-27 96l-268 5v-291l184 3l13 83h50v-221h-50l-13 85l-184 3v-308l306 8l51 125l48 -15l-31 -169h-542v43l86 9v637zM179.5 842.5q-13.5 16.5 -13.5 40.5q0 28 15 47.5t43 19.5h1q24 0 38.5 -18t14.5 -41q0 -28 -16 -46.5t-45 -18.5
h-1q-23 0 -36.5 16.5zM417.5 842.5q-13.5 16.5 -13.5 40.5q0 28 15 47.5t43 19.5h1q24 0 38 -17.5t14 -41.5q0 -28 -16 -46.5t-45 -18.5q-23 0 -36.5 16.5z" />
    <glyph glyph-name="Igrave" unicode="&#xcc;" horiz-adv-x="397" 
d="M157 689l-97 11v43h277v-43l-97 -11v-637l97 -10v-42h-277v43l97 9v637zM139 862.5q-50 40.5 -74 73.5l69 44l136 -153l-42 -25q-39 20 -89 60.5z" />
    <glyph glyph-name="Iacute" unicode="&#xcd;" horiz-adv-x="397" 
d="M157 689l-97 11v43h277v-43l-97 -11v-637l97 -10v-42h-277v43l97 9v637zM128 827l136 153l69 -44q-24 -33 -74 -73.5t-89 -60.5z" />
    <glyph glyph-name="Icircumflex" unicode="&#xce;" horiz-adv-x="397" 
d="M157 689l-97 11v43h277v-43l-97 -11v-637l97 -10v-42h-277v43l97 9v637zM237 983l129 -144l-36 -22l-130 106l-133 -106l-33 21l128 145h75z" />
    <glyph glyph-name="Idieresis" unicode="&#xcf;" horiz-adv-x="397" 
d="M157 689l-97 11v43h277v-43l-97 -11v-637l97 -10v-42h-277v43l97 9v637zM37.5 842.5q-13.5 16.5 -13.5 40.5q0 28 15 47.5t43 19.5h1q24 0 38.5 -18t14.5 -41q0 -28 -16 -46.5t-45 -18.5h-1q-23 0 -36.5 16.5zM275.5 842.5q-13.5 16.5 -13.5 40.5q0 28 15 47.5t43 19.5h1
q24 0 38 -17.5t14 -41.5q0 -28 -16 -46.5t-45 -18.5q-23 0 -36.5 16.5z" />
    <glyph glyph-name="Eth" unicode="&#xd0;" horiz-adv-x="756" 
d="M136 689l-80 11v43h121q31 0 89 4t88 4q187 0 276.5 -94.5t89.5 -262.5q0 -119 -47 -210t-130.5 -141.5t-191.5 -50.5q-23 0 -77 4q-62 4 -96 4h-128v43l86 9v313h-77v46h77v278zM406 365h-188v-316q41 -8 101 -8h34q82 1 145 40t98.5 114t35.5 181q0 327 -304 327
q-33 0 -75 -4q-26 -2 -35 -2v-286h188v-46z" />
    <glyph glyph-name="Ntilde" unicode="&#xd1;" horiz-adv-x="797" 
d="M136 689l-80 11v43h161l354 -513l57 -100v559l-88 11v43h228v-43l-82 -11v-689h-52l-358 515l-82 133v-596l91 -9v-43h-229v43l80 10v636zM437.5 830q-19.5 11 -45.5 32q-17 15 -29.5 22.5t-27.5 7.5q-26 0 -37.5 -15t-21.5 -43l-42 22q33 96 109 96q30 0 50 -11.5
t44 -33.5q15 -15 27 -23t26 -8q22 0 35.5 17.5t22.5 43.5l42 -22q-15 -45 -37 -70.5t-66 -25.5q-30 0 -49.5 11z" />
    <glyph glyph-name="Ograve" unicode="&#xd2;" horiz-adv-x="719" 
d="M178.5 36.5q-69.5 47.5 -105.5 132.5t-36 197q0 115 44 202.5t120 135t169 47.5q99 0 169.5 -46t107 -130t36.5 -197q0 -116 -45 -204.5t-122 -136.5t-171 -48q-97 0 -166.5 47.5zM191 617.5q-63 -86.5 -63 -251.5q0 -96 27 -171t79 -117t124 -42q70 0 122 38.5t81 115.5
t29 188q0 97 -27 170.5t-78.5 114.5t-123.5 41q-107 0 -170 -86.5zM300 862.5q-50 40.5 -74 73.5l69 44l136 -153l-42 -25q-39 20 -89 60.5z" />
    <glyph glyph-name="Oacute" unicode="&#xd3;" horiz-adv-x="719" 
d="M178.5 36.5q-69.5 47.5 -105.5 132.5t-36 197q0 115 44 202.5t120 135t169 47.5q99 0 169.5 -46t107 -130t36.5 -197q0 -116 -45 -204.5t-122 -136.5t-171 -48q-97 0 -166.5 47.5zM191 617.5q-63 -86.5 -63 -251.5q0 -96 27 -171t79 -117t124 -42q70 0 122 38.5t81 115.5
t29 188q0 97 -27 170.5t-78.5 114.5t-123.5 41q-107 0 -170 -86.5zM289 827l136 153l69 -44q-24 -33 -74 -73.5t-89 -60.5z" />
    <glyph glyph-name="Ocircumflex" unicode="&#xd4;" horiz-adv-x="719" 
d="M178.5 36.5q-69.5 47.5 -105.5 132.5t-36 197q0 115 44 202.5t120 135t169 47.5q99 0 169.5 -46t107 -130t36.5 -197q0 -116 -45 -204.5t-122 -136.5t-171 -48q-97 0 -166.5 47.5zM191 617.5q-63 -86.5 -63 -251.5q0 -96 27 -171t79 -117t124 -42q70 0 122 38.5t81 115.5
t29 188q0 97 -27 170.5t-78.5 114.5t-123.5 41q-107 0 -170 -86.5zM398 983l129 -144l-36 -22l-130 106l-133 -106l-33 21l128 145h75z" />
    <glyph glyph-name="Otilde" unicode="&#xd5;" horiz-adv-x="719" 
d="M178.5 36.5q-69.5 47.5 -105.5 132.5t-36 197q0 115 44 202.5t120 135t169 47.5q99 0 169.5 -46t107 -130t36.5 -197q0 -116 -45 -204.5t-122 -136.5t-171 -48q-97 0 -166.5 47.5zM191 617.5q-63 -86.5 -63 -251.5q0 -96 27 -171t79 -117t124 -42q70 0 122 38.5t81 115.5
t29 188q0 97 -27 170.5t-78.5 114.5t-123.5 41q-107 0 -170 -86.5zM388.5 830q-19.5 11 -45.5 32q-17 15 -29.5 22.5t-27.5 7.5q-26 0 -37.5 -15t-21.5 -43l-42 22q33 96 109 96q30 0 50 -11.5t44 -33.5q15 -15 27 -23t26 -8q22 0 35.5 17.5t22.5 43.5l42 -22
q-15 -45 -37 -70.5t-66 -25.5q-30 0 -49.5 11z" />
    <glyph glyph-name="Odieresis" unicode="&#xd6;" horiz-adv-x="719" 
d="M178.5 36.5q-69.5 47.5 -105.5 132.5t-36 197q0 115 44 202.5t120 135t169 47.5q99 0 169.5 -46t107 -130t36.5 -197q0 -116 -45 -204.5t-122 -136.5t-171 -48q-97 0 -166.5 47.5zM191 617.5q-63 -86.5 -63 -251.5q0 -96 27 -171t79 -117t124 -42q70 0 122 38.5t81 115.5
t29 188q0 97 -27 170.5t-78.5 114.5t-123.5 41q-107 0 -170 -86.5zM198.5 842.5q-13.5 16.5 -13.5 40.5q0 28 15 47.5t43 19.5h1q24 0 38.5 -18t14.5 -41q0 -28 -16 -46.5t-45 -18.5h-1q-23 0 -36.5 16.5zM436.5 842.5q-13.5 16.5 -13.5 40.5q0 28 15 47.5t43 19.5h1
q24 0 38 -17.5t14 -41.5q0 -28 -16 -46.5t-45 -18.5q-23 0 -36.5 16.5z" />
    <glyph glyph-name="multiply" unicode="&#xd7;" horiz-adv-x="605" 
d="M90 466l49 51l164 -174l163 174l49 -52l-170 -164l170 -165l-49 -51l-163 174l-164 -174l-49 51l171 165z" />
    <glyph glyph-name="Oslash" unicode="&#xd8;" horiz-adv-x="720" 
d="M80.5 153.5q-43.5 90.5 -43.5 212.5q0 115 44 202.5t120 135t169 47.5q58 0 109 -17l39 99l38 -14l-41 -100q82 -41 125 -129.5t43 -211.5q0 -115 -43.5 -202.5t-118.5 -136t-168 -50.5q-58 -1 -112 16l-44 -104l-38 13l46 107q-81 42 -124.5 132.5zM191 618
q-63 -86 -63 -252q0 -95 26.5 -169t76.5 -115l225 600q-42 22 -94 22q-108 0 -171 -86zM565 545q-26 73 -75 114l-226 -600q43 -23 95 -23q69 0 121.5 38.5t81.5 115.5t29 188q0 94 -26 167z" />
    <glyph glyph-name="Ugrave" unicode="&#xd9;" horiz-adv-x="738" 
d="M168.5 71.5q-66.5 79.5 -66.5 246.5v371l-75 11v43h245v-43l-86 -11v-380q0 -146 52.5 -207t148.5 -61t145 66t49 194v387l-83 12v43h222v-43l-76 -11v-384q0 -156 -72.5 -234.5t-192.5 -78.5q-144 0 -210.5 79.5zM325 862.5q-50 40.5 -74 73.5l69 44l136 -153l-42 -25
q-39 20 -89 60.5z" />
    <glyph glyph-name="Uacute" unicode="&#xda;" horiz-adv-x="738" 
d="M168.5 71.5q-66.5 79.5 -66.5 246.5v371l-75 11v43h245v-43l-86 -11v-380q0 -146 52.5 -207t148.5 -61t145 66t49 194v387l-83 12v43h222v-43l-76 -11v-384q0 -156 -72.5 -234.5t-192.5 -78.5q-144 0 -210.5 79.5zM314 827l136 153l69 -44q-24 -33 -74 -73.5t-89 -60.5z
" />
    <glyph glyph-name="Ucircumflex" unicode="&#xdb;" horiz-adv-x="738" 
d="M168.5 71.5q-66.5 79.5 -66.5 246.5v371l-75 11v43h245v-43l-86 -11v-380q0 -146 52.5 -207t148.5 -61t145 66t49 194v387l-83 12v43h222v-43l-76 -11v-384q0 -156 -72.5 -234.5t-192.5 -78.5q-144 0 -210.5 79.5zM423 983l129 -144l-36 -22l-130 106l-133 -106l-33 21
l128 145h75z" />
    <glyph glyph-name="Udieresis" unicode="&#xdc;" horiz-adv-x="738" 
d="M168.5 71.5q-66.5 79.5 -66.5 246.5v371l-75 11v43h245v-43l-86 -11v-380q0 -146 52.5 -207t148.5 -61t145 66t49 194v387l-83 12v43h222v-43l-76 -11v-384q0 -156 -72.5 -234.5t-192.5 -78.5q-144 0 -210.5 79.5zM223.5 842.5q-13.5 16.5 -13.5 40.5q0 28 15 47.5
t43 19.5h1q24 0 38.5 -18t14.5 -41q0 -28 -16 -46.5t-45 -18.5h-1q-23 0 -36.5 16.5zM461.5 842.5q-13.5 16.5 -13.5 40.5q0 28 15 47.5t43 19.5h1q24 0 38 -17.5t14 -41.5q0 -28 -16 -46.5t-45 -18.5q-23 0 -36.5 16.5z" />
    <glyph glyph-name="Yacute" unicode="&#xdd;" horiz-adv-x="640" 
d="M284 286l-231 402l-62 12v43h239v-43l-84 -11l151 -283l36 -80l39 80l145 283l-84 11v43h217v-43l-66 -11l-216 -402v-234l114 -10v-43h-309v43l111 9v234zM249 827l136 153l69 -44q-24 -33 -74 -73.5t-89 -60.5z" />
    <glyph glyph-name="Thorn" unicode="&#xde;" horiz-adv-x="635" 
d="M135 690l-83 11v43h254v-43l-90 -11v-121l33 3q93 7 126 7q109 0 169 -49.5t60 -146.5q0 -110 -69 -164.5t-193 -54.5q-83 0 -126 4v-116l109 -10v-42h-275v42l85 10v638zM466 249q47 40 47 129q0 75 -41.5 114t-129.5 39q-46 0 -126 -10v-308q31 -4 90 -4h33
q80 0 127 40z" />
    <glyph glyph-name="germandbls" unicode="&#xdf;" horiz-adv-x="623" 
d="M97 463q0 101 37.5 173.5t100 109.5t135.5 37q71 0 118 -33.5t47 -99.5q0 -42 -17 -71t-49 -63q-24 -25 -35.5 -42.5t-11.5 -39.5q0 -27 18 -49t55 -52q33 -29 54 -51t36 -52.5t15 -68.5q0 -84 -61.5 -128t-158.5 -44q-19 0 -43.5 3.5t-40.5 7.5v66q45 -18 98 -18
q61 0 90 26t29 68q0 39 -21 68t-62 65q-43 38 -64.5 68t-21.5 72q0 22 12 42t36 48q29 35 44 61.5t15 59.5q0 105 -104 105q-78 0 -123 -64.5t-45 -187.5v-479h-153v43l71 8v412z" />
    <glyph glyph-name="agrave" unicode="&#xe0;" horiz-adv-x="557" 
d="M147 286.5q96 43.5 239 46.5v31q0 51 -10.5 80.5t-36.5 43t-73 13.5q-51 0 -92.5 -15.5t-80.5 -37.5l-22 44q11 10 46 28t80 32t87 14q68 0 107.5 -19t57 -61t17.5 -113v-330h62v-37q-55 -15 -93 -15q-24 0 -33 7.5t-9 34.5v37q-36 -32 -78.5 -56.5t-96.5 -24.5
q-72 0 -119.5 40t-47.5 117q0 97 96 140.5zM315 66q39 18 71 43v177q-121 -1 -183.5 -36t-62.5 -94q0 -57 29 -82.5t79 -25.5q28 0 67 18zM200.5 732.5q-71.5 62.5 -90.5 91.5l63 54l156 -192l-29 -27h-1q-27 11 -98.5 73.5z" />
    <glyph glyph-name="aacute" unicode="&#xe1;" horiz-adv-x="557" 
d="M147 286.5q96 43.5 239 46.5v31q0 51 -10.5 80.5t-36.5 43t-73 13.5q-51 0 -92.5 -15.5t-80.5 -37.5l-22 44q11 10 46 28t80 32t87 14q68 0 107.5 -19t57 -61t17.5 -113v-330h62v-37q-55 -15 -93 -15q-24 0 -33 7.5t-9 34.5v37q-36 -32 -78.5 -56.5t-96.5 -24.5
q-72 0 -119.5 40t-47.5 117q0 97 96 140.5zM315 66q39 18 71 43v177q-121 -1 -183.5 -36t-62.5 -94q0 -57 29 -82.5t79 -25.5q28 0 67 18zM202 686l155 193l68 -55q-20 -30 -88.5 -89.5t-103.5 -75.5z" />
    <glyph glyph-name="acircumflex" unicode="&#xe2;" horiz-adv-x="557" 
d="M147 286.5q96 43.5 239 46.5v31q0 51 -10.5 80.5t-36.5 43t-73 13.5q-51 0 -92.5 -15.5t-80.5 -37.5l-22 44q11 10 46 28t80 32t87 14q68 0 107.5 -19t57 -61t17.5 -113v-330h62v-37q-55 -15 -93 -15q-24 0 -33 7.5t-9 34.5v37q-36 -32 -78.5 -56.5t-96.5 -24.5
q-72 0 -119.5 40t-47.5 117q0 97 96 140.5zM315 66q39 18 71 43v177q-121 -1 -183.5 -36t-62.5 -94q0 -57 29 -82.5t79 -25.5q28 0 67 18zM308 858l135 -195l-35 -21l-138 151l-144 -151l-32 20l139 196h75z" />
    <glyph glyph-name="atilde" unicode="&#xe3;" horiz-adv-x="557" 
d="M147 286.5q96 43.5 239 46.5v31q0 51 -10.5 80.5t-36.5 43t-73 13.5q-51 0 -92.5 -15.5t-80.5 -37.5l-22 44q11 10 46 28t80 32t87 14q68 0 107.5 -19t57 -61t17.5 -113v-330h62v-37q-55 -15 -93 -15q-24 0 -33 7.5t-9 34.5v37q-36 -32 -78.5 -56.5t-96.5 -24.5
q-72 0 -119.5 40t-47.5 117q0 97 96 140.5zM315 66q39 18 71 43v177q-121 -1 -183.5 -36t-62.5 -94q0 -57 29 -82.5t79 -25.5q28 0 67 18zM123.5 768.5q28.5 29.5 76.5 29.5q30 0 50 -12t46 -36q17 -17 29 -25t26 -8q28 0 44 21t19 41l46 -21q-31 -101 -113 -101
q-29 0 -48.5 12t-43.5 35q-19 18 -31 26t-27 8q-28 0 -42 -15.5t-20.5 -29.5t-8.5 -17l-41 23q10 40 38.5 69.5z" />
    <glyph glyph-name="adieresis" unicode="&#xe4;" horiz-adv-x="557" 
d="M147 286.5q96 43.5 239 46.5v31q0 51 -10.5 80.5t-36.5 43t-73 13.5q-51 0 -92.5 -15.5t-80.5 -37.5l-22 44q11 10 46 28t80 32t87 14q68 0 107.5 -19t57 -61t17.5 -113v-330h62v-37q-55 -15 -93 -15q-24 0 -33 7.5t-9 34.5v37q-36 -32 -78.5 -56.5t-96.5 -24.5
q-72 0 -119.5 40t-47.5 117q0 97 96 140.5zM315 66q39 18 71 43v177q-121 -1 -183.5 -36t-62.5 -94q0 -57 29 -82.5t79 -25.5q28 0 67 18zM119 678q-14 16 -14 41q0 27 15.5 46.5t43.5 19.5q24 0 38.5 -17.5t14.5 -40.5q0 -28 -16 -46.5t-45 -18.5q-23 0 -37 16zM337 678.5
q-14 16.5 -14 40.5q0 27 15.5 46.5t43.5 19.5q24 0 38.5 -17.5t14.5 -40.5q0 -28 -16 -46.5t-46 -18.5q-22 0 -36 16.5z" />
    <glyph glyph-name="aring" unicode="&#xe5;" horiz-adv-x="557" 
d="M147 286.5q96 43.5 239 46.5v31q0 51 -10.5 80.5t-36.5 43t-73 13.5q-51 0 -92.5 -15.5t-80.5 -37.5l-22 44q11 10 46 28t80 32t87 14q68 0 107.5 -19t57 -61t17.5 -113v-330h62v-37q-55 -15 -93 -15q-24 0 -33 7.5t-9 34.5v37q-36 -32 -78.5 -56.5t-96.5 -24.5
q-72 0 -119.5 40t-47.5 117q0 97 96 140.5zM315 66q39 18 71 43v177q-121 -1 -183.5 -36t-62.5 -94q0 -57 29 -82.5t79 -25.5q28 0 67 18zM153 681.5q-40 37.5 -40 97.5q0 40 23.5 70t61 45.5t78.5 15.5q71 0 111 -37t40 -95q-1 -63 -46.5 -98.5t-111.5 -35.5
q-76 0 -116 37.5zM342 706.5q24 23.5 24 67.5q0 42 -23.5 69t-70.5 27q-45 0 -71.5 -24t-26.5 -65q0 -42 24.5 -70t72.5 -28q47 0 71 23.5z" />
    <glyph glyph-name="ae" unicode="&#xe6;" horiz-adv-x="869" 
d="M95 29q-48 40 -48 117q0 96 96 140t234 47q0 75 -8 109.5t-32 48t-75 13.5q-50 0 -93 -16t-89 -41l-21 42q13 13 50.5 31.5t83.5 32t88 13.5q69 0 108.5 -19t56.5 -62q35 41 83 63t104 22q89 0 138.5 -51t53.5 -147q0 -62 -6 -88h-356q0 -105 47.5 -171.5t133.5 -66.5
q42 0 86 15t67 36l16 -37q-29 -30 -83.5 -50.5t-110.5 -20.5q-69 0 -119.5 28.5t-80.5 81.5q-31 -43 -82.5 -76.5t-121.5 -33.5q-72 0 -120 40zM735 331q2 28 2 44q0 66 -30 105t-94 39q-137 0 -149 -188h271zM336.5 76q43.5 28 63.5 63q-23 62 -23 151q-116 -1 -178.5 -38
t-62.5 -96q0 -57 29.5 -82.5t78.5 -25.5t92.5 28z" />
    <glyph glyph-name="ccedilla" unicode="&#xe7;" horiz-adv-x="509" 
d="M65.5 422.5q31.5 67.5 94 107.5t152.5 40q39 0 76 -9.5t64 -20.5l-4 -143h-50l-21 96q-6 30 -86 30q-78 0 -124.5 -60t-46.5 -164q0 -124 50 -188t130 -64q42 0 81.5 14t65.5 32l16 -33q-28 -28 -78 -49t-99 -22q20 -24 36 -57.5t16 -67.5q0 -53 -31 -76t-91 -23
q-17 0 -37 4t-34 9l1 59q10 -3 23.5 -5.5t22.5 -2.5q40 0 58 14t18 57q0 24 -9 49t-20 43q-98 15 -151.5 92.5t-53.5 189.5q0 81 31.5 148.5z" />
    <glyph glyph-name="egrave" unicode="&#xe8;" horiz-adv-x="540" 
d="M109.5 68.5q-62.5 79.5 -62.5 211.5q0 85 33 151t91.5 102.5t131.5 36.5q89 0 138.5 -51t53.5 -147q0 -62 -6 -88h-356q0 -105 47.5 -171.5t133.5 -66.5q42 0 86 15t68 36l16 -37q-29 -30 -84.5 -50.5t-111.5 -20.5q-116 0 -178.5 79.5zM405 331q3 21 3 44
q-1 66 -31.5 105t-93.5 39q-137 0 -149 -188h271zM221.5 732.5q-71.5 62.5 -90.5 91.5l63 54l156 -192l-29 -27h-1q-27 11 -98.5 73.5z" />
    <glyph glyph-name="eacute" unicode="&#xe9;" horiz-adv-x="540" 
d="M109.5 68.5q-62.5 79.5 -62.5 211.5q0 85 33 151t91.5 102.5t131.5 36.5q89 0 138.5 -51t53.5 -147q0 -62 -6 -88h-356q0 -105 47.5 -171.5t133.5 -66.5q42 0 86 15t68 36l16 -37q-29 -30 -84.5 -50.5t-111.5 -20.5q-116 0 -178.5 79.5zM405 331q3 21 3 44
q-1 66 -31.5 105t-93.5 39q-137 0 -149 -188h271zM223 686l155 193l68 -55q-20 -30 -88.5 -89.5t-103.5 -75.5z" />
    <glyph glyph-name="ecircumflex" unicode="&#xea;" horiz-adv-x="540" 
d="M109.5 68.5q-62.5 79.5 -62.5 211.5q0 85 33 151t91.5 102.5t131.5 36.5q89 0 138.5 -51t53.5 -147q0 -62 -6 -88h-356q0 -105 47.5 -171.5t133.5 -66.5q42 0 86 15t68 36l16 -37q-29 -30 -84.5 -50.5t-111.5 -20.5q-116 0 -178.5 79.5zM405 331q3 21 3 44
q-1 66 -31.5 105t-93.5 39q-137 0 -149 -188h271zM329 858l135 -195l-35 -21l-138 151l-144 -151l-32 20l139 196h75z" />
    <glyph glyph-name="edieresis" unicode="&#xeb;" horiz-adv-x="540" 
d="M109.5 68.5q-62.5 79.5 -62.5 211.5q0 85 33 151t91.5 102.5t131.5 36.5q89 0 138.5 -51t53.5 -147q0 -62 -6 -88h-356q0 -105 47.5 -171.5t133.5 -66.5q42 0 86 15t68 36l16 -37q-29 -30 -84.5 -50.5t-111.5 -20.5q-116 0 -178.5 79.5zM405 331q3 21 3 44
q-1 66 -31.5 105t-93.5 39q-137 0 -149 -188h271zM140 678q-14 16 -14 41q0 27 15.5 46.5t43.5 19.5q24 0 38.5 -17.5t14.5 -40.5q0 -28 -16 -46.5t-45 -18.5q-23 0 -37 16zM358 678.5q-14 16.5 -14 40.5q0 27 15.5 46.5t43.5 19.5q24 0 38.5 -17.5t14.5 -40.5
q0 -28 -16 -46.5t-46 -18.5q-22 0 -36 16.5z" />
    <glyph glyph-name="igrave" unicode="&#xec;" horiz-adv-x="324" 
d="M130 489l-78 17v45l137 16h2l20 -16v-501l87 -7v-43h-256v43l88 8v438zM92.5 732.5q-71.5 62.5 -90.5 91.5l63 54l156 -192l-29 -27h-1q-27 11 -98.5 73.5z" />
    <glyph glyph-name="iacute" unicode="&#xed;" horiz-adv-x="324" 
d="M130 489l-78 17v45l137 16h2l20 -16v-501l87 -7v-43h-256v43l88 8v438zM94 686l155 193l68 -55q-20 -30 -88.5 -89.5t-103.5 -75.5z" />
    <glyph glyph-name="icircumflex" unicode="&#xee;" horiz-adv-x="324" 
d="M130 489l-78 17v45l137 16h2l20 -16v-501l87 -7v-43h-256v43l88 8v438zM200 858l135 -195l-35 -21l-138 151l-144 -151l-32 20l139 196h75z" />
    <glyph glyph-name="idieresis" unicode="&#xef;" horiz-adv-x="324" 
d="M130 489l-78 17v45l137 16h2l20 -16v-501l87 -7v-43h-256v43l88 8v438zM11 678q-14 16 -14 41q0 27 15.5 46.5t43.5 19.5q24 0 38.5 -17.5t14.5 -40.5q0 -28 -16 -46.5t-45 -18.5q-23 0 -37 16zM229 678.5q-14 16.5 -14 40.5q0 27 15.5 46.5t43.5 19.5q24 0 38.5 -17.5
t14.5 -40.5q0 -28 -16 -46.5t-46 -18.5q-22 0 -36 16.5z" />
    <glyph glyph-name="eth" unicode="&#xf0;" horiz-adv-x="572" 
d="M103.5 62.5q-61.5 73.5 -61.5 196.5q0 99 35.5 169.5t93.5 106t127 35.5q58 0 102 -22q-25 59 -69.5 114t-102.5 92l-72 -86l-40 29l74 84q-25 17 -56.5 32t-53.5 21l17 41q38 -12 66 -24.5t62 -30.5l65 77l37 -31l-61 -71q125 -84 195 -202.5t70 -269.5q0 -88 -25 -164
t-79.5 -123t-137.5 -47q-124 0 -185.5 73.5zM405 109.5q37 72.5 37 207.5q0 87 -22 156q-13 20 -45.5 36.5t-78.5 16.5q-49 0 -86.5 -31.5t-58 -90.5t-20.5 -139q0 -100 38.5 -164t121.5 -64q77 0 114 72.5z" />
    <glyph glyph-name="ntilde" unicode="&#xf1;" horiz-adv-x="653" 
d="M108 489l-77 17v45l127 16h3l19 -16v-44l-1 -25q37 32 98 59t113 27q64 0 98.5 -24.5t48 -75t13.5 -135.5v-283l75 -7v-43h-223v43l67 7v284q0 63 -8.5 99t-33 54.5t-71.5 18.5q-40 0 -86.5 -20t-80.5 -47v-388l73 -8v-43h-221v43l67 8v438zM164.5 768.5
q28.5 29.5 76.5 29.5q30 0 50 -12t46 -36q17 -17 29 -25t26 -8q28 0 44 21t19 41l46 -21q-31 -101 -113 -101q-29 0 -48.5 12t-43.5 35q-19 18 -31 26t-27 8q-28 0 -42 -15.5t-20.5 -29.5t-8.5 -17l-41 23q10 40 38.5 69.5z" />
    <glyph glyph-name="ograve" unicode="&#xf2;" horiz-adv-x="595" 
d="M81.5 434q36.5 66 96 101t124.5 35q126 0 186.5 -82t60.5 -210q0 -87 -36.5 -153t-96 -101t-124.5 -35q-126 0 -186.5 82t-60.5 210q0 87 36.5 153zM416 100q42 59 42 172q0 108 -39 177t-121 69q-77 0 -119.5 -59t-42.5 -172q0 -109 39.5 -177.5t121.5 -68.5
q77 0 119 59zM228.5 732.5q-71.5 62.5 -90.5 91.5l63 54l156 -192l-29 -27h-1q-27 11 -98.5 73.5z" />
    <glyph glyph-name="oacute" unicode="&#xf3;" horiz-adv-x="595" 
d="M81.5 434q36.5 66 96 101t124.5 35q126 0 186.5 -82t60.5 -210q0 -87 -36.5 -153t-96 -101t-124.5 -35q-126 0 -186.5 82t-60.5 210q0 87 36.5 153zM416 100q42 59 42 172q0 108 -39 177t-121 69q-77 0 -119.5 -59t-42.5 -172q0 -109 39.5 -177.5t121.5 -68.5
q77 0 119 59zM230 686l155 193l68 -55q-20 -30 -88.5 -89.5t-103.5 -75.5z" />
    <glyph glyph-name="ocircumflex" unicode="&#xf4;" horiz-adv-x="595" 
d="M81.5 434q36.5 66 96 101t124.5 35q126 0 186.5 -82t60.5 -210q0 -87 -36.5 -153t-96 -101t-124.5 -35q-126 0 -186.5 82t-60.5 210q0 87 36.5 153zM416 100q42 59 42 172q0 108 -39 177t-121 69q-77 0 -119.5 -59t-42.5 -172q0 -109 39.5 -177.5t121.5 -68.5
q77 0 119 59zM336 858l135 -195l-35 -21l-138 151l-144 -151l-32 20l139 196h75z" />
    <glyph glyph-name="otilde" unicode="&#xf5;" horiz-adv-x="595" 
d="M81.5 434q36.5 66 96 101t124.5 35q126 0 186.5 -82t60.5 -210q0 -87 -36.5 -153t-96 -101t-124.5 -35q-126 0 -186.5 82t-60.5 210q0 87 36.5 153zM416 100q42 59 42 172q0 108 -39 177t-121 69q-77 0 -119.5 -59t-42.5 -172q0 -109 39.5 -177.5t121.5 -68.5
q77 0 119 59zM151.5 768.5q28.5 29.5 76.5 29.5q30 0 50 -12t46 -36q17 -17 29 -25t26 -8q28 0 44 21t19 41l46 -21q-31 -101 -113 -101q-29 0 -48.5 12t-43.5 35q-19 18 -31 26t-27 8q-28 0 -42 -15.5t-20.5 -29.5t-8.5 -17l-41 23q10 40 38.5 69.5z" />
    <glyph glyph-name="odieresis" unicode="&#xf6;" horiz-adv-x="595" 
d="M81.5 434q36.5 66 96 101t124.5 35q126 0 186.5 -82t60.5 -210q0 -87 -36.5 -153t-96 -101t-124.5 -35q-126 0 -186.5 82t-60.5 210q0 87 36.5 153zM416 100q42 59 42 172q0 108 -39 177t-121 69q-77 0 -119.5 -59t-42.5 -172q0 -109 39.5 -177.5t121.5 -68.5
q77 0 119 59zM147 678q-14 16 -14 41q0 27 15.5 46.5t43.5 19.5q24 0 38.5 -17.5t14.5 -40.5q0 -28 -16 -46.5t-45 -18.5q-23 0 -37 16zM365 678.5q-14 16.5 -14 40.5q0 27 15.5 46.5t43.5 19.5q24 0 38.5 -17.5t14.5 -40.5q0 -28 -16 -46.5t-46 -18.5q-22 0 -36 16.5z" />
    <glyph glyph-name="divide" unicode="&#xf7;" horiz-adv-x="666" 
d="M298.5 476.5q-16.5 15.5 -16.5 40.5q0 26 20.5 45.5t45.5 19.5q28 0 42 -16t14 -40q0 -28 -19.5 -46.5t-46.5 -18.5q-23 0 -39.5 15.5zM559 290h-452v61h452v-61zM292.5 160q20.5 19 46.5 19q28 0 42 -15.5t14 -39.5q0 -28 -20 -46.5t-47 -18.5q-23 0 -39.5 15t-16.5 40
q0 27 20.5 46z" />
    <glyph glyph-name="oslash" unicode="&#xf8;" horiz-adv-x="595" 
d="M81.5 434q36.5 66 96 101t124.5 35q40 0 80 -10l34 90l34 -9l-33 -95q67 -33 99.5 -104t32.5 -164q0 -87 -36.5 -153t-96 -101t-124.5 -35q-39 0 -79 10l-36 -95l-37 10l38 98q-68 33 -100.5 104t-32.5 165q0 87 36.5 153zM152.5 161q16.5 -55 51.5 -86l157 429
q-28 14 -63 14q-77 0 -119.5 -59t-42.5 -172q0 -71 16.5 -126zM416 100q42 59 42 172q0 70 -16 124.5t-50 86.5l-158 -428q28 -14 63 -14q77 0 119 59z" />
    <glyph glyph-name="ugrave" unicode="&#xf9;" horiz-adv-x="628" 
d="M465 0q-12 9 -12 33v39q-37 -33 -87 -58t-100 -25q-91 0 -129.5 51t-38.5 166v294l-59 17v37l121 13h1l18 -12v-337q0 -63 9 -98.5t33 -52.5t70 -17q44 0 84 19t69 45v386l-76 17v37l133 13h1l23 -12v-511h62l-1 -38q-5 -1 -29 -8t-54 -7q-26 0 -38 9zM230.5 732.5
q-71.5 62.5 -90.5 91.5l63 54l156 -192l-29 -27h-1q-27 11 -98.5 73.5z" />
    <glyph glyph-name="uacute" unicode="&#xfa;" horiz-adv-x="628" 
d="M465 0q-12 9 -12 33v39q-37 -33 -87 -58t-100 -25q-91 0 -129.5 51t-38.5 166v294l-59 17v37l121 13h1l18 -12v-337q0 -63 9 -98.5t33 -52.5t70 -17q44 0 84 19t69 45v386l-76 17v37l133 13h1l23 -12v-511h62l-1 -38q-5 -1 -29 -8t-54 -7q-26 0 -38 9zM232 686l155 193
l68 -55q-20 -30 -88.5 -89.5t-103.5 -75.5z" />
    <glyph glyph-name="ucircumflex" unicode="&#xfb;" horiz-adv-x="628" 
d="M465 0q-12 9 -12 33v39q-37 -33 -87 -58t-100 -25q-91 0 -129.5 51t-38.5 166v294l-59 17v37l121 13h1l18 -12v-337q0 -63 9 -98.5t33 -52.5t70 -17q44 0 84 19t69 45v386l-76 17v37l133 13h1l23 -12v-511h62l-1 -38q-5 -1 -29 -8t-54 -7q-26 0 -38 9zM338 858l135 -195
l-35 -21l-138 151l-144 -151l-32 20l139 196h75z" />
    <glyph glyph-name="udieresis" unicode="&#xfc;" horiz-adv-x="628" 
d="M465 0q-12 9 -12 33v39q-37 -33 -87 -58t-100 -25q-91 0 -129.5 51t-38.5 166v294l-59 17v37l121 13h1l18 -12v-337q0 -63 9 -98.5t33 -52.5t70 -17q44 0 84 19t69 45v386l-76 17v37l133 13h1l23 -12v-511h62l-1 -38q-5 -1 -29 -8t-54 -7q-26 0 -38 9zM149 678
q-14 16 -14 41q0 27 15.5 46.5t43.5 19.5q24 0 38.5 -17.5t14.5 -40.5q0 -28 -16 -46.5t-45 -18.5q-23 0 -37 16zM367 678.5q-14 16.5 -14 40.5q0 27 15.5 46.5t43.5 19.5q24 0 38.5 -17.5t14.5 -40.5q0 -28 -16 -46.5t-46 -18.5q-22 0 -36 16.5z" />
    <glyph glyph-name="yacute" unicode="&#xfd;" horiz-adv-x="572" 
d="M91.5 -247q-14.5 2 -20.5 5v74q12 -6 51 -6q31 0 56.5 12.5t52.5 50.5t53 111h-44l-191 501l-47 13v41h221v-41l-81 -12l105 -306l52 -163l50 164l94 305l-70 12v41h192v-41l-52 -12q-75 -230 -118.5 -359.5t-55.5 -158.5q-35 -88 -62 -135.5t-64 -72.5t-93 -25
q-14 0 -28.5 2zM228 686l155 193l68 -55q-20 -30 -88.5 -89.5t-103.5 -75.5z" />
    <glyph glyph-name="thorn" unicode="&#xfe;" horiz-adv-x="600" 
d="M143 819h2l19 -14v-304q31 29 74.5 49t96.5 20q59 0 108.5 -29t80 -90t30.5 -153q0 -86 -35 -156.5t-100 -111.5t-150 -41q-51 0 -108 11l2 -66l1 -126l115 -11v-39h-274v39l78 11v948l-86 9v37zM223 489q-37 -20 -59 -44v-370q7 -16 39.5 -25.5t72.5 -9.5q86 0 138 63.5
t52 186.5q0 110 -46.5 164.5t-117.5 54.5q-42 0 -79 -20z" />
    <glyph glyph-name="ydieresis" unicode="&#xff;" horiz-adv-x="572" 
d="M91.5 -247q-14.5 2 -20.5 5v74q12 -6 51 -6q31 0 56.5 12.5t52.5 50.5t53 111h-44l-191 501l-47 13v41h221v-41l-81 -12l105 -306l52 -163l50 164l94 305l-70 12v41h192v-41l-52 -12q-75 -230 -118.5 -359.5t-55.5 -158.5q-35 -88 -62 -135.5t-64 -72.5t-93 -25
q-14 0 -28.5 2zM145 678q-14 16 -14 41q0 27 15.5 46.5t43.5 19.5q24 0 38.5 -17.5t14.5 -40.5q0 -28 -16 -46.5t-45 -18.5q-23 0 -37 16zM363 678.5q-14 16.5 -14 40.5q0 27 15.5 46.5t43.5 19.5q24 0 38.5 -17.5t14.5 -40.5q0 -28 -16 -46.5t-46 -18.5q-22 0 -36 16.5z
" />
    <glyph glyph-name="Amacron" unicode="&#x100;" horiz-adv-x="686" 
d="M301 750h82l251 -698l65 -9v-43h-244v43l88 9l-53 159h-312l-53 -158l89 -10v-43h-225v43l64 9zM359 596l-28 95l-27 -98l-109 -330h277zM482 859h-284v63h284v-63z" />
    <glyph glyph-name="amacron" unicode="&#x101;" horiz-adv-x="557" 
d="M147 286.5q96 43.5 239 46.5v31q0 51 -10.5 80.5t-36.5 43t-73 13.5q-51 0 -92.5 -15.5t-80.5 -37.5l-22 44q11 10 46 28t80 32t87 14q68 0 107.5 -19t57 -61t17.5 -113v-330h62v-37q-55 -15 -93 -15q-24 0 -33 7.5t-9 34.5v37q-36 -32 -78.5 -56.5t-96.5 -24.5
q-72 0 -119.5 40t-47.5 117q0 97 96 140.5zM315 66q39 18 71 43v177q-121 -1 -183.5 -36t-62.5 -94q0 -57 29 -82.5t79 -25.5q28 0 67 18zM401 675h-261v61h261v-61z" />
    <glyph glyph-name="Abreve" unicode="&#x102;" horiz-adv-x="686" 
d="M301 750h82l251 -698l65 -9v-43h-244v43l88 9l-53 159h-312l-53 -158l89 -10v-43h-225v43l64 9zM359 596l-28 95l-27 -98l-109 -330h277zM221 849q-43 41 -43 105q0 13 1 20h46q0 -8 1 -14q6 -35 32 -60.5t82 -25.5q58 0 84 26t32 61q1 6 1 13h44q1 -7 1 -19
q0 -63 -44.5 -105t-117.5 -42q-76 0 -119 41z" />
    <glyph glyph-name="abreve" unicode="&#x103;" horiz-adv-x="557" 
d="M147 286.5q96 43.5 239 46.5v31q0 51 -10.5 80.5t-36.5 43t-73 13.5q-51 0 -92.5 -15.5t-80.5 -37.5l-22 44q11 10 46 28t80 32t87 14q68 0 107.5 -19t57 -61t17.5 -113v-330h62v-37q-55 -15 -93 -15q-24 0 -33 7.5t-9 34.5v37q-36 -32 -78.5 -56.5t-96.5 -24.5
q-72 0 -119.5 40t-47.5 117q0 97 96 140.5zM315 66q39 18 71 43v177q-121 -1 -183.5 -36t-62.5 -94q0 -57 29 -82.5t79 -25.5q28 0 67 18zM186.5 689q-36.5 23 -56 60.5t-19.5 81.5q0 15 2 23h45q0 -10 1 -17q4 -39 31.5 -70.5t82.5 -31.5t81.5 31.5t29.5 70.5q2 13 1 17h44
q2 -16 2 -22q0 -43 -19.5 -81.5t-55.5 -61.5t-83 -23q-50 0 -86.5 23z" />
    <glyph glyph-name="Aogonek" unicode="&#x104;" horiz-adv-x="678" 
d="M302 750h82l250 -698l65 -9v-43h-57q-48 -21 -80 -59t-32 -70q0 -33 22 -48.5t56 -15.5q40 0 78 20v-42q-21 -16 -51.5 -25t-61.5 -9q-52 0 -86.5 22.5t-34.5 71.5q0 41 37.5 87t89.5 68h-124v43l88 9l-53 159h-312l-53 -158l89 -10v-43h-225v43l64 9zM360 596l-28 95
l-27 -98l-110 -330h277z" />
    <glyph glyph-name="aogonek" unicode="&#x105;" horiz-adv-x="557" 
d="M98.5 29q-47.5 40 -47.5 117q0 97 96 140.5t239 46.5v31q0 51 -10.5 80.5t-36.5 43t-73 13.5q-82 0 -176 -53l-22 44q11 10 46.5 28t81.5 32t88 14q68 0 107.5 -19t57 -61t17.5 -113v-330h62v-37q-4 -1 -14 -3t-18 -5q-45 -21 -83 -58.5t-38 -66.5q0 -35 18 -49.5
t55 -14.5q29 0 53.5 11t53.5 28l9 -38q-30 -22 -64.5 -37.5t-87.5 -15.5q-50 0 -81 22.5t-31 70.5q0 34 34.5 74t83.5 68q-13 2 -19 10.5t-6 30.5v37q-36 -32 -78.5 -56.5t-96.5 -24.5q-72 0 -119.5 40zM169 73.5q29 -25.5 79 -25.5q28 0 67 18t71 43v177
q-121 -1 -183.5 -36t-62.5 -94q0 -57 29 -82.5z" />
    <glyph glyph-name="Cacute" unicode="&#x106;" horiz-adv-x="649" 
d="M193 37q-77 48 -117 135t-40 203q0 109 47 195t128 133.5t181 47.5q51 0 98.5 -8t76.5 -15t36 -9l-8 -163h-52l-22 116q-15 13 -54 22t-95 9q-69 0 -124 -37.5t-86.5 -109.5t-31.5 -172q0 -94 27.5 -173t83.5 -126.5t138 -47.5q57 0 89 9.5t54 27.5l40 94l49 -7l-25 -134
q-24 -1 -58 -13q-36 -12 -69 -18.5t-82 -6.5q-107 0 -184 48zM294 827l136 153l69 -44q-24 -33 -74 -73.5t-89 -60.5z" />
    <glyph glyph-name="cacute" unicode="&#x107;" horiz-adv-x="509" 
d="M65.5 422.5q31.5 67.5 94 107.5t152.5 40q39 0 76 -9.5t64 -20.5l-4 -143h-50l-21 96q-6 30 -86 30q-78 0 -124.5 -60t-46.5 -164q0 -124 50 -188t130 -64q42 0 81.5 14t65.5 32l16 -33q-29 -29 -80 -50t-101 -21q-79 0 -135 37.5t-84.5 102t-28.5 145.5t31.5 148.5z
M217 686l155 193l68 -55q-20 -30 -88.5 -89.5t-103.5 -75.5z" />
    <glyph glyph-name="Ccircumflex" unicode="&#x108;" horiz-adv-x="649" 
d="M193 37q-77 48 -117 135t-40 203q0 109 47 195t128 133.5t181 47.5q51 0 98.5 -8t76.5 -15t36 -9l-8 -163h-52l-22 116q-15 13 -54 22t-95 9q-69 0 -124 -37.5t-86.5 -109.5t-31.5 -172q0 -94 27.5 -173t83.5 -126.5t138 -47.5q57 0 89 9.5t54 27.5l40 94l49 -7l-25 -134
q-24 -1 -58 -13q-36 -12 -69 -18.5t-82 -6.5q-107 0 -184 48zM403 983l129 -144l-36 -22l-130 106l-133 -106l-33 21l128 145h75z" />
    <glyph glyph-name="ccircumflex" unicode="&#x109;" horiz-adv-x="509" 
d="M65.5 422.5q31.5 67.5 94 107.5t152.5 40q39 0 76 -9.5t64 -20.5l-4 -143h-50l-21 96q-6 30 -86 30q-78 0 -124.5 -60t-46.5 -164q0 -124 50 -188t130 -64q42 0 81.5 14t65.5 32l16 -33q-29 -29 -80 -50t-101 -21q-79 0 -135 37.5t-84.5 102t-28.5 145.5t31.5 148.5z
M323 858l135 -195l-35 -21l-138 151l-144 -151l-32 20l139 196h75z" />
    <glyph glyph-name="Cdotaccent" unicode="&#x10a;" horiz-adv-x="649" 
d="M193 37q-77 48 -117 135t-40 203q0 109 47 195t128 133.5t181 47.5q51 0 98.5 -8t76.5 -15t36 -9l-8 -163h-52l-22 116q-15 13 -54 22t-95 9q-69 0 -124 -37.5t-86.5 -109.5t-31.5 -172q0 -94 27.5 -173t83.5 -126.5t138 -47.5q57 0 89 9.5t54 27.5l40 94l49 -7l-25 -134
q-24 -1 -58 -13q-36 -12 -69 -18.5t-82 -6.5q-107 0 -184 48zM323 852q-14 16 -14 41q0 28 15.5 47t43.5 19q24 0 38.5 -17.5t14.5 -40.5q0 -28 -16 -46.5t-45 -18.5q-23 0 -37 16z" />
    <glyph glyph-name="cdotaccent" unicode="&#x10b;" horiz-adv-x="509" 
d="M65.5 422.5q31.5 67.5 94 107.5t152.5 40q39 0 76 -9.5t64 -20.5l-4 -143h-50l-21 96q-6 30 -86 30q-78 0 -124.5 -60t-46.5 -164q0 -124 50 -188t130 -64q42 0 81.5 14t65.5 32l16 -33q-29 -29 -80 -50t-101 -21q-79 0 -135 37.5t-84.5 102t-28.5 145.5t31.5 148.5z
M229 717q0 29 17 47.5t46 18.5q30 0 43 -16.5t13 -40.5q0 -31 -16.5 -48.5t-47.5 -17.5h-1q-54 0 -54 57z" />
    <glyph glyph-name="Ccaron" unicode="&#x10c;" horiz-adv-x="649" 
d="M193 37q-77 48 -117 135t-40 203q0 109 47 195t128 133.5t181 47.5q51 0 98.5 -8t76.5 -15t36 -9l-8 -163h-52l-22 116q-15 13 -54 22t-95 9q-69 0 -124 -37.5t-86.5 -109.5t-31.5 -172q0 -94 27.5 -173t83.5 -126.5t138 -47.5q57 0 89 9.5t54 27.5l40 94l49 -7l-25 -134
q-24 -1 -58 -13q-36 -12 -69 -18.5t-82 -6.5q-107 0 -184 48zM366 882l124 100l33 -21l-119 -135h-76l-121 134l36 22z" />
    <glyph glyph-name="ccaron" unicode="&#x10d;" horiz-adv-x="509" 
d="M65.5 422.5q31.5 67.5 94 107.5t152.5 40q39 0 76 -9.5t64 -20.5l-4 -143h-50l-21 96q-6 30 -86 30q-78 0 -124.5 -60t-46.5 -164q0 -124 50 -188t130 -64q42 0 81.5 14t65.5 32l16 -33q-29 -29 -80 -50t-101 -21q-79 0 -135 37.5t-84.5 102t-28.5 145.5t31.5 148.5z
M285 706l142 151l31 -20l-135 -195h-76l-136 194l35 21z" />
    <glyph glyph-name="Dcaron" unicode="&#x10e;" horiz-adv-x="756" 
d="M136 689l-80 11v43h121q31 0 89 4t88 4q187 0 276.5 -94.5t89.5 -262.5q0 -119 -47 -210t-130.5 -141.5t-191.5 -50.5q-23 0 -77 4q-62 4 -96 4h-128v43l86 9v637zM319 41h34q82 1 145 40t98.5 114t35.5 181q0 327 -304 327q-33 0 -75 -4q-26 -2 -35 -2v-648
q41 -8 101 -8zM379 882l124 100l33 -21l-119 -135h-76l-121 134l36 22z" />
    <glyph glyph-name="dcaron" unicode="&#x10f;" horiz-adv-x="618" 
d="M156 19.5q-50 30.5 -80 92.5t-30 152q0 86 35 155.5t99.5 110t150.5 40.5q55 0 106 -12v198l-104 10v36l164 17h2l19 -14v-760h61v-39q-5 -1 -34 -8t-62 -7q-23 0 -32.5 8t-9.5 35v35q-31 -34 -75.5 -57t-100.5 -23q-59 0 -109 30.5zM379.5 72.5q38.5 20.5 57.5 45.5v368
q-8 14 -41.5 24t-71.5 10q-86 0 -138 -61.5t-52 -186.5q0 -112 46 -166t118 -54q43 0 81.5 20.5zM587 601l-3 6q6 54 6 98q0 63 -11 86l5 17h74q9 -27 9 -73q0 -24 -9.5 -68.5t-22.5 -65.5h-48z" />
    <glyph glyph-name="Dcroat" unicode="&#x110;" horiz-adv-x="756" 
d="M136 689l-80 11v43h121q31 0 89 4t88 4q187 0 276.5 -94.5t89.5 -262.5q0 -119 -47 -210t-130.5 -141.5t-191.5 -50.5q-23 0 -77 4q-62 4 -96 4h-128v43l86 9v313h-77v46h77v278zM406 365h-188v-316q41 -8 101 -8h34q82 1 145 40t98.5 114t35.5 181q0 327 -304 327
q-33 0 -75 -4q-26 -2 -35 -2v-286h188v-46z" />
    <glyph glyph-name="dcroat" unicode="&#x111;" horiz-adv-x="616" 
d="M434 756l-104 10v36l164 17h2l19 -14v-117h73v-48h-73v-595h61v-39q-6 -1 -34.5 -8t-61.5 -7q-23 0 -32.5 8t-9.5 35v35q-31 -34 -75.5 -57t-100.5 -23q-59 0 -109 30.5t-80 92.5t-30 152q0 86 35 155.5t99.5 110t150.5 40.5q55 0 106 -12v82h-131v48h131v68zM376.5 72.5
q38.5 20.5 57.5 45.5v368q-8 14 -41.5 24t-71.5 10q-86 0 -138 -61.5t-52 -186.5q0 -112 46 -166t118 -54q43 0 81.5 20.5z" />
    <glyph glyph-name="Emacron" unicode="&#x112;" horiz-adv-x="649" 
d="M136 689l-84 11v43h495l14 -147h-48l-27 96l-268 5v-291l184 3l13 83h50v-221h-50l-13 85l-184 3v-308l306 8l51 125l48 -15l-31 -169h-542v43l86 9v637zM483 859h-284v63h284v-63z" />
    <glyph glyph-name="emacron" unicode="&#x113;" horiz-adv-x="540" 
d="M109.5 68.5q-62.5 79.5 -62.5 211.5q0 85 33 151t91.5 102.5t131.5 36.5q89 0 138.5 -51t53.5 -147q0 -62 -6 -88h-356q0 -105 47.5 -171.5t133.5 -66.5q42 0 86 15t68 36l16 -37q-29 -30 -84.5 -50.5t-111.5 -20.5q-116 0 -178.5 79.5zM405 331q3 21 3 44
q-1 66 -31.5 105t-93.5 39q-137 0 -149 -188h271zM422 675h-261v61h261v-61z" />
    <glyph glyph-name="Ebreve" unicode="&#x114;" horiz-adv-x="649" 
d="M136 689l-84 11v43h495l14 -147h-48l-27 96l-268 5v-291l184 3l13 83h50v-221h-50l-13 85l-184 3v-308l306 8l51 125l48 -15l-31 -169h-542v43l86 9v637zM222 849q-43 41 -43 105q0 13 1 20h46q0 -8 1 -14q6 -35 32 -60.5t82 -25.5q58 0 84 26t32 61q1 6 1 13h44
q1 -7 1 -19q0 -63 -44.5 -105t-117.5 -42q-76 0 -119 41z" />
    <glyph glyph-name="ebreve" unicode="&#x115;" horiz-adv-x="540" 
d="M109.5 68.5q-62.5 79.5 -62.5 211.5q0 85 33 151t91.5 102.5t131.5 36.5q89 0 138.5 -51t53.5 -147q0 -62 -6 -88h-356q0 -105 47.5 -171.5t133.5 -66.5q42 0 86 15t68 36l16 -37q-29 -30 -84.5 -50.5t-111.5 -20.5q-116 0 -178.5 79.5zM405 331q3 21 3 44
q-1 66 -31.5 105t-93.5 39q-137 0 -149 -188h271zM207.5 689q-36.5 23 -56 60.5t-19.5 81.5q0 15 2 23h45q0 -10 1 -17q4 -39 31.5 -70.5t82.5 -31.5t81.5 31.5t29.5 70.5q2 13 1 17h44q2 -16 2 -22q0 -43 -19.5 -81.5t-55.5 -61.5t-83 -23q-50 0 -86.5 23z" />
    <glyph glyph-name="Edotaccent" unicode="&#x116;" horiz-adv-x="649" 
d="M136 689l-84 11v43h495l14 -147h-48l-27 96l-268 5v-291l184 3l13 83h50v-221h-50l-13 85l-184 3v-308l306 8l51 125l48 -15l-31 -169h-542v43l86 9v637zM299 852q-14 16 -14 41q0 28 15.5 47t43.5 19q24 0 38.5 -17.5t14.5 -40.5q0 -28 -16 -46.5t-45 -18.5
q-23 0 -37 16z" />
    <glyph glyph-name="edotaccent" unicode="&#x117;" horiz-adv-x="540" 
d="M109.5 68.5q-62.5 79.5 -62.5 211.5q0 85 33 151t91.5 102.5t131.5 36.5q89 0 138.5 -51t53.5 -147q0 -62 -6 -88h-356q0 -105 47.5 -171.5t133.5 -66.5q42 0 86 15t68 36l16 -37q-29 -30 -84.5 -50.5t-111.5 -20.5q-116 0 -178.5 79.5zM405 331q3 21 3 44
q-1 66 -31.5 105t-93.5 39q-137 0 -149 -188h271zM235 717q0 29 17 47.5t46 18.5q30 0 43 -16.5t13 -40.5q0 -31 -16.5 -48.5t-47.5 -17.5h-1q-54 0 -54 57z" />
    <glyph glyph-name="Eogonek" unicode="&#x118;" horiz-adv-x="650" 
d="M136 689l-84 11v43h495l14 -147h-48l-27 96l-268 5v-291l184 3l13 83h50v-221h-50l-13 85l-184 3v-308l306 8l51 125l48 -15l-31 -169h-13q-32 -6 -65.5 -28.5t-55 -50t-21.5 -50.5q0 -33 21.5 -48.5t55.5 -15.5q40 0 78 20v-42q-21 -16 -51.5 -25t-61.5 -9
q-52 0 -87 22.5t-35 71.5q0 41 42 86.5t100 68.5h-449v43l86 9v637z" />
    <glyph glyph-name="eogonek" unicode="&#x119;" horiz-adv-x="540" 
d="M208 -219q-33 24 -33 69q0 41 31 75t82 64q-116 0 -178.5 79.5t-62.5 211.5q0 85 33 151t91.5 102.5t131.5 36.5q89 0 138.5 -51t53.5 -147q0 -62 -6 -88h-356q0 -105 47.5 -171.5t133.5 -66.5q42 0 86 15t68 36l16 -37q-35 -35 -99 -55q-47 -19 -91 -60t-44 -72
q0 -35 18 -49.5t55 -14.5q29 0 53.5 11t53.5 28l1 -45q-31 -21 -61 -33.5t-83 -12.5q-46 0 -79 24zM405 331q3 21 3 44q-1 66 -31.5 105t-93.5 39q-137 0 -149 -188h271z" />
    <glyph glyph-name="Ecaron" unicode="&#x11a;" horiz-adv-x="649" 
d="M136 689l-84 11v43h495l14 -147h-48l-27 96l-268 5v-291l184 3l13 83h50v-221h-50l-13 85l-184 3v-308l306 8l51 125l48 -15l-31 -169h-542v43l86 9v637zM342 882l124 100l33 -21l-119 -135h-76l-121 134l36 22z" />
    <glyph glyph-name="ecaron" unicode="&#x11b;" horiz-adv-x="540" 
d="M109.5 68.5q-62.5 79.5 -62.5 211.5q0 85 33 151t91.5 102.5t131.5 36.5q89 0 138.5 -51t53.5 -147q0 -62 -6 -88h-356q0 -105 47.5 -171.5t133.5 -66.5q42 0 86 15t68 36l16 -37q-29 -30 -84.5 -50.5t-111.5 -20.5q-116 0 -178.5 79.5zM405 331q3 21 3 44
q-1 66 -31.5 105t-93.5 39q-137 0 -149 -188h271zM291 706l142 151l31 -20l-135 -195h-76l-136 194l35 21z" />
    <glyph glyph-name="Gcircumflex" unicode="&#x11c;" horiz-adv-x="738" 
d="M208 37q-78 48 -119 132t-41 190q0 122 49.5 210.5t134.5 135t191 46.5q66 0 118 -9t108 -22l-8 -166h-52l-22 115q-16 13 -53.5 23.5t-99.5 10.5q-79 0 -140.5 -36t-96.5 -107.5t-35 -174.5q0 -92 28.5 -171t86.5 -128t141 -49q53 0 100.5 12.5t74.5 33.5v228l-139 10
v53h284v-53l-61 -10v-271q-21 -1 -71 -17q-51 -16 -94.5 -25t-99.5 -9q-106 0 -184 48zM437 983l129 -144l-36 -22l-130 106l-133 -106l-33 21l128 145h75z" />
    <glyph glyph-name="gcircumflex" unicode="&#x11d;" horiz-adv-x="597" 
d="M46 -120q0 45 27.5 82t65.5 58q-47 25 -47 83q0 37 21 69.5t54 49.5q-47 22 -73.5 62.5t-26.5 94.5q0 58 32 101.5t83.5 66.5t107.5 23q93 0 149 -41q15 14 46.5 27.5t67.5 13.5h33v-74h-114q29 -40 29 -97q0 -59 -30 -104.5t-80.5 -70.5t-111.5 -25q-41 0 -75 9
q-18 -14 -28.5 -32.5t-10.5 -37.5q0 -38 24.5 -53t85.5 -15h118q93 0 137.5 -36t44.5 -101q0 -54 -39 -100.5t-106.5 -74.5t-147.5 -28q-236 0 -236 150zM416 388q0 133 -132 133t-132 -131q0 -63 34 -102.5t103 -39.5q127 0 127 140zM390 -203.5q49 15.5 79 45t30 68.5
q0 31 -9.5 50t-37 29.5t-79.5 10.5h-124q-48 0 -73 6q-49 -47 -49 -110q0 -57 36 -86t124 -29q54 0 103 15.5zM346 858l135 -195l-35 -21l-138 151l-144 -151l-32 20l139 196h75z" />
    <glyph glyph-name="Gbreve" unicode="&#x11e;" horiz-adv-x="738" 
d="M208 37q-78 48 -119 132t-41 190q0 122 49.5 210.5t134.5 135t191 46.5q66 0 118 -9t108 -22l-8 -166h-52l-22 115q-16 13 -53.5 23.5t-99.5 10.5q-79 0 -140.5 -36t-96.5 -107.5t-35 -174.5q0 -92 28.5 -171t86.5 -128t141 -49q53 0 100.5 12.5t74.5 33.5v228l-139 10
v53h284v-53l-61 -10v-271q-21 -1 -71 -17q-51 -16 -94.5 -25t-99.5 -9q-106 0 -184 48zM280 849q-43 41 -43 105q0 13 1 20h46q0 -8 1 -14q6 -35 32 -60.5t82 -25.5q58 0 84 26t32 61q1 6 1 13h44q1 -7 1 -19q0 -63 -44.5 -105t-117.5 -42q-76 0 -119 41z" />
    <glyph glyph-name="gbreve" unicode="&#x11f;" horiz-adv-x="597" 
d="M46 -120q0 45 27.5 82t65.5 58q-47 25 -47 83q0 37 21 69.5t54 49.5q-47 22 -73.5 62.5t-26.5 94.5q0 58 32 101.5t83.5 66.5t107.5 23q93 0 149 -41q15 14 46.5 27.5t67.5 13.5h33v-74h-114q29 -40 29 -97q0 -59 -30 -104.5t-80.5 -70.5t-111.5 -25q-41 0 -75 9
q-18 -14 -28.5 -32.5t-10.5 -37.5q0 -38 24.5 -53t85.5 -15h118q93 0 137.5 -36t44.5 -101q0 -54 -39 -100.5t-106.5 -74.5t-147.5 -28q-236 0 -236 150zM416 388q0 133 -132 133t-132 -131q0 -63 34 -102.5t103 -39.5q127 0 127 140zM390 -203.5q49 15.5 79 45t30 68.5
q0 31 -9.5 50t-37 29.5t-79.5 10.5h-124q-48 0 -73 6q-49 -47 -49 -110q0 -57 36 -86t124 -29q54 0 103 15.5zM224.5 689q-36.5 23 -56 60.5t-19.5 81.5q0 15 2 23h45q0 -10 1 -17q4 -39 31.5 -70.5t82.5 -31.5t81.5 31.5t29.5 70.5q2 13 1 17h44q2 -16 2 -22
q0 -43 -19.5 -81.5t-55.5 -61.5t-83 -23q-50 0 -86.5 23z" />
    <glyph glyph-name="Gdotaccent" unicode="&#x120;" horiz-adv-x="738" 
d="M208 37q-78 48 -119 132t-41 190q0 122 49.5 210.5t134.5 135t191 46.5q66 0 118 -9t108 -22l-8 -166h-52l-22 115q-16 13 -53.5 23.5t-99.5 10.5q-79 0 -140.5 -36t-96.5 -107.5t-35 -174.5q0 -92 28.5 -171t86.5 -128t141 -49q53 0 100.5 12.5t74.5 33.5v228l-139 10
v53h284v-53l-61 -10v-271q-21 -1 -71 -17q-51 -16 -94.5 -25t-99.5 -9q-106 0 -184 48zM357 852q-14 16 -14 41q0 28 15.5 47t43.5 19q24 0 38.5 -17.5t14.5 -40.5q0 -28 -16 -46.5t-45 -18.5q-23 0 -37 16z" />
    <glyph glyph-name="gdotaccent" unicode="&#x121;" horiz-adv-x="597" 
d="M46 -120q0 45 27.5 82t65.5 58q-47 25 -47 83q0 37 21 69.5t54 49.5q-47 22 -73.5 62.5t-26.5 94.5q0 58 32 101.5t83.5 66.5t107.5 23q93 0 149 -41q15 14 46.5 27.5t67.5 13.5h33v-74h-114q29 -40 29 -97q0 -59 -30 -104.5t-80.5 -70.5t-111.5 -25q-41 0 -75 9
q-18 -14 -28.5 -32.5t-10.5 -37.5q0 -38 24.5 -53t85.5 -15h118q93 0 137.5 -36t44.5 -101q0 -54 -39 -100.5t-106.5 -74.5t-147.5 -28q-236 0 -236 150zM416 388q0 133 -132 133t-132 -131q0 -63 34 -102.5t103 -39.5q127 0 127 140zM390 -203.5q49 15.5 79 45t30 68.5
q0 31 -9.5 50t-37 29.5t-79.5 10.5h-124q-48 0 -73 6q-49 -47 -49 -110q0 -57 36 -86t124 -29q54 0 103 15.5zM252 717q0 29 17 47.5t46 18.5q30 0 43 -16.5t13 -40.5q0 -31 -16.5 -48.5t-47.5 -17.5h-1q-54 0 -54 57z" />
    <glyph glyph-name="Gcommaaccent" unicode="&#x122;" horiz-adv-x="738" 
d="M208 37q-78 48 -119 132t-41 190q0 122 49.5 210.5t134.5 135t191 46.5q66 0 118 -9t108 -22l-8 -166h-52l-22 115q-16 13 -53.5 23.5t-99.5 10.5q-79 0 -140.5 -36t-96.5 -107.5t-35 -174.5q0 -92 28.5 -171t86.5 -128t141 -49q53 0 100.5 12.5t74.5 33.5v228l-139 10
v53h284v-53l-61 -10v-271q-21 -1 -71 -17q-51 -16 -94.5 -25t-99.5 -9q-106 0 -184 48zM418 -203.5q-15 -29.5 -33 -47.5t-27 -21h-1l-27 19v6q15 7 24.5 28t9.5 44q0 13 -5.5 21t-15.5 15q-9 6 -14 14.5t-5 22.5q0 24 15 34t29 10h4q28 0 44.5 -21t16.5 -59
q0 -36 -15 -65.5z" />
    <glyph glyph-name="gcommaaccent" unicode="&#x123;" horiz-adv-x="597" 
d="M46 -120q0 45 27.5 82t65.5 58q-47 25 -47 83q0 37 21 69.5t54 49.5q-47 22 -73.5 62.5t-26.5 94.5q0 58 32 101.5t83.5 66.5t107.5 23q93 0 149 -41q15 14 46.5 27.5t67.5 13.5h33v-74h-114q29 -40 29 -97q0 -59 -30 -104.5t-80.5 -70.5t-111.5 -25q-41 0 -75 9
q-18 -14 -28.5 -32.5t-10.5 -37.5q0 -38 24.5 -53t85.5 -15h118q93 0 137.5 -36t44.5 -101q0 -54 -39 -100.5t-106.5 -74.5t-147.5 -28q-236 0 -236 150zM416 388q0 133 -132 133t-132 -131q0 -63 34 -102.5t103 -39.5q127 0 127 140zM390 -203.5q49 15.5 79 45t30 68.5
q0 31 -9.5 50t-37 29.5t-79.5 10.5h-124q-48 0 -73 6q-49 -47 -49 -110q0 -57 36 -86t124 -29q54 0 103 15.5zM268.5 671q-16.5 21 -16.5 59q0 36 15 65.5t33 47.5t27 21h1l27 -19v-6q-15 -7 -24.5 -28t-9.5 -44q0 -13 5.5 -21t15.5 -15q9 -6 14 -14.5t5 -22.5
q0 -24 -15 -34t-29 -10h-4q-28 0 -44.5 21z" />
    <glyph glyph-name="Hcircumflex" unicode="&#x124;" horiz-adv-x="824" 
d="M139 689l-82 11v43h251v-43l-87 -11v-281h382v281l-83 11v43h248v-43l-82 -11v-637l82 -9v-43h-249v43l84 9v303h-382v-303l88 -9v-43h-255v43l85 9v637zM458 983l129 -144l-36 -22l-130 106l-133 -106l-33 21l128 145h75z" />
    <glyph glyph-name="hcircumflex" unicode="&#x125;" horiz-adv-x="652" 
d="M103 756l-89 9v37l148 17h2l19 -13v-238l-2 -83q32 29 90 56t114 27q63 0 98 -24t49 -74.5t14 -136.5v-282l73 -8v-43h-224v43l70 8v283q0 64 -8.5 100t-33.5 54t-73 18q-40 0 -86 -19.5t-81 -46.5v-389l74 -8v-43h-217v43l63 7v706zM165 1041l129 -144l-36 -22l-130 106
l-133 -106l-33 21l128 145h75z" />
    <glyph glyph-name="Hbar" unicode="&#x126;" horiz-adv-x="824" 
d="M139 689l-82 11v44h250v-44l-87 -11v-134h384v134l-83 11v44h247v-44l-82 -11v-134h114v-46h-114v-456l82 -11v-42h-247v42l83 11v256h-384v-257l88 -9v-43h-254v43l85 9v457h-115v46h115v134zM220 509v-149h384v149h-384z" />
    <glyph glyph-name="hbar" unicode="&#x127;" horiz-adv-x="662" 
d="M100 756l-88 9v37l147 17h3l19 -13v-126h134v-48h-134v-64l-3 -83q33 29 91 56t114 27q63 0 97.5 -24t48.5 -74.5t14 -136.5v-282l74 -8v-43h-224v43l70 8v283q0 63 -8.5 99.5t-33.5 54.5t-73 18q-40 0 -86 -19.5t-81 -46.5v-389l74 -8v-43h-217v43l62 7v582h-93v48h93
v76z" />
    <glyph glyph-name="Itilde" unicode="&#x128;" horiz-adv-x="397" 
d="M157 689l-97 11v43h277v-43l-97 -11v-637l97 -10v-42h-277v43l97 9v637zM227.5 830q-19.5 11 -45.5 32q-17 15 -29.5 22.5t-27.5 7.5q-26 0 -37.5 -15t-21.5 -43l-42 22q33 96 109 96q30 0 50 -11.5t44 -33.5q15 -15 27 -23t26 -8q22 0 35.5 17.5t22.5 43.5l42 -22
q-15 -45 -37 -70.5t-66 -25.5q-30 0 -49.5 11z" />
    <glyph glyph-name="itilde" unicode="&#x129;" horiz-adv-x="324" 
d="M130 489l-78 17v45l137 16h2l20 -16v-501l87 -7v-43h-256v43l88 8v438zM15.5 768.5q28.5 29.5 76.5 29.5q30 0 50 -12t46 -36q17 -17 29 -25t26 -8q28 0 44 21t19 41l46 -21q-31 -101 -113 -101q-29 0 -48.5 12t-43.5 35q-19 18 -31 26t-27 8q-28 0 -42 -15.5
t-20.5 -29.5t-8.5 -17l-41 23q10 40 38.5 69.5z" />
    <glyph glyph-name="Imacron" unicode="&#x12a;" horiz-adv-x="397" 
d="M157 689l-97 11v43h277v-43l-97 -11v-637l97 -10v-42h-277v43l97 9v637zM341 859h-284v63h284v-63z" />
    <glyph glyph-name="imacron" unicode="&#x12b;" horiz-adv-x="324" 
d="M130 489l-78 17v45l137 16h2l20 -16v-501l87 -7v-43h-256v43l88 8v438zM293 675h-261v61h261v-61z" />
    <glyph glyph-name="Ibreve" unicode="&#x12c;" horiz-adv-x="397" 
d="M157 689l-97 11v43h277v-43l-97 -11v-637l97 -10v-42h-277v43l97 9v637zM80 849q-43 41 -43 105q0 13 1 20h46q0 -8 1 -14q6 -35 32 -60.5t82 -25.5q58 0 84 26t32 61q1 6 1 13h44q1 -7 1 -19q0 -63 -44.5 -105t-117.5 -42q-76 0 -119 41z" />
    <glyph glyph-name="ibreve" unicode="&#x12d;" horiz-adv-x="324" 
d="M130 489l-78 17v45l137 16h2l20 -16v-501l87 -7v-43h-256v43l88 8v438zM78.5 689q-36.5 23 -56 60.5t-19.5 81.5q0 15 2 23h45q0 -10 1 -17q4 -39 31.5 -70.5t82.5 -31.5t81.5 31.5t29.5 70.5q2 13 1 17h44q2 -16 2 -22q0 -43 -19.5 -81.5t-55.5 -61.5t-83 -23
q-50 0 -86.5 23z" />
    <glyph glyph-name="Iogonek" unicode="&#x12e;" horiz-adv-x="397" 
d="M157 689l-97 11v43h277v-43l-97 -11v-637l97 -10v-42h-51q-47 -21 -81 -59.5t-34 -69.5q0 -33 21.5 -48.5t56.5 -15.5q40 0 78 20v-42q-21 -16 -51.5 -25t-61.5 -9q-52 0 -87 22.5t-35 71.5q0 39 40.5 85.5t91.5 69.5h-164v43l97 9v637z" />
    <glyph glyph-name="iogonek" unicode="&#x12f;" horiz-adv-x="324" 
d="M106 717q0 29 17 47.5t46 18.5q30 0 43 -16.5t13 -40.5q0 -31 -16.5 -48.5t-47.5 -17.5h-1q-54 0 -54 57zM80 -218.5q-32 24.5 -32 67.5q0 40 33 83t83 68h-122v43l88 8v438l-78 17v45l137 16h2l20 -16v-501l87 -7v-43h-68q-43 -19 -75 -58t-32 -70t17 -47t46 -16
t53.5 11t53.5 28v-43q-29 -22 -58.5 -35t-82.5 -13q-40 0 -72 24.5z" />
    <glyph glyph-name="Idotaccent" unicode="&#x130;" horiz-adv-x="397" 
d="M157 689l-97 11v43h277v-43l-97 -11v-637l97 -10v-42h-277v43l97 9v637zM157 852q-14 16 -14 41q0 28 15.5 47t43.5 19q24 0 38.5 -17.5t14.5 -40.5q0 -28 -16 -46.5t-45 -18.5q-23 0 -37 16z" />
    <glyph glyph-name="dotlessi" unicode="&#x131;" horiz-adv-x="324" 
d="M130 489l-78 17v45l137 16h2l20 -16v-501l87 -7v-43h-256v43l88 8v438z" />
    <glyph glyph-name="IJ" unicode="&#x132;" horiz-adv-x="772" 
d="M157 689l-97 11v43h277v-43l-97 -11v-637l97 -10v-42h-277v43l97 9v637zM478 -91.5q36 33.5 51 82.5q13 41 16.5 92t3.5 170v435l-100 12v43h279v-43l-96 -12v-413v-78q0 -63 -2 -103.5t-8 -72.5q-16 -81 -74.5 -131t-129.5 -63l-22 36q46 12 82 45.5z" />
    <glyph glyph-name="ij" unicode="&#x133;" horiz-adv-x="632" 
d="M108 717q0 29 17 47.5t46 18.5q30 0 43 -16.5t13 -40.5q0 -31 -16.5 -48.5t-47.5 -17.5h-1q-54 0 -54 57zM130 489l-78 17v45l137 16h2l20 -16v-501l87 -7v-43h-256v43l88 8v438zM430 717q0 29 17 47.5t46 18.5q30 0 43 -16.5t13 -40.5q0 -31 -16.5 -48.5t-47.5 -17.5h-1
q-54 0 -54 57zM368 551l139 16h2l19 -16v-545q0 -235 -153 -249q-12 -1 -32.5 0t-24.5 4l-4 41q8 -1 24 1.5t33 8.5q43 13 60 68t17 145l-1 460l-79 18v48z" />
    <glyph glyph-name="Jcircumflex" unicode="&#x134;" horiz-adv-x="375" 
d="M81 -91.5q36 33.5 51 82.5q13 41 16.5 92t3.5 170v435l-100 12v43h279v-43l-96 -12v-413v-78q0 -63 -2 -103.5t-8 -72.5q-16 -81 -74.5 -131t-129.5 -63l-22 36q46 12 82 45.5zM229 983l129 -144l-36 -22l-130 106l-133 -106l-33 21l128 145h75z" />
    <glyph glyph-name="jcircumflex" unicode="&#x135;" horiz-adv-x="308" 
d="M44 551l139 16h2l19 -16v-545q0 -235 -153 -249q-12 -1 -32.5 0t-24.5 4l-4 41q8 -1 24 1.5t33 8.5q43 13 60 68t17 145l-1 460l-79 18v48zM199 858l135 -195l-35 -21l-138 151l-144 -151l-32 20l139 196h75z" />
    <glyph glyph-name="Kcommaaccent" unicode="&#x136;" horiz-adv-x="714" 
d="M545.5 41.5q-28.5 41.5 -79.5 130.5q-49 84 -78.5 130t-57.5 75l-109 -123v-202l94 -10v-42h-262v43l86 9v637l-84 11v43h252v-43l-86 -11v-364l313 364l-85 11v43h232v-43l-73 -11l-230 -257q35 -29 72 -81t101 -149q49 -76 75.5 -112t39.5 -37l47 -11v-42h-120
q-19 0 -47.5 41.5zM438 -203.5q-15 -29.5 -33 -47.5t-27 -21h-1l-27 19v6q15 7 24.5 28t9.5 44q0 13 -5.5 21t-15.5 15q-9 6 -14 14.5t-5 22.5q0 24 15 34t29 10h4q28 0 44.5 -21t16.5 -59q0 -36 -15 -65.5z" />
    <glyph glyph-name="kcommaaccent" unicode="&#x137;" horiz-adv-x="581" 
d="M102 756l-82 9v37l143 17h1l19 -13v-497l-2 -63l248 255l-75 14v40h230v-40l-77 -14l-162 -159l199 -292l66 -7v-43h-229v43l69 8l-157 246l-112 -110l2 -51v-85l77 -8v-43h-224v43l66 8v705zM371 -203.5q-15 -29.5 -33 -47.5t-27 -21h-1l-27 19v6q15 7 24.5 28t9.5 44
q0 13 -5.5 21t-15.5 15q-9 6 -14 14.5t-5 22.5q0 24 15 34t29 10h4q28 0 44.5 -21t16.5 -59q0 -36 -15 -65.5z" />
    <glyph glyph-name="kgreenlandic" unicode="&#x138;" horiz-adv-x="656" 
d="M122 489l-79 17v45l138 16h2l19 -16v-202l-2 -101l254 252l-82 13v41h236v-41l-69 -9l-173 -170l202 -285l68 -7v-42h-220v41l57 8l-160 238l-113 -102l2 -50v-86l83 -8v-41h-246v42l83 7v440z" />
    <glyph glyph-name="Lacute" unicode="&#x139;" horiz-adv-x="631" 
d="M139 689l-84 11v43h266v-43l-100 -11v-637l285 8l56 156l48 -8l-37 -208h-520v43l86 9v637zM110 827l136 153l69 -44q-24 -33 -74 -73.5t-89 -60.5z" />
    <glyph glyph-name="lacute" unicode="&#x13a;" horiz-adv-x="329" 
d="M89 830l166 150l56 -51q-23 -30 -86.5 -68.5t-107.5 -56.5zM39 42l88 7v640l-85 6v36l146 18l20 -14v-686l94 -7v-42h-263v42z" />
    <glyph glyph-name="Lcommaaccent" unicode="&#x13b;" horiz-adv-x="631" 
d="M139 689l-84 11v43h266v-43l-100 -11v-637l285 8l56 156l48 -8l-37 -208h-520v43l86 9v637zM365 -203.5q-15 -29.5 -33 -47.5t-27 -21h-1l-27 19v6q15 7 24.5 28t9.5 44q0 13 -5.5 21t-15.5 15q-9 6 -14 14.5t-5 22.5q0 24 15 34t29 10h4q28 0 44.5 -21t16.5 -59
q0 -36 -15 -65.5z" />
    <glyph glyph-name="lcommaaccent" unicode="&#x13c;" horiz-adv-x="329" 
d="M127 756l-85 9v37l146 17h1l19 -13v-756l94 -7v-43h-263v43l88 8v705zM224 -203.5q-15 -29.5 -33 -47.5t-27 -21h-1l-27 19v6q15 7 24.5 28t9.5 44q0 13 -5.5 21t-15.5 15q-9 6 -14 14.5t-5 22.5q0 24 15 34t29 10h4q28 0 44.5 -21t16.5 -59q0 -36 -15 -65.5z" />
    <glyph glyph-name="Lcaron" unicode="&#x13d;" horiz-adv-x="631" 
d="M139 689l-84 11v43h266v-43l-100 -11v-637l285 8l56 156l48 -8l-37 -208h-520v43l86 9v637zM453 601l-3 6q6 54 6 98q0 63 -11 86l5 17h74q9 -27 9 -73q0 -24 -9.5 -68.5t-22.5 -65.5h-48z" />
    <glyph glyph-name="lcaron" unicode="&#x13e;" horiz-adv-x="329" 
d="M127 756l-85 9v37l146 17h1l19 -13v-756l94 -7v-43h-263v43l88 8v705zM293 601l-3 6q6 54 6 98q0 63 -11 86l5 17h74q9 -27 9 -73q0 -24 -9.5 -68.5t-22.5 -65.5h-48z" />
    <glyph glyph-name="Ldot" unicode="&#x13f;" horiz-adv-x="693" 
d="M139 689l-84 11v43h266v-43l-100 -11v-637l285 8l56 156l48 -8l-37 -208h-520v43l86 9v637zM560 343.5q-16 15.5 -16 40.5q0 28 19.5 47t45.5 19q27 0 40.5 -16t13.5 -40q0 -28 -19 -47t-45 -19q-23 0 -39 15.5z" />
    <glyph glyph-name="ldot" unicode="&#x140;" horiz-adv-x="460" 
d="M127 756l-85 9v37l146 17h1l19 -13v-756l94 -7v-43h-263v43l88 8v705zM342 335.5q-16 15.5 -16 40.5q0 28 19.5 47t45.5 19q27 0 40.5 -16t13.5 -40q0 -28 -19 -47t-45 -19q-23 0 -39 15.5z" />
    <glyph glyph-name="Lslash" unicode="&#x141;" horiz-adv-x="633" 
d="M139 689l-84 11v43h266v-43l-100 -11v-226l209 93v-54l-209 -92v-358l285 8l56 156l48 -8l-37 -208h-520v43l86 9v324l-114 -49v51l114 50v261z" />
    <glyph glyph-name="lslash" unicode="&#x142;" horiz-adv-x="343" 
d="M130 756l-85 9v37l146 17h1l19 -13v-307l119 56v-60l-119 -54v-391l94 -7v-43h-263v43l88 8v354l-109 -51v55l109 53v294z" />
    <glyph glyph-name="Nacute" unicode="&#x143;" horiz-adv-x="797" 
d="M136 689l-80 11v43h161l354 -513l57 -100v559l-88 11v43h228v-43l-82 -11v-689h-52l-358 515l-82 133v-596l91 -9v-43h-229v43l80 10v636zM338 827l136 153l69 -44q-24 -33 -74 -73.5t-89 -60.5z" />
    <glyph glyph-name="nacute" unicode="&#x144;" horiz-adv-x="653" 
d="M108 489l-77 17v45l127 16h3l19 -16v-44l-1 -25q37 32 98 59t113 27q64 0 98.5 -24.5t48 -75t13.5 -135.5v-283l75 -7v-43h-223v43l67 7v284q0 63 -8.5 99t-33 54.5t-71.5 18.5q-40 0 -86.5 -20t-80.5 -47v-388l73 -8v-43h-221v43l67 8v438zM243 686l155 193l68 -55
q-20 -30 -88.5 -89.5t-103.5 -75.5z" />
    <glyph glyph-name="Ncommaaccent" unicode="&#x145;" horiz-adv-x="797" 
d="M136 689l-80 11v43h161l354 -513l57 -100v559l-88 11v43h228v-43l-82 -11v-689h-52l-358 515l-82 133v-596l91 -9v-43h-229v43l80 10v636zM448 -203.5q-15 -29.5 -33 -47.5t-27 -21h-1l-27 19v6q15 7 24.5 28t9.5 44q0 13 -5.5 21t-15.5 15q-9 6 -14 14.5t-5 22.5
q0 24 15 34t29 10h4q28 0 44.5 -21t16.5 -59q0 -36 -15 -65.5z" />
    <glyph glyph-name="ncommaaccent" unicode="&#x146;" horiz-adv-x="653" 
d="M108 489l-77 17v45l127 16h3l19 -16v-44l-1 -25q37 32 98 59t113 27q64 0 98.5 -24.5t48 -75t13.5 -135.5v-283l75 -7v-43h-223v43l67 7v284q0 63 -8.5 99t-33 54.5t-71.5 18.5q-40 0 -86.5 -20t-80.5 -47v-388l73 -8v-43h-221v43l67 8v438zM376 -203.5
q-15 -29.5 -33 -47.5t-27 -21h-1l-27 19v6q15 7 24.5 28t9.5 44q0 13 -5.5 21t-15.5 15q-9 6 -14 14.5t-5 22.5q0 24 15 34t29 10h4q28 0 44.5 -21t16.5 -59q0 -36 -15 -65.5z" />
    <glyph glyph-name="Ncaron" unicode="&#x147;" horiz-adv-x="797" 
d="M136 689l-80 11v43h161l354 -513l57 -100v559l-88 11v43h228v-43l-82 -11v-689h-52l-358 515l-82 133v-596l91 -9v-43h-229v43l80 10v636zM410 882l124 100l33 -21l-119 -135h-76l-121 134l36 22z" />
    <glyph glyph-name="ncaron" unicode="&#x148;" horiz-adv-x="653" 
d="M108 489l-77 17v45l127 16h3l19 -16v-44l-1 -25q37 32 98 59t113 27q64 0 98.5 -24.5t48 -75t13.5 -135.5v-283l75 -7v-43h-223v43l67 7v284q0 63 -8.5 99t-33 54.5t-71.5 18.5q-40 0 -86.5 -20t-80.5 -47v-388l73 -8v-43h-221v43l67 8v438zM311 706l142 151l31 -20
l-135 -195h-76l-136 194l35 21z" />
    <glyph glyph-name="Eng" unicode="&#x14a;" horiz-adv-x="784" 
d="M137 689l-80 12v42h164l332 -513l76 -135v594l-85 12v42h224v-42l-81 -12v-520q0 -107 -15.5 -160t-46.5 -88q-40 -44 -83 -64.5t-96 -26.5l-22 35q100 22 149 93q19 27 28 55l-329 502l-77 140v-603l91 -10v-42h-229v42l80 10v637z" />
    <glyph glyph-name="eng" unicode="&#x14b;" horiz-adv-x="666" 
d="M121 490l-79 17v45l128 16h3l19 -16v-41l-1 -28q37 32 98 59t113 27q64 0 98.5 -24t48 -73.5t13.5 -134.5v-326q0 -122 -41 -186t-117 -70q-47 0 -53 4l-4 42q7 -1 24.5 1.5t28.5 6.5q44 13 62.5 67.5t18.5 145.5v315q0 63 -8.5 98t-32.5 53t-72 18q-39 0 -85.5 -19.5
t-81.5 -46.5v-389l72 -8v-43h-220v43l68 8v439z" />
    <glyph glyph-name="Omacron" unicode="&#x14c;" horiz-adv-x="719" 
d="M178.5 36.5q-69.5 47.5 -105.5 132.5t-36 197q0 115 44 202.5t120 135t169 47.5q99 0 169.5 -46t107 -130t36.5 -197q0 -116 -45 -204.5t-122 -136.5t-171 -48q-97 0 -166.5 47.5zM191 617.5q-63 -86.5 -63 -251.5q0 -96 27 -171t79 -117t124 -42q70 0 122 38.5t81 115.5
t29 188q0 97 -27 170.5t-78.5 114.5t-123.5 41q-107 0 -170 -86.5zM502 859h-284v63h284v-63z" />
    <glyph glyph-name="omacron" unicode="&#x14d;" horiz-adv-x="595" 
d="M81.5 434q36.5 66 96 101t124.5 35q126 0 186.5 -82t60.5 -210q0 -87 -36.5 -153t-96 -101t-124.5 -35q-126 0 -186.5 82t-60.5 210q0 87 36.5 153zM416 100q42 59 42 172q0 108 -39 177t-121 69q-77 0 -119.5 -59t-42.5 -172q0 -109 39.5 -177.5t121.5 -68.5
q77 0 119 59zM429 675h-261v61h261v-61z" />
    <glyph glyph-name="Obreve" unicode="&#x14e;" horiz-adv-x="719" 
d="M178.5 36.5q-69.5 47.5 -105.5 132.5t-36 197q0 115 44 202.5t120 135t169 47.5q99 0 169.5 -46t107 -130t36.5 -197q0 -116 -45 -204.5t-122 -136.5t-171 -48q-97 0 -166.5 47.5zM191 617.5q-63 -86.5 -63 -251.5q0 -96 27 -171t79 -117t124 -42q70 0 122 38.5t81 115.5
t29 188q0 97 -27 170.5t-78.5 114.5t-123.5 41q-107 0 -170 -86.5zM241 849q-43 41 -43 105q0 13 1 20h46q0 -8 1 -14q6 -35 32 -60.5t82 -25.5q58 0 84 26t32 61q1 6 1 13h44q1 -7 1 -19q0 -63 -44.5 -105t-117.5 -42q-76 0 -119 41z" />
    <glyph glyph-name="obreve" unicode="&#x14f;" horiz-adv-x="595" 
d="M81.5 434q36.5 66 96 101t124.5 35q126 0 186.5 -82t60.5 -210q0 -87 -36.5 -153t-96 -101t-124.5 -35q-126 0 -186.5 82t-60.5 210q0 87 36.5 153zM416 100q42 59 42 172q0 108 -39 177t-121 69q-77 0 -119.5 -59t-42.5 -172q0 -109 39.5 -177.5t121.5 -68.5
q77 0 119 59zM214.5 689q-36.5 23 -56 60.5t-19.5 81.5q0 15 2 23h45q0 -10 1 -17q4 -39 31.5 -70.5t82.5 -31.5t81.5 31.5t29.5 70.5q2 13 1 17h44q2 -16 2 -22q0 -43 -19.5 -81.5t-55.5 -61.5t-83 -23q-50 0 -86.5 23z" />
    <glyph glyph-name="Ohungarumlaut" unicode="&#x150;" horiz-adv-x="719" 
d="M178.5 36.5q-69.5 47.5 -105.5 132.5t-36 197q0 115 44 202.5t120 135t169 47.5q99 0 169.5 -46t107 -130t36.5 -197q0 -116 -45 -204.5t-122 -136.5t-171 -48q-97 0 -166.5 47.5zM191 617.5q-63 -86.5 -63 -251.5q0 -96 27 -171t79 -117t124 -42q70 0 122 38.5t81 115.5
t29 188q0 97 -27 170.5t-78.5 114.5t-123.5 41q-107 0 -170 -86.5zM392 936q-31 -35 -72.5 -68.5t-81.5 -58.5l-35 30l132 143zM613 932q-28 -32 -72.5 -65.5t-85.5 -57.5l-35 31l142 140z" />
    <glyph glyph-name="ohungarumlaut" unicode="&#x151;" horiz-adv-x="595" 
d="M81.5 434q36.5 66 96 101t124.5 35q126 0 186.5 -82t60.5 -210q0 -87 -36.5 -153t-96 -101t-124.5 -35q-126 0 -186.5 82t-60.5 210q0 87 36.5 153zM416 100q42 59 42 172q0 108 -39 177t-121 69q-77 0 -119.5 -59t-42.5 -172q0 -109 39.5 -177.5t121.5 -68.5
q77 0 119 59zM145 686l157 197l57 -48q-21 -35 -82 -91.5t-99 -82.5zM376 688l165 191l53 -47q-19 -32 -82.5 -88.5t-103.5 -82.5z" />
    <glyph glyph-name="OE" unicode="&#x152;" horiz-adv-x="1027" 
d="M348 -8q-97 0 -167 47t-107 132t-37 196q0 116 45.5 204.5t123.5 136t172 47.5q71 0 127 -27v15h410l14 -150h-47l-27 97l-269 5v-288l186 3l12 82h51v-221h-51l-12 86l-186 3v-311l310 10l58 125l47 -13l-38 -171h-458v32q-72 -40 -157 -40zM505 96v563q-52 50 -141 50
q-72 0 -125.5 -40t-83 -117t-29.5 -185q0 -91 28 -166t81.5 -118.5t126.5 -43.5q89 0 143 57z" />
    <glyph glyph-name="oe" unicode="&#x153;" horiz-adv-x="958" 
d="M107 68q-61 79 -61 213q0 87 37 152.5t96.5 101t125.5 35.5q73 0 125 -30.5t80 -87.5q35 56 89.5 87t121.5 31q88 0 138 -51t54 -147q0 -62 -6 -88h-356q0 -104 47 -171t133 -67q42 0 86 15t69 36l16 -37q-30 -30 -85 -50.5t-110 -20.5q-72 0 -124 31.5t-82 89.5
q-34 -56 -88 -88.5t-119 -32.5q-126 0 -187 79zM823 331q2 28 2 44q0 66 -30 105t-94 39q-137 0 -149 -188h271zM417.5 99.5q42.5 57.5 42.5 173.5q0 110 -40 177.5t-121 67.5q-78 0 -120 -59.5t-42 -171.5q0 -116 41 -180.5t120 -64.5q77 0 119.5 57.5z" />
    <glyph glyph-name="Racute" unicode="&#x154;" horiz-adv-x="693" 
d="M50 43l86 9v638l-80 12v41h122q27 0 77 4q48 4 71 4q143 0 204 -48t61 -148q0 -73 -40.5 -132t-109.5 -79q26 -17 52.5 -56.5t65.5 -109.5q34 -61 54.5 -91.5t36.5 -33.5l42 -11v-42h-117q-16 0 -37 34t-59 110q-41 83 -67.5 127t-52.5 59q-122 0 -141 1v-279l103 -9v-43
h-271v43zM462 422q40 43 40 126q0 73 -41 113.5t-143 40.5q-35 0 -69 -4q-24 -2 -31 -2v-316q18 -1 72 -1h63q69 0 109 43zM276 827l136 153l69 -44q-24 -33 -74 -73.5t-89 -60.5z" />
    <glyph glyph-name="racute" unicode="&#x155;" horiz-adv-x="450" 
d="M49 42l80 6v441l-77 17v45l127 16h2l19 -16v-16l-2 -76h2q2 2 26.5 30.5t73 54.5t97.5 26q16 0 30 -4v-88q-4 3 -17.5 6t-28.5 3q-57 0 -97 -17t-74 -42v-379l133 -8v-41h-294v42zM187 686l155 193l68 -55q-20 -30 -88.5 -89.5t-103.5 -75.5z" />
    <glyph glyph-name="Rcommaaccent" unicode="&#x156;" horiz-adv-x="693" 
d="M50 43l86 9v638l-80 12v41h122q27 0 77 4q48 4 71 4q143 0 204 -48t61 -148q0 -73 -40.5 -132t-109.5 -79q26 -17 52.5 -56.5t65.5 -109.5q34 -61 54.5 -91.5t36.5 -33.5l42 -11v-42h-117q-16 0 -37 34t-59 110q-41 83 -67.5 127t-52.5 59q-122 0 -141 1v-279l103 -9v-43
h-271v43zM462 422q40 43 40 126q0 73 -41 113.5t-143 40.5q-35 0 -69 -4q-24 -2 -31 -2v-316q18 -1 72 -1h63q69 0 109 43zM426 -203.5q-15 -29.5 -33 -47.5t-27 -21h-1l-27 19v6q15 7 24.5 28t9.5 44q0 13 -5.5 21t-15.5 15q-9 6 -14 14.5t-5 22.5q0 24 15 34t29 10h4
q28 0 44.5 -21t16.5 -59q0 -36 -15 -65.5z" />
    <glyph glyph-name="rcommaaccent" unicode="&#x157;" horiz-adv-x="450" 
d="M49 42l80 6v441l-77 17v45l127 16h2l19 -16v-16l-2 -76h2q2 2 26.5 30.5t73 54.5t97.5 26q16 0 30 -4v-88q-4 3 -17.5 6t-28.5 3q-57 0 -97 -17t-74 -42v-379l133 -8v-41h-294v42zM244 -203.5q-15 -29.5 -33 -47.5t-27 -21h-1l-27 19v6q15 7 24.5 28t9.5 44q0 13 -5.5 21
t-15.5 15q-9 6 -14 14.5t-5 22.5q0 24 15 34t29 10h4q28 0 44.5 -21t16.5 -59q0 -36 -15 -65.5z" />
    <glyph glyph-name="Rcaron" unicode="&#x158;" horiz-adv-x="693" 
d="M50 43l86 9v638l-80 12v41h122q27 0 77 4q48 4 71 4q143 0 204 -48t61 -148q0 -73 -40.5 -132t-109.5 -79q26 -17 52.5 -56.5t65.5 -109.5q34 -61 54.5 -91.5t36.5 -33.5l42 -11v-42h-117q-16 0 -37 34t-59 110q-41 83 -67.5 127t-52.5 59q-122 0 -141 1v-279l103 -9v-43
h-271v43zM462 422q40 43 40 126q0 73 -41 113.5t-143 40.5q-35 0 -69 -4q-24 -2 -31 -2v-316q18 -1 72 -1h63q69 0 109 43zM348 882l124 100l33 -21l-119 -135h-76l-121 134l36 22z" />
    <glyph glyph-name="rcaron" unicode="&#x159;" horiz-adv-x="450" 
d="M49 42l80 6v441l-77 17v45l127 16h2l19 -16v-16l-2 -76h2q2 2 26.5 30.5t73 54.5t97.5 26q16 0 30 -4v-88q-4 3 -17.5 6t-28.5 3q-57 0 -97 -17t-74 -42v-379l133 -8v-41h-294v42zM255 706l142 151l31 -20l-135 -195h-76l-136 194l35 21z" />
    <glyph glyph-name="Sacute" unicode="&#x15a;" horiz-adv-x="588" 
d="M196 -2q-39 9 -90 25q-34 11 -41 12l8 178h52l15 -131q19 -18 60.5 -31t90.5 -13q81 0 124 37t43 102q0 42 -22.5 71t-58 49t-98.5 47q-59 25 -100.5 50t-72.5 67.5t-31 101.5q0 55 30 98t83.5 66.5t122.5 23.5q42 0 74.5 -6.5t82.5 -20.5q27 -8 32 -9l-6 -164h-50
l-18 124q-12 10 -46.5 19.5t-73.5 9.5q-74 0 -113 -30.5t-39 -90.5q0 -41 21 -68.5t54 -46.5t102 -51q72 -34 112.5 -58.5t71 -64t30.5 -95.5q0 -53 -31 -101.5t-90 -78.5t-138 -30q-51 0 -90 9zM253 827l136 153l69 -44q-24 -33 -74 -73.5t-89 -60.5z" />
    <glyph glyph-name="sacute" unicode="&#x15b;" horiz-adv-x="496" 
d="M127 79q11 -17 46 -30t75 -13q122 0 122 90q0 41 -34 66.5t-116 56.5q-81 29 -118 69t-37 107q0 43 26.5 75t71 49.5t96.5 17.5q51 0 85.5 -9t68.5 -22v-119h-49l-18 73q-7 13 -35.5 22t-62.5 9q-48 0 -78 -21.5t-30 -57.5q0 -32 15 -53t37 -33.5t61 -28.5l19 -8
q57 -22 92 -41.5t58 -51t23 -78.5q0 -74 -56.5 -116.5t-150.5 -42.5q-43 0 -98 14t-82 28v126h54zM180 686l155 193l68 -55q-20 -30 -88.5 -89.5t-103.5 -75.5z" />
    <glyph glyph-name="Scircumflex" unicode="&#x15c;" horiz-adv-x="588" 
d="M196 -2q-39 9 -90 25q-34 11 -41 12l8 178h52l15 -131q19 -18 60.5 -31t90.5 -13q81 0 124 37t43 102q0 42 -22.5 71t-58 49t-98.5 47q-59 25 -100.5 50t-72.5 67.5t-31 101.5q0 55 30 98t83.5 66.5t122.5 23.5q42 0 74.5 -6.5t82.5 -20.5q27 -8 32 -9l-6 -164h-50
l-18 124q-12 10 -46.5 19.5t-73.5 9.5q-74 0 -113 -30.5t-39 -90.5q0 -41 21 -68.5t54 -46.5t102 -51q72 -34 112.5 -58.5t71 -64t30.5 -95.5q0 -53 -31 -101.5t-90 -78.5t-138 -30q-51 0 -90 9zM362 983l129 -144l-36 -22l-130 106l-133 -106l-33 21l128 145h75z" />
    <glyph glyph-name="scircumflex" unicode="&#x15d;" horiz-adv-x="496" 
d="M127 79q11 -17 46 -30t75 -13q122 0 122 90q0 41 -34 66.5t-116 56.5q-81 29 -118 69t-37 107q0 43 26.5 75t71 49.5t96.5 17.5q51 0 85.5 -9t68.5 -22v-119h-49l-18 73q-7 13 -35.5 22t-62.5 9q-48 0 -78 -21.5t-30 -57.5q0 -32 15 -53t37 -33.5t61 -28.5l19 -8
q57 -22 92 -41.5t58 -51t23 -78.5q0 -74 -56.5 -116.5t-150.5 -42.5q-43 0 -98 14t-82 28v126h54zM286 858l135 -195l-35 -21l-138 151l-144 -151l-32 20l139 196h75z" />
    <glyph glyph-name="Scedilla" unicode="&#x15e;" horiz-adv-x="588" 
d="M73 213h52l15 -131q19 -18 60.5 -31t90.5 -13q81 0 124 37t43 102q0 42 -22.5 71t-58 49t-98.5 47q-59 25 -100.5 50t-72.5 67.5t-31 101.5q0 55 30 98t83.5 66.5t122.5 23.5q42 0 74.5 -6.5t82.5 -20.5q27 -8 32 -9l-6 -164h-50l-18 124q-12 10 -46.5 19.5t-73.5 9.5
q-74 0 -113 -30.5t-39 -90.5q0 -41 21 -68.5t54 -46.5t102 -51q72 -34 112.5 -58.5t71 -64t30.5 -95.5q0 -49 -26.5 -94t-77 -76t-118.5 -38q20 -22 37 -57t17 -70q0 -53 -31 -76t-91 -23q-17 0 -37 4t-34 9l1 59q10 -3 23.5 -5.5t22.5 -2.5q40 0 58 14t18 57q0 23 -8.5 47
t-18.5 42q-50 1 -91 10.5t-83 24.5q-8 2 -21.5 6t-19.5 5z" />
    <glyph glyph-name="scedilla" unicode="&#x15f;" horiz-adv-x="496" 
d="M172 -231q-20 4 -34 9l1 59q10 -3 23.5 -5.5t22.5 -2.5q40 0 58 14t18 57q0 23 -8.5 47t-18.5 42q-44 1 -97 14.5t-79 27.5v126h54l15 -78q11 -17 46 -30t75 -13q122 0 122 90q0 41 -34 66.5t-116 56.5q-81 29 -118 69t-37 107q0 43 26.5 75t71 49.5t96.5 17.5
q51 0 85.5 -9t68.5 -22v-119h-49l-18 73q-7 13 -35.5 22t-62.5 9q-48 0 -78 -21.5t-30 -57.5q0 -32 15 -53t37 -33.5t61 -28.5l19 -8q57 -22 92 -41.5t58 -51t23 -78.5q0 -66 -45.5 -107.5t-122.5 -49.5q20 -23 37 -57.5t17 -69.5q0 -53 -31 -76t-91 -23q-17 0 -37 4z" />
    <glyph glyph-name="Scaron" unicode="&#x160;" horiz-adv-x="588" 
d="M196 -2q-39 9 -90 25q-34 11 -41 12l8 178h52l15 -131q19 -18 60.5 -31t90.5 -13q81 0 124 37t43 102q0 42 -22.5 71t-58 49t-98.5 47q-59 25 -100.5 50t-72.5 67.5t-31 101.5q0 55 30 98t83.5 66.5t122.5 23.5q42 0 74.5 -6.5t82.5 -20.5q27 -8 32 -9l-6 -164h-50
l-18 124q-12 10 -46.5 19.5t-73.5 9.5q-74 0 -113 -30.5t-39 -90.5q0 -41 21 -68.5t54 -46.5t102 -51q72 -34 112.5 -58.5t71 -64t30.5 -95.5q0 -53 -31 -101.5t-90 -78.5t-138 -30q-51 0 -90 9zM325 882l124 100l33 -21l-119 -135h-76l-121 134l36 22z" />
    <glyph glyph-name="scaron" unicode="&#x161;" horiz-adv-x="496" 
d="M127 79q11 -17 46 -30t75 -13q122 0 122 90q0 41 -34 66.5t-116 56.5q-81 29 -118 69t-37 107q0 43 26.5 75t71 49.5t96.5 17.5q51 0 85.5 -9t68.5 -22v-119h-49l-18 73q-7 13 -35.5 22t-62.5 9q-48 0 -78 -21.5t-30 -57.5q0 -32 15 -53t37 -33.5t61 -28.5l19 -8
q57 -22 92 -41.5t58 -51t23 -78.5q0 -74 -56.5 -116.5t-150.5 -42.5q-43 0 -98 14t-82 28v126h54zM248 706l142 151l31 -20l-135 -195h-76l-136 194l35 21z" />
    <glyph glyph-name="uni0162" unicode="&#x162;" horiz-adv-x="679" 
d="M35 743h609l11 -254h-53l-28 203l-193 6v-646l143 -9v-43h-164q21 -19 42 -58t21 -79q0 -53 -30.5 -75.5t-91.5 -22.5q-17 0 -37 4t-34 9l1 59q10 -3 23.5 -5.5t22.5 -2.5q40 0 58 14t18 57q0 27 -11.5 55.5t-22.5 44.5h-155v43l131 9v646l-190 -6l-32 -203h-55z" />
    <glyph glyph-name="uni0163" unicode="&#x163;" horiz-adv-x="406" 
d="M35 535q50 11 58 16q15 8 22 31q6 15 16 54t15 61h46v-142h177v-59h-177v-324q0 -58 4 -81.5t16 -30.5t42 -7q29 0 65 8t54 17l13 -38q-17 -13 -53.5 -26.5t-72.5 -20.5q21 -23 38.5 -58t17.5 -71q0 -53 -31 -76t-91 -23q-17 0 -37 4t-34 9l1 59q10 -3 23.5 -5.5
t22.5 -2.5q40 0 58 14t18 57q0 23 -8.5 47.5t-19.5 41.5q-53 0 -80 24.5t-27 87.5v395h-76v39z" />
    <glyph glyph-name="Tcaron" unicode="&#x164;" horiz-adv-x="679" 
d="M295 698l-190 -6l-32 -203h-55l17 254h609l11 -254h-53l-28 203l-193 6v-646l143 -9v-43h-360v43l131 9v646zM341 882l124 100l33 -21l-119 -135h-76l-121 134l36 22z" />
    <glyph glyph-name="tcaron" unicode="&#x165;" horiz-adv-x="406" 
d="M138 13.5q-27 24.5 -27 87.5v395h-76v39q50 11 58 16q15 8 22 31q6 15 16 54t15 61h46v-142h177v-59h-177v-324q0 -58 4 -81.5t16 -30.5t42 -7q29 0 65 8t54 17l13 -38q-23 -18 -76 -34.5t-92 -16.5q-53 0 -80 24.5zM315 601l-3 6q6 54 6 98q0 63 -11 86l5 17h74
q9 -27 9 -73q0 -24 -9.5 -68.5t-22.5 -65.5h-48z" />
    <glyph glyph-name="Tbar" unicode="&#x166;" horiz-adv-x="697" 
d="M305 698l-190 -6l-32 -203h-55l16 254h610l11 -254h-54l-28 203l-192 6v-325h126v-54h-126v-267l143 -9v-43h-360v43l131 9v267h-125v54h125v325z" />
    <glyph glyph-name="tbar" unicode="&#x167;" horiz-adv-x="406" 
d="M111 496h-76v39q50 11 58 16q15 8 22 31q6 15 16 54t15 61h46v-142h177v-59h-177v-136h177v-55h-177v-133q0 -58 4 -81.5t16 -30.5t42 -7q29 0 65 8t54 17h1l12 -38q-23 -18 -76 -34.5t-92 -16.5h-1q-53 0 -79.5 24.5t-26.5 87.5v204h-75v55h75v136z" />
    <glyph glyph-name="Utilde" unicode="&#x168;" horiz-adv-x="738" 
d="M168.5 71.5q-66.5 79.5 -66.5 246.5v371l-75 11v43h245v-43l-86 -11v-380q0 -146 52.5 -207t148.5 -61t145 66t49 194v387l-83 12v43h222v-43l-76 -11v-384q0 -156 -72.5 -234.5t-192.5 -78.5q-144 0 -210.5 79.5zM413.5 830q-19.5 11 -45.5 32q-17 15 -29.5 22.5
t-27.5 7.5q-26 0 -37.5 -15t-21.5 -43l-42 22q33 96 109 96q30 0 50 -11.5t44 -33.5q15 -15 27 -23t26 -8q22 0 35.5 17.5t22.5 43.5l42 -22q-15 -45 -37 -70.5t-66 -25.5q-30 0 -49.5 11z" />
    <glyph glyph-name="utilde" unicode="&#x169;" horiz-adv-x="628" 
d="M465 0q-12 9 -12 33v39q-37 -33 -87 -58t-100 -25q-91 0 -129.5 51t-38.5 166v294l-59 17v37l121 13h1l18 -12v-337q0 -63 9 -98.5t33 -52.5t70 -17q44 0 84 19t69 45v386l-76 17v37l133 13h1l23 -12v-511h62l-1 -38q-5 -1 -29 -8t-54 -7q-26 0 -38 9zM153.5 768.5
q28.5 29.5 76.5 29.5q30 0 50 -12t46 -36q17 -17 29 -25t26 -8q28 0 44 21t19 41l46 -21q-31 -101 -113 -101q-29 0 -48.5 12t-43.5 35q-19 18 -31 26t-27 8q-28 0 -42 -15.5t-20.5 -29.5t-8.5 -17l-41 23q10 40 38.5 69.5z" />
    <glyph glyph-name="Umacron" unicode="&#x16a;" horiz-adv-x="738" 
d="M168.5 71.5q-66.5 79.5 -66.5 246.5v371l-75 11v43h245v-43l-86 -11v-380q0 -146 52.5 -207t148.5 -61t145 66t49 194v387l-83 12v43h222v-43l-76 -11v-384q0 -156 -72.5 -234.5t-192.5 -78.5q-144 0 -210.5 79.5zM527 859h-284v63h284v-63z" />
    <glyph glyph-name="umacron" unicode="&#x16b;" horiz-adv-x="628" 
d="M465 0q-12 9 -12 33v39q-37 -33 -87 -58t-100 -25q-91 0 -129.5 51t-38.5 166v294l-59 17v37l121 13h1l18 -12v-337q0 -63 9 -98.5t33 -52.5t70 -17q44 0 84 19t69 45v386l-76 17v37l133 13h1l23 -12v-511h62l-1 -38q-5 -1 -29 -8t-54 -7q-26 0 -38 9zM431 675h-261v61
h261v-61z" />
    <glyph glyph-name="Ubreve" unicode="&#x16c;" horiz-adv-x="738" 
d="M168.5 71.5q-66.5 79.5 -66.5 246.5v371l-75 11v43h245v-43l-86 -11v-380q0 -146 52.5 -207t148.5 -61t145 66t49 194v387l-83 12v43h222v-43l-76 -11v-384q0 -156 -72.5 -234.5t-192.5 -78.5q-144 0 -210.5 79.5zM266 849q-43 41 -43 105q0 13 1 20h46q0 -8 1 -14
q6 -35 32 -60.5t82 -25.5q58 0 84 26t32 61q1 6 1 13h44q1 -7 1 -19q0 -63 -44.5 -105t-117.5 -42q-76 0 -119 41z" />
    <glyph glyph-name="ubreve" unicode="&#x16d;" horiz-adv-x="628" 
d="M465 0q-12 9 -12 33v39q-37 -33 -87 -58t-100 -25q-91 0 -129.5 51t-38.5 166v294l-59 17v37l121 13h1l18 -12v-337q0 -63 9 -98.5t33 -52.5t70 -17q44 0 84 19t69 45v386l-76 17v37l133 13h1l23 -12v-511h62l-1 -38q-5 -1 -29 -8t-54 -7q-26 0 -38 9zM216.5 689
q-36.5 23 -56 60.5t-19.5 81.5q0 15 2 23h45q0 -10 1 -17q4 -39 31.5 -70.5t82.5 -31.5t81.5 31.5t29.5 70.5q2 13 1 17h44q2 -16 2 -22q0 -43 -19.5 -81.5t-55.5 -61.5t-83 -23q-50 0 -86.5 23z" />
    <glyph glyph-name="Uring" unicode="&#x16e;" horiz-adv-x="738" 
d="M168.5 71.5q-66.5 79.5 -66.5 246.5v371l-75 11v43h245v-43l-86 -11v-380q0 -146 52.5 -207t148.5 -61t145 66t49 194v387l-83 12v43h222v-43l-76 -11v-384q0 -156 -72.5 -234.5t-192.5 -78.5q-144 0 -210.5 79.5zM270 796.5q-44 25.5 -44 78.5q0 48 46.5 78t115.5 30
q75 0 115 -28t40 -82q0 -50 -41 -76t-120 -26q-68 0 -112 25.5zM453.5 827.5q28.5 13.5 28.5 47.5q0 64 -96 64q-98 0 -98 -64q0 -31 27.5 -46t68.5 -15t69.5 13.5z" />
    <glyph glyph-name="uring" unicode="&#x16f;" horiz-adv-x="628" 
d="M465 0q-12 9 -12 33v39q-37 -33 -87 -58t-100 -25q-91 0 -129.5 51t-38.5 166v294l-59 17v37l121 13h1l18 -12v-337q0 -63 9 -98.5t33 -52.5t70 -17q44 0 84 19t69 45v386l-76 17v37l133 13h1l23 -12v-511h62l-1 -38q-5 -1 -29 -8t-54 -7q-26 0 -38 9zM183 681.5
q-40 37.5 -40 97.5q0 40 23.5 70t61 45.5t78.5 15.5q71 0 111 -37t40 -95q-1 -63 -46.5 -98.5t-111.5 -35.5q-76 0 -116 37.5zM372 706.5q24 23.5 24 67.5q0 42 -23.5 69t-70.5 27q-45 0 -71.5 -24t-26.5 -65q0 -42 24.5 -70t72.5 -28q47 0 71 23.5z" />
    <glyph glyph-name="Uhungarumlaut" unicode="&#x170;" horiz-adv-x="738" 
d="M168.5 71.5q-66.5 79.5 -66.5 246.5v371l-75 11v43h245v-43l-86 -11v-380q0 -146 52.5 -207t148.5 -61t145 66t49 194v387l-83 12v43h222v-43l-76 -11v-384q0 -156 -72.5 -234.5t-192.5 -78.5q-144 0 -210.5 79.5zM417 936q-31 -35 -72.5 -68.5t-81.5 -58.5l-35 30
l132 143zM638 932q-28 -32 -72.5 -65.5t-85.5 -57.5l-35 31l142 140z" />
    <glyph glyph-name="uhungarumlaut" unicode="&#x171;" horiz-adv-x="628" 
d="M465 0q-12 9 -12 33v39q-37 -33 -87 -58t-100 -25q-91 0 -129.5 51t-38.5 166v294l-59 17v37l121 13h1l18 -12v-337q0 -63 9 -98.5t33 -52.5t70 -17q44 0 84 19t69 45v386l-76 17v37l133 13h1l23 -12v-511h62l-1 -38q-5 -1 -29 -8t-54 -7q-26 0 -38 9zM147 686l157 197
l57 -48q-21 -35 -82 -91.5t-99 -82.5zM378 688l165 191l53 -47q-19 -32 -82.5 -88.5t-103.5 -82.5z" />
    <glyph glyph-name="Uogonek" unicode="&#x172;" horiz-adv-x="738" 
d="M168.5 71.5q-66.5 79.5 -66.5 246.5v371l-75 11v43h245v-43l-86 -11v-380q0 -146 52.5 -207t148.5 -61t145 66t49 194v387l-83 12v43h222v-43l-76 -11v-384q0 -125 -47.5 -200.5t-130.5 -100.5q-49 -27 -82.5 -64.5t-33.5 -67.5q0 -34 21.5 -49.5t55.5 -15.5q40 0 78 20
v-42q-20 -16 -50.5 -25t-61.5 -9q-53 0 -87.5 22.5t-34.5 71.5q0 37 35.5 80t85.5 68q-4 -1 -13 -1q-144 0 -210.5 79.5z" />
    <glyph glyph-name="uogonek" unicode="&#x173;" horiz-adv-x="628" 
d="M136.5 40q-38.5 51 -38.5 166v294l-59 17v37l121 13h1l18 -12v-337q0 -63 9 -98.5t33 -52.5t70 -17q44 0 84 19t69 45v386l-76 17v37l133 13h1l23 -12v-511h62l-1 -38l-30 -8q-50 -21 -83 -56.5t-33 -65.5q0 -35 15.5 -49.5t51.5 -14.5q30 0 46.5 6.5t38.5 19.5l1 -47
q-22 -16 -48.5 -25t-68.5 -9q-24 0 -50 10t-44 30.5t-18 52.5q0 39 30.5 78.5t84.5 64.5q-13 4 -19.5 13.5t-6.5 26.5v39q-37 -33 -87 -58t-100 -25q-91 0 -129.5 51z" />
    <glyph glyph-name="Wcircumflex" unicode="&#x174;" horiz-adv-x="989" 
d="M-20 743h252v-43l-98 -11l145 -475l33 -158l39 158l120 391l-27 84l-74 11v43h260v-43l-99 -11l141 -475l39 -170l33 170l133 475l-105 11v43h237v-43l-67 -11l-205 -694h-77l-162 523l-159 -523h-73l-216 693l-70 12v43zM534 983l129 -144l-36 -22l-130 106l-133 -106
l-33 21l128 145h75z" />
    <glyph glyph-name="wcircumflex" unicode="&#x175;" horiz-adv-x="838" 
d="M-3 555h217v-41l-80 -12l89 -311l33 -139l33 140l100 363h83l100 -363l32 -141l36 140l88 310l-77 13v41h196v-41l-55 -13l-156 -509h-81l-109 372l-28 126l-24 -126l-105 -372h-79l-160 510l-53 12v41zM467 858l135 -195l-35 -21l-138 151l-144 -151l-32 20l139 196h75z
" />
    <glyph glyph-name="Ycircumflex" unicode="&#x176;" horiz-adv-x="640" 
d="M284 286l-231 402l-62 12v43h239v-43l-84 -11l151 -283l36 -80l39 80l145 283l-84 11v43h217v-43l-66 -11l-216 -402v-234l114 -10v-43h-309v43l111 9v234zM358 983l129 -144l-36 -22l-130 106l-133 -106l-33 21l128 145h75z" />
    <glyph glyph-name="ycircumflex" unicode="&#x177;" horiz-adv-x="572" 
d="M91.5 -247q-14.5 2 -20.5 5v74q12 -6 51 -6q31 0 56.5 12.5t52.5 50.5t53 111h-44l-191 501l-47 13v41h221v-41l-81 -12l105 -306l52 -163l50 164l94 305l-70 12v41h192v-41l-52 -12q-75 -230 -118.5 -359.5t-55.5 -158.5q-35 -88 -62 -135.5t-64 -72.5t-93 -25
q-14 0 -28.5 2zM334 858l135 -195l-35 -21l-138 151l-144 -151l-32 20l139 196h75z" />
    <glyph glyph-name="Ydieresis" unicode="&#x178;" horiz-adv-x="640" 
d="M284 286l-231 402l-62 12v43h239v-43l-84 -11l151 -283l36 -80l39 80l145 283l-84 11v43h217v-43l-66 -11l-216 -402v-234l114 -10v-43h-309v43l111 9v234zM158.5 842.5q-13.5 16.5 -13.5 40.5q0 28 15 47.5t43 19.5h1q24 0 38.5 -18t14.5 -41q0 -28 -16 -46.5t-45 -18.5
h-1q-23 0 -36.5 16.5zM396.5 842.5q-13.5 16.5 -13.5 40.5q0 28 15 47.5t43 19.5h1q24 0 38 -17.5t14 -41.5q0 -28 -16 -46.5t-45 -18.5q-23 0 -36.5 16.5z" />
    <glyph glyph-name="Zacute" unicode="&#x179;" horiz-adv-x="653" 
d="M498 700l-318 -10l-49 -130l-46 5l21 181h471l22 -37l-392 -584l-65 -78l370 17l50 158l48 -11l-24 -211h-520l-24 39l399 589zM296 827l136 153l69 -44q-24 -33 -74 -73.5t-89 -60.5z" />
    <glyph glyph-name="zacute" unicode="&#x17a;" horiz-adv-x="551" 
d="M140 496l-14 -94h-55v153h416l17 -37l-311 -410l-68 -57l296 9l39 109l51 -6l-19 -163h-439l-18 38l315 407l62 58zM222 686l155 193l68 -55q-20 -30 -88.5 -89.5t-103.5 -75.5z" />
    <glyph glyph-name="Zdotaccent" unicode="&#x17b;" horiz-adv-x="653" 
d="M498 700l-318 -10l-49 -130l-46 5l21 181h471l22 -37l-392 -584l-65 -78l370 17l50 158l48 -11l-24 -211h-520l-24 39l399 589zM325 852q-14 16 -14 41q0 28 15.5 47t43.5 19q24 0 38.5 -17.5t14.5 -40.5q0 -28 -16 -46.5t-45 -18.5q-23 0 -37 16z" />
    <glyph glyph-name="zdotaccent" unicode="&#x17c;" horiz-adv-x="551" 
d="M140 496l-14 -94h-55v153h416l17 -37l-311 -410l-68 -57l296 9l39 109l51 -6l-19 -163h-439l-18 38l315 407l62 58zM234 717q0 29 17 47.5t46 18.5q30 0 43 -16.5t13 -40.5q0 -31 -16.5 -48.5t-47.5 -17.5h-1q-54 0 -54 57z" />
    <glyph glyph-name="Zcaron" unicode="&#x17d;" horiz-adv-x="653" 
d="M498 700l-318 -10l-49 -130l-46 5l21 181h471l22 -37l-392 -584l-65 -78l370 17l50 158l48 -11l-24 -211h-520l-24 39l399 589zM368 882l124 100l33 -21l-119 -135h-76l-121 134l36 22z" />
    <glyph glyph-name="zcaron" unicode="&#x17e;" horiz-adv-x="551" 
d="M140 496l-14 -94h-55v153h416l17 -37l-311 -410l-68 -57l296 9l39 109l51 -6l-19 -163h-439l-18 38l315 407l62 58zM290 706l142 151l31 -20l-135 -195h-76l-136 194l35 21z" />
    <glyph glyph-name="uni018F" unicode="&#x18f;" horiz-adv-x="655" 
d="M118 66.5q-67 77.5 -70 217.5q0 74 5 97h483q-4 99 -33.5 171.5t-80 111t-114.5 38.5t-104 -15t-68 -38l-18 -80h-53l6 143q25 1 65 13q51 13 90.5 19.5t97.5 6.5q89 0 156 -47t103.5 -132t36.5 -196q0 -113 -42 -201t-115 -137t-164 -49q-114 0 -181 77.5zM473.5 114
q58.5 71 62.5 218h-399q-4 -24 -4 -55q0 -58 20.5 -112t62.5 -88t104 -34q95 0 153.5 71z" />
    <glyph glyph-name="florin" unicode="&#x192;" horiz-adv-x="521" 
d="M88 531l104 23l5 40q6 71 37.5 123t78 79t97.5 27q27 0 45.5 -2.5t24.5 -6.5l-9 -70q-8 6 -28.5 10t-51.5 4q-49 0 -77.5 -29.5t-34.5 -106.5l-8 -68h156l-4 -59h-156l-58 -669h-79l56 669h-101z" />
    <glyph glyph-name="Ohorn" unicode="&#x1a0;" horiz-adv-x="719" 
d="M657 548q26 -75 26 -170q0 -116 -45 -204.5t-122 -136.5t-171 -48q-97 0 -166.5 47.5t-105.5 132.5t-36 197q0 115 44 202.5t120 135t169 47.5q83 0 145 -32q43 2 73.5 23t46.5 50.5t16 55.5q0 13 -1 17h75q2 -16 2 -22q0 -65 -39 -111t-107 -60q50 -49 76 -124z
M480 74.5q52 38.5 81 115.5t29 188q0 97 -27 170.5t-78.5 114.5t-123.5 41q-107 0 -170 -86.5t-63 -251.5q0 -96 27 -171t79 -117t124 -42q70 0 122 38.5z" />
    <glyph glyph-name="ohorn" unicode="&#x1a1;" horiz-adv-x="595" 
d="M81.5 434q36.5 66 96 101t124.5 35q72 0 124 -29q42 13 61 47.5t19 70.5q0 13 -1 17h80q2 -16 2 -22q0 -54 -27.5 -95.5t-77.5 -62.5q34 -39 50.5 -95.5t16.5 -122.5q0 -87 -36.5 -153t-96 -101t-124.5 -35q-126 0 -186.5 82t-60.5 210q0 87 36.5 153zM175.5 109.5
q39.5 -68.5 121.5 -68.5q77 0 119 59t42 172q0 108 -39 177t-121 69q-77 0 -119.5 -59t-42.5 -172q0 -109 39.5 -177.5z" />
    <glyph glyph-name="Uhorn" unicode="&#x1af;" horiz-adv-x="738" 
d="M27 743h245v-43l-86 -11v-380q0 -146 52.5 -207t148.5 -61t145 66t49 194v387l-83 12v43h79q56 0 82 31t26 74q0 13 -1 17h75q2 -16 2 -22q1 -62 -30 -99t-87 -49v-390q0 -156 -72.5 -234.5t-192.5 -78.5q-144 0 -210.5 79.5t-66.5 246.5v371l-75 11v43z" />
    <glyph glyph-name="uhorn" unicode="&#x1b0;" horiz-adv-x="628" 
d="M136.5 40q-38.5 51 -38.5 166v294l-59 17v37l121 13h1l18 -12v-337q0 -63 9 -98.5t33 -52.5t70 -17q44 0 84 19t69 45v386l-76 17v37l113 13q23 5 37.5 12t25.5 26t11 54q0 13 -1 17h80q2 -16 2 -22q0 -54 -28 -87t-83 -52v-471h62l-1 -38q-5 -1 -29 -8t-54 -7
q-26 0 -38 9t-12 33v39q-37 -33 -87 -58t-100 -25q-91 0 -129.5 51z" />
    <glyph glyph-name="uni01C4" unicode="&#x1c4;" horiz-adv-x="1409" 
d="M136 689l-80 11v43h121q31 0 89 4t88 4q187 0 276.5 -94.5t89.5 -262.5q0 -119 -47 -210t-130.5 -141.5t-191.5 -50.5q-23 0 -77 4q-62 4 -96 4h-128v43l86 9v637zM319 41h34q82 1 145 40t98.5 114t35.5 181q0 327 -304 327q-33 0 -75 -4q-26 -2 -35 -2v-648
q41 -8 101 -8zM1254 700l-318 -10l-49 -130l-46 5l21 181h471l22 -37l-392 -584l-65 -78l370 17l50 158l48 -11l-24 -211h-520l-24 39l399 589zM1124 882l124 100l33 -21l-119 -135h-76l-121 134l36 22z" />
    <glyph glyph-name="uni01C5" unicode="&#x1c5;" horiz-adv-x="1307" 
d="M136 689l-80 11v43h121q31 0 89 4t88 4q187 0 276.5 -94.5t89.5 -262.5q0 -119 -47 -210t-130.5 -141.5t-191.5 -50.5q-23 0 -77 4q-62 4 -96 4h-128v43l86 9v637zM319 41h34q82 1 145 40t98.5 114t35.5 181q0 327 -304 327q-33 0 -75 -4q-26 -2 -35 -2v-648
q41 -8 101 -8zM896 496l-14 -94h-55v153h416l17 -37l-311 -410l-68 -57l296 9l39 109l51 -6l-19 -163h-439l-18 38l315 407l62 58zM1046 706l142 151l31 -20l-135 -195h-76l-136 194l35 21z" />
    <glyph glyph-name="uni01C6" unicode="&#x1c6;" horiz-adv-x="1169" 
d="M156 19.5q-50 30.5 -80 92.5t-30 152q0 86 35 155.5t99.5 110t150.5 40.5q55 0 106 -12v198l-104 10v36l164 17h2l19 -14v-760h61v-39q-5 -1 -34 -8t-62 -7q-23 0 -32.5 8t-9.5 35v35q-31 -34 -75.5 -57t-100.5 -23q-59 0 -109 30.5zM379.5 72.5q38.5 20.5 57.5 45.5v368
q-8 14 -41.5 24t-71.5 10q-86 0 -138 -61.5t-52 -186.5q0 -112 46 -166t118 -54q43 0 81.5 20.5zM758 496l-14 -94h-55v153h416l17 -37l-311 -410l-68 -57l296 9l39 109l51 -6l-19 -163h-439l-18 38l315 407l62 58zM908 706l142 151l31 -20l-135 -195h-76l-136 194l35 21z
" />
    <glyph glyph-name="uni01C7" unicode="&#x1c7;" horiz-adv-x="1006" 
d="M139 689l-84 11v43h266v-43l-100 -11v-637l285 8l56 156l48 -8l-37 -208h-520v43l86 9v637zM712 -91.5q36 33.5 51 82.5q13 41 16.5 92t3.5 170v435l-100 12v43h279v-43l-96 -12v-413v-78q0 -63 -2 -103.5t-8 -72.5q-16 -81 -74.5 -131t-129.5 -63l-22 36q46 12 82 45.5z
" />
    <glyph glyph-name="uni01C8" unicode="&#x1c8;" horiz-adv-x="939" 
d="M139 689l-84 11v43h266v-43l-100 -11v-637l285 8l56 156l48 -8l-37 -208h-520v43l86 9v637zM737 717q0 29 17 47.5t46 18.5q30 0 43 -16.5t13 -40.5q0 -31 -16.5 -48.5t-47.5 -17.5h-1q-54 0 -54 57zM675 551l139 16h2l19 -16v-545q0 -235 -153 -249q-12 -1 -32.5 0
t-24.5 4l-4 41q8 -1 24 1.5t33 8.5q43 13 60 68t17 145l-1 460l-79 18v48z" />
    <glyph glyph-name="uni01C9" unicode="&#x1c9;" horiz-adv-x="637" 
d="M127 756l-85 9v37l146 17h1l19 -13v-756l94 -7v-43h-263v43l88 8v705zM435 717q0 29 17 47.5t46 18.5q30 0 43 -16.5t13 -40.5q0 -31 -16.5 -48.5t-47.5 -17.5h-1q-54 0 -54 57zM373 551l139 16h2l19 -16v-545q0 -235 -153 -249q-12 -1 -32.5 0t-24.5 4l-4 41
q8 -1 24 1.5t33 8.5q43 13 60 68t17 145l-1 460l-79 18v48z" />
    <glyph glyph-name="uni01CA" unicode="&#x1ca;" horiz-adv-x="1172" 
d="M136 689l-80 11v43h161l354 -513l57 -100v559l-88 11v43h228v-43l-82 -11v-689h-52l-358 515l-82 133v-596l91 -9v-43h-229v43l80 10v636zM878 -91.5q36 33.5 51 82.5q13 41 16.5 92t3.5 170v435l-100 12v43h279v-43l-96 -12v-413v-78q0 -63 -2 -103.5t-8 -72.5
q-16 -81 -74.5 -131t-129.5 -63l-22 36q46 12 82 45.5z" />
    <glyph glyph-name="uni01CB" unicode="&#x1cb;" horiz-adv-x="1105" 
d="M136 689l-80 11v43h161l354 -513l57 -100v559l-88 11v43h228v-43l-82 -11v-689h-52l-358 515l-82 133v-596l91 -9v-43h-229v43l80 10v636zM903 717q0 29 17 47.5t46 18.5q30 0 43 -16.5t13 -40.5q0 -31 -16.5 -48.5t-47.5 -17.5h-1q-54 0 -54 57zM841 551l139 16h2
l19 -16v-545q0 -235 -153 -249q-12 -1 -32.5 0t-24.5 4l-4 41q8 -1 24 1.5t33 8.5q43 13 60 68t17 145l-1 460l-79 18v48z" />
    <glyph glyph-name="uni01CC" unicode="&#x1cc;" horiz-adv-x="961" 
d="M108 489l-77 17v45l127 16h3l19 -16v-44l-1 -25q37 32 98 59t113 27q64 0 98.5 -24.5t48 -75t13.5 -135.5v-283l75 -7v-43h-223v43l67 7v284q0 63 -8.5 99t-33 54.5t-71.5 18.5q-40 0 -86.5 -20t-80.5 -47v-388l73 -8v-43h-221v43l67 8v438zM759 717q0 29 17 47.5
t46 18.5q30 0 43 -16.5t13 -40.5q0 -31 -16.5 -48.5t-47.5 -17.5h-1q-54 0 -54 57zM697 551l139 16h2l19 -16v-545q0 -235 -153 -249q-12 -1 -32.5 0t-24.5 4l-4 41q8 -1 24 1.5t33 8.5q43 13 60 68t17 145l-1 460l-79 18v48z" />
    <glyph glyph-name="uni01CD" unicode="&#x1cd;" horiz-adv-x="686" 
d="M301 750h82l251 -698l65 -9v-43h-244v43l88 9l-53 159h-312l-53 -158l89 -10v-43h-225v43l64 9zM359 596l-28 95l-27 -98l-109 -330h277zM341 882l124 100l33 -21l-119 -135h-76l-121 134l36 22z" />
    <glyph glyph-name="uni01CE" unicode="&#x1ce;" horiz-adv-x="557" 
d="M147 286.5q96 43.5 239 46.5v31q0 51 -10.5 80.5t-36.5 43t-73 13.5q-51 0 -92.5 -15.5t-80.5 -37.5l-22 44q11 10 46 28t80 32t87 14q68 0 107.5 -19t57 -61t17.5 -113v-330h62v-37q-55 -15 -93 -15q-24 0 -33 7.5t-9 34.5v37q-36 -32 -78.5 -56.5t-96.5 -24.5
q-72 0 -119.5 40t-47.5 117q0 97 96 140.5zM315 66q39 18 71 43v177q-121 -1 -183.5 -36t-62.5 -94q0 -57 29 -82.5t79 -25.5q28 0 67 18zM270 706l142 151l31 -20l-135 -195h-76l-136 194l35 21z" />
    <glyph glyph-name="uni01CF" unicode="&#x1cf;" horiz-adv-x="397" 
d="M157 689l-97 11v43h277v-43l-97 -11v-637l97 -10v-42h-277v43l97 9v637zM200 882l124 100l33 -21l-119 -135h-76l-121 134l36 22z" />
    <glyph glyph-name="uni01D0" unicode="&#x1d0;" horiz-adv-x="324" 
d="M130 489l-78 17v45l137 16h2l20 -16v-501l87 -7v-43h-256v43l88 8v438zM162 706l142 151l31 -20l-135 -195h-76l-136 194l35 21z" />
    <glyph glyph-name="uni01D1" unicode="&#x1d1;" horiz-adv-x="719" 
d="M178.5 36.5q-69.5 47.5 -105.5 132.5t-36 197q0 115 44 202.5t120 135t169 47.5q99 0 169.5 -46t107 -130t36.5 -197q0 -116 -45 -204.5t-122 -136.5t-171 -48q-97 0 -166.5 47.5zM191 617.5q-63 -86.5 -63 -251.5q0 -96 27 -171t79 -117t124 -42q70 0 122 38.5t81 115.5
t29 188q0 97 -27 170.5t-78.5 114.5t-123.5 41q-107 0 -170 -86.5zM361 882l124 100l33 -21l-119 -135h-76l-121 134l36 22z" />
    <glyph glyph-name="uni01D2" unicode="&#x1d2;" horiz-adv-x="595" 
d="M81.5 434q36.5 66 96 101t124.5 35q126 0 186.5 -82t60.5 -210q0 -87 -36.5 -153t-96 -101t-124.5 -35q-126 0 -186.5 82t-60.5 210q0 87 36.5 153zM416 100q42 59 42 172q0 108 -39 177t-121 69q-77 0 -119.5 -59t-42.5 -172q0 -109 39.5 -177.5t121.5 -68.5
q77 0 119 59zM298 706l142 151l31 -20l-135 -195h-76l-136 194l35 21z" />
    <glyph glyph-name="uni01D3" unicode="&#x1d3;" horiz-adv-x="738" 
d="M168.5 71.5q-66.5 79.5 -66.5 246.5v371l-75 11v43h245v-43l-86 -11v-380q0 -146 52.5 -207t148.5 -61t145 66t49 194v387l-83 12v43h222v-43l-76 -11v-384q0 -156 -72.5 -234.5t-192.5 -78.5q-144 0 -210.5 79.5zM386 882l124 100l33 -21l-119 -135h-76l-121 134l36 22z
" />
    <glyph glyph-name="uni01D4" unicode="&#x1d4;" horiz-adv-x="628" 
d="M465 0q-12 9 -12 33v39q-37 -33 -87 -58t-100 -25q-91 0 -129.5 51t-38.5 166v294l-59 17v37l121 13h1l18 -12v-337q0 -63 9 -98.5t33 -52.5t70 -17q44 0 84 19t69 45v386l-76 17v37l133 13h1l23 -12v-511h62l-1 -38q-5 -1 -29 -8t-54 -7q-26 0 -38 9zM300 706l142 151
l31 -20l-135 -195h-76l-136 194l35 21z" />
    <glyph glyph-name="Gcaron" unicode="&#x1e6;" horiz-adv-x="738" 
d="M208 37q-78 48 -119 132t-41 190q0 122 49.5 210.5t134.5 135t191 46.5q66 0 118 -9t108 -22l-8 -166h-52l-22 115q-16 13 -53.5 23.5t-99.5 10.5q-79 0 -140.5 -36t-96.5 -107.5t-35 -174.5q0 -92 28.5 -171t86.5 -128t141 -49q53 0 100.5 12.5t74.5 33.5v228l-139 10
v53h284v-53l-61 -10v-271q-21 -1 -71 -17q-51 -16 -94.5 -25t-99.5 -9q-106 0 -184 48zM400 882l124 100l33 -21l-119 -135h-76l-121 134l36 22z" />
    <glyph glyph-name="gcaron" unicode="&#x1e7;" horiz-adv-x="597" 
d="M46 -120q0 45 27.5 82t65.5 58q-47 25 -47 83q0 37 21 69.5t54 49.5q-47 22 -73.5 62.5t-26.5 94.5q0 58 32 101.5t83.5 66.5t107.5 23q93 0 149 -41q15 14 46.5 27.5t67.5 13.5h33v-74h-114q29 -40 29 -97q0 -59 -30 -104.5t-80.5 -70.5t-111.5 -25q-41 0 -75 9
q-18 -14 -28.5 -32.5t-10.5 -37.5q0 -38 24.5 -53t85.5 -15h118q93 0 137.5 -36t44.5 -101q0 -54 -39 -100.5t-106.5 -74.5t-147.5 -28q-236 0 -236 150zM416 388q0 133 -132 133t-132 -131q0 -63 34 -102.5t103 -39.5q127 0 127 140zM390 -203.5q49 15.5 79 45t30 68.5
q0 31 -9.5 50t-37 29.5t-79.5 10.5h-124q-48 0 -73 6q-49 -47 -49 -110q0 -57 36 -86t124 -29q54 0 103 15.5zM308 706l142 151l31 -20l-135 -195h-76l-136 194l35 21z" />
    <glyph glyph-name="uni01F1" unicode="&#x1f1;" horiz-adv-x="1409" 
d="M136 689l-80 11v43h121q31 0 89 4t88 4q187 0 276.5 -94.5t89.5 -262.5q0 -119 -47 -210t-130.5 -141.5t-191.5 -50.5q-23 0 -77 4q-62 4 -96 4h-128v43l86 9v637zM319 41h34q82 1 145 40t98.5 114t35.5 181q0 327 -304 327q-33 0 -75 -4q-26 -2 -35 -2v-648
q41 -8 101 -8zM1254 700l-318 -10l-49 -130l-46 5l21 181h471l22 -37l-392 -584l-65 -78l370 17l50 158l48 -11l-24 -211h-520l-24 39l399 589z" />
    <glyph glyph-name="uni01F2" unicode="&#x1f2;" horiz-adv-x="1307" 
d="M136 689l-80 11v43h121q31 0 89 4t88 4q187 0 276.5 -94.5t89.5 -262.5q0 -119 -47 -210t-130.5 -141.5t-191.5 -50.5q-23 0 -77 4q-62 4 -96 4h-128v43l86 9v637zM319 41h34q82 1 145 40t98.5 114t35.5 181q0 327 -304 327q-33 0 -75 -4q-26 -2 -35 -2v-648
q41 -8 101 -8zM896 496l-14 -94h-55v153h416l17 -37l-311 -410l-68 -57l296 9l39 109l51 -6l-19 -163h-439l-18 38l315 407l62 58z" />
    <glyph glyph-name="uni01F3" unicode="&#x1f3;" horiz-adv-x="1169" 
d="M156 19.5q-50 30.5 -80 92.5t-30 152q0 86 35 155.5t99.5 110t150.5 40.5q55 0 106 -12v198l-104 10v36l164 17h2l19 -14v-760h61v-39q-5 -1 -34 -8t-62 -7q-23 0 -32.5 8t-9.5 35v35q-31 -34 -75.5 -57t-100.5 -23q-59 0 -109 30.5zM379.5 72.5q38.5 20.5 57.5 45.5v368
q-8 14 -41.5 24t-71.5 10q-86 0 -138 -61.5t-52 -186.5q0 -112 46 -166t118 -54q43 0 81.5 20.5zM758 496l-14 -94h-55v153h416l17 -37l-311 -410l-68 -57l296 9l39 109l51 -6l-19 -163h-439l-18 38l315 407l62 58z" />
    <glyph glyph-name="uni01F4" unicode="&#x1f4;" horiz-adv-x="738" 
d="M208 37q-78 48 -119 132t-41 190q0 122 49.5 210.5t134.5 135t191 46.5q66 0 118 -9t108 -22l-8 -166h-52l-22 115q-16 13 -53.5 23.5t-99.5 10.5q-79 0 -140.5 -36t-96.5 -107.5t-35 -174.5q0 -92 28.5 -171t86.5 -128t141 -49q53 0 100.5 12.5t74.5 33.5v228l-139 10
v53h284v-53l-61 -10v-271q-21 -1 -71 -17q-51 -16 -94.5 -25t-99.5 -9q-106 0 -184 48zM328 827l136 153l69 -44q-24 -33 -74 -73.5t-89 -60.5z" />
    <glyph glyph-name="Aringacute" unicode="&#x1fa;" horiz-adv-x="686" 
d="M-11 43l64 9l235 657q-44 8 -69.5 30.5t-25.5 55.5q0 38 30.5 63.5t83.5 29.5l64 95l81 -37q-17 -23 -31.5 -36t-32.5 -23q46 -7 72.5 -32.5t26.5 -62.5q0 -31 -23.5 -53t-66.5 -29l237 -658l65 -9v-43h-244v43l88 9l-53 159h-312l-53 -158l89 -10v-43h-225v43z
M278 757.5q24 -13.5 62 -13.5t62 14t24 37q0 24 -24 39.5t-62 15.5t-62 -15.5t-24 -39.5t24 -37.5zM472 263l-113 333l-28 95l-27 -98l-109 -330h277z" />
    <glyph glyph-name="aringacute" unicode="&#x1fb;" horiz-adv-x="557" 
d="M147 286.5q96 43.5 239 46.5v31q0 51 -10.5 80.5t-36.5 43t-73 13.5q-51 0 -92.5 -15.5t-80.5 -37.5l-22 44q11 10 46 28t80 32t87 14q68 0 107.5 -19t57 -61t17.5 -113v-330h62v-37q-55 -15 -93 -15q-24 0 -33 7.5t-9 34.5v37q-36 -32 -78.5 -56.5t-96.5 -24.5
q-72 0 -119.5 40t-47.5 117q0 97 96 140.5zM315 66q39 18 71 43v177q-121 -1 -183.5 -36t-62.5 -94q0 -57 29 -82.5t79 -25.5q28 0 67 18zM145.5 830.5q32.5 29.5 83.5 39.5l72 113l81 -37q-25 -46 -66 -75q54 -8 83.5 -39.5t29.5 -79.5q0 -61 -46 -92.5t-114 -31.5
q-77 0 -116.5 33t-39.5 92q0 48 32.5 77.5zM271 672q50 0 72.5 17t22.5 59q0 82 -94 82q-45 0 -69.5 -20.5t-24.5 -54.5q0 -83 93 -83z" />
    <glyph glyph-name="AEacute" unicode="&#x1fc;" horiz-adv-x="911" 
d="M401 220h-270l-70 -168l78 -10v-42h-229v42l73 10l288 639l-136 11v41h674l17 -150h-48l-30 101l-265 4v-292l181 3l12 83h51v-221h-51l-12 86l-181 2v-310l306 10l58 125l48 -13l-38 -171h-544v42l88 10v168zM401 695h-69l-56 -128l-123 -295h248v423zM385 827l136 153
l69 -44q-24 -33 -74 -73.5t-89 -60.5z" />
    <glyph glyph-name="aeacute" unicode="&#x1fd;" horiz-adv-x="869" 
d="M95 29q-48 40 -48 117q0 96 96 140t234 47q0 75 -8 109.5t-32 48t-75 13.5q-50 0 -93 -16t-89 -41l-21 42q13 13 50.5 31.5t83.5 32t88 13.5q69 0 108.5 -19t56.5 -62q35 41 83 63t104 22q89 0 138.5 -51t53.5 -147q0 -62 -6 -88h-356q0 -105 47.5 -171.5t133.5 -66.5
q42 0 86 15t67 36l16 -37q-29 -30 -83.5 -50.5t-110.5 -20.5q-69 0 -119.5 28.5t-80.5 81.5q-31 -43 -82.5 -76.5t-121.5 -33.5q-72 0 -120 40zM735 331q2 28 2 44q0 66 -30 105t-94 39q-137 0 -149 -188h271zM336.5 76q43.5 28 63.5 63q-23 62 -23 151q-116 -1 -178.5 -38
t-62.5 -96q0 -57 29.5 -82.5t78.5 -25.5t92.5 28zM387 686l155 193l68 -55q-20 -30 -88.5 -89.5t-103.5 -75.5z" />
    <glyph glyph-name="Oslashacute" unicode="&#x1fe;" horiz-adv-x="720" 
d="M80.5 153.5q-43.5 90.5 -43.5 212.5q0 115 44 202.5t120 135t169 47.5q58 0 109 -17l39 99l38 -14l-41 -100q82 -41 125 -129.5t43 -211.5q0 -115 -43.5 -202.5t-118.5 -136t-168 -50.5q-58 -1 -112 16l-44 -104l-38 13l46 107q-81 42 -124.5 132.5zM191 618
q-63 -86 -63 -252q0 -95 26.5 -169t76.5 -115l225 600q-42 22 -94 22q-108 0 -171 -86zM565 545q-26 73 -75 114l-226 -600q43 -23 95 -23q69 0 121.5 38.5t81.5 115.5t29 188q0 94 -26 167zM300 827l136 153l69 -44q-24 -33 -74 -73.5t-89 -60.5z" />
    <glyph glyph-name="oslashacute" unicode="&#x1ff;" horiz-adv-x="595" 
d="M81.5 434q36.5 66 96 101t124.5 35q40 0 80 -10l34 90l34 -9l-33 -95q67 -33 99.5 -104t32.5 -164q0 -87 -36.5 -153t-96 -101t-124.5 -35q-39 0 -79 10l-36 -95l-37 10l38 98q-68 33 -100.5 104t-32.5 165q0 87 36.5 153zM152.5 161q16.5 -55 51.5 -86l157 429
q-28 14 -63 14q-77 0 -119.5 -59t-42.5 -172q0 -71 16.5 -126zM416 100q42 59 42 172q0 70 -16 124.5t-50 86.5l-158 -428q28 -14 63 -14q77 0 119 59zM240 686l155 193l68 -55q-20 -30 -88.5 -89.5t-103.5 -75.5z" />
    <glyph glyph-name="Scommaaccent" unicode="&#x218;" horiz-adv-x="588" 
d="M196 -2q-39 9 -90 25q-34 11 -41 12l8 178h52l15 -131q19 -18 60.5 -31t90.5 -13q81 0 124 37t43 102q0 42 -22.5 71t-58 49t-98.5 47q-59 25 -100.5 50t-72.5 67.5t-31 101.5q0 55 30 98t83.5 66.5t122.5 23.5q42 0 74.5 -6.5t82.5 -20.5q27 -8 32 -9l-6 -164h-50
l-18 124q-12 10 -46.5 19.5t-73.5 9.5q-74 0 -113 -30.5t-39 -90.5q0 -41 21 -68.5t54 -46.5t102 -51q72 -34 112.5 -58.5t71 -64t30.5 -95.5q0 -53 -31 -101.5t-90 -78.5t-138 -30q-51 0 -90 9zM343 -203.5q-15 -29.5 -33 -47.5t-27 -21h-1l-27 19v6q15 7 24.5 28t9.5 44
q0 13 -5.5 21t-15.5 15q-9 6 -14 14.5t-5 22.5q0 24 15 34t29 10h4q28 0 44.5 -21t16.5 -59q0 -36 -15 -65.5z" />
    <glyph glyph-name="scommaaccent" unicode="&#x219;" horiz-adv-x="504" 
d="M127 79q11 -17 46 -30t75 -13q122 0 122 90q0 41 -34 66.5t-116 56.5q-81 29 -118 69t-37 107q0 43 26.5 75t71 49.5t96.5 17.5q51 0 85.5 -9t68.5 -22v-119h-49l-18 73q-7 13 -35.5 22t-62.5 9q-48 0 -78 -21.5t-30 -57.5q0 -32 15 -53t37 -33.5t61 -28.5l19 -8
q57 -22 92 -41.5t58 -51t23 -78.5q0 -74 -56.5 -116.5t-150.5 -42.5q-43 0 -98 14t-82 28v126h54zM299 -203.5q-15 -29.5 -33 -47.5t-27 -21h-1l-27 19v6q15 7 24.5 28t9.5 44q0 13 -5.5 21t-15.5 15q-9 6 -14 14.5t-5 22.5q0 24 15 34t29 10h4q28 0 44.5 -21t16.5 -59
q0 -36 -15 -65.5z" />
    <glyph glyph-name="uni021A" unicode="&#x21a;" horiz-adv-x="679" 
d="M295 698l-190 -6l-32 -203h-55l17 254h609l11 -254h-53l-28 203l-193 6v-646l143 -9v-43h-360v43l131 9v646zM389 -203.5q-15 -29.5 -33 -47.5t-27 -21h-1l-27 19v6q15 7 24.5 28t9.5 44q0 13 -5.5 21t-15.5 15q-9 6 -14 14.5t-5 22.5q0 24 15 34t29 10h4q28 0 44.5 -21
t16.5 -59q0 -36 -15 -65.5z" />
    <glyph glyph-name="uni021B" unicode="&#x21b;" horiz-adv-x="406" 
d="M138 13.5q-27 24.5 -27 87.5v395h-76v39q50 11 58 16q15 8 22 31q6 15 16 54t15 61h46v-142h177v-59h-177v-324q0 -58 4 -81.5t16 -30.5t42 -7q29 0 65 8t54 17l13 -38q-23 -18 -76 -34.5t-92 -16.5q-53 0 -80 24.5zM282 -203.5q-15 -29.5 -33 -47.5t-27 -21h-1l-27 19v6
q15 7 24.5 28t9.5 44q0 13 -5.5 21t-15.5 15q-9 6 -14 14.5t-5 22.5q0 24 15 34t29 10h4q28 0 44.5 -21t16.5 -59q0 -36 -15 -65.5z" />
    <glyph glyph-name="uni0228" unicode="&#x228;" horiz-adv-x="649" 
d="M249 -231q-20 4 -34 9l1 59q10 -3 23.5 -5.5t22.5 -2.5q40 0 58 14t18 57q0 27 -11.5 55.5t-22.5 44.5h-254v43l86 9v637l-84 11v43h495l14 -147h-48l-27 96l-268 5v-291l184 3l13 83h50v-221h-50l-13 85l-184 3v-308l306 8l51 125l48 -15l-31 -169h-247q21 -19 42 -58
t21 -79q0 -53 -30.5 -75.5t-91.5 -22.5q-17 0 -37 4z" />
    <glyph glyph-name="uni0229" unicode="&#x229;" horiz-adv-x="540" 
d="M80 431q33 66 91.5 102.5t131.5 36.5q89 0 138.5 -51t53.5 -147q0 -62 -6 -88h-356q0 -105 47.5 -171.5t133.5 -66.5q42 0 86 15t68 36l16 -37q-28 -28 -79 -48.5t-105 -22.5q21 -23 37 -57t16 -68q0 -53 -31 -76t-91 -23q-17 0 -37 4t-34 9l-1 59q10 -3 24 -5.5t24 -2.5
q40 0 58 14t18 57q0 23 -8.5 47.5t-19.5 43.5q-101 12 -154.5 89.5t-53.5 199.5q0 85 33 151zM405 331q3 21 3 44q-1 66 -31.5 105t-93.5 39q-137 0 -149 -188h271z" />
    <glyph glyph-name="uni0237" unicode="&#x237;" horiz-adv-x="308" 
d="M44 551l139 16h2l19 -16v-545q0 -235 -153 -249q-12 -1 -32.5 0t-24.5 4l-4 41q8 -1 24 1.5t33 8.5q43 13 60 68t17 145l-1 460l-79 18v48z" />
    <glyph glyph-name="uni0259" unicode="&#x259;" horiz-adv-x="540" 
d="M430.5 486.5q62.5 -79.5 62.5 -211.5q0 -85 -33 -151t-91.5 -102.5t-131.5 -36.5q-89 0 -138.5 51t-53.5 147q0 62 6 88h356q0 105 -47.5 171.5t-133.5 66.5q-42 0 -86 -15t-68 -36l-16 37q29 30 84.5 50.5t111.5 20.5q116 0 178.5 -79.5zM135 224q-3 -21 -3 -44
q1 -66 31.5 -105t93.5 -39q137 0 149 188h-271z" />
    <glyph glyph-name="uni02BC" unicode="&#x2bc;" horiz-adv-x="162" 
d="M3 475v9q24 17 47 60.5t23 105.5q0 35 -10.5 56.5t-30.5 44.5q-13 15 -19.5 26t-6.5 25q0 23 12 35.5t32 12.5q23 0 44.5 -23.5t34.5 -61.5t13 -80q0 -57 -19.5 -106.5t-47 -83t-49.5 -44.5z" />
    <glyph glyph-name="circumflex" unicode="&#x2c6;" horiz-adv-x="518" 
d="M296 867l135 -195l-35 -21l-138 151l-144 -151l-32 20l139 196h75z" />
    <glyph glyph-name="caron" unicode="&#x2c7;" horiz-adv-x="499" 
d="M250 726l142 151l31 -20l-135 -195h-76l-136 194l35 21z" />
    <glyph glyph-name="uni02C9" unicode="&#x2c9;" horiz-adv-x="657" 
d="M544 916h-432v61h432v-61z" />
    <glyph glyph-name="breve" unicode="&#x2d8;" horiz-adv-x="499" 
d="M163.5 689q-36.5 23 -56 60.5t-19.5 81.5q0 15 2 23h45q0 -10 1 -17q4 -39 31.5 -70.5t82.5 -31.5t81.5 31.5t29.5 70.5q2 13 1 17h44q2 -16 2 -22q0 -43 -19.5 -81.5t-55.5 -61.5t-83 -23q-50 0 -86.5 23z" />
    <glyph glyph-name="dotaccent" unicode="&#x2d9;" horiz-adv-x="281" 
d="M100.5 686.5q-13.5 16.5 -13.5 40.5q0 27 15.5 46.5t43.5 19.5q24 0 38 -17t14 -40q0 -29 -15.5 -47.5t-44.5 -18.5h-1q-23 0 -36.5 16.5z" />
    <glyph glyph-name="ring" unicode="&#x2da;" horiz-adv-x="498" 
d="M132 681.5q-40 37.5 -40 97.5q0 40 23.5 70t61 45.5t78.5 15.5q71 0 111 -37t40 -95q-1 -63 -46.5 -98.5t-111.5 -35.5q-76 0 -116 37.5zM321 706.5q24 23.5 24 67.5q0 42 -23.5 69t-70.5 27q-45 0 -71.5 -24t-26.5 -65q0 -42 24.5 -70t72.5 -28q47 0 71 23.5z" />
    <glyph glyph-name="ogonek" unicode="&#x2db;" horiz-adv-x="346" 
d="M35 -226.5q-31 22.5 -31 70.5q0 40 45 86t101 70l30 4l38 -4q-31 -11 -63.5 -34.5t-54 -50.5t-21.5 -48q0 -35 18 -49.5t55 -14.5q29 0 53.5 11t53.5 28l9 -38q-30 -22 -64.5 -37.5t-87.5 -15.5q-50 0 -81 22.5z" />
    <glyph glyph-name="tilde" unicode="&#x2dc;" horiz-adv-x="518" 
d="M107 773q36 32 85 32q29 0 48 -12.5t40 -35.5q18 -19 31 -28t31 -9q30 0 46.5 19t26.5 45l41 -23q-13 -43 -44 -72t-77 -29q-28 0 -46.5 12t-41.5 34q-20 20 -34.5 29.5t-33.5 9.5q-30 0 -46 -18t-30 -46l-41 23q9 37 45 69z" />
    <glyph glyph-name="hungarumlaut" unicode="&#x2dd;" horiz-adv-x="499" 
d="M296 835q-21 -35 -82 -91.5t-99 -82.5l-28 22l152 200zM531 832q-19 -32 -82.5 -88.5t-103.5 -82.5l-27 24l160 194z" />
    <glyph glyph-name="gravecomb" unicode="&#x300;" 
d="M-69.5 732.5q-71.5 62.5 -90.5 91.5l63 54l156 -192l-29 -27h-1q-27 11 -98.5 73.5z" />
    <glyph glyph-name="acutecomb" unicode="&#x301;" 
d="M-68 686l155 193l68 -55q-20 -30 -88.5 -89.5t-103.5 -75.5z" />
    <glyph glyph-name="uni0302" unicode="&#x302;" 
d="M38 858l135 -195l-35 -21l-138 151l-144 -151l-32 20l139 196h75z" />
    <glyph glyph-name="tildecomb" unicode="&#x303;" 
d="M-146.5 768.5q28.5 29.5 76.5 29.5q30 0 50 -12t46 -36q17 -17 29 -25t26 -8q28 0 44 21t19 41l46 -21q-31 -101 -113 -101q-29 0 -48.5 12t-43.5 35q-19 18 -31 26t-27 8q-28 0 -42 -15.5t-20.5 -29.5t-8.5 -17l-41 23q10 40 38.5 69.5z" />
    <glyph glyph-name="uni0304" unicode="&#x304;" 
d="M131 675h-261v61h261v-61z" />
    <glyph glyph-name="uni0306" unicode="&#x306;" 
d="M-83.5 689q-36.5 23 -56 60.5t-19.5 81.5q0 15 2 23h45q0 -10 1 -17q4 -39 31.5 -70.5t82.5 -31.5t81.5 31.5t29.5 70.5q2 13 1 17h44q2 -16 2 -22q0 -43 -19.5 -81.5t-55.5 -61.5t-83 -23q-50 0 -86.5 23z" />
    <glyph glyph-name="uni0307" unicode="&#x307;" 
d="M-56 717q0 29 17 47.5t46 18.5q30 0 43 -16.5t13 -40.5q0 -31 -16.5 -48.5t-47.5 -17.5h-1q-54 0 -54 57z" />
    <glyph glyph-name="uni0308" unicode="&#x308;" 
d="M-151 678q-14 16 -14 41q0 27 15.5 46.5t43.5 19.5q24 0 38.5 -17.5t14.5 -40.5q0 -28 -16 -46.5t-45 -18.5q-23 0 -37 16zM67 678.5q-14 16.5 -14 40.5q0 27 15.5 46.5t43.5 19.5q24 0 38.5 -17.5t14.5 -40.5q0 -28 -16 -46.5t-46 -18.5q-22 0 -36 16.5z" />
    <glyph glyph-name="hookabovecomb" unicode="&#x309;" 
d="M-29 647.5q-7 14.5 -7 26.5q0 9 7 15t21 15q17 10 25 18t8 21q0 25 -14.5 40t-42.5 15q-25 0 -43 -10l-3 53q32 15 62 15q53 0 82.5 -26.5t29.5 -73.5q0 -25 -12 -39t-36 -29q-15 -10 -24 -17q-6 -6 -6 -21q0 -10 4 -26h-37q-7 9 -14 23.5z" />
    <glyph glyph-name="uni030A" unicode="&#x30a;" 
d="M-117 681.5q-40 37.5 -40 97.5q0 40 23.5 70t61 45.5t78.5 15.5q71 0 111 -37t40 -95q-1 -63 -46.5 -98.5t-111.5 -35.5q-76 0 -116 37.5zM72 706.5q24 23.5 24 67.5q0 42 -23.5 69t-70.5 27q-45 0 -71.5 -24t-26.5 -65q0 -42 24.5 -70t72.5 -28q47 0 71 23.5z" />
    <glyph glyph-name="uni030B" unicode="&#x30b;" 
d="M-153 686l157 197l57 -48q-21 -35 -82 -91.5t-99 -82.5zM78 688l165 191l53 -47q-19 -32 -82.5 -88.5t-103.5 -82.5z" />
    <glyph glyph-name="uni030C" unicode="&#x30c;" 
d="M0 706l142 151l31 -20l-135 -195h-76l-136 194l35 21z" />
    <glyph glyph-name="uni0312" unicode="&#x312;" 
d="M-39.5 671q-16.5 21 -16.5 59q0 36 15 65.5t33 47.5t27 21h1l27 -19v-6q-15 -7 -24.5 -28t-9.5 -44q0 -13 5.5 -21t15.5 -15q9 -6 14 -14.5t5 -22.5q0 -24 -15 -34t-29 -10h-4q-28 0 -44.5 21z" />
    <glyph glyph-name="uni031B" unicode="&#x31b;" 
d="M-10 555q54 0 79.5 35t31.5 79q2 13 1 17h70q2 -16 2 -22q0 -42 -25.5 -80.5t-68.5 -62t-90 -23.5v57z" />
    <glyph glyph-name="dotbelowcomb" unicode="&#x323;" 
d="M-45.5 -178.5q-14.5 17.5 -14.5 42.5q0 28 16.5 49t46.5 21q25 0 40 -18t15 -42q0 -31 -16 -50.5t-47 -19.5h-2q-24 0 -38.5 17.5z" />
    <glyph glyph-name="uni0326" unicode="&#x326;" 
d="M49 -203.5q-15 -29.5 -33 -47.5t-27 -21h-1l-27 19v6q15 7 24.5 28t9.5 44q0 13 -5.5 21t-15.5 15q-9 6 -14 14.5t-5 22.5q0 24 15 34t29 10h4q28 0 44.5 -21t16.5 -59q0 -36 -15 -65.5z" />
    <glyph glyph-name="uni0327" unicode="&#x327;" 
d="M-76 -231q-20 4 -34 9l1 59q10 -3 23.5 -5.5t22.5 -2.5q40 0 58 14t18 57q0 27 -11.5 55.5t-22.5 44.5l23 6l18 -6q21 -19 42 -58t21 -79q0 -53 -30.5 -75.5t-91.5 -22.5q-17 0 -37 4z" />
    <glyph glyph-name="uni0328" unicode="&#x328;" 
d="M-140 -226.5q-31 22.5 -31 70.5q0 40 45 86t101 70l30 4l38 -4q-31 -11 -63.5 -34.5t-54 -50.5t-21.5 -48q0 -35 18 -49.5t55 -14.5q29 0 53.5 11t53.5 28l9 -38q-30 -22 -64.5 -37.5t-87.5 -15.5q-50 0 -81 22.5z" />
    <glyph glyph-name="uni0335" unicode="&#x335;" 
d="M201 251h-402v60h402v-60z" />
    <glyph glyph-name="uni0336" unicode="&#x336;" 
d="M251 251h-502v60h502v-60z" />
    <glyph glyph-name="uni0337" unicode="&#x337;" 
d="M220 555l-379 -656h-61l381 656h59z" />
    <glyph glyph-name="uni0338" unicode="&#x338;" 
d="M220 803l-379 -904h-61l381 904h59z" />
    <glyph glyph-name="uni0394" unicode="&#x394;" horiz-adv-x="864" 
d="M425 740l367 -727l-8 -13h-705l-7 11l338 729h15zM160 62h515l-269 548z" />
    <glyph glyph-name="uni03A9" unicode="&#x3a9;" horiz-adv-x="944" 
d="M624 145q43 58 68.5 133t25.5 152q0 133 -64 200.5t-178 67.5q-123 0 -191 -67.5t-68 -213.5q0 -75 31 -149.5t78 -131t90 -79.5v-57h-333l-20 192h52l31 -126l201 -5q-45 25 -94.5 85t-83 136t-33.5 149q0 111 47 183t124 105t169 33q152 0 237.5 -78.5t85.5 -226.5
q0 -68 -29 -146t-75.5 -142.5t-94.5 -96.5l195 4l35 126h53l-27 -192h-325v57q50 30 93 88z" />
    <glyph glyph-name="uni03BC" unicode="&#x3bc;" horiz-adv-x="683" 
d="M131 501l-63 22v29l125 13l18 -11v-395q0 -20 14.5 -45.5t44 -44t72.5 -18.5q52 0 85.5 24.5t50.5 53.5v372l-73 21v31l140 12l13 -11v-511h62v-39q-14 -7 -41.5 -12t-50.5 -5q-43 0 -43 37v53q-20 -37 -59.5 -62t-87.5 -25q-39 0 -75.5 15.5t-57.5 41.5v-229h-74v683z
" />
    <glyph glyph-name="pi" unicode="&#x3c0;" horiz-adv-x="777" 
d="M118.5 49q19.5 7 37.5 20q27 18 41 42.5t20 50t13 71.5l33 242h-54q-39 0 -61.5 -22t-28.5 -57l-46 5q-4 45 15.5 79.5t55.5 54t79 19.5h335q33 0 48 1.5t24.5 9.5t13.5 26h50q-4 -49 -12.5 -71t-38 -33.5t-93.5 -11.5h-18l-12 -336q-1 -40 9.5 -60t30.5 -20q26 0 46 14
t38 47l37 -27q-20 -45 -52.5 -73t-83.5 -28q-46 0 -70 29t-24 83l1 20l27 351h-162l-24 -265q-8 -80 -24 -117.5t-52 -68.5q-14 -12 -32 -18.5t-51 -13.5l-45 49q10 1 29.5 8z" />
    <glyph glyph-name="uni0400" unicode="&#x400;" horiz-adv-x="649" 
d="M136 689l-84 11v43h495l14 -147h-48l-27 96l-268 5v-291l184 3l13 83h50v-221h-50l-13 85l-184 3v-308l306 8l51 125l48 -15l-31 -169h-542v43l86 9v637zM265 862.5q-50 40.5 -74 73.5l69 44l136 -153l-42 -25q-39 20 -89 60.5z" />
    <glyph glyph-name="uni0401" unicode="&#x401;" horiz-adv-x="649" 
d="M136 689l-84 11v43h495l14 -147h-48l-27 96l-268 5v-291l184 3l13 83h50v-221h-50l-13 85l-184 3v-308l306 8l51 125l48 -15l-31 -169h-542v43l86 9v637zM163.5 842.5q-13.5 16.5 -13.5 40.5q0 28 15 47.5t43 19.5h1q24 0 38.5 -18t14.5 -41q0 -28 -16 -46.5t-45 -18.5
h-1q-23 0 -36.5 16.5zM401.5 842.5q-13.5 16.5 -13.5 40.5q0 28 15 47.5t43 19.5h1q24 0 38 -17.5t14 -41.5q0 -28 -16 -46.5t-45 -18.5q-23 0 -36.5 16.5z" />
    <glyph glyph-name="uni0402" unicode="&#x402;" horiz-adv-x="827" 
d="M473 415q53 11 88 11q88 0 135.5 -32t64.5 -86t17 -133q0 -107 -25.5 -191.5t-76 -133t-122.5 -48.5q-13 0 -30 2.5t-24 5.5l-1 48q18 -2 43 -2q81 0 117 77.5t36 233.5q0 106 -34.5 155t-119.5 49q-41 0 -76 -7t-73 -23v-289l105 -9v-43h-322v43l132 10v645l-190 -8
l-27 -181h-56l13 234h632l-3 -234h-54l-18 181l-212 8v-312q28 18 81 29z" />
    <glyph glyph-name="uni0403" unicode="&#x403;" horiz-adv-x="565" 
d="M542 743l4 -251h-55l-26 200l-242 6v-645l180 -11v-42h-375v42l111 11v635l-107 13v42h510zM283 827l136 153l69 -44q-24 -33 -74 -73.5t-89 -60.5z" />
    <glyph glyph-name="uni0404" unicode="&#x404;" horiz-adv-x="649" 
d="M547 20.5q-18 -5.5 -23 -6.5q-37 -12 -69 -18.5t-79 -6.5q-104 0 -180.5 48t-117.5 134.5t-41 201.5q0 108 46 194.5t125.5 135t177.5 48.5q46 0 86 -6.5t92 -18.5q3 -1 35 -8l-6 -163h-52l-24 116q-43 30 -144 30q-66 0 -118 -35t-84 -101t-36 -157l345 9v-73l-345 9
q5 -87 34 -158t82 -113.5t127 -42.5q55 0 85 8.5t53 26.5l42 99l50 -5l-26 -141q-17 -1 -35 -6.5z" />
    <glyph glyph-name="uni0405" unicode="&#x405;" horiz-adv-x="588" 
d="M196 -2q-39 9 -90 25q-34 11 -41 12l8 178h52l15 -131q19 -18 60.5 -31t90.5 -13q81 0 124 37t43 102q0 42 -22.5 71t-58 49t-98.5 47q-59 25 -100.5 50t-72.5 67.5t-31 101.5q0 55 30 98t83.5 66.5t122.5 23.5q42 0 74.5 -6.5t82.5 -20.5q27 -8 32 -9l-6 -164h-50
l-18 124q-12 10 -46.5 19.5t-73.5 9.5q-74 0 -113 -30.5t-39 -90.5q0 -41 21 -68.5t54 -46.5t102 -51q72 -34 112.5 -58.5t71 -64t30.5 -95.5q0 -53 -31 -101.5t-90 -78.5t-138 -30q-51 0 -90 9z" />
    <glyph glyph-name="uni0406" unicode="&#x406;" horiz-adv-x="397" 
d="M157 689l-97 11v43h277v-43l-97 -11v-637l97 -10v-42h-277v43l97 9v637z" />
    <glyph glyph-name="uni0407" unicode="&#x407;" horiz-adv-x="397" 
d="M157 689l-97 11v43h277v-43l-97 -11v-637l97 -10v-42h-277v43l97 9v637zM37.5 842.5q-13.5 16.5 -13.5 40.5q0 28 15 47.5t43 19.5h1q24 0 38.5 -18t14.5 -41q0 -28 -16 -46.5t-45 -18.5h-1q-23 0 -36.5 16.5zM275.5 842.5q-13.5 16.5 -13.5 40.5q0 28 15 47.5t43 19.5h1
q24 0 38 -17.5t14 -41.5q0 -28 -16 -46.5t-45 -18.5q-23 0 -36.5 16.5z" />
    <glyph glyph-name="uni0408" unicode="&#x408;" horiz-adv-x="375" 
d="M81 -91.5q36 33.5 51 82.5q13 41 16.5 92t3.5 170v435l-100 12v43h279v-43l-96 -12v-413v-78q0 -63 -2 -103.5t-8 -72.5q-16 -81 -74.5 -131t-129.5 -63l-22 36q46 12 82 45.5z" />
    <glyph glyph-name="uni0409" unicode="&#x409;" horiz-adv-x="1000" 
d="M641.5 418.5q40.5 3.5 73.5 3.5q122 0 187 -53t65 -150q0 -110 -72 -168.5t-192 -58.5q-20 0 -59 3q-85 5 -98 5h-145v43l102 10l1 637h-212v-98q0 -185 -21.5 -321.5t-64.5 -207.5q-21 -35 -47.5 -51.5t-61.5 -16.5q-38 0 -68 5l-5 76q22 -4 74 -4q35 0 58 37
q81 117 81 489v92l-92 10v43h533v-43l-94 -11v-278q17 4 57.5 7.5zM632.5 40q22.5 -2 61.5 -2q89 0 137.5 44.5t48.5 129.5q0 78 -48.5 116.5t-137.5 38.5q-30 0 -62.5 -2t-47.5 -5v-313q26 -5 48.5 -7z" />
    <glyph glyph-name="uni040A" unicode="&#x40a;" horiz-adv-x="1069" 
d="M971 369.5q65 -53.5 65 -150.5q0 -116 -69.5 -172.5t-191.5 -56.5q-30 0 -87 5q-17 1 -48.5 3t-45.5 2h-104v43l81 9v303h-351v-303l95 -9v-43h-264v43l88 9v637l-82 11v43h250v-43l-87 -11v-281h351v282l-85 12v41h255v-41l-88 -12v-267h131q122 0 187 -53.5zM681 49
q46 -8 82 -8q89 0 137.5 43.5t48.5 128.5q0 77 -49 116t-138 39h-109v-315q18 -2 28 -4z" />
    <glyph glyph-name="uni040B" unicode="&#x40b;" horiz-adv-x="848" 
d="M479.5 412q53.5 14 92.5 14q73 0 116.5 -21.5t63.5 -69.5t20 -130v-153l80 -9v-43h-237v43l76 9v123q0 102 -28.5 147.5t-103.5 45.5q-106 0 -162 -37v-279l101 -9v-43h-318v43l133 10v644l-191 -7l-28 -181h-55l12 234h637l-1 -234h-55l-19 181l-216 7v-318
q29 19 82.5 33z" />
    <glyph glyph-name="uni040C" unicode="&#x40c;" horiz-adv-x="693" 
d="M439 320.5q39 -48.5 95 -132.5q42 -63 68 -96.5t43 -38.5l39 -10v-43h-102q-22 0 -53 40.5t-82 121.5q-56 91 -92 137t-64 46h-74v-292l88 -11v-42h-250v44l83 9v636l-83 11v43h248v-43l-86 -11v-300h94l216 300l-89 11v43h234v-43l-76 -11l-229 -305q33 -15 72 -63.5z
M276 827l136 153l69 -44q-24 -33 -74 -73.5t-89 -60.5z" />
    <glyph glyph-name="uni040D" unicode="&#x40d;" horiz-adv-x="840" 
d="M321 743v-43l-101 -11v-525l92 131l308 365v29l-91 11v43h254v-43l-82 -11v-637l88 -9v-43h-260v43l91 9v533l-83 -121l-317 -373v-39l96 -9v-43h-262v43l86 9v637l-82 11v43h263zM370 862.5q-50 40.5 -74 73.5l69 44l136 -153l-42 -25q-39 20 -89 60.5z" />
    <glyph glyph-name="uni040E" unicode="&#x40e;" horiz-adv-x="621" 
d="M356 129q-16 -40 -32 -69t-44.5 -50t-69.5 -21q-46 0 -82 16v64q11 -1 33.5 -1.5t36.5 -0.5q45 0 68 21t42 74l-260 527l-54 11v43h247v-43l-103 -11l176 -365l32 -95l35 96l137 364l-91 11v43h209v-43l-51 -11l-219 -537zM206 949q0 -44 23.5 -69t85.5 -25t85.5 25
t23.5 69q0 34 14 34h60q1 -5 1 -18q0 -151 -184 -151t-184 151l1 18h59q15 0 15 -34z" />
    <glyph glyph-name="uni040F" unicode="&#x40f;" horiz-adv-x="791" 
d="M432 -180h-59q-2 29 -8 90.5t-9 89.5h-305v43l89 10v636l-85 11v43h261v-43l-96 -11v-638h350v638l-84 11v43h245v-43l-80 -11v-637l90 -9v-43h-293z" />
    <glyph glyph-name="uni0410" unicode="&#x410;" horiz-adv-x="686" 
d="M301 750h82l251 -698l65 -9v-43h-244v43l88 9l-53 159h-312l-53 -158l89 -10v-43h-225v43l64 9zM359 596l-28 95l-27 -98l-109 -330h277z" />
    <glyph glyph-name="uni0411" unicode="&#x411;" horiz-adv-x="641" 
d="M278.5 448q39.5 4 73.5 4q123 0 187.5 -57t64.5 -161q0 -117 -72 -179.5t-193 -62.5q-10 0 -25 1t-34 2q-85 5 -97 5h-150v43l106 9v637l-105 11v43h526l10 -181h-57l-31 130l-262 6v-258q19 4 58.5 8zM254 45q27 -4 76 -4q89 0 138 47.5t49 139.5q0 86 -48.5 127.5
t-138.5 41.5q-75 0 -110 -7v-340q7 -1 34 -5z" />
    <glyph glyph-name="uni0412" unicode="&#x412;" horiz-adv-x="672" 
d="M136 689l-84 11v43h125q33 0 85 4q48 4 71 4q130 0 188.5 -43t58.5 -125q0 -70 -38.5 -121.5t-109.5 -65.5q94 3 147.5 -45t53.5 -129q0 -100 -70.5 -164t-230.5 -64q-19 0 -61 2q-52 4 -98 4h-123v43l86 9v637zM281 412h60q76 0 116 39t40 113q0 73 -39.5 107t-135.5 34
q-36 0 -74 -4q-24 -2 -30 -2v-286q16 -1 63 -1zM331 42q112 0 162 42.5t50 122.5t-43 116.5t-139 36.5h-74q-54 0 -69 -1v-309q26 -8 113 -8z" />
    <glyph glyph-name="uni0413" unicode="&#x413;" horiz-adv-x="565" 
d="M542 743l4 -251h-55l-26 200l-242 6v-645l180 -11v-42h-375v42l111 11v635l-107 13v42h510z" />
    <glyph glyph-name="uni0414" unicode="&#x414;" horiz-adv-x="718" 
d="M657 -63.5q-8 -79.5 -13 -116.5h-54q-8 169 -10 180h-469l-16 -75q-6 -29 -12.5 -58t-10.5 -47h-54l12 233h74q23 27 52.5 95.5t53.5 189t24 282.5v69l-102 11v43h543v-43l-94 -11v-636h88q-4 -37 -12 -116.5zM270.5 351.5q-19.5 -118.5 -45 -194.5t-45.5 -104h320l1 638
h-212v-77q1 -144 -18.5 -262.5z" />
    <glyph glyph-name="uni0415" unicode="&#x415;" horiz-adv-x="649" 
d="M136 689l-84 11v43h495l14 -147h-48l-27 96l-268 5v-291l184 3l13 83h50v-221h-50l-13 85l-184 3v-308l306 8l51 125l48 -15l-31 -169h-542v43l86 9v637z" />
    <glyph glyph-name="uni0416" unicode="&#x416;" horiz-adv-x="1032" 
d="M778.5 318.5q39.5 -49.5 93.5 -130.5q44 -65 69.5 -97.5t42.5 -37.5l39 -10v-43h-103q-22 0 -53 40.5t-82 121.5q-56 91 -92 137t-64 46h-74v-292l88 -11v-42h-250v43l84 9v293h-75q-27 0 -63.5 -46.5t-90.5 -134.5q-53 -84 -83 -124t-53 -40h-102v43l38 10q17 5 41 36
t70 99q55 82 94 131.5t73 64.5l-227 305l-77 11v43h231v-43l-82 -11l212 -300h94v300l-84 11v43h249v-43l-87 -11v-300h94l211 299l-82 12v43h232v-43l-77 -11l-227 -306q33 -15 72.5 -64.5z" />
    <glyph glyph-name="uni0417" unicode="&#x417;" horiz-adv-x="599" 
d="M141 730q80 21 130 21q121 0 185.5 -41.5t64.5 -126.5q0 -80 -50 -128.5t-120 -62.5q93 -2 143 -51.5t50 -124.5q0 -106 -64.5 -164t-199.5 -58q-109 0 -204 38l16 165h38l26 -125q54 -26 146 -26q147 0 147 162q0 64 -40 107t-138 43h-72v49h59q44 0 84 18t65.5 54.5
t25.5 87.5q0 135 -151 135q-46 0 -79.5 -12t-45.5 -30l-17 -90h-52l-8 148q17 1 61 12z" />
    <glyph glyph-name="uni0418" unicode="&#x418;" horiz-adv-x="840" 
d="M321 743v-43l-101 -11v-525l92 131l308 365v29l-91 11v43h254v-43l-82 -11v-637l88 -9v-43h-260v43l91 9v533l-83 -121l-317 -373v-39l96 -9v-43h-262v43l86 9v637l-82 11v43h263z" />
    <glyph glyph-name="uni0419" unicode="&#x419;" horiz-adv-x="840" 
d="M321 743v-43l-101 -11v-525l92 131l308 365v29l-91 11v43h254v-43l-82 -11v-637l88 -9v-43h-260v43l91 9v533l-83 -121l-317 -373v-39l96 -9v-43h-262v43l86 9v637l-82 11v43h263zM321 949q0 -44 23.5 -69t85.5 -25t85.5 25t23.5 69q0 34 14 34h60q1 -5 1 -18
q0 -151 -184 -151t-184 151l1 18h59q15 0 15 -34z" />
    <glyph glyph-name="uni041A" unicode="&#x41a;" horiz-adv-x="693" 
d="M439 320.5q39 -48.5 95 -132.5q42 -63 68 -96.5t43 -38.5l39 -10v-43h-102q-22 0 -53 40.5t-82 121.5q-56 91 -92 137t-64 46h-74v-292l88 -11v-42h-250v44l83 9v636l-83 11v43h248v-43l-86 -11v-300h94l216 300l-89 11v43h234v-43l-76 -11l-229 -305q33 -15 72 -63.5z
" />
    <glyph glyph-name="uni041B" unicode="&#x41b;" horiz-adv-x="724" 
d="M270.5 270.5q-21.5 -136.5 -64.5 -207.5q-21 -35 -47.5 -51.5t-61.5 -16.5q-38 0 -68 5l-5 76q22 -4 74 -4q35 0 58 37q81 117 81 489v91l-111 11v43h552v-43l-94 -11v-637l100 -9v-43h-283v43l102 10l1 637h-212v-98q0 -185 -21.5 -321.5z" />
    <glyph glyph-name="uni041C" unicode="&#x41c;" horiz-adv-x="973" 
d="M167 689l-111 11v43h236l155 -462l37 -134l33 134l154 462h234v-43l-110 -11l79 -636l91 -10v-43h-269v43l93 9l-46 456l-22 200l-44 -138l-181 -534h-40l-170 478l-65 194l-20 -200l-41 -456l98 -9v-43h-250v43l85 9z" />
    <glyph glyph-name="uni041D" unicode="&#x41d;" horiz-adv-x="824" 
d="M139 689l-82 11v43h251v-43l-87 -11v-281h382v281l-83 11v43h248v-43l-82 -11v-637l82 -9v-43h-249v43l84 9v303h-382v-303l88 -9v-43h-255v43l85 9v637z" />
    <glyph glyph-name="uni041E" unicode="&#x41e;" horiz-adv-x="719" 
d="M178.5 36.5q-69.5 47.5 -105.5 132.5t-36 197q0 115 44 202.5t120 135t169 47.5q99 0 169.5 -46t107 -130t36.5 -197q0 -116 -45 -204.5t-122 -136.5t-171 -48q-97 0 -166.5 47.5zM191 617.5q-63 -86.5 -63 -251.5q0 -96 27 -171t79 -117t124 -42q70 0 122 38.5t81 115.5
t29 188q0 97 -27 170.5t-78.5 114.5t-123.5 41q-107 0 -170 -86.5z" />
    <glyph glyph-name="uni041F" unicode="&#x41f;" horiz-adv-x="788" 
d="M737 743v-43l-88 -12v-635l97 -10v-43h-265v43l87 10v637h-347v-638l98 -9v-43h-262v43l83 9v637l-88 11v43h685z" />
    <glyph glyph-name="uni0420" unicode="&#x420;" horiz-adv-x="641" 
d="M139 689l-80 11v43h121q22 0 43.5 1.5t31.5 1.5q52 4 100 4q141 0 199.5 -52.5t58.5 -157.5q0 -79 -38 -137t-103 -88.5t-145 -30.5q-32 0 -65.5 1.5t-40.5 2.5v-235l139 -10v-43h-307v43l86 9v637zM329 333q86 0 141 48.5t55 158.5q0 87 -47 124.5t-148 37.5
q-31 0 -69 -4q-30 -2 -40 -2v-359q25 -4 108 -4z" />
    <glyph glyph-name="uni0421" unicode="&#x421;" horiz-adv-x="649" 
d="M193 37q-77 48 -117 135t-40 203q0 109 47 195t128 133.5t181 47.5q51 0 98.5 -8t76.5 -15t36 -9l-8 -163h-52l-22 116q-15 13 -54 22t-95 9q-69 0 -124 -37.5t-86.5 -109.5t-31.5 -172q0 -94 27.5 -173t83.5 -126.5t138 -47.5q57 0 89 9.5t54 27.5l40 94l49 -7l-25 -134
q-24 -1 -58 -13q-36 -12 -69 -18.5t-82 -6.5q-107 0 -184 48z" />
    <glyph glyph-name="uni0422" unicode="&#x422;" horiz-adv-x="679" 
d="M295 698l-190 -6l-32 -203h-55l17 254h609l11 -254h-53l-28 203l-193 6v-646l143 -9v-43h-360v43l131 9v646z" />
    <glyph glyph-name="uni0423" unicode="&#x423;" horiz-adv-x="621" 
d="M356 129q-16 -40 -32 -69t-44.5 -50t-69.5 -21q-46 0 -82 16v64q11 -1 33.5 -1.5t36.5 -0.5q45 0 68 21t42 74l-260 527l-54 11v43h247v-43l-103 -11l176 -365l32 -95l35 96l137 364l-91 11v43h209v-43l-51 -11l-219 -537z" />
    <glyph glyph-name="uni0424" unicode="&#x424;" horiz-adv-x="730" 
d="M645 559.5q66 -70.5 66 -180.5q0 -69 -37.5 -126.5t-107.5 -94t-163 -43.5v-81l100 -13v-42h-276v44l100 12v79q-174 7 -241 81t-67 186q0 69 37 124.5t107 89.5t164 40v73l-100 12v43h275v-43l-99 -12v-72q176 -6 242 -76.5zM159 534q-47 -57 -47 -147q0 -94 45 -159
t170 -74v445q-121 -8 -168 -65zM569.5 223q47.5 60 47.5 155q0 92 -44.5 152t-169.5 68v-444q119 9 166.5 69z" />
    <glyph glyph-name="uni0425" unicode="&#x425;" horiz-adv-x="708" 
d="M313 376l-211 312l-77 12v43h280v-43l-102 -12l168 -269l166 270l-90 11v43h239v-43l-79 -12l-209 -302l227 -334l80 -9v-43h-279v43l98 9l-182 290l-175 -290l103 -9v-43h-263v43l87 9z" />
    <glyph glyph-name="uni0426" unicode="&#x426;" horiz-adv-x="787" 
d="M746.5 -63.5q-8.5 -79.5 -13.5 -116.5h-54q-1 36 -4 94t-5 86h-628v42l98 12v635l-87 11v43h268v-43l-101 -11v-637h340v637l-78 11v43h243v-43l-84 -11v-636h118q-4 -37 -12.5 -116.5z" />
    <glyph glyph-name="uni0427" unicode="&#x427;" horiz-adv-x="674" 
d="M359.5 302.5q-57.5 -11.5 -106.5 -11.5q-68 0 -108.5 22t-59.5 71.5t-19 134.5v169l-63 11v44h235v-44l-91 -11v-141q0 -93 12 -133.5t41 -52t94 -11.5q41 0 89 10t70 22v307l-93 11v43h265v-43l-91 -11v-637l92 -10v-42h-277v43l104 9v281q-36 -19 -93.5 -30.5z" />
    <glyph glyph-name="uni0428" unicode="&#x428;" horiz-adv-x="1073" 
d="M314 743v-43l-94 -12v-636h280v637l-78 11v43h236v-43l-80 -11v-637h275v637l-77 11v43h242v-43l-84 -11v-636l97 -10v-43h-990v43l99 9v637l-86 11v43h260z" />
    <glyph glyph-name="uni0429" unicode="&#x429;" horiz-adv-x="1083" 
d="M1028 -180h-54l-1 31q-2 39 -4 83t-4 66h-924v43l99 9v637l-86 11v43h260v-43l-94 -11v-637h280v637l-78 11v43h236v-43l-80 -11v-637h275v637l-77 11v43h242v-43l-84 -11v-636h121z" />
    <glyph glyph-name="uni042A" unicode="&#x42a;" horiz-adv-x="809" 
d="M710.5 395q64.5 -57 64.5 -161q0 -117 -72 -179.5t-192 -62.5q-10 0 -25 1t-34 2q-85 5 -97 5h-176v42l130 11v645l-186 -8l-27 -185h-57l12 238h433v-43l-91 -11v-237h131q122 0 186.5 -57zM441.5 40q22.5 -2 61.5 -2q89 0 137.5 48.5t48.5 141.5q0 86 -48.5 129.5
t-137.5 43.5h-110v-354q26 -5 48.5 -7z" />
    <glyph glyph-name="uni042B" unicode="&#x42b;" horiz-adv-x="1034" 
d="M352 452q121 0 186 -57t65 -161q0 -117 -72 -179.5t-192 -62.5q-10 0 -25 1t-34 2q-85 5 -97 5h-131v43l87 9v638l-84 12v41h259v-41l-94 -12v-238h132zM974 743v-43l-97 -11v-637l97 -10v-42h-277v43l97 9v637l-97 11v43h277zM269.5 42q21.5 -2 60.5 -2q89 0 138 48
t49 140q0 85 -49 128t-138 43h-110v-350q28 -5 49.5 -7z" />
    <glyph glyph-name="uni042C" unicode="&#x42c;" horiz-adv-x="637" 
d="M352 452q121 0 186 -57t65 -161q0 -117 -72 -179.5t-192 -62.5q-10 0 -25 1t-34 2q-85 5 -97 5h-131v43l87 9v638l-84 12v41h259v-41l-94 -12v-238h132zM269.5 42q21.5 -2 60.5 -2q89 0 138 48t49 140q0 85 -49 128t-138 43h-110v-350q28 -5 49.5 -7z" />
    <glyph glyph-name="uni042D" unicode="&#x42d;" horiz-adv-x="655" 
d="M125 726q40 12 75.5 18.5t87.5 6.5q103 0 178 -48.5t114 -136.5t39 -202q0 -109 -43.5 -194.5t-121 -133t-177.5 -47.5q-42 0 -74 6.5t-68 17.5q-42 14 -66 14l-24 134l52 12l42 -89q27 -19 61 -31.5t92 -12.5q66 0 118 37.5t82 108.5t31 167l-343 -9v73l341 -9
q-11 129 -70.5 211.5t-166.5 82.5q-54 0 -83.5 -13t-57.5 -37l-25 -91h-59l4 152q23 1 62 13z" />
    <glyph glyph-name="uni042E" unicode="&#x42e;" horiz-adv-x="1060" 
d="M450.5 591.5q47.5 77.5 118 118.5t150.5 41q92 0 160.5 -46t105.5 -128t37 -187q0 -122 -42.5 -212.5t-115.5 -138.5t-160 -48q-97 0 -168.5 46t-108.5 129t-37 192h-170v-305l88 -10v-43h-254v43l85 10v636l-82 11v43h246v-43l-84 -11v-280h174q10 105 57.5 182.5z
M543 616.5q-64 -84.5 -64 -253.5q0 -90 27 -163t79 -115.5t125 -42.5q105 0 164 85t59 252q0 92 -26 165t-75.5 115t-119.5 42q-105 0 -169 -84.5z" />
    <glyph glyph-name="uni042F" unicode="&#x42f;" horiz-adv-x="693" 
d="M313 328q-23 -17 -48 -61t-60 -118q-35 -75 -57 -112t-39 -37h-114v42l40 11q16 3 36 32.5t57 94.5q38 67 62 104t47 52q-68 19 -106.5 71t-38.5 130q0 87 36.5 134t95.5 63.5t141 16.5q24 0 68 -4q46 -4 70 -4h139v-43l-88 -11v-637l97 -10v-42h-277v42l99 10v277z
M452 695q-9 1 -16 2q-50 5 -84 5q-85 0 -130 -34t-45 -121q0 -81 45.5 -125t129.5 -44q91 0 121 3v313q-12 0 -21 1z" />
    <glyph glyph-name="uni0430" unicode="&#x430;" horiz-adv-x="557" 
d="M147 286.5q96 43.5 239 46.5v31q0 51 -10.5 80.5t-36.5 43t-73 13.5q-51 0 -92.5 -15.5t-80.5 -37.5l-22 44q11 10 46 28t80 32t87 14q68 0 107.5 -19t57 -61t17.5 -113v-330h62v-37q-55 -15 -93 -15q-24 0 -33 7.5t-9 34.5v37q-36 -32 -78.5 -56.5t-96.5 -24.5
q-72 0 -119.5 40t-47.5 117q0 97 96 140.5zM315 66q39 18 71 43v177q-121 -1 -183.5 -36t-62.5 -94q0 -57 29 -82.5t79 -25.5q28 0 67 18z" />
    <glyph glyph-name="uni0431" unicode="&#x431;" horiz-adv-x="568" 
d="M472 741q-10 -13 -34 -15q-89 -9 -153.5 -21.5t-93.5 -35.5q-30 -24 -53.5 -70.5t-27.5 -122.5q34 38 92.5 64.5t110.5 26.5q110 0 164 -66.5t54 -187.5q0 -157 -64 -239t-182 -82q-112 0 -180 96t-68 298q0 122 33.5 197t88.5 127q33 32 88 50.5t111 27.5q9 1 35 4.5
t36.5 9t14.5 16.5l15 44h45l-16 -79q-6 -29 -16 -42zM221 496.5q-35 -13.5 -60 -32.5t-33 -34q0 -205 38.5 -299t119.5 -94q83 0 119 69t36 205q0 106 -34.5 152.5t-111.5 46.5q-39 0 -74 -13.5z" />
    <glyph glyph-name="uni0432" unicode="&#x432;" horiz-adv-x="624" 
d="M220 557q60 2 92 2q121 0 170.5 -32.5t49.5 -97.5q0 -48 -30 -80t-81 -47q74 -5 114 -42.5t40 -89.5q0 -85 -64 -129.5t-203 -44.5q-29 0 -97 2l-63 2h-93v43l72 12v442l-70 15v43h102q13 0 61 2zM416.5 346.5q32.5 29.5 32.5 78.5q0 41 -31.5 62.5t-110.5 21.5h-102
v-192h110q69 0 101.5 29.5zM248 49.5q32 -2.5 56 -2.5q69 0 109 10.5t58 34.5t18 65q0 58 -38 86t-117 28h-129v-216q11 -3 43 -5.5z" />
    <glyph glyph-name="uni0433" unicode="&#x433;" horiz-adv-x="496" 
d="M465 555l5 -201h-51l-24 146l-189 4v-453l139 -8v-43h-299v43l81 8v446l-79 15v43h417z" />
    <glyph glyph-name="uni0434" unicode="&#x434;" horiz-adv-x="607" 
d="M542 -180h-54l-1 32q-2 36 -4 81t-4 67h-387q-4 -26 -15 -84.5t-19 -95.5h-56l9 230h57q51 19 79 137.5t28 309.5l-92 15v43h487v-43l-90 -15v-447h88zM212.5 267.5q-11.5 -79.5 -29 -136.5t-35.5 -81h253v452h-177v-68q0 -87 -11.5 -166.5z" />
    <glyph glyph-name="uni0435" unicode="&#x435;" horiz-adv-x="540" 
d="M109.5 68.5q-62.5 79.5 -62.5 211.5q0 85 33 151t91.5 102.5t131.5 36.5q89 0 138.5 -51t53.5 -147q0 -62 -6 -88h-356q0 -105 47.5 -171.5t133.5 -66.5q42 0 86 15t68 36l16 -37q-29 -30 -84.5 -50.5t-111.5 -20.5q-116 0 -178.5 79.5zM405 331q3 21 3 44
q-1 66 -31.5 105t-93.5 39q-137 0 -149 -188h271z" />
    <glyph glyph-name="uni0436" unicode="&#x436;" horiz-adv-x="910" 
d="M714.5 244.5q32.5 -37.5 75.5 -100.5q31 -44 49 -66t32 -26l36 -9v-43h-81q-27 0 -54.5 33t-67.5 98q-43 68 -71.5 102t-57.5 34h-81v-215l89 -9v-43h-247v43l80 9v215h-82q-28 0 -56.5 -34t-70.5 -101q-43 -67 -70 -99.5t-54 -32.5h-81v43l36 10q15 5 32.5 25.5
t51.5 68.5q43 62 74.5 98.5t66.5 53.5l-166 198l-71 15v43h217v-43l-78 -15l148 -188h103v188l-78 15v43h245v-43l-89 -15v-188h103l148 188l-79 15v43h217v-43l-70 -15l-167 -198q36 -17 68.5 -54.5z" />
    <glyph glyph-name="uni0437" unicode="&#x437;" horiz-adv-x="539" 
d="M143 551q66 16 129 16q95 0 147 -35t52 -99q0 -42 -33 -78.5t-87 -53.5q70 -5 111 -41.5t41 -92.5q0 -82 -61.5 -128.5t-177.5 -46.5q-66 0 -120 11t-88 26l9 112h49l14 -69q15 -15 51 -22.5t75 -7.5q79 0 118 29t39 82q0 55 -34 84t-112 27q-9 -1 -29 -3t-29 -4v55l42 5
q65 7 100.5 36.5t35.5 73.5t-29 67t-97 23q-46 0 -80 -9.5t-50 -20.5l-16 -92h-50v145q32 0 80 11z" />
    <glyph glyph-name="uni0438" unicode="&#x438;" horiz-adv-x="719" 
d="M291 555v-43l-86 -15v-356l63 83l246 259v14l-78 15v43h233v-43l-75 -15v-446l78 -8v-43h-241v43l83 8v361l-71 -97l-238 -246v-18l66 -8v-43h-224v43l79 8v446l-77 15v43h242z" />
    <glyph glyph-name="uni0439" unicode="&#x439;" horiz-adv-x="719" 
d="M291 555v-43l-86 -15v-356l63 83l246 259v14l-78 15v43h233v-43l-75 -15v-446l78 -8v-43h-241v43l83 8v361l-71 -97l-238 -246v-18l66 -8v-43h-224v43l79 8v446l-77 15v43h242zM253 813q0 -47 26 -80.5t83 -33.5q56 0 80.5 33.5t24.5 80.5q0 34 15 34h60l1 -17
q0 -81 -47 -130t-135 -49q-87 0 -135.5 49.5t-48.5 129.5l1 17h60q15 0 15 -34z" />
    <glyph glyph-name="uni043A" unicode="&#x43a;" horiz-adv-x="620" 
d="M422 245.5q31 -36.5 74 -98.5q33 -47 50.5 -68.5t32.5 -25.5l37 -10v-43h-80q-27 0 -54 32.5t-69 98.5q-43 68 -71.5 102t-57.5 34h-80v-216l92 -8v-43h-249v43l80 8v446l-78 15v43h242v-43l-87 -15v-188h104l147 188l-78 15v43h217v-43l-71 -15l-166 -198
q34 -17 65 -53.5z" />
    <glyph glyph-name="uni043B" unicode="&#x43b;" horiz-adv-x="616" 
d="M210 208q-16 -99 -39 -146q-16 -34 -40 -51t-71 -17q-18 0 -45 6l-5 80q23 -5 71 -5q43 0 69 111.5t27 310.5l-92 15v43h491v-44l-87 -16v-444l85 -8v-43h-242v43l79 8v450h-185v-53q0 -141 -16 -240z" />
    <glyph glyph-name="uni043C" unicode="&#x43c;" horiz-adv-x="855" 
d="M264 555l114 -290l49 -137l44 137l113 290h208v-43l-102 -15l72 -446l80 -8v-43h-240v43l80 8l-39 288l-22 170l-57 -168l-124 -309h-42l-125 309l-61 163l-18 -165l-40 -289l86 -7v-43h-225v43l79 8l68 446l-97 15v43h199z" />
    <glyph glyph-name="uni043D" unicode="&#x43d;" horiz-adv-x="713" 
d="M295 555v-43l-89 -15v-183h301v183l-90 15v43h244v-43l-75 -15v-446l80 -8v-43h-252v43l93 8v211h-301v-211l93 -8v-43h-252v43l80 8v446l-78 15v43h246z" />
    <glyph glyph-name="uni043E" unicode="&#x43e;" horiz-adv-x="595" 
d="M81.5 434q36.5 66 96 101t124.5 35q126 0 186.5 -82t60.5 -210q0 -87 -36.5 -153t-96 -101t-124.5 -35q-126 0 -186.5 82t-60.5 210q0 87 36.5 153zM416 100q42 59 42 172q0 108 -39 177t-121 69q-77 0 -119.5 -59t-42.5 -172q0 -109 39.5 -177.5t121.5 -68.5
q77 0 119 59z" />
    <glyph glyph-name="uni043F" unicode="&#x43f;" horiz-adv-x="682" 
d="M625 555v-43l-70 -15v-445l75 -9v-43h-231v43l78 9v450h-271v-450l79 -9v-43h-233v43l75 9v445l-74 15v43h572z" />
    <glyph glyph-name="uni0440" unicode="&#x440;" horiz-adv-x="624" 
d="M543 141.5q-35 -70.5 -99.5 -111.5t-147.5 -41q-28 0 -59 4.5t-51 11.5l2 -85v-108l111 -10v-44h-268v44l77 10v677l-78 17v45l128 16h2l18 -16v-61q32 33 78 56.5t103 23.5q58 0 108 -29t80.5 -90t30.5 -153q0 -86 -35 -156.5zM246 491q-37 -18 -58 -40v-381
q8 -13 40.5 -23.5t71.5 -10.5q86 0 138.5 63.5t52.5 187.5q0 111 -46.5 166.5t-118.5 55.5q-43 0 -80 -18z" />
    <glyph glyph-name="uni0441" unicode="&#x441;" horiz-adv-x="509" 
d="M65.5 422.5q31.5 67.5 94 107.5t152.5 40q39 0 76 -9.5t64 -20.5l-4 -143h-50l-21 96q-6 30 -86 30q-78 0 -124.5 -60t-46.5 -164q0 -124 50 -188t130 -64q42 0 81.5 14t65.5 32l16 -33q-29 -29 -80 -50t-101 -21q-79 0 -135 37.5t-84.5 102t-28.5 145.5t31.5 148.5z" />
    <glyph glyph-name="uni0442" unicode="&#x442;" horiz-adv-x="613" 
d="M570 555l5 -201h-54l-24 146l-151 4v-452l139 -9v-43h-357v43l139 9v452l-151 -4l-25 -146h-53l4 201h528z" />
    <glyph glyph-name="uni0443" unicode="&#x443;" horiz-adv-x="572" 
d="M91.5 -247q-14.5 2 -20.5 5v74q12 -6 51 -6q31 0 56.5 12.5t52.5 50.5t53 111h-44l-191 501l-47 13v41h221v-41l-81 -12l105 -306l52 -163l50 164l94 305l-70 12v41h192v-41l-52 -12q-75 -230 -118.5 -359.5t-55.5 -158.5q-35 -88 -62 -135.5t-64 -72.5t-93 -25
q-14 0 -28.5 2z" />
    <glyph glyph-name="uni0444" unicode="&#x444;" horiz-adv-x="875" 
d="M259 -11q-55 0 -103 28.5t-78.5 90.5t-30.5 157q0 85 32.5 155t91 110t134.5 40q27 0 52 -7t42 -16l-3 84v125l-85 9v37l147 17l19 -13v-175l-3 -107q50 46 141 46q55 0 103 -28.5t78.5 -90.5t30.5 -157q0 -85 -32.5 -154.5t-91 -110t-134.5 -40.5q-27 0 -52 7t-42 16
l3 -84v-116l89 -12v-44h-256v44l86 12v116l3 106q-51 -45 -141 -45zM360 513.5q-26 12.5 -59 12.5q-73 0 -119.5 -62.5t-46.5 -184.5q0 -120 44.5 -176t113.5 -56q33 0 60.5 9t43.5 20v413q-11 12 -37 24.5zM514 45.5q26 -12.5 59 -12.5q73 0 119.5 62.5t46.5 184.5
q0 120 -44.5 176t-112.5 56q-33 0 -61 -9t-44 -20v-413q11 -12 37 -24.5z" />
    <glyph glyph-name="uni0445" unicode="&#x445;" horiz-adv-x="589" 
d="M254 279l-171 223l-59 12v41h231v-41l-73 -12l99 -140l30 -44l27 43l105 141l-77 12v41h207v-41l-62 -12l-171 -214l180 -238l60 -8v-42h-237v42l71 9l-100 147l-31 45l-28 -44l-106 -148l88 -9v-42h-229v42l69 9z" />
    <glyph glyph-name="uni0446" unicode="&#x446;" horiz-adv-x="684" 
d="M646 -180h-55q-1 36 -3.5 95t-4.5 85h-531v43l75 9v446l-73 14v43h238v-43l-86 -14v-446h269v445l-86 15v43h239v-43l-74 -15v-445h119z" />
    <glyph glyph-name="uni0447" unicode="&#x447;" horiz-adv-x="646" 
d="M354 200q-35 -12 -91 -12q-69 0 -110 21.5t-60 68t-19 124.5v95l-64 15v43h220v-43l-75 -15v-60q0 -80 10.5 -119.5t39.5 -55.5t89 -16q47 0 80.5 11.5t65.5 28.5v211l-89 15v43h238v-43l-69 -15v-445l74 -9v-43h-245v43l91 9v185q-51 -25 -86 -37z" />
    <glyph glyph-name="uni0448" unicode="&#x448;" horiz-adv-x="965" 
d="M296 555v-43l-90 -15v-447h236l1 447l-93 15v43h257v-43l-86 -15v-447h238v447l-92 15v43h257v-43l-86 -15v-446l91 -10v-41h-895v41l92 10v446l-89 15v43h259z" />
    <glyph glyph-name="uni0449" unicode="&#x449;" horiz-adv-x="965" 
d="M915 -180h-54l-1 32q-2 36 -4 81t-4 67h-818v41l92 10v446l-89 15v43h259v-43l-90 -15v-447h236l1 447l-93 15v43h257v-43l-86 -15v-447h238v447l-92 15v43h257v-43l-86 -15v-445h103z" />
    <glyph glyph-name="uni044A" unicode="&#x44a;" horiz-adv-x="686" 
d="M461 333q105 0 156.5 -43.5t51.5 -126.5q0 -174 -216 -174q-13 0 -41 2t-43 3q-64 6 -84 6h-139v43l122 8v453h-160l-17 -169h-50l-3 220h413v-47l-104 -11v-164h114zM369 47q59 -8 79 -8q65 0 100 27t35 89q0 68 -36 96t-108 28h-92v-229z" />
    <glyph glyph-name="uni044B" unicode="&#x44b;" horiz-adv-x="840" 
d="M315 333q208 0 208 -167q0 -86 -55.5 -131.5t-155.5 -45.5q-23 0 -91 6q-50 5 -76 5h-112v41l94 10v446l-87 14v44h271v-47l-105 -11v-164h109zM788 555v-44l-74 -14v-445l79 -9v-43h-233v43l74 9v445l-79 14v44h233zM307 39q131 0 131 120q0 66 -35.5 93.5t-108.5 27.5
h-88v-233q48 -8 101 -8z" />
    <glyph glyph-name="uni044C" unicode="&#x44c;" horiz-adv-x="546" 
d="M315 333q208 0 208 -167q0 -86 -55.5 -131.5t-155.5 -45.5q-23 0 -91 6q-50 5 -76 5h-112v41l94 10v446l-87 14v44h271v-44l-105 -14v-164h109zM307 39q131 0 131 120q0 66 -35.5 93.5t-109.5 27.5h-87v-233q48 -8 101 -8z" />
    <glyph glyph-name="uni044D" unicode="&#x44d;" horiz-adv-x="527" 
d="M120.5 565q51.5 7 100.5 7q79 0 140 -34t95 -100t34 -161q0 -87 -35.5 -153t-95 -101t-130.5 -35q-62 0 -109 15.5t-78 41.5v98h47l19 -79q54 -27 115 -27q74 0 123 52.5t54 163.5l-236 -4v67l235 -7q-6 105 -56 159.5t-124 54.5q-73 0 -107 -26l-20 -77h-45v127
q22 11 73.5 18z" />
    <glyph glyph-name="uni044E" unicode="&#x44e;" horiz-adv-x="897" 
d="M399.5 449q37.5 59 93.5 90t117 31q127 0 187 -81.5t60 -210.5q0 -87 -36.5 -152.5t-95.5 -101t-124 -35.5q-122 0 -181.5 74.5t-64.5 195.5h-149v-207l90 -9v-43h-253v43l84 9v445l-81 15v43h246v-43l-86 -15v-185h149q7 78 44.5 137zM486.5 459q-42.5 -59 -42.5 -172
q0 -109 39.5 -177.5t121.5 -68.5q77 0 119.5 59.5t42.5 173.5q0 108 -39 176t-122 68q-77 0 -119.5 -59z" />
    <glyph glyph-name="uni044F" unicode="&#x44f;" horiz-adv-x="639" 
d="M252.5 185.5q-14.5 -28.5 -33.5 -77.5q-21 -54 -37 -81t-36 -27h-115v43l39 10q27 7 46 32t45 74q27 57 49 77q-64 16 -95 61t-31 106q0 79 64.5 119t178.5 40q41 0 99 -4q33 -3 56 -3h98v-44l-68 -14v-445l76 -9v-43h-242v43l87 9v176h-147q-19 -14 -33.5 -42.5z
M329 512q-76 0 -117.5 -24.5t-41.5 -83.5q0 -60 38 -94t117 -34q95 0 108 2v228q-51 6 -104 6z" />
    <glyph glyph-name="uni0450" unicode="&#x450;" horiz-adv-x="540" 
d="M109.5 68.5q-62.5 79.5 -62.5 211.5q0 85 33 151t91.5 102.5t131.5 36.5q89 0 138.5 -51t53.5 -147q0 -62 -6 -88h-356q0 -105 47.5 -171.5t133.5 -66.5q42 0 86 15t68 36l16 -37q-29 -30 -84.5 -50.5t-111.5 -20.5q-116 0 -178.5 79.5zM405 331q3 21 3 44
q-1 66 -31.5 105t-93.5 39q-137 0 -149 -188h271zM220.5 732.5q-71.5 62.5 -90.5 91.5l63 54l156 -192l-29 -27h-1q-27 11 -98.5 73.5z" />
    <glyph glyph-name="uni0451" unicode="&#x451;" horiz-adv-x="540" 
d="M109.5 68.5q-62.5 79.5 -62.5 211.5q0 85 33 151t91.5 102.5t131.5 36.5q89 0 138.5 -51t53.5 -147q0 -62 -6 -88h-356q0 -105 47.5 -171.5t133.5 -66.5q42 0 86 15t68 36l16 -37q-29 -30 -84.5 -50.5t-111.5 -20.5q-116 0 -178.5 79.5zM405 331q3 21 3 44
q-1 66 -31.5 105t-93.5 39q-137 0 -149 -188h271zM139 678q-14 16 -14 41q0 27 15.5 46.5t43.5 19.5q24 0 38.5 -17.5t14.5 -40.5q0 -28 -16 -46.5t-45 -18.5q-23 0 -37 16zM357 678.5q-14 16.5 -14 40.5q0 27 15.5 46.5t43.5 19.5q24 0 38.5 -17.5t14.5 -40.5
q0 -28 -16 -46.5t-46 -18.5q-22 0 -36 16.5z" />
    <glyph glyph-name="uni0452" unicode="&#x452;" horiz-adv-x="640" 
d="M272 503q60 27 113 27q63 0 97.5 -23.5t49 -73.5t14.5 -135v-287q0 -121 -42 -186t-116 -70q-48 0 -54 4l-4 43q7 -2 23 0.5t29 6.5q43 11 63 68t20 145v276q0 63 -8.5 98.5t-33 53t-72.5 17.5q-40 0 -85.5 -19.5t-82.5 -46.5v-350l75 -8v-43h-217v43l62 8v568h-98v48h98
v93l-88 8v37l148 17h1l19 -13v-142h130v-48h-130v-77l-2 -94q31 28 91 55z" />
    <glyph glyph-name="uni0453" unicode="&#x453;" horiz-adv-x="496" 
d="M465 555l5 -201h-51l-24 146l-189 4v-453l139 -8v-43h-299v43l81 8v446l-79 15v43h417zM180 686l155 193l68 -55q-20 -30 -88.5 -89.5t-103.5 -75.5z" />
    <glyph glyph-name="uni0454" unicode="&#x454;" horiz-adv-x="525" 
d="M298 -11q-129 0 -194.5 79.5t-65.5 218.5q0 82 37.5 147.5t102 102t142.5 36.5q48 0 95 -7t69 -18l-1 -128h-47l-22 80q-33 27 -103 27q-75 0 -126 -53.5t-58 -161.5l239 4v-67l-239 7q6 -107 55.5 -162t125.5 -55q69 0 110 22l20 82h48v-98q-69 -56 -188 -56z" />
    <glyph glyph-name="uni0455" unicode="&#x455;" horiz-adv-x="496" 
d="M127 79q11 -17 46 -30t75 -13q122 0 122 90q0 41 -34 66.5t-116 56.5q-81 29 -118 69t-37 107q0 43 26.5 75t71 49.5t96.5 17.5q51 0 85.5 -9t68.5 -22v-119h-49l-18 73q-7 13 -35.5 22t-62.5 9q-48 0 -78 -21.5t-30 -57.5q0 -32 15 -53t37 -33.5t61 -28.5l19 -8
q57 -22 92 -41.5t58 -51t23 -78.5q0 -74 -56.5 -116.5t-150.5 -42.5q-43 0 -98 14t-82 28v126h54z" />
    <glyph glyph-name="uni0456" unicode="&#x456;" horiz-adv-x="324" 
d="M108 717q0 29 17 47.5t46 18.5q30 0 43 -16.5t13 -40.5q0 -31 -16.5 -48.5t-47.5 -17.5h-1q-54 0 -54 57zM130 489l-78 17v45l137 16h2l20 -16v-501l87 -7v-43h-256v43l88 8v438z" />
    <glyph glyph-name="uni0457" unicode="&#x457;" horiz-adv-x="324" 
d="M130 489l-78 17v45l137 16h2l20 -16v-501l87 -7v-43h-256v43l88 8v438zM11 678q-14 16 -14 41q0 27 15.5 46.5t43.5 19.5q24 0 38.5 -17.5t14.5 -40.5q0 -28 -16 -46.5t-45 -18.5q-23 0 -37 16zM229 678.5q-14 16.5 -14 40.5q0 27 15.5 46.5t43.5 19.5q24 0 38.5 -17.5
t14.5 -40.5q0 -28 -16 -46.5t-46 -18.5q-22 0 -36 16.5z" />
    <glyph glyph-name="uni0458" unicode="&#x458;" horiz-adv-x="308" 
d="M106 717q0 29 17 47.5t46 18.5q30 0 43 -16.5t13 -40.5q0 -31 -16.5 -48.5t-47.5 -17.5h-1q-54 0 -54 57zM44 551l139 16h2l19 -16v-545q0 -235 -153 -249q-12 -1 -32.5 0t-24.5 4l-4 41q8 -1 24 1.5t33 8.5q43 13 60 68t17 145l-1 460l-79 18v48z" />
    <glyph glyph-name="uni0459" unicode="&#x459;" horiz-adv-x="825" 
d="M537.5 329q31.5 4 62.5 4q208 0 208 -167q0 -87 -49.5 -132t-149.5 -45q-19 0 -83 6l-39 3t-39 2h-116v43l79 8v450h-185v-53q0 -141 -16 -240t-39 -146q-16 -34 -40 -51t-71 -17q-18 0 -45 6l-5 80q23 -5 71 -5q43 0 69 111.5t27 310.5l-92 15v43h491v-44l-87 -16v-174
q17 4 48.5 8zM591 39q131 0 131 120q0 67 -35.5 94t-108.5 27q-48 0 -89 -9v-224q53 -8 102 -8z" />
    <glyph glyph-name="uni045A" unicode="&#x45a;" horiz-adv-x="922" 
d="M633 327.5q32 4.5 63 4.5q109 0 158.5 -42.5t49.5 -126.5q0 -86 -55.5 -130t-156.5 -44q-21 0 -87 6q-16 1 -42.5 3t-38.5 2h-110v42l93 7v213h-301v-211l93 -8v-43h-252v43l80 8v446l-78 15v43h246v-43l-89 -15v-186h301v186l-90 15v43h244v-43l-75 -15v-179
q15 5 47 9.5zM613 42q24 -4 75 -4q64 0 97 27.5t33 89.5q0 67 -35.5 95.5t-108.5 28.5q-44 0 -88 -11v-221q3 -1 27 -5z" />
    <glyph glyph-name="uni045B" unicode="&#x45b;" horiz-adv-x="663" 
d="M270 507.5q57 27.5 113 27.5q63 0 97.5 -24.5t48.5 -75t14 -136.5v-248l74 -8v-43h-224v43l70 8v249q0 63 -8.5 99.5t-33.5 54.5t-73 18q-40 0 -86 -19.5t-81 -46.5v-355l74 -8v-43h-217v43l62 7v563h-88v48h88v95l-88 9v37l147 17h3l19 -13v-145h134v-48h-134v-78
l-3 -84q35 29 92 56.5z" />
    <glyph glyph-name="uni045C" unicode="&#x45c;" horiz-adv-x="620" 
d="M422 245.5q31 -36.5 74 -98.5q33 -47 50.5 -68.5t32.5 -25.5l37 -10v-43h-80q-27 0 -54 32.5t-69 98.5q-43 68 -71.5 102t-57.5 34h-80v-216l92 -8v-43h-249v43l80 8v446l-78 15v43h242v-43l-87 -15v-188h104l147 188l-78 15v43h217v-43l-71 -15l-166 -198
q34 -17 65 -53.5zM242 686l155 193l68 -55q-20 -30 -88.5 -89.5t-103.5 -75.5z" />
    <glyph glyph-name="uni045D" unicode="&#x45d;" horiz-adv-x="719" 
d="M291 555v-43l-86 -15v-356l63 83l246 259v14l-78 15v43h233v-43l-75 -15v-446l78 -8v-43h-241v43l83 8v361l-71 -97l-238 -246v-18l66 -8v-43h-224v43l79 8v446l-77 15v43h242zM290.5 732.5q-71.5 62.5 -90.5 91.5l63 54l156 -192l-29 -27h-1q-27 11 -98.5 73.5z" />
    <glyph glyph-name="uni045E" unicode="&#x45e;" horiz-adv-x="572" 
d="M91.5 -247q-14.5 2 -20.5 5v74q12 -6 51 -6q31 0 56.5 12.5t52.5 50.5t53 111h-44l-191 501l-47 13v41h221v-41l-81 -12l105 -306l52 -163l50 164l94 305l-70 12v41h192v-41l-52 -12q-75 -230 -118.5 -359.5t-55.5 -158.5q-35 -88 -62 -135.5t-64 -72.5t-93 -25
q-14 0 -28.5 2zM192 813q0 -47 26 -80.5t83 -33.5q56 0 80.5 33.5t24.5 80.5q0 34 15 34h60l1 -17q0 -81 -47 -130t-135 -49q-87 0 -135.5 49.5t-48.5 129.5l1 17h60q15 0 15 -34z" />
    <glyph glyph-name="uni045F" unicode="&#x45f;" horiz-adv-x="679" 
d="M381 -85.5q-4 -58.5 -6 -87.5h-51l-20 173h-249v43l72 9v445l-72 15v43h230v-43l-79 -15v-447h266v447l-77 15v43h225v-43l-69 -15v-445l73 -9v-43h-236q-3 -27 -7 -85.5z" />
    <glyph glyph-name="uni0462" unicode="&#x462;" horiz-adv-x="728" 
d="M378 401.5q36 3.5 67 3.5q128 0 189.5 -55t61.5 -143q0 -66 -33.5 -114.5t-93 -74.5t-136.5 -26q-13 0 -29 1t-33 2q-53 5 -89 5h-136v43l93 9v549l-163 -11l-22 -83h-59l12 137h232v99l-90 13v38h263v-38l-92 -13v-99h241l10 -137h-57l-21 83l-173 11v-207q22 4 58 7.5z
M424 39q86 0 135.5 43t49.5 118q0 71 -50 113t-135 42q-79 0 -104 -5v-301q46 -10 104 -10z" />
    <glyph glyph-name="uni0463" unicode="&#x463;" horiz-adv-x="674" 
d="M389 339.5q36 3.5 67 3.5q201 0 201 -170q0 -88 -50 -136t-148 -48q-13 0 -41 2t-43 3q-66 6 -85 6h-123v36l90 14v468h-140l-25 -118h-54l5 160h214v197l-81 7v38l140 17h1l19 -13v-246h230l5 -160h-54l-25 118h-156v-187q17 5 53 8.5zM366.5 42.5q27.5 -4.5 73.5 -4.5
q63 0 97.5 32.5t34.5 96.5q0 66 -33.5 95.5t-103.5 29.5q-26 0 -54.5 -3.5t-43.5 -7.5l-1 -234q3 0 30.5 -4.5z" />
    <glyph glyph-name="uni046A" unicode="&#x46a;" horiz-adv-x="1033" 
d="M338.5 298.5q-36.5 -46.5 -90.5 -134.5q-53 -84 -83 -124t-53 -40h-102v43l38 10q15 4 38 33t66 91q71 102 119.5 157t88.5 55h92l-250 311l5 43h619l5 -43l-251 -311h91q45 0 95 -56.5t120 -160.5q38 -56 61 -85.5t37 -33.5l39 -10v-43h-103q-22 0 -53 40.5t-82 121.5
q-56 91 -92 137t-64 46h-74v-292l88 -11v-42h-250v43l84 9v293h-75q-27 0 -63.5 -46.5zM517 389l226 298h-453z" />
    <glyph glyph-name="uni046B" unicode="&#x46b;" horiz-adv-x="915" 
d="M290 233.5q-29 -33.5 -75 -101.5q-44 -66 -73 -99t-56 -33h-81v43l36 10q13 4 29.5 23.5t52.5 66.5q58 78 100.5 121t85.5 43h85l-210 209l5 39h537l5 -39l-210 -209h85q44 0 87.5 -44t100.5 -123q32 -43 49.5 -64t30.5 -24l36 -9v-43h-81q-27 0 -55 32.5t-72 98.5
q-44 67 -74.5 101.5t-59.5 34.5h-71v-215l89 -9v-43h-247v43l80 9v215h-72q-28 0 -57 -33.5zM456 307h3l183 195h-369z" />
    <glyph glyph-name="uni0472" unicode="&#x472;" horiz-adv-x="719" 
d="M178.5 36.5q-69.5 47.5 -105.5 132.5t-36 197q0 115 44 202.5t120 135t169 47.5q99 0 169.5 -46t107 -130t36.5 -197q0 -116 -45 -204.5t-122 -136.5t-171 -48q-97 0 -166.5 47.5zM262 444q28 0 55 -10t63 -28q34 -16 52.5 -23t36.5 -7q34 0 60 16.5t58 44.5
q-11 123 -70.5 195t-155.5 72q-105 0 -168.5 -84t-64.5 -245q59 69 134 69zM529 127q61 91 61 256q-59 -69 -137 -69q-29 0 -56 9.5t-67 28.5q-31 15 -49 22t-34 7q-34 0 -59.5 -16.5t-58.5 -44.5q10 -129 70 -206.5t159 -77.5q110 0 171 91z" />
    <glyph glyph-name="uni0473" unicode="&#x473;" horiz-adv-x="595" 
d="M488.5 488q60.5 -82 60.5 -210q0 -87 -36.5 -153t-96 -101t-124.5 -35q-126 0 -186.5 82t-60.5 210q0 87 36.5 153t96 101t124.5 35q126 0 186.5 -82zM181 465q-42 -53 -45 -158q39 21 78 21q31 0 54 -7.5t50 -22.5q26 -13 43 -19t39 -6q32 0 58 13q-2 104 -40.5 168
t-119.5 64q-75 0 -117 -53zM137 255q7 -95 46 -154.5t114 -59.5q68 0 109 49t50 140q-26 -17 -63 -17q-32 0 -56 7.5t-52 22.5q-25 13 -43 19t-41 6q-36 0 -64 -13z" />
    <glyph glyph-name="uni0474" unicode="&#x474;" horiz-adv-x="657" 
d="M564.5 715q38.5 29 81.5 29q27 0 42 -6v-59q0 1 -10 1q-40 0 -71 -23t-48 -92l-196 -573h-65l-253 697l-60 11v43h236v-43l-88 -11l166 -475l41 -139l36 138l134 408q16 65 54.5 94z" />
    <glyph glyph-name="uni0475" unicode="&#x475;" horiz-adv-x="555" 
d="M469.5 528q27.5 27 67.5 27q29 0 41 -6v-52l-9 1q-8 0 -25 -5q-39 -14 -75 -113l-151 -388h-68l-199 506l-49 15v42h211v-42l-73 -15l104 -290l51 -145l50 155l75 217q22 66 49.5 93z" />
    <glyph glyph-name="uni048A" unicode="&#x48a;" horiz-adv-x="840" 
d="M321 743v-43l-101 -11v-525l92 131l308 365v29l-91 11v43h254v-43l-82 -11v-637l88 -9v-43h-260v43l91 9v533l-83 -121l-317 -373v-39l96 -9v-43h-262v43l86 9v637l-82 11v43h263zM321 949q0 -44 23.5 -69t85.5 -25t85.5 25t23.5 69q0 34 14 34h60q1 -5 1 -18
q0 -151 -184 -151t-184 151l1 18h59q15 0 15 -34zM818.5 -5.5q-1.5 -4.5 -4.5 -14.5q-10 -29 -26 -79.5t-26 -80.5h-58q1 2 18 76t24 104h-43v51h117v-51q0 -1 -1.5 -5.5z" />
    <glyph glyph-name="uni048B" unicode="&#x48b;" horiz-adv-x="719" 
d="M291 555v-43l-86 -15v-356l63 83l246 259v14l-78 15v43h233v-43l-75 -15v-446l78 -8v-43h-241v43l83 8v361l-71 -97l-238 -246v-18l66 -8v-43h-224v43l79 8v446l-77 15v43h242zM253 813q0 -47 26 -80.5t83 -33.5q56 0 80.5 33.5t24.5 80.5q0 34 15 34h60l1 -17
q0 -81 -47 -130t-135 -49q-87 0 -135.5 49.5t-48.5 129.5l1 17h60q15 0 15 -34zM625 -180h-57l45 180h-27v51h101v-51z" />
    <glyph glyph-name="uni048C" unicode="&#x48c;" horiz-adv-x="638" 
d="M353 452q121 0 186 -57.5t65 -160.5q0 -117 -72 -179.5t-193 -62.5q-20 0 -59 3q-85 5 -97 5h-130v43l86 9v490h-103v48h103v100l-84 12v41h260v-41l-95 -12v-100h125v-48h-125v-90h133zM269.5 42q22.5 -2 61.5 -2q88 0 137 48t49 140q0 85 -49 128t-137 43h-111v-350
q27 -5 49.5 -7z" />
    <glyph glyph-name="uni048D" unicode="&#x48d;" horiz-adv-x="523" 
d="M231 329q31 4 61 4q210 0 210 -166q0 -86 -50.5 -132t-149.5 -46q-13 0 -39.5 2t-42.5 3q-62 6 -83 6h-105v41l71 9v456h-97v49h97v201l-88 9v37l147 17h2l19 -13v-251h124v-49h-124v-185q17 4 48 8zM284 39q63 0 98 29.5t35 91.5q0 66 -36.5 93t-109.5 27q-50 0 -88 -9
v-224q51 -8 101 -8z" />
    <glyph glyph-name="uni048E" unicode="&#x48e;" horiz-adv-x="642" 
d="M223.5 744.5q21.5 1.5 31.5 1.5q52 4 100 4q141 0 199.5 -52.5t58.5 -157.5q0 -76 -35 -132.5t-97 -88.5l89 -110l-40 -27l-95 117q-51 -15 -108 -15q-32 0 -65.5 1.5t-40.5 2.5v-235l139 -10v-43h-307v43l86 9v637l-80 11v43h121q22 0 43.5 1.5zM525 540q0 87 -47 124.5
t-148 37.5q-31 0 -69 -4q-30 -2 -40 -2v-359q25 -4 108 -4q36 0 71 9l-69 86l40 27l75 -92q79 50 79 177z" />
    <glyph glyph-name="uni048F" unicode="&#x48f;" horiz-adv-x="625" 
d="M256 546.5q46 23.5 103 23.5q58 0 108 -29t80.5 -90t30.5 -153q0 -68 -22.5 -127.5t-63.5 -101.5l77 -89l-35 -29l-76 89q-68 -51 -162 -51q-28 0 -59 4.5t-51 11.5l2 -85v-108l111 -10v-44h-268v44l77 10v677l-78 17v45l128 16h2l18 -16v-61q32 33 78 56.5zM491 287
q0 111 -46.5 166.5t-118.5 55.5q-43 0 -80 -18t-58 -40v-381q8 -13 40.5 -23.5t71.5 -10.5q73 0 122 46l-82 91l34 28l76 -83q41 67 41 169z" />
    <glyph glyph-name="uni0490" unicode="&#x490;" horiz-adv-x="545" 
d="M535 918l-10 -225l-301 5v-645l178 -11v-42h-375v42l113 11v635l-111 13v42h420l27 175h59z" />
    <glyph glyph-name="uni0491" unicode="&#x491;" horiz-adv-x="477" 
d="M447 714l4 -212h-242v-450l139 -9v-43h-298v43l80 9v445l-78 12v46h328l16 159h51z" />
    <glyph glyph-name="uni0492" unicode="&#x492;" horiz-adv-x="571" 
d="M542 743l4 -251h-55l-26 200l-242 6v-313h196v-48h-196v-284l180 -11v-42h-375v42l111 11v284h-97v48h97v303l-107 13v42h510z" />
    <glyph glyph-name="uni0493" unicode="&#x493;" horiz-adv-x="495" 
d="M468 555l5 -201h-51l-24 146l-189 4v-242h123v-49h-123v-162l139 -8v-43h-298v43l80 8v162h-101v49h101v235l-78 15v43h416z" />
    <glyph glyph-name="uni0494" unicode="&#x494;" horiz-adv-x="673" 
d="M305.5 415q53.5 11 88.5 11q88 0 135.5 -32t64.5 -86t17 -133q0 -107 -25.5 -191.5t-76 -133t-122.5 -48.5q-13 0 -30 2.5t-24 5.5l-1 48q20 -2 43 -2q81 0 117 77.5t36 233.5q0 106 -34.5 155t-118.5 49q-42 0 -77.5 -7t-73.5 -23v-289l121 -9v-43h-316v43l111 10v635
l-107 13v42h509l5 -195h-55l-26 141l-242 9v-312q28 18 81.5 29z" />
    <glyph glyph-name="uni0495" unicode="&#x495;" horiz-adv-x="583" 
d="M263.5 275q35.5 10 70.5 10q85 0 131 -24.5t63 -70.5t17 -118q0 -149 -56 -231t-166 -82q-13 0 -30 2t-24 5l-1 47q18 -2 44 -2q82 0 118 61.5t36 194.5q0 61 -13.5 96t-46 51.5t-90.5 16.5q-25 0 -56 -8t-51 -17v-155l114 -8v-43h-273v43l80 8v446l-78 12v46h417l5 -199
h-51l-24 144l-190 4v-251q19 12 54.5 22z" />
    <glyph glyph-name="uni0496" unicode="&#x496;" horiz-adv-x="1032" 
d="M779.5 318q39.5 -50 93.5 -132q45 -65 68.5 -96t40.5 -37h62q-4 -38 -12.5 -117t-13.5 -116h-55q-1 36 -3.5 104.5t-4.5 75.5h-35q-22 0 -53 40.5t-82 121.5q-56 91 -92 137t-64 46h-74v-292l88 -11v-42h-250v43l84 9v293h-75q-27 0 -63.5 -46.5t-90.5 -134.5
q-53 -84 -83 -124t-53 -40h-102v43l38 10q17 5 41 36t70 99q55 82 94 131.5t73 64.5l-227 305l-77 11v43h231v-43l-82 -11l212 -300h94v300l-84 11v43h249v-43l-87 -11v-300h94l211 299l-82 12v43h232v-43l-77 -11l-227 -306q34 -15 73.5 -65z" />
    <glyph glyph-name="uni0497" unicode="&#x497;" horiz-adv-x="910" 
d="M714.5 244.5q32.5 -37.5 75.5 -100.5q31 -44 49 -66t32 -26h44l-27 -232h-54l-2 58q-5 120 -5 122h-1q-27 0 -54.5 33t-67.5 98q-43 68 -71.5 102t-57.5 34h-81v-215l89 -9v-43h-247v43l80 9v215h-82q-28 0 -56.5 -34t-70.5 -101q-43 -67 -70 -99.5t-54 -32.5h-81v43
l36 10q15 5 32.5 25.5t51.5 68.5q43 62 74.5 98.5t66.5 53.5l-166 198l-71 15v43h217v-43l-78 -15l148 -188h103v188l-78 15v43h245v-43l-89 -15v-188h103l148 188l-79 15v43h217v-43l-70 -15l-167 -198q36 -17 68.5 -54.5z" />
    <glyph glyph-name="uni0498" unicode="&#x498;" horiz-adv-x="599" 
d="M141 730q80 21 130 21q121 0 185.5 -41.5t64.5 -126.5q0 -80 -50 -128.5t-120 -62.5q93 -2 143 -51.5t50 -124.5q0 -98 -54.5 -155t-169.5 -66q21 -22 39.5 -58t18.5 -74q0 -52 -31 -75t-91 -23q-17 0 -37 4t-34 9l1 59q10 -3 23.5 -5.5t22.5 -2.5q40 0 58 14t18 57
q0 25 -9.5 50.5t-20.5 43.5q-107 0 -202 38l16 165h38l26 -125q54 -26 146 -26q147 0 147 162q0 64 -40 107t-138 43h-72v49h59q44 0 84 18t65.5 54.5t25.5 87.5q0 135 -151 135q-46 0 -79.5 -12t-45.5 -30l-17 -90h-52l-8 148q17 1 61 12z" />
    <glyph glyph-name="uni0499" unicode="&#x499;" horiz-adv-x="539" 
d="M65 141h49l14 -69q15 -15 51 -22.5t75 -7.5q79 0 118 29t39 82q0 55 -34 84t-112 27q-9 -1 -29 -3t-29 -4v55l42 5q65 7 100.5 36.5t35.5 73.5t-29 67t-97 23q-46 0 -80 -9.5t-50 -20.5l-16 -92h-50v145q32 0 80 11q66 16 129 16q95 0 147 -35t52 -99q0 -42 -33 -78.5
t-87 -53.5q70 -5 111 -41.5t41 -92.5q0 -75 -52 -121t-151 -53q20 -23 37.5 -58t17.5 -71q0 -53 -31 -76t-91 -23q-17 0 -37 4t-34 9l1 59q10 -3 23.5 -5.5t22.5 -2.5q40 0 58 14t18 57q0 42 -29 92q-63 1 -115.5 12t-84.5 25z" />
    <glyph glyph-name="uni049A" unicode="&#x49a;" horiz-adv-x="694" 
d="M437 322.5q37 -46.5 96 -133.5q43 -64 68.5 -97t42.5 -39h55l-26 -233h-55q-1 36 -3.5 94.5t-4.5 85.5h-28q-22 0 -53 40.5t-82 121.5q-56 91 -92 137t-64 46h-74v-292l88 -11v-42h-250v44l83 9v636l-83 11v43h248v-43l-86 -11v-300h94l216 300l-89 11v43h234v-43
l-76 -11l-229 -305q33 -15 70 -61.5z" />
    <glyph glyph-name="uni049B" unicode="&#x49b;" horiz-adv-x="620" 
d="M422 245.5q31 -36.5 74 -98.5q33 -47 50.5 -68.5t32.5 -25.5l60 -1l-27 -232h-54l-1 32q-2 36 -4 81t-4 67h-13q-27 0 -54 32.5t-69 98.5q-43 68 -71.5 102t-57.5 34h-80v-216l92 -8v-43h-249v43l80 8v446l-78 15v43h242v-43l-87 -15v-188h104l147 188l-78 15v43h217v-43
l-71 -15l-166 -198q34 -17 65 -53.5z" />
    <glyph glyph-name="uni049C" unicode="&#x49c;" horiz-adv-x="732" 
d="M511 318q35 -49 81 -126q44 -71 66.5 -102.5t39.5 -36.5l39 -10v-43h-102q-22 0 -50 40t-73 122q-50 90 -83 136.5t-61 46.5h-20v-164h-51v164h-80v-293l88 -10v-42h-250v44l83 9v636l-83 11v43h248v-43l-86 -11v-293h80v158h51v-158h39l179 292l-88 12v43h231v-43
l-73 -10l-191 -304q31 -19 66 -68z" />
    <glyph glyph-name="uni049D" unicode="&#x49d;" horiz-adv-x="650" 
d="M451.5 246q29.5 -36 69.5 -95q30 -47 50.5 -72t37.5 -28l43 -11v-40h-92q-27 0 -52.5 32t-64.5 97q-42 70 -69.5 104t-57.5 34v-134h-53v134h-59v-218l94 -7v-42h-251v42l80 7v452l-78 13v41h252v-41l-97 -13v-192h59v119h53v-119h24l148 193l-78 12v41h217v-41l-70 -12
l-168 -203q33 -17 62.5 -53z" />
    <glyph glyph-name="uni049E" unicode="&#x49e;" horiz-adv-x="694" 
d="M439 320.5q39 -48.5 95 -132.5q42 -63 68 -96.5t43 -38.5l39 -10v-43h-102q-22 0 -53 40.5t-82 121.5q-56 91 -92 137t-64 46h-74v-292l88 -11v-42h-250v44l83 9v471h-81v50h81v115l-83 11v43h248v-43l-86 -11v-115h88v-50h-88v-135h94l216 300l-89 11v43h234v-43
l-76 -11l-229 -305q33 -15 72 -63.5z" />
    <glyph glyph-name="uni049F" unicode="&#x49f;" horiz-adv-x="621" 
d="M164 819l19 -13v-122h129v-48h-129v-327l-2 -63l248 255l-75 14v40h230v-40l-77 -14l-162 -159l199 -292l66 -7v-43h-229v43l69 8l-157 246l-112 -110l2 -51v-85l77 -8v-43h-224v43l66 8v585h-90v48h90v72l-82 9v37l143 17h1z" />
    <glyph glyph-name="uni04A0" unicode="&#x4a0;" horiz-adv-x="837" 
d="M591 321.5q36 -46.5 95 -132.5q45 -67 70 -99t42 -37l39 -10v-43h-103q-22 0 -52 40t-81 121q-56 90 -92.5 137t-64.5 47h-73v-293l91 -10v-42h-259v43l89 9v646l-166 -8l-27 -185h-59l10 238h414v-43l-93 -11v-293h93l211 293l-82 11v43h232v-43l-77 -11l-226 -303
q33 -18 69 -64.5z" />
    <glyph glyph-name="uni04A1" unicode="&#x4a1;" horiz-adv-x="763" 
d="M561.5 246q30.5 -37 70.5 -97q31 -48 49.5 -71t34.5 -26l43 -10v-42h-92q-27 0 -53.5 33t-64.5 98q-40 68 -67 102t-56 34h-81v-216l93 -8v-43h-250v43l80 7v454l-153 -4l-24 -146h-53l4 201h392v-43l-89 -15v-188h101l145 188l-74 15v43h216v-43l-74 -15l-162 -197
q34 -17 64.5 -54z" />
    <glyph glyph-name="uni04A2" unicode="&#x4a2;" horiz-adv-x="824" 
d="M774.5 -63.5q-8.5 -79.5 -13.5 -116.5h-54l-1 31q-2 39 -4 83t-4 66h-179v43l84 9v303h-382v-303l88 -9v-43h-255v43l85 9v637l-82 11v43h251v-43l-87 -11v-281h382v281l-83 11v43h248v-43l-82 -11v-636h101q-4 -37 -12.5 -116.5z" />
    <glyph glyph-name="uni04A3" unicode="&#x4a3;" horiz-adv-x="713" 
d="M680 -64.5q-8 -78.5 -13 -115.5h-54q-8 173 -10 180h-189v43l93 8v211h-301v-211l93 -8v-43h-252v43l80 8v446l-78 15v43h246v-43l-89 -15v-183h301v183l-90 15v43h244v-43l-75 -15v-445h106q-4 -38 -12 -116.5z" />
    <glyph glyph-name="uni04A4" unicode="&#x4a4;" horiz-adv-x="995" 
d="M314 743v-43l-94 -11v-281h384v281l-90 11v43h431l11 -238h-60l-26 182l-184 12v-647l84 -9v-43h-255v43l89 9v303h-384v-303l94 -9v-43h-264v43l89 9v637l-85 11v43h260z" />
    <glyph glyph-name="uni04A5" unicode="&#x4a5;" horiz-adv-x="837" 
d="M295 555v-43l-89 -15v-183h301v182l-90 16v43h394l5 -205h-56l-24 154h-150v-453l80 -8v-43h-252v43l93 8v211h-301v-211l93 -8v-43h-252v43l80 8v446l-78 15v43h246z" />
    <glyph glyph-name="uni04A6" unicode="&#x4a6;" horiz-adv-x="1066" 
d="M717.5 416q44.5 10 87.5 10q88 0 135.5 -32t64.5 -87t17 -135q0 -106 -25.5 -189.5t-76 -132t-122.5 -48.5q-13 0 -30 2.5t-24 5.5l-1 52q9 -3 44 -3q80 0 115.5 76.5t35.5 231.5q0 105 -34 153t-119 48q-72 0 -136 -23v-292l97 -10v-43h-265v43l87 10v637h-347v-638
l98 -9v-43h-262v43l83 9v637l-88 11v43h685v-43l-88 -12v-295q24 13 68.5 23z" />
    <glyph glyph-name="uni04A7" unicode="&#x4a7;" horiz-adv-x="917" 
d="M610.5 319q34.5 10 63.5 10q81 0 126 -26t61.5 -72.5t16.5 -114.5q0 -179 -53 -268t-164 -89q-13 0 -30 2t-24 5l-1 51q18 -4 43 -4q57 0 89 28.5t46 93t14 176.5q0 88 -31 125.5t-106 37.5q-48 0 -106 -25v-197l75 -9v-43h-231v43l78 9v450h-271v-450l79 -9v-43h-233v43
l75 9v445l-74 15v43h572v-43l-70 -15v-202q21 14 55.5 24z" />
    <glyph glyph-name="uni04A8" unicode="&#x4a8;" horiz-adv-x="822" 
d="M360 704q-65 0 -117.5 -34.5t-83.5 -110.5t-31 -193q0 -105 34 -179.5t91 -112.5t124 -38q22 0 42 3t51 15q-38 20 -72.5 64t-56 102t-21.5 116q0 141 59.5 205.5t148.5 64.5q91 0 149 -59.5t58 -200.5q0 -68 -25.5 -125.5t-62 -97t-70.5 -60.5q23 -13 54 -20t63 -7
q63 0 97 24l21 -31q-53 -40 -134 -40q-88 0 -164 39q-63 -39 -146 -39q-105 0 -179.5 48.5t-113 133.5t-38.5 193q0 122 46.5 209.5t121.5 132.5t158 45q41 0 65 -4l-9 -50q-25 7 -59 7zM439.5 508.5q-31.5 -57.5 -31.5 -172.5q0 -76 37 -145t90 -105q48 29 79 96.5
t31 162.5q0 221 -118 221q-56 0 -87.5 -57.5z" />
    <glyph glyph-name="uni04A9" unicode="&#x4a9;" horiz-adv-x="664" 
d="M364.5 514.5q-17.5 4.5 -49.5 4.5q-85 0 -136 -61t-51 -170q0 -68 27.5 -126t74.5 -91.5t103 -33.5q43 0 60 3q-52 34 -79 89.5t-27 123.5q0 86 47 137.5t127 51.5q47 0 85 -24t59.5 -66.5t21.5 -94.5q0 -73 -24.5 -128.5t-74.5 -89.5q28 -4 63 -4q31 0 47 3l-1 -42
q-8 -2 -26.5 -4t-34.5 -2q-61 0 -115 16q-54 -17 -126 -17q-87 0 -154.5 39.5t-104 107t-36.5 146.5q0 83 35.5 149t96.5 102.5t135 36.5q69 0 104 -26l-16 -42q-13 8 -30.5 12.5zM388.5 355.5q-21.5 -42.5 -21.5 -107.5q0 -138 92 -187q45 20 66.5 65t21.5 132
q0 61 -25 100.5t-65 39.5q-47 0 -68.5 -42.5z" />
    <glyph glyph-name="uni04AA" unicode="&#x4aa;" horiz-adv-x="649" 
d="M551 20.5q-18 -5.5 -23 -6.5q-28 -9 -52.5 -15t-58.5 -8l-15 -171h-59l-16 172q-139 16 -215 118.5t-76 264.5q0 109 47 195t128 133.5t181 47.5q51 0 98.5 -8t76.5 -15t36 -9l-8 -163h-52l-22 116q-15 13 -54 22t-95 9q-69 0 -124 -37.5t-86.5 -109.5t-31.5 -172
q0 -94 27.5 -173t83.5 -126.5t138 -47.5q57 0 89 9.5t54 27.5l40 94l49 -7l-25 -134q-17 -1 -35 -6.5z" />
    <glyph glyph-name="uni04AB" unicode="&#x4ab;" horiz-adv-x="509" 
d="M291 523q-78 0 -124.5 -60t-46.5 -164q0 -124 50 -188t130 -64q42 0 81.5 14t65.5 32l16 -33q-22 -22 -58.5 -40.5t-76.5 -25.5l-12 -167h-51l-19 164q-102 12 -157 90t-55 193q0 81 31.5 148.5t94 107.5t152.5 40q39 0 76 -9.5t64 -20.5l-4 -143h-50l-21 96
q-6 30 -86 30z" />
    <glyph glyph-name="uni04AC" unicode="&#x4ac;" horiz-adv-x="710" 
d="M536 -180h-54l-8 180h-294v43l131 9v646l-190 -6l-32 -203h-55l17 254h609l11 -254h-53l-28 203l-193 6v-645h166z" />
    <glyph glyph-name="uni04AD" unicode="&#x4ad;" horiz-adv-x="613" 
d="M488 -180h-54l-9 180h-297v43l139 9v452l-151 -4l-25 -146h-53l4 201h528l5 -201h-54l-24 146l-151 4v-452h169z" />
    <glyph glyph-name="uni04AE" unicode="&#x4ae;" horiz-adv-x="640" 
d="M284 286l-231 402l-62 12v43h239v-43l-84 -11l151 -283l36 -80l39 80l145 283l-84 11v43h217v-43l-66 -11l-216 -402v-234l114 -10v-43h-309v43l111 9v234z" />
    <glyph glyph-name="uni04AF" unicode="&#x4af;" horiz-adv-x="615" 
d="M249 555v-43l-85 -15l144 -387l11 -33l13 34l144 386l-84 15v43h220v-43l-70 -15l-188 -462v-222l118 -12v-43h-306v43l106 12v215l-201 469l-64 15v43h242z" />
    <glyph glyph-name="uni04B0" unicode="&#x4b0;" horiz-adv-x="640" 
d="M650 743v-43l-66 -11l-205 -382h154v-60h-165v-194l114 -10v-43h-309v43l111 9v195h-154v60h142l-219 381l-62 12v43h239v-43l-84 -11l151 -283l36 -80l39 80l145 283l-84 11v43h217z" />
    <glyph glyph-name="uni04B1" unicode="&#x4b1;" horiz-adv-x="615" 
d="M249 555v-43l-85 -15l144 -387l11 -33l13 34l144 386l-84 15v43h220v-43l-70 -15l-184 -451h179v-46h-183v-187l118 -12v-43h-306v43l106 12v187h-195v47l188 -1l-194 451l-64 15v43h242z" />
    <glyph glyph-name="uni04B2" unicode="&#x4b2;" horiz-adv-x="708" 
d="M714 -61.5q-9 -78.5 -14 -114.5h-54l-2 42q-5 130 -6 134h-212v43l98 9l-182 290l-175 -290l103 -9v-43h-263v43l87 9l219 324l-211 312l-77 12v43h280v-43l-102 -12l168 -269l166 270l-90 11v43h239v-43l-79 -12l-209 -302l227 -333h102q-4 -36 -13 -114.5z" />
    <glyph glyph-name="uni04B3" unicode="&#x4b3;" horiz-adv-x="589" 
d="M578 -180h-55q-8 168 -10 180h-170v42l71 9l-100 147l-31 45l-28 -44l-106 -148l88 -9v-42h-229v42l69 9l177 228l-171 223l-59 12v41h231v-41l-73 -12l99 -140l30 -44l27 43l105 141l-77 12v41h207v-41l-62 -12l-171 -214l178 -236h84z" />
    <glyph glyph-name="uni04B4" unicode="&#x4b4;" horiz-adv-x="945" 
d="M900 -176h-54q-1 26 -3 63.5t-3 68.5l-2 44h-668v43l80 9v643l-133 -6l-27 -188h-56l12 242h488l10 -242h-54l-27 188l-132 6v-643h384v637l-79 11v43h243v-43l-82 -11v-636h130z" />
    <glyph glyph-name="uni04B5" unicode="&#x4b5;" horiz-adv-x="884" 
d="M849 -180h-55q0 4 -6 148l-2 32h-652v43l109 9v452l-129 -4l-26 -161h-55l12 216h472l10 -216h-54l-26 161l-123 4v-453h339v446l-84 15v43h248v-43l-83 -15v-445h131z" />
    <glyph glyph-name="uni04B6" unicode="&#x4b6;" horiz-adv-x="675" 
d="M625 -180h-55q-1 36 -3.5 94t-4.5 86h-212v43l104 9v281q-36 -19 -93.5 -30.5t-106.5 -11.5q-68 0 -108.5 22t-59.5 71.5t-19 134.5v169l-63 11v44h235v-44l-91 -11v-141q0 -93 12 -133.5t41 -52t94 -11.5q41 0 89 10t70 22v307l-93 11v43h265v-43l-91 -11v-636h116z" />
    <glyph glyph-name="uni04B7" unicode="&#x4b7;" horiz-adv-x="650" 
d="M621.5 -64.5q-9.5 -79.5 -14.5 -115.5h-54l-2 50q-5 129 -6 130h-193v43l92 10v170q-34 -16 -84 -25t-95 -9q-99 0 -143 48.5t-44 163.5v96l-64 15v43h219v-43l-74 -15v-61q0 -79 10.5 -118t38.5 -55t85 -16q40 0 85.5 7t65.5 17v226l-90 15v43h239v-43l-70 -15v-445h112
q-4 -37 -13.5 -116.5z" />
    <glyph glyph-name="uni04B8" unicode="&#x4b8;" horiz-adv-x="677" 
d="M329 295v-116h-48v113q-9 -1 -26 -1q-68 0 -108.5 22t-59 71.5t-18.5 134.5v169l-65 12v43h236v-43l-91 -12v-141q0 -88 12 -129.5t38.5 -54t81.5 -13.5v154h48v-153q36 3 72.5 12t53.5 19v307l-92 11v43h266v-43l-92 -11v-637l92 -10v-42h-277v43l103 9v279
q-43 -25 -126 -36z" />
    <glyph glyph-name="uni04B9" unicode="&#x4b9;" horiz-adv-x="670" 
d="M338 198v-109h-52v106h-5q-73 0 -116.5 19.5t-65 65.5t-21.5 128v89l-64 15v43h219v-43l-74 -15v-55q0 -74 11.5 -113t38.5 -56t77 -20v143h52v-143q38 2 74 9t52 16v219l-81 15v43h230v-43l-69 -15v-446l74 -8v-43h-244v43l90 8v178q-50 -23 -126 -31z" />
    <glyph glyph-name="uni04BA" unicode="&#x4ba;" horiz-adv-x="674" 
d="M314.5 440.5q57.5 11.5 106.5 11.5q68 0 108.5 -22t59.5 -71.5t19 -134.5v-169l63 -11v-44h-235v44l91 11v141q0 93 -12 133.5t-41 52t-94 11.5q-41 0 -89 -10t-70 -22v-307l93 -11v-43h-265v43l91 11v637l-92 10v42h277v-43l-104 -9v-281q36 19 93.5 30.5z" />
    <glyph glyph-name="uni04BB" unicode="&#x4bb;" horiz-adv-x="652" 
d="M103 756l-89 9v37l148 17h2l19 -13v-238l-2 -83q32 29 90 56t114 27q63 0 98 -24t49 -74.5t14 -136.5v-282l73 -8v-43h-224v43l70 8v283q0 64 -8.5 100t-33.5 54t-73 18q-40 0 -86 -19.5t-81 -46.5v-389l74 -8v-43h-217v43l63 7v706z" />
    <glyph glyph-name="uni04BC" unicode="&#x4bc;" horiz-adv-x="775" 
d="M648 14q-47 -12 -89 -18.5t-100 -6.5q-89 0 -155.5 46.5t-103 131t-36.5 193.5q-73 1 -120 28t-47 80q0 21 9 47.5t18 31.5l68 -12q-6 -8 -13.5 -30.5t-7.5 -35.5q0 -26 23.5 -43t71.5 -18q8 102 51 179.5t112.5 120.5t154.5 43q75 0 132 -35t88.5 -101.5t31.5 -158.5
q0 -66 -6 -94h-483q0 -87 27 -161t78.5 -118.5t123.5 -44.5q113 0 170 49l20 84l55 -1l-5 -143q-24 -1 -68 -13zM650 464q-1 60 -21 114t-62 88t-104 34q-57 0 -104.5 -29.5t-78 -95t-33.5 -167.5h399q4 24 4 56z" />
    <glyph glyph-name="uni04BD" unicode="&#x4bd;" horiz-adv-x="655" 
d="M515.5 9.5q-55.5 -20.5 -111.5 -20.5q-113 0 -177 78.5t-64 217.5q-73 1 -118.5 25t-45.5 76q0 20 9 46t17 31l68 -12q-7 -7 -13.5 -29.5t-6.5 -35.5q0 -53 93 -54q10 71 45 125t89 83.5t119 29.5q88 0 138 -51t53 -147q2 -59 -5 -88h-355q3 -115 50.5 -176.5
t128.5 -61.5q42 0 86.5 15t67.5 36l17 -37q-29 -30 -84.5 -50.5zM523 375q0 66 -30.5 107t-94.5 41q-63 0 -102.5 -46t-45.5 -146h271q2 28 2 44z" />
    <glyph glyph-name="uni04BE" unicode="&#x4be;" horiz-adv-x="775" 
d="M648 14q-38 -9 -71.5 -15t-76.5 -9q20 -24 36.5 -58t16.5 -68q0 -53 -31 -76t-91 -23q-17 0 -37 4t-34 9l1 59q10 -3 23.5 -5.5t22.5 -2.5q40 0 58 14t18 57q0 23 -8.5 47t-18.5 42q-88 1 -154 48t-102 130.5t-36 192.5q-73 1 -120 28t-47 80q0 21 9 47.5t18 31.5l68 -12
q-6 -8 -13.5 -30.5t-7.5 -35.5q0 -26 23.5 -43t71.5 -18q8 102 51 179.5t112.5 120.5t154.5 43q75 0 132 -35t88.5 -101.5t31.5 -158.5q0 -66 -6 -94h-483q0 -87 27 -161t78.5 -118.5t123.5 -44.5q113 0 170 49l20 84l55 -1l-5 -143q-24 -1 -68 -13zM650 464q-1 60 -21 114
t-62 88t-104 34q-57 0 -104.5 -29.5t-78 -95t-33.5 -167.5h399q4 24 4 56z" />
    <glyph glyph-name="uni04BF" unicode="&#x4bf;" horiz-adv-x="655" 
d="M522.5 12q-50.5 -20 -103.5 -23q20 -22 36.5 -56t16.5 -69q0 -53 -31 -76t-91 -23q-17 0 -37 4t-34 9l1 59q10 -3 23.5 -5.5t22.5 -2.5q40 0 58 14t18 57q0 40 -28 91q-100 11 -155.5 88t-55.5 206q-73 1 -118.5 25t-45.5 76q0 20 9 46t17 31l68 -12q-7 -7 -13.5 -29.5
t-6.5 -35.5q0 -53 93 -54q10 71 45 125t89 83.5t119 29.5q88 0 138 -51t53 -147q2 -59 -5 -88h-355q3 -115 50.5 -176.5t128.5 -61.5q42 0 86.5 15t67.5 36l17 -37q-27 -28 -77.5 -48zM523 375q0 66 -30.5 107t-94.5 41q-63 0 -102.5 -46t-45.5 -146h271q2 28 2 44z" />
    <glyph glyph-name="uni04C0" unicode="&#x4c0;" horiz-adv-x="397" 
d="M157 689l-97 11v43h277v-43l-97 -11v-637l97 -10v-42h-277v43l97 9v637z" />
    </font>
</defs>
</svg>
