<?xml version="1.0" standalone="no"?>
<!DOCTYPE svg PUBLIC "-//W3C//DTD SVG 1.1//EN" "http://www.w3.org/Graphics/SVG/1.1/DTD/svg11.dtd" >
<svg xmlns="http://www.w3.org/2000/svg" xmlns:xlink="http://www.w3.org/1999/xlink" version="1.1">
<metadata>
Created by FontForge 20170731 at Tue Oct 31 15:00:58 2017
 By Aleksey,,,
Copyright 2016 The Merriweather Project Authors (https://github.com/EbenSorkin/Merriweather), with Reserved Font Name "Merriweather".
</metadata>
<defs>
<font id="Merriweather-LightItalic" horiz-adv-x="0" >
  <font-face 
    font-family="Merriweather Light"
    font-weight="300"
    font-style="italic"
    font-stretch="normal"
    units-per-em="1000"
    panose-1="0 0 4 0 0 0 0 0 0 0"
    ascent="800"
    descent="-200"
    x-height="566"
    cap-height="743"
    bbox="-565 -273 1286 1065"
    underline-thickness="50"
    underline-position="-150"
    slope="-8"
    unicode-range="U+000D-FB02"
  />
<missing-glyph horiz-adv-x="902" 
d="M107 691h687v-691h-687v691zM449 290l173 -178l56 57l-174 177l174 172l-59 58l-168 -177l-169 178l-57 -58l171 -175l-170 -164l59 -68z" />
    <glyph glyph-name="fi" unicode="fi" horiz-adv-x="652" 
d="M195.5 712.5q29.5 47.5 71.5 75t87 27.5q48 0 78 -12l-22 -67q-32 22 -71 21q-42 0 -69 -37.5t-36 -101.5l-6 -55h127l-6 -57h-128l-71 -537q-13 -101 -57.5 -160t-115.5 -61q-24 -1 -47 1t-34 5l20 68q7 -4 34 -10.5t45 -6.5q31 0 48 34t24 96l74 571h-69l8 31l70 24
l7 48q9 56 38.5 103.5zM506 67q0 -11 4.5 -17t10.5 -6q20 0 52 33l13 -22q-13 -20 -42 -42.5t-64 -22.5q-27 0 -42.5 14t-13.5 45q2 26 13.5 105t17.5 119l32 219l-65 21l6 32l127 21l20 -10l-68 -477q-1 -4 -1 -12zM515.5 695.5q-13.5 13.5 -13.5 34.5q0 26 18.5 45
t39.5 19t33.5 -13t12.5 -34q0 -27 -17.5 -46t-41.5 -19q-18 0 -31.5 13.5z" />
    <glyph glyph-name="fl" unicode="fl" horiz-adv-x="639" 
d="M195.5 712.5q29.5 47.5 71.5 75t87 27.5q48 0 78 -12l-22 -67q-32 22 -71 21q-42 0 -69 -37.5t-36 -101.5l-6 -55h127l-6 -57h-128l-71 -537q-13 -101 -57.5 -160t-115.5 -61q-24 -1 -47 1t-34 5l20 68q7 -4 34 -10.5t45 -6.5q31 0 48 34t24 96l74 571h-69l8 31l70 24
l7 48q9 56 38.5 103.5zM492 69q0 -12 4 -18.5t10 -6.5q21 0 53 33l13 -22q-11 -20 -39 -42.5t-67 -22.5q-52 0 -52 57l3 37l93 655l-60 16l8 34l116 17l19 -12l-100 -715z" />
    <glyph glyph-name="f_f" unicode="ff" horiz-adv-x="684" 
d="M195.5 712.5q29.5 47.5 71.5 75t87 27.5q48 0 78 -12l-22 -67q-32 22 -71 21q-42 0 -69 -37.5t-36 -101.5l-6 -55h127l-6 -57h-128l-71 -537q-13 -101 -57.5 -160t-115.5 -61q-24 -1 -47 1t-34 5l20 68q7 -4 34 -10.5t45 -6.5q31 0 48 34t24 96l74 571h-69l8 31l70 24
l7 48q9 56 38.5 103.5zM537.5 712.5q29.5 47.5 71.5 75t87 27.5q48 0 78 -12l-22 -67q-32 22 -71 21q-42 0 -69 -37.5t-36 -101.5l-6 -55h127l-6 -57h-128l-71 -537q-13 -101 -57.5 -160t-115.5 -61q-24 -1 -47 1t-34 5l20 68q7 -4 34 -10.5t45 -6.5q31 0 48 34t24 96
l74 571h-69l8 31l70 24l7 48q9 56 38.5 103.5z" />
    <glyph glyph-name="f_f_i" unicode="ffi" horiz-adv-x="994" 
d="M195.5 712.5q29.5 47.5 71.5 75t87 27.5q48 0 78 -12l-22 -67q-32 22 -71 21q-42 0 -69 -37.5t-36 -101.5l-6 -55h127l-6 -57h-128l-71 -537q-13 -101 -57.5 -160t-115.5 -61q-24 -1 -47 1t-34 5l20 68q7 -4 34 -10.5t45 -6.5q31 0 48 34t24 96l74 571h-69l8 31l70 24
l7 48q9 56 38.5 103.5zM537.5 712.5q29.5 47.5 71.5 75t87 27.5q48 0 78 -12l-22 -67q-32 22 -71 21q-42 0 -69 -37.5t-36 -101.5l-6 -55h127l-6 -57h-128l-71 -537q-13 -101 -57.5 -160t-115.5 -61q-24 -1 -47 1t-34 5l20 68q7 -4 34 -10.5t45 -6.5q31 0 48 34t24 96
l74 571h-69l8 31l70 24l7 48q9 56 38.5 103.5zM848 67q0 -11 4.5 -17t10.5 -6q20 0 52 33l13 -22q-13 -20 -42 -42.5t-64 -22.5q-27 0 -42.5 14t-13.5 45q2 26 13.5 105t17.5 119l32 219l-65 21l6 32l127 21l20 -10l-68 -477q-1 -4 -1 -12zM857.5 695.5
q-13.5 13.5 -13.5 34.5q0 26 18.5 45t39.5 19t33.5 -13t12.5 -34q0 -27 -17.5 -46t-41.5 -19q-18 0 -31.5 13.5z" />
    <glyph glyph-name="f_f_l" unicode="ffl" horiz-adv-x="981" 
d="M195.5 712.5q29.5 47.5 71.5 75t87 27.5q48 0 78 -12l-22 -67q-32 22 -71 21q-42 0 -69 -37.5t-36 -101.5l-6 -55h127l-6 -57h-128l-71 -537q-13 -101 -57.5 -160t-115.5 -61q-24 -1 -47 1t-34 5l20 68q7 -4 34 -10.5t45 -6.5q31 0 48 34t24 96l74 571h-69l8 31l70 24
l7 48q9 56 38.5 103.5zM537.5 712.5q29.5 47.5 71.5 75t87 27.5q48 0 78 -12l-22 -67q-32 22 -71 21q-42 0 -69 -37.5t-36 -101.5l-6 -55h127l-6 -57h-128l-71 -537q-13 -101 -57.5 -160t-115.5 -61q-24 -1 -47 1t-34 5l20 68q7 -4 34 -10.5t45 -6.5q31 0 48 34t24 96
l74 571h-69l8 31l70 24l7 48q9 56 38.5 103.5zM834 69q0 -12 4 -18.5t10 -6.5q21 0 53 33l13 -22q-11 -20 -39 -42.5t-67 -22.5q-52 0 -52 57l3 37l93 655l-60 16l8 34l116 17l19 -12l-100 -715z" />
    <glyph glyph-name=".notdef" horiz-adv-x="902" 
d="M107 691h687v-691h-687v691zM449 290l173 -178l56 57l-174 177l174 172l-59 58l-168 -177l-169 178l-57 -58l171 -175l-170 -164l59 -68z" />
    <glyph glyph-name=".null" 
 />
    <glyph glyph-name="nonmarkingreturn" unicode="&#xd;" horiz-adv-x="237" 
 />
    <glyph glyph-name="NULL" 
 />
    <glyph glyph-name="NULL" 
 />
    <glyph glyph-name="space" unicode=" " horiz-adv-x="237" 
 />
    <glyph glyph-name="exclam" unicode="!" horiz-adv-x="336" 
d="M299 868l-112 -629h-55l72 629h95zM98.5 86q18.5 21 43.5 21q23 0 34.5 -12t11.5 -32q0 -32 -19.5 -52t-46.5 -20q-19 0 -30.5 12t-11.5 33q0 29 18.5 50z" />
    <glyph glyph-name="quotedbl" unicode="&#x22;" horiz-adv-x="493" 
d="M259 824l-74 -352h-56l43 352h87zM494 824l-74 -352h-56l43 352h87z" />
    <glyph glyph-name="numbersign" unicode="#" horiz-adv-x="686" 
d="M54 178l3 53h110l34 217h-108l3 52h112l26 163h65l-25 -163h185l28 163h65l-27 -163h113l-3 -52h-117l-36 -217h111l-3 -53h-116l-27 -178h-64l26 178h-186l-31 -178h-63l29 178h-104zM452 448h-186l-35 -217h186z" />
    <glyph glyph-name="dollar" unicode="$" horiz-adv-x="588" 
d="M218 -10q-54 4 -99.5 16.5t-60.5 25.5l21 136h50l5 -99q22 -18 60.5 -28t75.5 -10q43 0 82.5 16t64.5 48.5t25 80.5q0 38 -18.5 67t-45.5 48.5t-74 47.5q-8 5 -62.5 37.5t-84 75.5t-29.5 93q0 59 28.5 104.5t77.5 71.5t109 31l14 88h68l-14 -89q48 -4 84 -15.5t54 -24.5
l-20 -120h-47l-11 89q-18 13 -50.5 21t-69.5 8q-32 0 -67 -13.5t-59.5 -44t-24.5 -78.5q0 -38 21 -67t48 -47.5t81 -49.5q57 -34 88 -57t55 -59t24 -84q0 -62 -30 -110t-82.5 -76t-118.5 -33l-17 -102h-68z" />
    <glyph glyph-name="percent" unicode="%" horiz-adv-x="933" 
d="M725 747l-463 -747h-61l462 747h62zM133.5 407q-35.5 42 -35.5 108q0 52 26.5 99.5t72 77t101.5 29.5q70 0 103 -38t33 -104q0 -54 -25 -103.5t-71 -80t-104 -30.5q-65 0 -100.5 42zM311 431q28 27 42 67t14 78q0 51 -19.5 79t-59.5 28q-39 0 -67.5 -26t-43.5 -65
t-15 -76q0 -51 20.5 -81.5t61.5 -30.5q39 0 67 27zM531.5 282.5q26.5 47.5 73.5 77.5t103 30q69 0 102.5 -39t33.5 -105q0 -54 -25 -104t-71 -80.5t-106 -30.5q-65 0 -101 42.5t-36 109.5q0 52 26.5 99.5zM592 103q21 -30 61 -30q39 0 66.5 27t41 66.5t13.5 76.5
q0 51 -19 79t-58 28t-67.5 -26t-43.5 -64.5t-15 -75.5q0 -51 21 -81z" />
    <glyph glyph-name="ampersand" unicode="&#x26;" horiz-adv-x="765" 
d="M155 11q-56 20 -90.5 62t-34.5 105q0 67 45.5 112t128.5 88q-19 43 -31.5 94t-12.5 89q0 59 28 103t77.5 68t111.5 24q82 0 119.5 -40t37.5 -97q0 -51 -29.5 -90.5t-71.5 -67.5t-115 -67l-30 -16q44 -80 98 -150t112 -122q49 56 49 162q0 34 -12 66q-10 1 -35 1
q-18 0 -37.5 -5t-28.5 -11v56q8 8 25.5 15t42.5 7q20 0 62 -6q39 -7 68 -7q44 0 64 18t27 64h32q-1 -71 -25 -108t-79 -37q-13 0 -37 2q4 -20 4 -38q0 -64 -22.5 -116t-64.5 -90q28 -22 63 -32q42 -14 79 -11l-3 -35q-25 -7 -43.5 -9t-40.5 -2q-69 0 -120 44
q-83 -43 -188 -43q-67 0 -123 20zM368.5 467q38.5 26 63.5 62t25 82q0 43 -20.5 73.5t-69.5 30.5q-61 0 -97.5 -39.5t-36.5 -102.5q0 -44 11 -87t27 -75q59 30 97.5 56zM434 62q-70 65 -113.5 126t-97.5 153q-54 -35 -83 -73t-29 -88q0 -69 47.5 -106.5t127.5 -37.5
q91 0 148 26z" />
    <glyph glyph-name="quotesingle" unicode="'" horiz-adv-x="258" 
d="M254 824l-74 -352h-56l43 352h87z" />
    <glyph glyph-name="parenleft" unicode="(" horiz-adv-x="418" 
d="M105 350q18 128 77 235.5t123.5 175.5t98.5 87l35 -25q-30 -19 -81.5 -80t-100 -158t-68.5 -216q-10 -67 -10 -123q0 -100 23.5 -179.5t54.5 -129.5t57 -71l-41 -26h-8q-27 18 -65.5 68t-70 136t-31.5 199q0 42 7 107z" />
    <glyph glyph-name="parenright" unicode=")" horiz-adv-x="418" 
d="M322 347q-18 -128 -77 -235.5t-123.5 -175.5t-98.5 -87l-35 25q30 19 81.5 80t100 158t68.5 216q10 67 10 123q0 100 -23.5 179.5t-54.5 129.5t-57 71l41 26h8q27 -18 65.5 -68t70 -136t31.5 -199q0 -42 -7 -107z" />
    <glyph glyph-name="asterisk" unicode="*" horiz-adv-x="667" 
d="M293 536l60 22l-54 24l-144 70l45 68l124 -100l44 -38l-3 61l-2 164h76l-31 -164l-12 -60l52 37l145 98l31 -68l-158 -68l-59 -24l52 -23l141 -69l-45 -68l-121 99l-43 38l2 -58l2 -164h-76l31 164l13 58l-52 -38l-145 -96l-30 68z" />
    <glyph glyph-name="plus" unicode="+" horiz-adv-x="666" 
d="M311 348l-78 -3h-109l7 64h110l76 -4l8 87l14 112h68l-12 -112l-15 -87l65 4h124l-6 -64h-125l-63 3q0 -10 -4 -42l-4 -45l-14 -118h-70l14 118z" />
    <glyph glyph-name="comma" unicode="," horiz-adv-x="278" 
d="M111 130q41 -16 61.5 -55.5t20.5 -86.5q0 -80 -49.5 -143.5t-122.5 -90.5l-24 32l2 9q44 23 76.5 67t32.5 103q0 36 -16.5 63t-39.5 34l1 19z" />
    <glyph glyph-name="hyphen" unicode="-" horiz-adv-x="621" 
d="M523 352l-9 -63h-404l9 63h404z" />
    <glyph glyph-name="period" unicode="." horiz-adv-x="223" 
d="M43 86.5q19 20.5 44 20.5q23 0 35 -12t12 -32q0 -32 -20 -52t-46 -20q-19 0 -31.5 12t-12.5 33q0 30 19 50.5z" />
    <glyph glyph-name="slash" unicode="/" horiz-adv-x="417" 
d="M365 780h68l-421 -957h-68z" />
    <glyph glyph-name="zero" unicode="0" horiz-adv-x="624" 
d="M112 56q-50 64 -50 165q0 96 40.5 175.5t109.5 125t150 45.5q205 0 205 -228q0 -91 -39 -171t-107.5 -128t-152.5 -48q-106 0 -156 64zM390 80.5q47 43.5 71.5 111.5t24.5 141q0 89 -33.5 139.5t-103.5 50.5q-68 0 -114.5 -45.5t-69 -114t-22.5 -137.5q0 -83 33 -136
t101 -53q66 0 113 43.5z" />
    <glyph glyph-name="one" unicode="1" horiz-adv-x="449" 
d="M168 45l62 425q-45 -15 -76 -24.5t-65 -15.5l-6 39q47 10 102.5 38t102.5 60l35 -10l-74 -511l115 -11l-4 -35h-304l4 35z" />
    <glyph glyph-name="two" unicode="2" horiz-adv-x="582" 
d="M206.5 152.5q86.5 71.5 140 149t53.5 141.5q0 58 -35 97.5t-98 39.5q-52 0 -93.5 -22t-82.5 -55l-21 36q36 38 95 67.5t131 29.5q66 0 108.5 -29.5t61.5 -74.5t19 -91q0 -66 -53 -140.5t-136 -141.5t-173 -112l309 19l46 86l40 -15l-39 -137h-448l-7 34
q96 47 182.5 118.5z" />
    <glyph glyph-name="three" unicode="3" horiz-adv-x="530" 
d="M13 -153l7 46q40 -5 70 -5q69 0 133 32.5t104 85.5t40 111t-36 91.5t-113 33.5q-8 -4 -52 -14q-33 -9 -32 -9l5 48q102 23 168.5 71.5t66.5 116.5q0 55 -25.5 88.5t-86.5 33.5q-50 0 -88.5 -17t-80.5 -48l-16 41q33 32 86.5 56.5t123.5 24.5q81 0 127.5 -40.5
t46.5 -112.5q0 -42 -25.5 -83.5t-67 -74.5t-87.5 -50q91 4 132.5 -36.5t41.5 -106.5q0 -73 -53 -140.5t-136.5 -108.5t-168.5 -41q-30 0 -84 7z" />
    <glyph glyph-name="four" unicode="4" horiz-adv-x="612" 
d="M351 0h-319l-15 37q71 95 170 272.5t170 348.5h15l62 -37l-38 -73q-73 -141 -132 -245.5t-119 -182.5q-4 -6 -10 -13t-12 -15q-32 -41 -39 -51l274 11l27 212l77 24l-28 -230l125 6l-9 -64h-125l-23 -183h-75z" />
    <glyph glyph-name="five" unicode="5" horiz-adv-x="543" 
d="M90 -84q75 0 146 32t115 86.5t44 117.5q0 70 -35.5 108t-108.5 38q-53 0 -139 -33l-20 16l81 344h295l9 7h53l-22 -76h-280l-61 -234q26 10 61 17.5t65 7.5q85 0 138.5 -49t53.5 -137q0 -84 -56.5 -149.5t-145 -101.5t-178.5 -36q-41 0 -65 8l4 38q23 -4 46 -4z" />
    <glyph glyph-name="six" unicode="6" horiz-adv-x="610" 
d="M118.5 57.5q-53.5 67.5 -53.5 172.5q0 117 54.5 228.5t150 193.5t213.5 115l13 -36q-112 -39 -200.5 -131.5t-125.5 -200.5q31 33 77.5 56t111.5 23q91 0 137 -53.5t46 -134.5q0 -76 -35 -145.5t-97 -112t-141 -42.5q-97 0 -150.5 67.5zM380 70q39 36 58.5 91t19.5 110
q0 73 -31.5 114.5t-88.5 41.5q-68 0 -107.5 -26t-69.5 -62q-15 -63 -15 -119q0 -85 35.5 -135.5t103.5 -50.5q56 0 95 36z" />
    <glyph glyph-name="seven" unicode="7" horiz-adv-x="535" 
d="M139 498l-40 -104l-52 2l32 164h436l13 -18l-297 -698l-82 27l317 627h-327z" />
    <glyph glyph-name="eight" unicode="8" horiz-adv-x="589" 
d="M257 386q-51 41 -83 84t-32 95q0 55 29 97.5t80.5 66t115.5 23.5q82 0 132.5 -42.5t50.5 -114.5q0 -123 -179 -207q67 -47 107 -94t40 -103q0 -61 -35.5 -107t-93.5 -70t-123 -24q-53 0 -101 19t-78.5 58t-30.5 96q0 137 201 223zM437.5 484q36.5 46 36.5 105t-32 91
t-82 32q-62 0 -103 -39t-41 -100q0 -47 32 -84t90 -78q63 27 99.5 73zM175 72.5q37 -39.5 102 -39.5q43 0 79.5 18.5t58.5 52t22 76.5q0 34 -19.5 63.5t-50 54.5t-82.5 61q-62 -27 -104 -74t-43 -109q0 -64 37 -103.5z" />
    <glyph glyph-name="nine" unicode="9" horiz-adv-x="608" 
d="M447 535.5q46 -30.5 69.5 -83.5t23.5 -120q0 -121 -54.5 -233.5t-150 -194.5t-213.5 -115l-13 36q75 26 141 78t114.5 118.5t72.5 136.5q-32 -33 -79.5 -56t-110.5 -23q-62 0 -103 28t-60 72.5t-19 95.5q0 71 32.5 138t94.5 110t144 43q65 0 111 -30.5zM224.5 487.5
q-39.5 -35.5 -60 -89t-20.5 -105.5q0 -75 34 -119.5t89 -44.5q66 0 105.5 26t71.5 62q15 58 15 123q0 81 -35.5 132t-103.5 51q-56 0 -95.5 -35.5z" />
    <glyph glyph-name="colon" unicode=":" horiz-adv-x="258" 
d="M85 481.5q19 20.5 44 20.5q23 0 35 -12t12 -32q0 -32 -20 -52t-46 -20q-19 0 -31.5 12t-12.5 33q0 30 19 50.5zM32 86.5q19 20.5 44 20.5q23 0 35 -12t12 -32q0 -32 -20 -52t-46 -20q-19 0 -31.5 12t-12.5 33q0 30 19 50.5z" />
    <glyph glyph-name="semicolon" unicode=";" horiz-adv-x="258" 
d="M104 130q41 -16 61.5 -55.5t20.5 -86.5q0 -80 -49.5 -143.5t-122.5 -90.5l-24 32l2 9q44 23 76.5 67t32.5 103q0 36 -16.5 63t-39.5 34l1 19zM81 481.5q19 20.5 44 20.5q23 0 35 -12t12 -32q0 -32 -20 -52t-46 -20q-19 0 -31.5 12t-12.5 33q0 30 19 50.5z" />
    <glyph glyph-name="less" unicode="&#x3c;" horiz-adv-x="668" 
d="M596 646l-9 -79l-410 -200l362 -202l-9 -79l-433 255l6 51z" />
    <glyph glyph-name="equal" unicode="=" horiz-adv-x="519" 
d="M479 484l-7 -63h-397l6 63h398zM445 235l-7 -63h-397l6 63h398z" />
    <glyph glyph-name="greater" unicode="&#x3e;" horiz-adv-x="668" 
d="M106 88l9 79l410 200l-362 202l9 79l433 -255l-6 -51z" />
    <glyph glyph-name="question" unicode="?" horiz-adv-x="496" 
d="M130.5 278q-7.5 35 -7.5 70q0 42 37 72.5t113 69.5q49 24 77.5 44.5t50.5 53.5q13 32 13 59q0 81 -47 127t-133 46q-62 0 -101 -18l11 57q12 11 45.5 19t66.5 8q123 0 174 -58t51 -147q0 -64 -30 -111q-23 -39 -56.5 -64t-91.5 -58q-42 -24 -61 -37t-34 -32t-15 -44
t4.5 -52.5t9.5 -42.5l-52 -16l-6 1q-11 18 -18.5 53zM163 86.5q19 20.5 44 20.5q23 0 35 -12t12 -32q0 -32 -19.5 -52t-46.5 -20q-19 0 -31.5 12t-12.5 33q0 30 19 50.5z" />
    <glyph glyph-name="at" unicode="@" horiz-adv-x="961" 
d="M128.5 467q71.5 135 192.5 210t265 75q99 0 172.5 -37.5t114 -107.5t40.5 -167q0 -129 -44.5 -228.5t-112 -153t-134.5 -53.5q-31 0 -40 23.5t-9 69.5q0 19 6 58.5t17 81.5q-39 -95 -91 -167t-103 -72q-35 0 -66.5 22.5t-51.5 69t-20 114.5q0 76 30 151t90 124.5
t146 49.5q26 0 58.5 -6.5t51.5 -19.5l66 12q-16 -60 -32.5 -147.5t-23.5 -158.5q-10 -101 -8 -118q2 -28 20 -28q44 0 89 49.5t74 130.5t29 168q0 147 -84.5 217t-215.5 70q-130 0 -230 -71t-154 -188.5t-54 -251.5q0 -120 44.5 -206.5t122.5 -131t176 -44.5
q51 0 103.5 11.5t77.5 25.5l13 -35q-34 -27 -88 -42t-116 -15q-113 0 -202 50t-139.5 142.5t-50.5 215.5q0 173 71.5 308zM357 105.5q22 -39.5 58 -39.5q31 0 71.5 58t77.5 146t57 170q-14 19 -43 29t-54 10q-67 0 -109.5 -39.5t-61 -100t-18.5 -126.5q0 -68 22 -107.5z" />
    <glyph glyph-name="A" unicode="A" horiz-adv-x="655" 
d="M437 743l127 -695l82 -13l-2 -35h-251l2 35l89 11l-29 178h-286l-84 -177l90 -12l-3 -35h-232l4 35l68 11l344 697h81zM192 272h254l-56 345l-7 60z" />
    <glyph glyph-name="B" unicode="B" horiz-adv-x="628" 
d="M262 744q15 1 25 2q52 4 80 4q110 0 163.5 -45t53.5 -115q0 -76 -41 -125.5t-115 -70.5q65 -8 108.5 -51t43.5 -107q0 -124 -92 -183.5t-236 -59.5q-21 0 -69 4q-14 1 -30 2t-33 1h-108l4 35l73 12l81 646l-67 10l4 40h120q20 0 35 1zM249 410h76q80 0 130 43.5t50 127.5
q0 62 -37 92.5t-120 30.5q-20 0 -48 -1.5t-52 -4.5l-36 -288h37zM214.5 44.5q33.5 -2.5 54.5 -2.5q104 0 165.5 44t61.5 140q0 133 -159 133q-81 0 -131 -2l-38 -306q13 -4 46.5 -6.5z" />
    <glyph glyph-name="C" unicode="C" horiz-adv-x="604" 
d="M470 696.5q-27 6.5 -73 6.5q-87 0 -148 -57t-91 -144t-30 -176q0 -118 45.5 -201.5t141.5 -83.5q41 0 84 12.5t61 34.5q18 58 32 109h49l-20 -161q-58 -20 -106.5 -32t-114.5 -12q-89 0 -146.5 47t-84 121t-26.5 157q0 128 49.5 226.5t133 153t181.5 54.5q58 0 94.5 -6
t77.5 -17l21 -7l-30 -178h-49l-4 135q-20 12 -47 18.5z" />
    <glyph glyph-name="D" unicode="D" horiz-adv-x="696" 
d="M302 747q52 4 79 4q147 0 215 -82t68 -229q0 -127 -48 -230.5t-135 -162t-200 -55.5q-52 4 -54 4q-44 4 -103 4h-113l3 35l74 12l82 646l-67 10l4 40h131q20 0 64 4zM235 43.5q39 -3.5 65 -3.5q92 4 156 61t95.5 146t31.5 190q0 142 -52 204.5t-171 62.5q-43 0 -111 -9
l-81 -642q28 -6 67 -9.5z" />
    <glyph glyph-name="E" unicode="E" horiz-adv-x="599" 
d="M561 743l-4 -153h-44l-17 104l-245 6l-37 -289l234 4l-5 -64l-234 7l-41 -310l298 9l55 114l43 -13l-43 -158h-510l3 35l75 11l81 647l-68 10l5 40h454z" />
    <glyph glyph-name="F" unicode="F" horiz-adv-x="564" 
d="M580 743l-10 -153h-50l-10 102l-261 7l-36 -289l248 4l-6 -65l-246 7l-41 -308l118 -13l-4 -35h-270l3 35l74 12l81 646l-68 10l5 40h473z" />
    <glyph glyph-name="G" unicode="G" horiz-adv-x="657" 
d="M523 38q-20 -6 -27 -8q-58 -18 -102.5 -28t-95.5 -10q-85 0 -141.5 46.5t-82.5 119.5t-26 155q0 130 49.5 229.5t132.5 154t181 54.5q65 0 109 -7.5t87 -19.5l19 -6l-28 -145h-51l-2 99q-23 15 -55.5 23.5t-87.5 8.5q-87 0 -148.5 -58t-92 -147t-30.5 -181q0 -72 20 -135
t62.5 -103t106.5 -40q46 0 92.5 12t72.5 35l30 213l-135 7l5 47h219l-44 -308q-17 -2 -37 -8z" />
    <glyph glyph-name="H" unicode="H" horiz-adv-x="744" 
d="M328 743l-5 -40l-73 -10l-37 -288h349l36 288l-73 10l4 40h222l-5 -40l-70 -10l-80 -646l76 -12l-4 -35h-233l3 35l80 12l37 306h-349l-38 -306l76 -12l-3 -35h-229l4 35l73 12l81 646l-67 10l5 40h220z" />
    <glyph glyph-name="I" unicode="I" horiz-adv-x="339" 
d="M337 743l-4 -40l-75 -10l-81 -646l77 -12l-3 -35h-230l3 35l73 12l82 646l-67 10l5 40h220z" />
    <glyph glyph-name="J" unicode="J" horiz-adv-x="339" 
d="M256 635q-32 -290 -49 -429.5t-26 -168.5q-27 -92 -92.5 -141.5t-150.5 -63.5l-15 35q67 18 117.5 67.5t63.5 109.5q18 79 31 183.5t34 303.5q7 77 17 163l-81 9l5 40h241l-4 -40l-84 -9q-4 -37 -7 -59z" />
    <glyph glyph-name="K" unicode="K" horiz-adv-x="662" 
d="M401 313q11 -18 32.5 -54.5t34.5 -56.5q52 -84 71 -111.5t34 -35.5l65 -17l-5 -38h-123q-12 1 -30 30t-51 89l-29 52q-33 56 -76 133q-27 49 -26 47l-107 -115l-23 -189l76 -12l-3 -35h-229l4 35l73 12l81 646l-67 10l4 40h220l-4 -40l-74 -10l-48 -380l341 380l-67 10
l5 40h202l-6 -40l-58 -9l-271 -291q11 -17 54 -90z" />
    <glyph glyph-name="L" unicode="L" horiz-adv-x="573" 
d="M339 743l-3 -40l-87 -10l-82 -646l261 4l64 172l46 -9l-47 -214h-478l3 35l73 12l81 646l-67 10l4 40h232z" />
    <glyph glyph-name="M" unicode="M" horiz-adv-x="919" 
d="M609 496q89 191 112 247h190l-5 -40l-88 -10l-19 -646l83 -12l-3 -35h-254l4 35l91 11l20 450l14 205l-76 -181l-239 -522l-44 -7l-87 517l-33 193l-41 -197l-107 -457l97 -12l-3 -35h-246l4 35l84 12l162 646l-92 10l5 40h202l85 -511l14 -107l49 105q29 74 121 266z
" />
    <glyph glyph-name="N" unicode="N" horiz-adv-x="738" 
d="M256 743l248 -555l39 -111l74 617l-80 9l5 40h213l-3 -40l-75 -10l-95 -693h-78l-246 553l-39 111l-69 -617l84 -12l-3 -35h-217l3 35l68 11l85 647l-71 10l6 40h151z" />
    <glyph glyph-name="O" unicode="O" horiz-adv-x="677" 
d="M532.5 710.5q55.5 -42.5 82.5 -114.5t27 -161q0 -125 -43.5 -226.5t-121 -160t-174.5 -58.5q-80 0 -135.5 42t-84 114.5t-28.5 164.5q0 125 44.5 226t122.5 158.5t174 57.5q81 0 136.5 -42.5zM257.5 654q-56.5 -49 -89 -136t-32.5 -196q0 -129 47 -206.5t131 -77.5
q69 0 124.5 49t87.5 136t32 196q0 130 -44.5 207t-129.5 77q-70 0 -126.5 -49z" />
    <glyph glyph-name="P" unicode="P" horiz-adv-x="600" 
d="M296 747q48 4 74 4q226 0 226 -196q0 -91 -40.5 -156.5t-109.5 -99.5t-153 -34q-27 0 -99 4l-25 -222l91 -12l-3 -35h-245l4 35l73 12l81 646l-67 10l4 40h114q27 0 75 4zM296 313q108 1 162 63t54 182q0 73 -34 109.5t-112 36.5q-23 0 -57 -3t-59 -7l-49 -373
q46 -8 95 -8z" />
    <glyph glyph-name="Q" unicode="Q" horiz-adv-x="679" 
d="M533.5 -164.5q-39.5 -12.5 -79.5 -12.5q-72 0 -122 36t-50 102q0 15 3 30q-75 4 -127 47t-78 114t-26 159q0 125 44.5 226t122 158.5t174.5 57.5q81 0 136 -43t82 -115t27 -162q0 -117 -39 -214t-108 -156.5t-157 -69.5q1 -57 40 -77.5t105 -20.5q25 0 57 7t54 18l1 -56
q-20 -16 -59.5 -28.5zM256.5 654q-56.5 -49 -89 -135.5t-32.5 -195.5q0 -129 46.5 -206.5t130.5 -77.5q69 0 125 49t88 136t32 195q0 130 -45 207t-130 77q-69 0 -125.5 -49z" />
    <glyph glyph-name="R" unicode="R" horiz-adv-x="653" 
d="M290 747q44 4 66 4q123 0 178.5 -41t55.5 -131q0 -88 -52.5 -153t-140.5 -89q24 -18 49.5 -62t58.5 -109q5 -12 15 -32q21 -47 31.5 -64.5t25 -23.5t46.5 -6l-1 -40h-100q-17 0 -34.5 25t-45.5 95q-41 98 -71.5 152.5t-58.5 55.5h-74h-40l-32 -281l91 -12l-3 -35h-235
l3 35l67 12l81 646l-67 10l4 40h120q21 0 63 4zM267 373.5q36 -0.5 60 0.5q55 3 96.5 30t64 71t22.5 98q0 68 -37.5 99.5t-131.5 31.5q-17 0 -43.5 -2.5t-50.5 -5.5l-43 -321q27 -1 63 -1.5z" />
    <glyph glyph-name="S" unicode="S" horiz-adv-x="531" 
d="M390 698q-30 8 -68 8q-59 0 -103 -31t-44 -89q0 -41 19.5 -72.5t48.5 -54t74 -50.5q58 -38 86.5 -60t51 -58.5t22.5 -86.5q0 -65 -32.5 -114t-90 -75t-129.5 -26q-63 0 -121.5 14t-78.5 29l20 137h48l6 -102q20 -14 55.5 -22.5t72.5 -8.5q42 0 81.5 15.5t64.5 47t25 78.5
q0 54 -33 89.5t-96 73.5q-53 33 -87.5 60t-59.5 67t-25 92q0 56 31.5 100.5t84.5 69t116 24.5q64 0 109.5 -12.5t69.5 -29.5l-22 -128h-44l-5 95q-17 12 -47 20z" />
    <glyph glyph-name="T" unicode="T" horiz-adv-x="604" 
d="M638 743l-30 -222l-43 -1l7 172l-182 8l-85 -653l123 -9l-3 -38h-321l2 38l120 9l84 653l-180 -8l-44 -170l-45 -1l35 222h562z" />
    <glyph glyph-name="U" unicode="U" horiz-adv-x="675" 
d="M495 63.5q-71 -73.5 -200 -73.5q-105 0 -161.5 58t-58.5 160q-2 41 4 82l53 404l-68 9l4 40h225l-4 -40l-76 -10l-53 -397q-7 -46 -5 -92q2 -80 39.5 -124.5t112.5 -44.5q93 0 145 66.5t69 204.5l51 387l-66 10l4 40h197l-4 -40l-64 -9l-51 -388q-22 -169 -93 -242.5z
" />
    <glyph glyph-name="V" unicode="V" horiz-adv-x="591" 
d="M272 743l-4 -40l-88 -10l70 -472l19 -152l59 152l208 472l-74 10l4 40h197l-4 -40l-57 -9l-318 -699l-70 -5l-118 703l-68 10l4 40h240z" />
    <glyph glyph-name="W" unicode="W" horiz-adv-x="880" 
d="M254 743l-3 -40l-89 -8l62 -481l20 -143l41 116l170 437l-8 70l-67 9l4 40h238l-8 -40l-86 -9l48 -480l10 -143l49 126l208 496l-76 10l4 40h211l-6 -40l-68 -10l-303 -698h-81l-53 521l-207 -521h-79l-99 698l-71 10l5 40h234z" />
    <glyph glyph-name="X" unicode="X" horiz-adv-x="634" 
d="M317 743l-4 -40l-85 -9l112 -267l186 266l-83 10l4 40h228l-3 -40l-71 -9l-237 -315l165 -332l80 -12l-2 -35h-260l3 35l86 11l-126 279l-195 -278l87 -12l-4 -35h-229l4 35l66 11l248 329l-150 317l-73 11l4 40h249z" />
    <glyph glyph-name="Y" unicode="Y" horiz-adv-x="577" 
d="M271 743l-6 -40l-90 -10l117 -290l23 -67l39 67l177 290l-77 10l5 40h199l-5 -40l-54 -9l-259 -407l-31 -240l109 -12l-4 -35h-298l3 35l114 12l31 240l-179 406l-57 10l3 40h240z" />
    <glyph glyph-name="Z" unicode="Z" horiz-adv-x="585" 
d="M581 743l9 -34l-423 -576l-70 -90l349 11l60 134l47 -14l-45 -174h-496l-11 36l413 560l85 101l-317 -3l-43 -130l-48 10l29 169h461z" />
    <glyph glyph-name="bracketleft" unicode="[" horiz-adv-x="418" 
d="M110.5 -77q-15.5 12 -15.5 43q0 29 1 45q4 57 22.5 185.5t38.5 257.5q29 182 43 291q7 57 26 78t64 21q36 0 83 -9t53 -10l-6 -35h-141l-114 -825l144 -1l-4 -35q-74 -18 -143 -18q-36 0 -51.5 12z" />
    <glyph glyph-name="backslash" unicode="\" horiz-adv-x="417" 
d="M62 781h68l282 -958h-68z" />
    <glyph glyph-name="bracketright" unicode="]" horiz-adv-x="418" 
d="M331.5 837q15.5 -12 15.5 -43q0 -29 -1 -45q-4 -57 -22.5 -185.5t-38.5 -257.5q-29 -182 -43 -291q-7 -57 -26 -78t-64 -21q-36 0 -83 9t-53 10l6 35h141l114 825l-144 1l4 35q74 18 143 18q36 0 51.5 -12z" />
    <glyph glyph-name="asciicircum" unicode="^" horiz-adv-x="666" 
d="M371 748l204 -546h-63l-180 459l-180 -459h-62l202 546h79z" />
    <glyph glyph-name="underscore" unicode="_" horiz-adv-x="652" 
d="M603 -165h-673l8 60h672z" />
    <glyph glyph-name="grave" unicode="`" horiz-adv-x="264" 
d="M108 694q-62 59 -81 92l59 58l147 -207l-26 -24q-37 22 -99 81z" />
    <glyph glyph-name="a" unicode="a" horiz-adv-x="574" 
d="M444 74q0 -16 6.5 -23t13.5 -7q10 0 19.5 6.5t24.5 21.5l14 -22q-4 -8 -18.5 -22.5t-35.5 -26t-44 -11.5q-62 0 -58 66l6 41q-34 -44 -79.5 -75.5t-94.5 -31.5q-79 0 -117.5 57t-38.5 154q0 81 38 166.5t109.5 143t166.5 57.5q21 0 49 -5t50 -12l55 16l-65 -481
q-1 -5 -1 -12zM345 519q-69 0 -119 -47.5t-76 -119.5t-26 -142q0 -77 22.5 -119.5t68.5 -42.5q45 0 89.5 35.5t74.5 78.5l44 335q-32 22 -78 22z" />
    <glyph glyph-name="b" unicode="b" horiz-adv-x="575" 
d="M273 541.5q43 26.5 93 26.5q82 0 124 -57.5t42 -154.5q0 -80 -37.5 -165.5t-108.5 -143t-164 -57.5q-30 0 -64 8t-56 18l-40 -18l99 741l-48 17l9 34l104 16l20 -12l-42 -317q26 38 69 64.5zM233 39q69 0 118.5 49t74.5 122t25 141q0 75 -26 117t-74 42t-91 -31.5
t-66 -69.5l-46 -346q29 -24 85 -24z" />
    <glyph glyph-name="c" unicode="c" horiz-adv-x="437" 
d="M351.5 498.5q-24.5 10.5 -46.5 10.5q-56 0 -98 -36.5t-64.5 -101.5t-22.5 -150q0 -86 30.5 -130t85.5 -44q41 0 71.5 15t69.5 46l16 -33q-26 -32 -71.5 -58.5t-108.5 -26.5q-83 0 -129.5 59.5t-46.5 163.5q0 80 34 162.5t99 137.5t153 55q28 0 58.5 -6.5t50.5 -17.5
l-23 -80l-11 8q-22 16 -46.5 26.5z" />
    <glyph glyph-name="d" unicode="d" horiz-adv-x="576" 
d="M445 67q0 -11 3.5 -17t9.5 -6q18 0 47 26l13 -22q-11 -17 -38.5 -37.5t-61.5 -20.5q-54 0 -51 61v27q-28 -37 -71 -62.5t-93 -25.5q-80 0 -121.5 57.5t-41.5 153.5q0 81 38 166.5t109.5 143t166.5 57.5q37 0 83 -13l29 184l-64 16l8 34l120 17l21 -12l-105 -715
q-1 -4 -1 -12zM342 519q-70 0 -120 -49.5t-75 -122t-25 -140.5q0 -75 25 -117t71 -42q48 0 91 30t66 67l53 348q-30 26 -86 26z" />
    <glyph glyph-name="e" unicode="e" horiz-adv-x="514" 
d="M359.5 23q-56.5 -33 -122.5 -33t-109 30t-63.5 78.5t-20.5 105.5q0 94 38 178t103.5 135t145.5 51q68 0 103 -34t35 -88q0 -71 -60 -119.5t-141 -73t-140 -25.5q-1 -7 -1 -23q0 -64 30 -111t92 -47q43 0 89 20t85 59l19 -34q-26 -36 -82.5 -69zM222 482
q-40 -39 -63.5 -96.5t-28.5 -112.5q57 2 117.5 22.5t101.5 57.5t41 86q-1 40 -21 61t-56 21q-51 0 -91 -39z" />
    <glyph glyph-name="f" unicode="f" horiz-adv-x="342" 
d="M195.5 712.5q29.5 47.5 71.5 75t87 27.5q48 0 78 -12l-22 -67q-32 22 -71 21q-42 0 -69 -37.5t-36 -101.5l-6 -55h127l-6 -57h-128l-71 -537q-13 -101 -57.5 -160t-115.5 -61q-24 -1 -47 1t-34 5l20 68q7 -4 34 -10.5t45 -6.5q31 0 48 34t24 96l74 571h-69l8 31l70 24
l7 48q9 56 38.5 103.5z" />
    <glyph glyph-name="g" unicode="g" horiz-adv-x="563" 
d="M372.5 -158q-42.5 -47 -98.5 -68.5t-110 -21.5q-30 0 -61 5t-47 12l19 74q24 -11 57 -19.5t68 -8.5q68 0 101 26.5t43 94.5l21 140q-29 -36 -71 -61t-91 -25q-80 0 -121.5 57.5t-41.5 153.5q0 81 38 166.5t110 143t167 57.5q53 0 106 -21l57 21l-93 -606
q-10 -73 -52.5 -120zM343 519q-70 0 -120 -49.5t-75.5 -122t-25.5 -140.5q0 -75 25 -117t71 -42q48 0 90.5 29.5t66.5 66.5l52 350q-31 25 -84 25z" />
    <glyph glyph-name="h" unicode="h" horiz-adv-x="607" 
d="M293.5 527.5q58.5 40.5 117.5 40.5q55 0 83.5 -33.5t28.5 -111.5q0 -44 -21 -149q-1 -6 -2 -13t-3 -14q-4 -17 -5 -30q-19 -93 -22 -139q-1 -17 3 -26t12 -9q10 0 21 6.5t31 23.5l12 -22q-5 -9 -20 -23.5t-38 -26t-48 -11.5q-55 0 -55 54q0 26 8 70.5t9 52.5q1 3 10 56
q13 66 20 110.5t7 84.5q0 48 -15.5 67t-49.5 19q-45 0 -100 -41.5t-93 -100.5l-49 -362h-76l97 739l-56 16l6 34l115 17l20 -12l-49 -368q43 61 101.5 101.5z" />
    <glyph glyph-name="i" unicode="i" horiz-adv-x="310" 
d="M164 67q0 -11 4.5 -17t10.5 -6q20 0 52 33l13 -22q-13 -20 -42 -42.5t-64 -22.5q-27 0 -42.5 14t-13.5 45q2 26 13.5 105t17.5 119l32 219l-65 21l6 32l127 21l20 -10l-68 -477q-1 -4 -1 -12zM173.5 695.5q-13.5 13.5 -13.5 34.5q0 26 18.5 45t39.5 19t33.5 -13t12.5 -34
q0 -27 -17.5 -46t-41.5 -19q-18 0 -31.5 13.5z" />
    <glyph glyph-name="j" unicode="j" horiz-adv-x="316" 
d="M107.5 -187q-53.5 -66 -137.5 -66q-24 0 -45.5 5t-29.5 13l14 35q7 -3 20.5 -5.5t24.5 -2.5q67 0 99.5 63t45.5 173l53 465l-69 20l7 32l130 21l20 -10l-65 -555q-14 -122 -67.5 -188zM181.5 695.5q-13.5 13.5 -13.5 34.5q0 26 18.5 45t39.5 19t33.5 -13t12.5 -34
q0 -27 -17.5 -46t-41.5 -19q-18 0 -31.5 13.5z" />
    <glyph glyph-name="k" unicode="k" horiz-adv-x="522" 
d="M237 794l-107 -794h-76l97 739l-56 16l6 34l115 17zM247 340q45 27 74 48.5t51 51.5q24 32 28 75q4 23 18.5 34.5t33.5 11.5q18 0 29.5 -12t11.5 -32q0 -27 -22 -59q-24 -34 -70.5 -66t-110.5 -68l-37 -21l141 -209q14 -20 29.5 -32t28.5 -12q10 0 20 4.5t24 18.5l17 -28
q-13 -22 -39 -38.5t-60 -16.5q-50 0 -82 53l-150 255q29 21 65 42z" />
    <glyph glyph-name="l" unicode="l" horiz-adv-x="297" 
d="M150 69q0 -12 4 -18.5t10 -6.5q21 0 53 33l13 -22q-11 -20 -39 -42.5t-67 -22.5q-52 0 -52 57l3 37l93 655l-60 16l8 34l116 17l19 -12l-100 -715z" />
    <glyph glyph-name="m" unicode="m" horiz-adv-x="926" 
d="M301.5 529.5q58.5 38.5 114.5 38.5q53 0 80.5 -31t29.5 -98q39 56 91.5 92.5t105.5 36.5t83.5 -35t30.5 -110q0 -23 -5.5 -60t-11.5 -73l-7 -43l-4 -22q-18 -108 -21 -147l-1 -12q0 -22 12 -22t25 7.5t31 25.5l12 -22q-12 -19 -42 -42t-66 -23q-26 0 -39 13.5t-13 41.5
q0 22 5.5 59t11.5 72l8 49l6 34q19 106 19 159q0 48 -15 66.5t-49 18.5q-38 0 -84.5 -36t-84.5 -90q-5 -49 -17 -130l-33 -247h-80l32 223q10 63 16 109.5t6 85.5q-1 50 -14.5 68t-51.5 18q-43 0 -97.5 -41t-92.5 -99l-49 -364h-78l65 488l-48 23l7 36l105 21l19 -10
l-13 -126q43 59 101.5 97.5z" />
    <glyph glyph-name="n" unicode="n" horiz-adv-x="615" 
d="M301.5 529.5q58.5 38.5 115.5 38.5q54 0 83 -33.5t29 -110.5q0 -44 -21 -151l-5 -26q-1 -8 -5 -26q-18 -105 -21 -143q-2 -34 12 -34q20 0 47 26l13 -23q-10 -15 -39 -36t-63 -21q-53 0 -53 56q0 22 6 59t13 73l9 45l6 31q11 61 16 96t5 68q0 49 -15 67.5t-52 18.5
q-43 0 -97.5 -41.5t-92.5 -99.5l-49 -363h-78l65 488l-48 23l7 36l105 21l19 -10l-13 -126q43 59 101.5 97.5z" />
    <glyph glyph-name="o" unicode="o" horiz-adv-x="560" 
d="M467 507q50 -61 50 -171q0 -88 -35.5 -167.5t-99 -129t-143.5 -49.5q-92 0 -143 58.5t-53 165.5q-1 90 35 171.5t100 132t145 50.5q94 0 144 -61zM209.5 474q-41.5 -45 -62.5 -114t-21 -139q0 -88 33 -135t95 -47q56 0 97 44.5t62 112.5t21 137q0 90 -31 138t-94 48
q-58 0 -99.5 -45z" />
    <glyph glyph-name="p" unicode="p" horiz-adv-x="566" 
d="M266 542q41 26 91 26q82 0 124.5 -57.5t42.5 -154.5q0 -81 -38 -166.5t-109 -142.5t-164 -57q-29 0 -79 12l-35 -256h-76l101 749l-53 20l7 32l110 21l19 -10l-10 -80q28 38 69 64zM225 39q67 0 116 48t74.5 120.5t25.5 143.5q0 76 -26.5 117.5t-72.5 41.5t-87 -29.5
t-64 -66.5l-49 -352q30 -23 83 -23z" />
    <glyph glyph-name="q" unicode="q" horiz-adv-x="564" 
d="M411 -189q4 -11 9 -11q22 0 55 34l13 -23q-6 -9 -22.5 -24.5t-40 -27.5t-48.5 -12q-52 0 -49 60l35 266q-28 -35 -70 -59t-90 -24q-80 0 -121.5 57.5t-41.5 153.5q0 81 38 166.5t109.5 143t166.5 57.5q24 0 52.5 -6t50.5 -15l47 10l-96 -721q-1 -14 3 -25zM342 519
q-69 0 -119 -48.5t-75.5 -121t-25.5 -142.5q0 -77 26 -118t70 -41q46 0 87.5 28t66.5 64l47 358q-31 21 -77 21z" />
    <glyph glyph-name="r" unicode="r" horiz-adv-x="408" 
d="M237 489.5q28 32.5 66.5 55t81.5 22.5q24 0 32 -6l-18 -87q-14 8 -46 8q-46 0 -93 -35t-73 -98l-43 -349h-78l63 486l-51 23l7 36l105 21l19 -9l-7 -89l-6 -41q13 30 41 62.5z" />
    <glyph glyph-name="s" unicode="s" horiz-adv-x="425" 
d="M357 494q-16 9 -40.5 15.5t-52.5 6.5q-51 0 -80.5 -21.5t-29.5 -63.5q0 -35 23 -62t64 -58q39 -30 60 -49t39 -49.5t18 -68.5q0 -73 -55.5 -113.5t-137.5 -40.5q-45 0 -88.5 9.5t-56.5 21.5l13 61q19 -14 56.5 -26t78.5 -12q49 0 82 19t33 65q0 27 -14.5 49t-32 36.5
t-51.5 38.5q-40 27 -73 68t-33 94q0 46 25.5 81t68.5 54t95 19q36 0 73 -6.5t52 -13.5l-16 -68q-4 5 -20 14z" />
    <glyph glyph-name="t" unicode="t" horiz-adv-x="357" 
d="M158 94q0 -26 10.5 -36.5t37.5 -10.5q20 0 51 14t48 28l8 -31q-19 -23 -64 -45.5t-85 -22.5q-86 0 -86 82q0 26 5 63l47 365h-61l9 35l61 19q21 27 56 137h39l-18 -136h138l-8 -55h-136l-45 -331q-7 -59 -7 -75z" />
    <glyph glyph-name="u" unicode="u" horiz-adv-x="589" 
d="M167 247q-4 -29 -7 -58t-3 -53q0 -52 19 -71t56 -19q40 0 85.5 31.5t74.5 73.5l54 411h77l-64 -482q-1 -4 -1 -12q0 -24 13 -24q21 0 55 34l12 -23q-6 -9 -22 -24.5t-39.5 -27.5t-47.5 -12q-23 0 -36 14t-13 37q0 10 1 15q3 12 5 37l-1 1q-35 -45 -82.5 -75t-102.5 -30
q-58 0 -89 30t-31 103q0 50 17 173l27 190l-49 24l6 35l107 21l19 -10l-34 -264z" />
    <glyph glyph-name="v" unicode="v" horiz-adv-x="518" 
d="M63 509q-16 0 -37 -19l-11 26q8 14 33.5 32.5t55.5 18.5q32 0 44.5 -16.5t17.5 -50.5l38 -325l11 -108l72 93q51 72 82 140t42 147q2 24 -9 50q-6 18 -6 26q0 22 10.5 33t27.5 11q26 0 40 -25.5t14 -67.5q0 -65 -43.5 -153.5t-104.5 -172.5l-115 -152l-59 -6l-30 182
l-50 304q-5 33 -23 33z" />
    <glyph glyph-name="w" unicode="w" horiz-adv-x="830" 
d="M78 501.5q-5 7.5 -15 7.5q-9 1 -16.5 -4t-20.5 -15l-11 26q8 14 34 32.5t56 18.5q32 0 45 -16t18 -51l38 -344l10 -94l38 86l177 415h70l37 -408l8 -93l64 92q35 49 73 135.5t41 157.5q1 17 -3.5 32t-5.5 18q-6 18 -6 26q0 21 10 32.5t28 11.5q52 0 52 -97
q0 -61 -41 -149t-99 -173l-98 -152l-73 -5l-18 167l-23 230l-5 65l-21 -66l-116 -242l-70 -149l-68 -6l-28 169l-52 317q-4 18 -9 25.5z" />
    <glyph glyph-name="x" unicode="x" horiz-adv-x="496" 
d="M116.5 504.5q-7.5 7.5 -20.5 7.5q-14 0 -28 -8.5t-21 -17.5l-15 23q9 16 37.5 36.5t62.5 20.5q32 0 47.5 -12.5t23.5 -38.5l52 -177l160 224h83l-220 -285l91 -201q7 -16 14 -23.5t18 -7.5q25 0 57 35l15 -23q-4 -9 -20.5 -25t-40.5 -29t-49 -13q-29 0 -43 12.5t-23 39.5
l-63 188l-164 -230h-82l223 291l-80 190q-7 16 -14.5 23.5z" />
    <glyph glyph-name="y" unicode="y" horiz-adv-x="524" 
d="M83.5 501q-5.5 7 -14.5 7t-18.5 -6t-24.5 -21l-12 26q9 16 37.5 37.5t58.5 21.5q31 0 44 -16.5t17 -50.5l52 -374l14 -136l81 155q16 34 25 50q43 86 63.5 143.5t20.5 119.5q0 13 -4 24t-5 13q-8 20 -8 30q0 21 10.5 31t27.5 10q26 0 40.5 -23t14.5 -65q0 -64 -28.5 -134
t-78.5 -164l-18 -34q-54 -109 -99.5 -186t-78.5 -117q-62 -89 -166 -89q-21 0 -49 4.5t-43 10.5l19 64q38 -19 83 -19q42 0 90.5 36t86.5 112h-38l-90 514q-4 19 -9.5 26z" />
    <glyph glyph-name="z" unicode="z" horiz-adv-x="504" 
d="M199 493q-32 0 -34 -1q-24 -1 -41 -30.5t-19 -66.5h-32q-2 41 7.5 94.5t28.5 66.5q13 10 45 10q40 0 150 -8q91 -7 129 -7q28 0 47 14l21 -22l-239 -314l-150 -163l220 -4q38 0 58 24t27 71h32q-3 -54 -13 -99t-30 -59q-18 -10 -49 -10t-84 4t-69 5q-100 8 -125 8
q-27 0 -48 -17l-26 25l327 398l70 77q-116 4 -203 4z" />
    <glyph glyph-name="braceleft" unicode="{" horiz-adv-x="499" 
d="M173.5 104.5q19.5 130.5 26.5 178.5q1 20 -30 37q-32 20 -83 34l7 50q61 14 97 31q34 15 37 37l42 273q6 40 15.5 60.5t27.5 29t48 8.5q27 0 71 -7.5t58 -10.5q-1 -4 -2.5 -15.5t-2.5 -19.5h-135l-48 -316q-3 -20 -15.5 -35t-36.5 -27q-18 -8 -41.5 -18t-38.5 -15
q58 -28 76 -44q27 -21 27 -45q0 -6 -1 -9l-47 -316h134l-4 -36q-41 -9 -69.5 -13.5t-64.5 -4.5q-37 0 -52.5 12t-14.5 44q0 7 19.5 137.5z" />
    <glyph glyph-name="bar" unicode="|" horiz-adv-x="417" 
d="M252 869v-960h-66v960h66z" />
    <glyph glyph-name="braceright" unicode="}" horiz-adv-x="499" 
d="M343.5 650.5q-19.5 -130.5 -26.5 -178.5q-1 -20 30 -37q32 -20 83 -34l-7 -50q-61 -14 -97 -31q-34 -15 -37 -37l-42 -273q-6 -40 -15.5 -60.5t-27.5 -29t-48 -8.5q-27 0 -71 7.5t-58 10.5q1 4 2.5 15.5t2.5 19.5h135l48 316q3 20 15.5 35t36.5 27q18 8 41.5 18t38.5 15
q-58 28 -76 44q-27 21 -27 45q0 6 1 9l47 316h-134l4 36q41 9 69.5 13.5t64.5 4.5q37 0 52.5 -12t14.5 -44q0 -7 -19.5 -137.5z" />
    <glyph glyph-name="asciitilde" unicode="~" horiz-adv-x="555" 
d="M104 458q22 23 53.5 38.5t66.5 15.5q26 0 46 -11.5t47 -34.5q24 -20 39.5 -29.5t34.5 -9.5q34 0 59.5 17.5t42.5 44.5l28 -31q-11 -38 -51.5 -68.5t-92.5 -30.5q-27 0 -47.5 12t-47.5 35q-24 20 -39 29t-33 9q-33 0 -60.5 -16t-47.5 -46l-27 32q7 21 29 44z" />
    <glyph glyph-name="uni00A0" unicode="&#xa0;" horiz-adv-x="237" 
 />
    <glyph glyph-name="exclamdown" unicode="&#xa1;" horiz-adv-x="336" 
d="M253.5 570q-18.5 -21 -43.5 -21q-23 0 -34.5 12t-11.5 32q0 32 19.5 52t46.5 20q19 0 30.5 -12t11.5 -33q0 -29 -18.5 -50zM53 -212l112 629h55l-73 -629h-94z" />
    <glyph glyph-name="cent" unicode="&#xa2;" horiz-adv-x="516" 
d="M212 -6q-67 12 -103.5 69t-36.5 148q0 72 28.5 148t83 132.5t128.5 71.5l20 119h58l-20 -115q23 -1 57.5 -11.5t56.5 -21.5l-22 -80l-22 1q-14 23 -41 38.5t-58 15.5q-56 0 -98 -36.5t-65 -102t-23 -149.5q0 -86 30 -130t86 -44q41 0 71 14.5t70 46.5l16 -33
q-24 -28 -64.5 -53.5t-95.5 -30.5l-25 -109h-57z" />
    <glyph glyph-name="sterling" unicode="&#xa3;" horiz-adv-x="672" 
d="M280.5 0.5q-50.5 12.5 -112.5 35.5l-32 11q-16 -22 -46.5 -38.5t-56.5 -16.5q-15 0 -24 8.5t-6 28.5q2 15 19 31t42.5 27t52.5 11q25 30 46 139l22 128h-92l7 53h94l11 67q11 72 47.5 133.5t92 99t122.5 37.5q47 0 76 -8t52 -32l-43 -68q-13 17 -46.5 34.5t-74.5 17.5
q-51 0 -92 -50t-57 -161q-1 -5 -7 -42l-5 -28h162l-6 -53h-166q-2 -8 -4 -26l-5 -25q-15 -84 -33 -134.5t-48 -95.5q11 -3 53 -16q49 -16 83 -24.5t74 -8.5q156 0 156 119q0 25 -13.5 51t-29.5 39l54 52q31 -24 50 -59t19 -75q0 -71 -51.5 -122.5t-175.5 -51.5
q-58 0 -108.5 12.5z" />
    <glyph glyph-name="currency" unicode="&#xa4;" horiz-adv-x="745" 
d="M214 207q-44 57 -44 130q0 72 43 129l-93 94l44 45l94 -95q59 41 126 41q37 0 70.5 -11.5t60.5 -32.5l94 92l43 -45l-92 -94q39 -57 39 -123q0 -70 -41 -127l93 -94l-44 -46l-95 95q-57 -42 -128 -42q-67 0 -124 39l-94 -94l-44 45zM250 257.5q21 -36.5 56.5 -58
t77.5 -21.5q43 0 79 21.5t57 58t21 79.5t-21 79.5t-57 58t-79 21.5q-42 0 -77.5 -21.5t-56.5 -58t-21 -79.5t21 -79.5z" />
    <glyph glyph-name="yen" unicode="&#xa5;" horiz-adv-x="708" 
d="M320 411l-159 284l-63 8l4 40h243l-4 -40l-99 -7l121 -227l22 -70l44 73l164 224l-81 7l5 40h218l-4 -39l-62 -12l-222 -281h177l-5 -53h-207l-14 -120h206l-5 -52h-207l-16 -139l118 -12l-3 -35h-307l3 35l118 12l16 139h-207l6 52h207l14 120h-207l6 53h180z" />
    <glyph glyph-name="brokenbar" unicode="&#xa6;" horiz-adv-x="417" 
d="M252 869v-435h-65v435h65zM252 345v-436h-65v436h65z" />
    <glyph glyph-name="section" unicode="&#xa7;" horiz-adv-x="583" 
d="M90 112l9 -112q22 -25 65 -34.5t91 -9.5q37 0 75 14t66 42.5t33 69.5q4 31 -15 53.5t-50.5 38t-85.5 36.5q-62 24 -100 44t-65 51t-27 75q0 36 20.5 79.5t51.5 75.5q-37 37 -37 85q0 69 41.5 113t99 64t105.5 20q61 0 112.5 -11.5t75.5 -25.5l-19 -148h-39l-16 110
q-14 15 -50.5 23t-74.5 8q-55 -1 -104.5 -27.5t-56.5 -86.5q-4 -33 15.5 -57t50 -40t86.5 -40q60 -25 96.5 -45t62 -50.5t25.5 -73.5q0 -40 -17.5 -83t-45.5 -77q33 -33 33 -81q0 -64 -41 -110t-101 -69.5t-115 -23.5q-58 0 -127 14t-90 28l21 161h42zM442.5 371.5
q-21.5 24.5 -53.5 41.5t-87 40q-77 31 -111 54q-17 -21 -27.5 -46t-10.5 -48q0 -32 21.5 -56t53.5 -40t87 -39q42 -17 68.5 -29t49.5 -27q31 47 31 91q0 34 -21.5 58.5z" />
    <glyph glyph-name="dieresis" unicode="&#xa8;" horiz-adv-x="395" 
d="M55 697q-13 14 -13 35q1 26 17.5 44t39.5 18q21 0 33.5 -13t12.5 -34q-1 -27 -18 -45.5t-41 -18.5q-18 0 -31 14zM261.5 697q-12.5 14 -12.5 35q1 26 17.5 44t39.5 18q21 0 33.5 -13t12.5 -34q-1 -27 -18 -45.5t-42 -18.5q-18 0 -30.5 14z" />
    <glyph glyph-name="copyright" unicode="&#xa9;" horiz-adv-x="1049" 
d="M185.5 705q56.5 98 154 155.5t214.5 57.5t214.5 -57.5t154 -155.5t56.5 -215t-56.5 -216t-154 -156.5t-214.5 -57.5t-214.5 57.5t-154 156.5t-56.5 216t56.5 215zM233 299.5q49 -87.5 134 -139t187 -51.5t186.5 52t133.5 139.5t49 189.5t-49 189.5t-133.5 139
t-186.5 51.5t-187 -51.5t-134 -139t-49 -189.5q0 -103 49 -190.5zM394.5 316q-56.5 64 -56.5 169q0 68 32 124t88.5 88.5t126.5 32.5q36 0 74 -8t51 -21v-107h-49l-19 65q-13 8 -32 12.5t-55 4.5q-64 0 -100 -47t-36 -128q0 -84 45.5 -134.5t120.5 -50.5q32 0 60.5 12.5
t49.5 33.5l21 -36q-24 -29 -67.5 -51.5t-92.5 -22.5q-105 0 -161.5 64z" />
    <glyph glyph-name="ordfeminine" unicode="&#xaa;" horiz-adv-x="417" 
d="M350 421q0 -22 11 -22q14 0 34 16l10 -18q-6 -8 -32 -22.5t-49 -15.5q-18 0 -30 13t-12 36q0 10 3 22q-53 -70 -129 -71q-57 0 -89 44.5t-32 116.5q0 69 35.5 134t96 106t129.5 41q38 0 85 -15l41 16l-71 -362q-1 -7 -1 -19zM315.5 751q-15.5 7 -28.5 7q-52 0 -93 -33
t-63.5 -86.5t-22.5 -111.5q0 -54 19.5 -87t59.5 -33q44 0 99 57l54 269q-9 11 -24.5 18z" />
    <glyph glyph-name="guillemotleft" unicode="&#xab;" horiz-adv-x="665" 
d="M366 516l-215 -220l135 -205l-39 -35l-188 219l7 57l260 216zM632 516l-220 -220l139 -205l-38 -35l-193 219l6 57l265 216z" />
    <glyph glyph-name="logicalnot" unicode="&#xac;" horiz-adv-x="669" 
d="M581 410l-29 -253h-69l24 199h-403l6 54h471z" />
    <glyph glyph-name="uni00AD" unicode="&#xad;" horiz-adv-x="622" 
d="M523 352l-9 -63h-404l9 63h404z" />
    <glyph glyph-name="registered" unicode="&#xae;" horiz-adv-x="1049" 
d="M185.5 705q56.5 98 154 155.5t214.5 57.5t214.5 -57.5t154 -155.5t56.5 -215t-56.5 -216t-154 -156.5t-214.5 -57.5t-214.5 57.5t-154 156.5t-56.5 216t56.5 215zM233 299.5q49 -87.5 134 -139t187 -51.5t186.5 52t133.5 139.5t49 189.5t-49 189.5t-133.5 139
t-186.5 51.5t-187 -51.5t-134 -139t-49 -189.5q0 -103 49 -190.5zM408 671l-47 10v42h76q28 0 74 2l51 1q87 0 133 -32t46 -89t-30 -95.5t-80 -49.5q30 -14 45 -35.5t29 -56.5q13 -34 27.5 -51t44.5 -20v-44h-68q-32 0 -46 21t-27 64q-13 44 -28 69.5t-46 38.5l-85 1v-147
l54 -9v-38h-170v38l47 11v369zM565 497q40 0 67.5 27.5t27.5 66.5q0 47 -27 67.5t-84 20.5q-43 0 -72 -5v-174q16 -3 88 -3z" />
    <glyph glyph-name="macron" unicode="&#xaf;" horiz-adv-x="300" 
d="M281 759l-8 -61h-251l8 61h251z" />
    <glyph glyph-name="degree" unicode="&#xb0;" horiz-adv-x="422" 
d="M176.5 494q-35.5 21 -56.5 56.5t-21 76.5q0 45 22 82t60 58.5t84 21.5q44 0 80 -21t56.5 -57t20.5 -78q0 -45 -22 -81.5t-60.5 -57.5t-84.5 -21q-43 0 -78.5 21zM337 554.5q31 32.5 31 80.5q0 44 -30.5 74t-74.5 30q-47 0 -78.5 -31.5t-31.5 -78.5q0 -44 31 -75.5
t74 -31.5q48 0 79 32.5z" />
    <glyph glyph-name="plusminus" unicode="&#xb1;" horiz-adv-x="668" 
d="M296 261l14 87l-78 -3h-109l6 64h111l76 -4l9 87l12 112h69l-12 -112l-15 -87l65 4h124l-6 -64h-125l-63 3l-2 -21l-6 -66l-14 -118h-69zM94 74h425l-8 -60h-423z" />
    <glyph glyph-name="uni00B2" unicode="&#xb2;" horiz-adv-x="516" 
d="M290.5 533q104.5 88 104.5 171q0 34 -23.5 55.5t-67.5 21.5q-38 0 -72 -14t-56 -38l-24 30q24 29 71 52.5t99 23.5q69 0 107 -33t38 -80q0 -54 -47.5 -116.5t-119 -118.5t-144.5 -96l253 12l37 76l39 -8l-33 -128h-362l-12 40q108 62 212.5 150z" />
    <glyph glyph-name="uni00B3" unicode="&#xb3;" horiz-adv-x="489" 
d="M165 342q-37 7 -66 22l5 43q28 -12 60 -19.5t60 -7.5q80 0 128.5 29.5t48.5 86.5q0 33 -26 56.5t-71 23.5q-7 0 -11 -1q-11 -3 -30 -10q-40 -13 -45 -14l-7 43q38 8 82 28q93 40 93 106q0 27 -19.5 42t-67.5 15q-38 0 -73.5 -14.5t-62.5 -37.5l-20 35q33 29 81 48t101 19
q62 0 97 -25.5t35 -66.5q0 -95 -124 -142q53 3 85 -13.5t45 -43.5t11 -54q-4 -44 -36 -79.5t-85.5 -55.5t-119.5 -20q-31 0 -68 7z" />
    <glyph glyph-name="acute" unicode="&#xb4;" horiz-adv-x="232" 
d="M232 872l55 -55q-10 -17 -45 -54t-75 -72.5t-68 -50.5l-25 25z" />
    <glyph glyph-name="uni00B5" unicode="&#xb5;" horiz-adv-x="666" 
d="M60 -182l52 357l15 101q19 120 27 192l1 16q0 24 -14 24t-35 -21l-13 23q9 15 34.5 33.5t56.5 18.5q28 0 41.5 -14.5t10.5 -48.5q-4 -52 -22 -166q-2 -12 -8 -46q-16 -92 -16 -140q0 -101 83 -101q39 0 81.5 25.5t70.5 56.5l59 429h77l-62 -464q-2 -20 -2 -27
q0 -11 3 -16.5t11 -5.5q16 0 39 23l14 -24q-11 -15 -38 -33.5t-57 -18.5q-26 0 -39 11t-13 39q0 5 2 23q-32 -32 -75.5 -53t-96.5 -21q-28 1 -50.5 11t-32.5 27l-32 -210h-72z" />
    <glyph glyph-name="paragraph" unicode="&#xb6;" horiz-adv-x="657" 
d="M126 34l91 13l35 354q-53 1 -93 27t-61.5 70t-21.5 98q0 106 67 173t205 67q32 0 112 -5q54 -4 80 -4h122l-4 -41l-84 -13q-12 -96 -35 -322q-32 -300 -44 -404l77 -13l-3 -34h-157l84 772l-121 2l-89 -774h-163z" />
    <glyph glyph-name="periodcentered" unicode="&#xb7;" horiz-adv-x="103" 
d="M24.5 350q-12.5 12 -12.5 33q0 31 19 51t44 20q23 0 35 -11.5t12 -30.5q0 -7 -1 -11q-4 -28 -23 -45.5t-42 -17.5q-19 0 -31.5 12z" />
    <glyph glyph-name="cedilla" unicode="&#xb8;" horiz-adv-x="234" 
d="M184 10q17 -29 17 -78q0 -79 -36.5 -119.5t-95.5 -40.5q-19 0 -37.5 4.5t-26.5 10.5l6 59q6 -4 20 -6.5t30 -2.5q44 0 67.5 32.5t23.5 87.5q0 27 -8 53l19 2z" />
    <glyph glyph-name="uni00B9" unicode="&#xb9;" horiz-adv-x="465" 
d="M246 370l45 356q-44 -21 -144 -39l-4 42q133 38 193 82h1l31 -7l-54 -434l126 -10l-4 -40h-322l4 40z" />
    <glyph glyph-name="ordmasculine" unicode="&#xba;" horiz-adv-x="418" 
d="M403.5 751.5q42.5 -49.5 42.5 -130.5q0 -83 -33 -142.5t-85 -89.5t-108 -30q-47 0 -83.5 24t-56.5 66.5t-20 95.5q0 77 33.5 135.5t85.5 89.5t104 31q78 0 120.5 -49.5zM201.5 729.5q-32.5 -30.5 -49.5 -78t-17 -97.5q0 -67 26.5 -109t66.5 -42q69 0 105.5 60t36.5 151
q0 65 -25 105.5t-68 40.5t-75.5 -30.5z" />
    <glyph glyph-name="guillemotright" unicode="&#xbb;" horiz-adv-x="662" 
d="M345 322l-6 -56l-259 -210l-41 35l216 213l-144 212l47 32zM605 322l-7 -56l-255 -210l-40 35l211 213l-140 212l48 32z" />
    <glyph glyph-name="onequarter" unicode="&#xbc;" horiz-adv-x="1052" 
d="M193 308l45 356q-45 -21 -145 -39l-3 42q133 39 192 82h1l32 -7l-54 -434l126 -10l-4 -40h-322l4 40zM736 747l-373 -747h-63l373 747h63zM840 514h23l38 -33l-217 -292l-35 -48l208 11l15 122l67 7l-17 -126l92 6l-7 -60h-92l-12 -101h-65l12 101h-257l-14 36z" />
    <glyph glyph-name="onehalf" unicode="&#xbd;" horiz-adv-x="1095" 
d="M193 308l45 356q-45 -21 -145 -39l-3 42q133 39 192 82h1l32 -7l-54 -434l126 -10l-4 -40h-322l4 40zM736 747l-373 -747h-63l373 747h63zM821.5 190q104.5 88 104.5 171q0 34 -23.5 55.5t-67.5 21.5q-38 0 -72 -14t-56 -38l-24 30q24 29 71 52.5t99 23.5q69 0 107 -33
t38 -80q0 -54 -47.5 -116.5t-119 -118.5t-144.5 -96l253 12l37 76l39 -8l-33 -128h-362l-12 40q108 62 212.5 150z" />
    <glyph glyph-name="threequarters" unicode="&#xbe;" horiz-adv-x="1111" 
d="M153 257q-37 7 -66 22l5 43q28 -12 60 -19.5t60 -7.5q80 0 128.5 29.5t48.5 86.5q0 33 -26 56.5t-71 23.5q-7 0 -11 -1q-11 -3 -30 -10q-40 -13 -45 -14l-7 43q38 8 82 28q93 40 93 106q0 27 -19.5 42t-67.5 15q-38 0 -73.5 -14.5t-62.5 -37.5l-20 35q33 29 81 48t101 19
q62 0 97 -25.5t35 -66.5q0 -95 -124 -142q53 3 85 -13.5t45 -43.5t11 -54q-4 -44 -36 -79.5t-85.5 -55.5t-119.5 -20q-31 0 -68 7zM795 747l-373 -747h-63l373 747h63zM899 514h23l38 -33l-217 -292l-35 -48l208 11l15 122l67 7l-17 -126l92 6l-7 -60h-92l-12 -101h-65
l12 101h-257l-14 36z" />
    <glyph glyph-name="questiondown" unicode="&#xbf;" horiz-adv-x="502" 
d="M381.5 412q7.5 -35 7.5 -70q0 -42 -37 -72.5t-113 -69.5q-49 -24 -77.5 -44.5t-50.5 -53.5q-13 -32 -13 -59q0 -81 47 -127t133 -46q62 0 101 18l-11 -57q-12 -11 -45.5 -19t-66.5 -8q-123 0 -174 58t-51 147q0 64 30 111q23 39 56.5 64t91.5 58q42 24 61 37t34 32t15 44
t-4.5 52.5t-9.5 42.5l52 16l6 -1q11 -18 18.5 -53zM349 603.5q-19 -20.5 -44 -20.5q-23 0 -35 12t-12 32q0 32 19.5 52t46.5 20q19 0 31.5 -12t12.5 -33q0 -30 -19 -50.5z" />
    <glyph glyph-name="Agrave" unicode="&#xc0;" horiz-adv-x="655" 
d="M437 743l127 -695l82 -13l-2 -35h-251l2 35l89 11l-29 178h-286l-84 -177l90 -12l-3 -35h-232l4 35l68 11l344 697h81zM192 272h254l-56 345l-7 60zM327 853.5q-50 42.5 -67 76.5l51 47l134 -170l-27 -19q-41 23 -91 65.5z" />
    <glyph glyph-name="Aacute" unicode="&#xc1;" horiz-adv-x="655" 
d="M437 743l127 -695l82 -13l-2 -35h-251l2 35l89 11l-29 178h-286l-84 -177l90 -12l-3 -35h-232l4 35l68 11l344 697h81zM192 272h254l-56 345l-7 60zM494 983l49 -47q-21 -31 -71.5 -66.5t-93.5 -55.5l-32 19z" />
    <glyph glyph-name="Acircumflex" unicode="&#xc2;" horiz-adv-x="655" 
d="M437 743l127 -695l82 -13l-2 -35h-251l2 35l89 11l-29 178h-286l-84 -177l90 -12l-3 -35h-232l4 35l68 11l344 697h81zM192 272h254l-56 345l-7 60zM393 977h67l107 -160l-28 -25l-116 125l-164 -123l-26 23z" />
    <glyph glyph-name="Atilde" unicode="&#xc3;" horiz-adv-x="655" 
d="M437 743l127 -695l82 -13l-2 -35h-251l2 35l89 11l-29 178h-286l-84 -177l90 -12l-3 -35h-232l4 35l68 11l344 697h81zM192 272h254l-56 345l-7 60zM286.5 937q27.5 23 66.5 23q23 0 40 -10t36 -28q19 -17 32.5 -25t30.5 -8q26 0 44 13.5t34 35.5l26 -29q-13 -32 -40 -57
t-65 -25q-25 0 -43 10t-39 29q-20 17 -34 25t-33 8q-23 0 -39 -12t-33 -36l-26 28q15 35 42.5 58z" />
    <glyph glyph-name="Adieresis" unicode="&#xc4;" horiz-adv-x="655" 
d="M437 743l127 -695l82 -13l-2 -35h-251l2 35l89 11l-29 178h-286l-84 -177l90 -12l-3 -35h-232l4 35l68 11l344 697h81zM192 272h254l-56 345l-7 60zM278 856.5q-13 13.5 -13 32.5q0 26 18 45t39 19t33.5 -13.5t11.5 -33.5q0 -27 -17 -45t-41 -18q-18 0 -31 13.5z
M485.5 857q-12.5 14 -12.5 35q0 26 18 43.5t39 17.5q20 0 32.5 -12.5t12.5 -32.5q0 -28 -16.5 -46.5t-41.5 -18.5q-19 0 -31.5 14z" />
    <glyph glyph-name="Aring" unicode="&#xc5;" horiz-adv-x="655" 
d="M288 777q-23 28 -23 68t25.5 69.5t64 45t77.5 15.5q59 0 94.5 -29t35.5 -75q0 -53 -36 -87.5t-88 -45.5l126 -690l82 -13l-2 -35h-251l2 35l89 11l-29 178h-286l-84 -177l90 -12l-3 -35h-232l4 35l68 11l341 693q-42 10 -65 38zM350 916.5q-33 -24.5 -33 -66.5
q0 -35 23.5 -58.5t63.5 -23.5q43 0 74 25t31 74q0 32 -23.5 53t-60.5 21q-42 0 -75 -24.5zM192 272h254l-56 345l-7 60z" />
    <glyph glyph-name="AE" unicode="&#xc6;" horiz-adv-x="894" 
d="M343 35l65 11l23 196h-246l-99 -195l110 -12l-3 -35h-273l6 35l80 11l349 648l-152 9l5 40h656l-5 -145h-44l-16 96l-231 5l-37 -291l218 11l-6 -68l-217 6l-38 -310l286 10l47 105l43 -11l-35 -151h-490zM210 291h227l48 400l-69 2z" />
    <glyph glyph-name="Ccedilla" unicode="&#xc7;" horiz-adv-x="604" 
d="M92.5 543.5q49.5 98.5 133 153t181.5 54.5q58 0 94.5 -6t77.5 -17l21 -7l-30 -178h-49l-4 135q-20 12 -47 18.5t-73 6.5q-87 0 -148 -57t-91 -144t-30 -176q0 -118 45.5 -201.5t141.5 -83.5q41 0 84 12.5t61 34.5q18 58 32 109h49l-20 -161q-48 -17 -88.5 -28t-95.5 -15
q9 -23 9 -60q0 -79 -36.5 -119.5t-95.5 -40.5q-19 0 -37 4.5t-27 10.5l7 60q6 -4 20 -6.5t29 -2.5q45 0 68.5 32.5t23.5 87.5q-2 23 -4 33q-87 1 -143.5 48.5t-82 121t-25.5 155.5q0 128 49.5 226.5z" />
    <glyph glyph-name="Egrave" unicode="&#xc8;" horiz-adv-x="599" 
d="M561 743l-4 -153h-44l-17 104l-245 6l-37 -289l234 4l-5 -64l-234 7l-41 -310l298 9l55 114l43 -13l-43 -158h-510l3 35l75 11l81 647l-68 10l5 40h454zM283 853.5q-50 42.5 -67 76.5l51 47l134 -170l-27 -19q-41 23 -91 65.5z" />
    <glyph glyph-name="Eacute" unicode="&#xc9;" horiz-adv-x="599" 
d="M473 983l49 -47q-21 -31 -71.5 -66.5t-93.5 -55.5l-32 19zM561 743l-4 -153h-44l-17 104l-245 6l-37 -289l234 4l-5 -64l-234 7l-41 -310l298 9l55 114l43 -13l-43 -158h-510l3 35l75 11l81 647l-68 10l5 40h454z" />
    <glyph glyph-name="Ecircumflex" unicode="&#xca;" horiz-adv-x="599" 
d="M561 743l-4 -153h-44l-17 104l-245 6l-37 -289l234 4l-5 -64l-234 7l-41 -310l298 9l55 114l43 -13l-43 -158h-510l3 35l75 11l81 647l-68 10l5 40h454zM349 977h67l107 -160l-28 -25l-116 125l-164 -123l-26 23z" />
    <glyph glyph-name="Edieresis" unicode="&#xcb;" horiz-adv-x="599" 
d="M561 743l-4 -153h-44l-17 104l-245 6l-37 -289l234 4l-5 -64l-234 7l-41 -310l298 9l55 114l43 -13l-43 -158h-510l3 35l75 11l81 647l-68 10l5 40h454zM234 856.5q-13 13.5 -13 32.5q0 26 18 45t39 19t33.5 -13.5t11.5 -33.5q0 -27 -17 -45t-41 -18q-18 0 -31 13.5z
M441.5 857q-12.5 14 -12.5 35q0 26 18 43.5t39 17.5q20 0 32.5 -12.5t12.5 -32.5q0 -28 -16.5 -46.5t-41.5 -18.5q-19 0 -31.5 14z" />
    <glyph glyph-name="Igrave" unicode="&#xcc;" horiz-adv-x="339" 
d="M337 743l-4 -40l-75 -10l-81 -646l77 -12l-3 -35h-230l3 35l73 12l82 646l-67 10l5 40h220zM157 853.5q-50 42.5 -67 76.5l51 47l134 -170l-27 -19q-41 23 -91 65.5z" />
    <glyph glyph-name="Iacute" unicode="&#xcd;" horiz-adv-x="339" 
d="M337 743l-4 -40l-75 -10l-81 -646l77 -12l-3 -35h-230l3 35l73 12l82 646l-67 10l5 40h220zM324 983l49 -47q-21 -31 -71.5 -66.5t-93.5 -55.5l-32 19z" />
    <glyph glyph-name="Icircumflex" unicode="&#xce;" horiz-adv-x="339" 
d="M337 743l-4 -40l-75 -10l-81 -646l77 -12l-3 -35h-230l3 35l73 12l82 646l-67 10l5 40h220zM223 977h67l107 -160l-28 -25l-116 125l-164 -123l-26 23z" />
    <glyph glyph-name="Idieresis" unicode="&#xcf;" horiz-adv-x="339" 
d="M337 743l-4 -40l-75 -10l-81 -646l77 -12l-3 -35h-230l3 35l73 12l82 646l-67 10l5 40h220zM108 856.5q-13 13.5 -13 32.5q0 26 18 45t39 19t33.5 -13.5t11.5 -33.5q0 -27 -17 -45t-41 -18q-18 0 -31 13.5zM315.5 857q-12.5 14 -12.5 35q0 26 18 43.5t39 17.5
q20 0 32.5 -12.5t12.5 -32.5q0 -28 -16.5 -46.5t-41.5 -18.5q-19 0 -31.5 14z" />
    <glyph glyph-name="Eth" unicode="&#xd0;" horiz-adv-x="702" 
d="M307 748q52 4 80 4q147 0 215 -81.5t68 -226.5q0 -128 -48 -232t-135.5 -163t-200.5 -56q-7 1 -25.5 2t-28.5 2q-46 4 -103 4h-113l4 35l73 12l39 308h-77l6 53h78l36 285l-66 10l4 40h130q20 0 64 4zM240.5 44.5q39.5 -3.5 65.5 -3.5q92 4 155.5 61.5t95 147t31.5 191.5
q0 140 -52 202t-171 62q-43 0 -111 -9l-36 -287h205l-6 -53h-206l-38 -302q28 -6 67.5 -9.5z" />
    <glyph glyph-name="Ntilde" unicode="&#xd1;" horiz-adv-x="738" 
d="M256 743l248 -555l39 -111l74 617l-80 9l5 40h213l-3 -40l-75 -10l-95 -693h-78l-246 553l-39 111l-69 -617l84 -12l-3 -35h-217l3 35l68 11l85 647l-71 10l6 40h151zM316.5 937q27.5 23 66.5 23q23 0 40 -10t36 -28q19 -17 32.5 -25t30.5 -8q26 0 44 13.5t34 35.5
l26 -29q-13 -32 -40 -57t-65 -25q-25 0 -43 10t-39 29q-20 17 -34 25t-33 8q-23 0 -39 -12t-33 -36l-26 28q15 35 42.5 58z" />
    <glyph glyph-name="Ograve" unicode="&#xd2;" horiz-adv-x="677" 
d="M532.5 710.5q55.5 -42.5 82.5 -114.5t27 -161q0 -125 -43.5 -226.5t-121 -160t-174.5 -58.5q-80 0 -135.5 42t-84 114.5t-28.5 164.5q0 125 44.5 226t122.5 158.5t174 57.5q81 0 136.5 -42.5zM257.5 654q-56.5 -49 -89 -136t-32.5 -196q0 -129 47 -206.5t131 -77.5
q69 0 124.5 49t87.5 136t32 196q0 130 -44.5 207t-129.5 77q-70 0 -126.5 -49zM330 853.5q-50 42.5 -67 76.5l51 47l134 -170l-27 -19q-41 23 -91 65.5z" />
    <glyph glyph-name="Oacute" unicode="&#xd3;" horiz-adv-x="677" 
d="M508 983l49 -47q-21 -31 -71.5 -66.5t-93.5 -55.5l-32 19zM532.5 710.5q55.5 -42.5 82.5 -114.5t27 -161q0 -125 -43.5 -226.5t-121 -160t-174.5 -58.5q-80 0 -135.5 42t-84 114.5t-28.5 164.5q0 125 44.5 226t122.5 158.5t174 57.5q81 0 136.5 -42.5zM257.5 654
q-56.5 -49 -89 -136t-32.5 -196q0 -129 47 -206.5t131 -77.5q69 0 124.5 49t87.5 136t32 196q0 130 -44.5 207t-129.5 77q-70 0 -126.5 -49z" />
    <glyph glyph-name="Ocircumflex" unicode="&#xd4;" horiz-adv-x="677" 
d="M532.5 710.5q55.5 -42.5 82.5 -114.5t27 -161q0 -125 -43.5 -226.5t-121 -160t-174.5 -58.5q-80 0 -135.5 42t-84 114.5t-28.5 164.5q0 125 44.5 226t122.5 158.5t174 57.5q81 0 136.5 -42.5zM257.5 654q-56.5 -49 -89 -136t-32.5 -196q0 -129 47 -206.5t131 -77.5
q69 0 124.5 49t87.5 136t32 196q0 130 -44.5 207t-129.5 77q-70 0 -126.5 -49zM396 977h67l107 -160l-28 -25l-116 125l-164 -123l-26 23z" />
    <glyph glyph-name="Otilde" unicode="&#xd5;" horiz-adv-x="677" 
d="M532.5 710.5q55.5 -42.5 82.5 -114.5t27 -161q0 -125 -43.5 -226.5t-121 -160t-174.5 -58.5q-80 0 -135.5 42t-84 114.5t-28.5 164.5q0 125 44.5 226t122.5 158.5t174 57.5q81 0 136.5 -42.5zM257.5 654q-56.5 -49 -89 -136t-32.5 -196q0 -129 47 -206.5t131 -77.5
q69 0 124.5 49t87.5 136t32 196q0 130 -44.5 207t-129.5 77q-70 0 -126.5 -49zM289.5 937q27.5 23 66.5 23q23 0 40 -10t36 -28q19 -17 32.5 -25t30.5 -8q26 0 44 13.5t34 35.5l26 -29q-13 -32 -40 -57t-65 -25q-25 0 -43 10t-39 29q-20 17 -34 25t-33 8q-23 0 -39 -12
t-33 -36l-26 28q15 35 42.5 58z" />
    <glyph glyph-name="Odieresis" unicode="&#xd6;" horiz-adv-x="677" 
d="M532.5 710.5q55.5 -42.5 82.5 -114.5t27 -161q0 -125 -43.5 -226.5t-121 -160t-174.5 -58.5q-80 0 -135.5 42t-84 114.5t-28.5 164.5q0 125 44.5 226t122.5 158.5t174 57.5q81 0 136.5 -42.5zM257.5 654q-56.5 -49 -89 -136t-32.5 -196q0 -129 47 -206.5t131 -77.5
q69 0 124.5 49t87.5 136t32 196q0 130 -44.5 207t-129.5 77q-70 0 -126.5 -49zM281 856.5q-13 13.5 -13 32.5q0 26 18 45t39 19t33.5 -13.5t11.5 -33.5q0 -27 -17 -45t-41 -18q-18 0 -31 13.5zM488.5 857q-12.5 14 -12.5 35q0 26 18 43.5t39 17.5q20 0 32.5 -12.5
t12.5 -32.5q0 -28 -16.5 -46.5t-41.5 -18.5q-19 0 -31.5 14z" />
    <glyph glyph-name="multiply" unicode="&#xd7;" horiz-adv-x="669" 
d="M344 333l-187 -175l-39 50l192 166l-151 165l51 48l142 -173l185 175l39 -49l-189 -167l151 -165l-51 -49z" />
    <glyph glyph-name="Oslash" unicode="&#xd8;" horiz-adv-x="679" 
d="M618.5 586q23.5 -69 23.5 -152q0 -124 -43.5 -225.5t-121 -159.5t-174.5 -58q-80 0 -135 43l-70 -114l-35 19l73 123q-40 43 -60 108t-20 144q0 125 44.5 225.5t122 157.5t173.5 57q67 0 121 -32l63 105l34 -18l-66 -112q47 -42 70.5 -111zM384 704q-69 0 -126 -49
t-89.5 -136t-32.5 -196q0 -124 44 -200l303 540q-38 41 -99 41zM314 39q69 0 124.5 49t87.5 136t32 196q0 140 -51 215l-305 -545q46 -51 112 -51z" />
    <glyph glyph-name="Ugrave" unicode="&#xd9;" horiz-adv-x="675" 
d="M495 63.5q-71 -73.5 -200 -73.5q-105 0 -161.5 58t-58.5 160q-2 41 4 82l53 404l-68 9l4 40h225l-4 -40l-76 -10l-53 -397q-7 -46 -5 -92q2 -80 39.5 -124.5t112.5 -44.5q93 0 145 66.5t69 204.5l51 387l-66 10l4 40h197l-4 -40l-64 -9l-51 -388q-22 -169 -93 -242.5z
M323 853.5q-50 42.5 -67 76.5l51 47l134 -170l-27 -19q-41 23 -91 65.5z" />
    <glyph glyph-name="Uacute" unicode="&#xda;" horiz-adv-x="675" 
d="M495 63.5q-71 -73.5 -200 -73.5q-105 0 -161.5 58t-58.5 160q-2 41 4 82l53 404l-68 9l4 40h225l-4 -40l-76 -10l-53 -397q-7 -46 -5 -92q2 -80 39.5 -124.5t112.5 -44.5q93 0 145 66.5t69 204.5l51 387l-66 10l4 40h197l-4 -40l-64 -9l-51 -388q-22 -169 -93 -242.5z
M490 983l49 -47q-21 -31 -71.5 -66.5t-93.5 -55.5l-32 19z" />
    <glyph glyph-name="Ucircumflex" unicode="&#xdb;" horiz-adv-x="675" 
d="M495 63.5q-71 -73.5 -200 -73.5q-105 0 -161.5 58t-58.5 160q-2 41 4 82l53 404l-68 9l4 40h225l-4 -40l-76 -10l-53 -397q-7 -46 -5 -92q2 -80 39.5 -124.5t112.5 -44.5q93 0 145 66.5t69 204.5l51 387l-66 10l4 40h197l-4 -40l-64 -9l-51 -388q-22 -169 -93 -242.5z
M389 977h67l107 -160l-28 -25l-116 125l-164 -123l-26 23z" />
    <glyph glyph-name="Udieresis" unicode="&#xdc;" horiz-adv-x="675" 
d="M495 63.5q-71 -73.5 -200 -73.5q-105 0 -161.5 58t-58.5 160q-2 41 4 82l53 404l-68 9l4 40h225l-4 -40l-76 -10l-53 -397q-7 -46 -5 -92q2 -80 39.5 -124.5t112.5 -44.5q93 0 145 66.5t69 204.5l51 387l-66 10l4 40h197l-4 -40l-64 -9l-51 -388q-22 -169 -93 -242.5z
M274 856.5q-13 13.5 -13 32.5q0 26 18 45t39 19t33.5 -13.5t11.5 -33.5q0 -27 -17 -45t-41 -18q-18 0 -31 13.5zM481.5 857q-12.5 14 -12.5 35q0 26 18 43.5t39 17.5q20 0 32.5 -12.5t12.5 -32.5q0 -28 -16.5 -46.5t-41.5 -18.5q-19 0 -31.5 14z" />
    <glyph glyph-name="Yacute" unicode="&#xdd;" horiz-adv-x="577" 
d="M271 743l-6 -40l-90 -10l117 -290l23 -67l39 67l177 290l-77 10l5 40h199l-5 -40l-54 -9l-259 -407l-31 -240l109 -12l-4 -35h-298l3 35l114 12l31 240l-179 406l-57 10l3 40h240zM458 983l49 -47q-21 -31 -71.5 -66.5t-93.5 -55.5l-32 19z" />
    <glyph glyph-name="Thorn" unicode="&#xde;" horiz-adv-x="601" 
d="M355 591q111 0 169 -48.5t58 -137.5q0 -75 -38 -132t-104 -88t-149 -31q-73 0 -109 4l-14 -111l82 -12l-3 -35h-235l4 35l73 12l81 650l-67 10l5 40h220l-5 -40l-73 -10l-15 -115q53 9 120 9zM291 200q99 0 155 51.5t56 135.5q0 80 -37.5 118t-130.5 38q-23 0 -55 -2.5
t-51 -6.5l-40 -328q43 -6 103 -6z" />
    <glyph glyph-name="germandbls" unicode="&#xdf;" horiz-adv-x="581" 
d="M163 659.5q43 70.5 96 92.5t119 22q69 0 112 -34.5t43 -98.5q0 -43 -21 -74.5t-59 -67.5q-29 -30 -41.5 -47t-12.5 -37q0 -17 14 -37.5t53 -70.5q30 -44 44.5 -75t14.5 -73q0 -46 -28.5 -84t-76 -60.5t-100.5 -22.5q-33 0 -64.5 8.5t-48.5 19.5l9 74q14 -16 48.5 -33
t64.5 -17q54 1 83.5 24.5t29.5 77.5q0 55 -43 118q-32 41 -51.5 73t-19.5 58q0 29 10.5 46.5t35.5 43.5q39 35 59.5 69.5t20.5 76.5q0 43 -23.5 73t-69.5 30q-48 0 -81.5 -19t-58.5 -76t-40 -165l-64 -474h-77l62 453q18 136 61 206.5z" />
    <glyph glyph-name="agrave" unicode="&#xe0;" horiz-adv-x="574" 
d="M444 74q0 -16 6.5 -23t13.5 -7q10 0 19.5 6.5t24.5 21.5l14 -22q-4 -8 -18.5 -22.5t-35.5 -26t-44 -11.5q-62 0 -58 66l6 41q-34 -44 -79.5 -75.5t-94.5 -31.5q-79 0 -117.5 57t-38.5 154q0 81 38 166.5t109.5 143t166.5 57.5q21 0 49 -5t50 -12l55 16l-65 -481
q-1 -5 -1 -12zM345 519q-69 0 -119 -47.5t-76 -119.5t-26 -142q0 -77 22.5 -119.5t68.5 -42.5q45 0 89.5 35.5t74.5 78.5l44 335q-32 22 -78 22zM296.5 721.5q-62.5 59.5 -81.5 91.5l59 59l147 -207l-26 -25q-36 22 -98.5 81.5z" />
    <glyph glyph-name="aacute" unicode="&#xe1;" horiz-adv-x="574" 
d="M444 74q0 -16 6.5 -23t13.5 -7q10 0 19.5 6.5t24.5 21.5l14 -22q-4 -8 -18.5 -22.5t-35.5 -26t-44 -11.5q-62 0 -58 66l6 41q-34 -44 -79.5 -75.5t-94.5 -31.5q-79 0 -117.5 57t-38.5 154q0 81 38 166.5t109.5 143t166.5 57.5q21 0 49 -5t50 -12l55 16l-65 -481
q-1 -5 -1 -12zM345 519q-69 0 -119 -47.5t-76 -119.5t-26 -142q0 -77 22.5 -119.5t68.5 -42.5q45 0 89.5 35.5t74.5 78.5l44 335q-32 22 -78 22zM476 873l55 -56q-10 -17 -44.5 -54t-75 -72.5t-68.5 -50.5l-25 26z" />
    <glyph glyph-name="acircumflex" unicode="&#xe2;" horiz-adv-x="574" 
d="M444 74q0 -16 6.5 -23t13.5 -7q10 0 19.5 6.5t24.5 21.5l14 -22q-4 -8 -18.5 -22.5t-35.5 -26t-44 -11.5q-62 0 -58 66l6 41q-34 -44 -79.5 -75.5t-94.5 -31.5q-79 0 -117.5 57t-38.5 154q0 81 38 166.5t109.5 143t166.5 57.5q21 0 49 -5t50 -12l55 16l-65 -481
q-1 -5 -1 -12zM345 519q-69 0 -119 -47.5t-76 -119.5t-26 -142q0 -77 22.5 -119.5t68.5 -42.5q45 0 89.5 35.5t74.5 78.5l44 335q-32 22 -78 22zM428 822l96 -142l-26 -30l-104 103l-147 -98l-33 10l138 145z" />
    <glyph glyph-name="atilde" unicode="&#xe3;" horiz-adv-x="574" 
d="M444 74q0 -16 6.5 -23t13.5 -7q10 0 19.5 6.5t24.5 21.5l14 -22q-4 -8 -18.5 -22.5t-35.5 -26t-44 -11.5q-62 0 -58 66l6 41q-34 -44 -79.5 -75.5t-94.5 -31.5q-79 0 -117.5 57t-38.5 154q0 81 38 166.5t109.5 143t166.5 57.5q21 0 49 -5t50 -12l55 16l-65 -481
q-1 -5 -1 -12zM345 519q-69 0 -119 -47.5t-76 -119.5t-26 -142q0 -77 22.5 -119.5t68.5 -42.5q45 0 89.5 35.5t74.5 78.5l44 335q-32 22 -78 22zM308 764q27 0 44 -9t38 -27q16 -14 27 -20.5t25 -6.5q23 0 35 9t19.5 20.5t9.5 14.5l30 -36q-10 -34 -36 -52t-65 -18
q-27 0 -43 8.5t-36 26.5q-15 14 -26 20.5t-28 6.5q-21 0 -34 -7.5t-29 -24.5l-24 34q30 61 93 61z" />
    <glyph glyph-name="adieresis" unicode="&#xe4;" horiz-adv-x="574" 
d="M444 74q0 -16 6.5 -23t13.5 -7q10 0 19.5 6.5t24.5 21.5l14 -22q-4 -8 -18.5 -22.5t-35.5 -26t-44 -11.5q-62 0 -58 66l6 41q-34 -44 -79.5 -75.5t-94.5 -31.5q-79 0 -117.5 57t-38.5 154q0 81 38 166.5t109.5 143t166.5 57.5q21 0 49 -5t50 -12l55 16l-65 -481
q-1 -5 -1 -12zM345 519q-69 0 -119 -47.5t-76 -119.5t-26 -142q0 -77 22.5 -119.5t68.5 -42.5q45 0 89.5 35.5t74.5 78.5l44 335q-32 22 -78 22zM235 676.5q-13 13.5 -13 33.5q0 27 17 45.5t40 18.5q21 0 33.5 -12.5t12.5 -32.5q0 -28 -17 -47t-42 -19q-18 0 -31 13.5z
M441 676.5q-13 13.5 -13 33.5q0 27 16.5 45.5t40.5 18.5q21 0 33.5 -12.5t12.5 -32.5q0 -28 -17 -47t-42 -19q-18 0 -31 13.5z" />
    <glyph glyph-name="aring" unicode="&#xe5;" horiz-adv-x="574" 
d="M444 74q0 -16 6.5 -23t13.5 -7q10 0 19.5 6.5t24.5 21.5l14 -22q-4 -8 -18.5 -22.5t-35.5 -26t-44 -11.5q-62 0 -58 66l6 41q-34 -44 -79.5 -75.5t-94.5 -31.5q-79 0 -117.5 57t-38.5 154q0 81 38 166.5t109.5 143t166.5 57.5q21 0 49 -5t50 -12l55 16l-65 -481
q-1 -5 -1 -12zM345 519q-69 0 -119 -47.5t-76 -119.5t-26 -142q0 -77 22.5 -119.5t68.5 -42.5q45 0 89.5 35.5t74.5 78.5l44 335q-32 22 -78 22zM268 682.5q-35 30.5 -35 83.5q0 48 25 80t63 47t79 15q62 0 96.5 -28t34.5 -78q0 -49 -23.5 -83t-61 -50.5t-79.5 -16.5
q-64 0 -99 30.5zM449.5 712q30.5 25 30.5 80q0 37 -23.5 59.5t-62.5 22.5q-46 0 -77.5 -24.5t-31.5 -76.5q0 -37 24 -61.5t63 -24.5q47 0 77.5 25z" />
    <glyph glyph-name="ae" unicode="&#xe6;" horiz-adv-x="848" 
d="M581 547q44 20 92 20q64 0 97.5 -35t33.5 -88q0 -70 -59.5 -118.5t-139.5 -72.5t-139 -25l-1 -26q0 -155 113 -155q45 0 92.5 20t87.5 59l19 -34q-16 -22 -47 -45.5t-74 -40t-90 -16.5q-81 0 -125 43.5t-54 119.5q-31 -65 -84 -114t-113 -49q-75 0 -111.5 55t-36.5 154
q0 81 38.5 167t110.5 143.5t167 57.5q46 0 99 -17l56 17l-14 -77q38 37 82 57zM560 482.5q-39 -38.5 -62.5 -96.5t-29.5 -113q56 2 115.5 22.5t99.5 57.5t40 86q0 40 -19 61t-56 21q-49 0 -88 -38.5zM347 519q-69 0 -120 -48.5t-77 -120.5t-26 -141q0 -161 81 -161
q53 0 101.5 50.5t75.5 105.5l48 289q-30 26 -83 26z" />
    <glyph glyph-name="ccedilla" unicode="&#xe7;" horiz-adv-x="437" 
d="M71 375.5q34 82.5 99 137.5t153 55q28 0 58.5 -6.5t50.5 -17.5l-23 -80l-11 8q-22 16 -46.5 26.5t-46.5 10.5q-56 0 -98 -36.5t-64.5 -101.5t-22.5 -150q0 -86 30.5 -130t85.5 -44q41 0 71.5 15t69.5 46l16 -33q-23 -26 -58 -49.5t-83 -32.5q9 -24 9 -62q0 -79 -36 -119
t-95 -40q-20 0 -38.5 4t-26.5 10l6 60q6 -4 20 -6.5t30 -2.5q44 0 67.5 32.5t23.5 86.5q0 20 -3 34q-81 1 -126.5 60.5t-45.5 162.5q0 80 34 162.5z" />
    <glyph glyph-name="egrave" unicode="&#xe8;" horiz-adv-x="514" 
d="M359.5 23q-56.5 -33 -122.5 -33t-109 30t-63.5 78.5t-20.5 105.5q0 94 38 178t103.5 135t145.5 51q68 0 103 -34t35 -88q0 -71 -60 -119.5t-141 -73t-140 -25.5q-1 -7 -1 -23q0 -64 30 -111t92 -47q43 0 89 20t85 59l19 -34q-26 -36 -82.5 -69zM222 482
q-40 -39 -63.5 -96.5t-28.5 -112.5q57 2 117.5 22.5t101.5 57.5t41 86q-1 40 -21 61t-56 21q-51 0 -91 -39zM261.5 721.5q-62.5 59.5 -81.5 91.5l59 59l147 -207l-26 -25q-36 22 -98.5 81.5z" />
    <glyph glyph-name="eacute" unicode="&#xe9;" horiz-adv-x="514" 
d="M359.5 23q-56.5 -33 -122.5 -33t-109 30t-63.5 78.5t-20.5 105.5q0 94 38 178t103.5 135t145.5 51q68 0 103 -34t35 -88q0 -71 -60 -119.5t-141 -73t-140 -25.5q-1 -7 -1 -23q0 -64 30 -111t92 -47q43 0 89 20t85 59l19 -34q-26 -36 -82.5 -69zM222 482
q-40 -39 -63.5 -96.5t-28.5 -112.5q57 2 117.5 22.5t101.5 57.5t41 86q-1 40 -21 61t-56 21q-51 0 -91 -39zM441 873l55 -56q-10 -17 -44.5 -54t-75 -72.5t-68.5 -50.5l-25 26z" />
    <glyph glyph-name="ecircumflex" unicode="&#xea;" horiz-adv-x="514" 
d="M359.5 23q-56.5 -33 -122.5 -33t-109 30t-63.5 78.5t-20.5 105.5q0 94 38 178t103.5 135t145.5 51q68 0 103 -34t35 -88q0 -71 -60 -119.5t-141 -73t-140 -25.5q-1 -7 -1 -23q0 -64 30 -111t92 -47q43 0 89 20t85 59l19 -34q-26 -36 -82.5 -69zM222 482
q-40 -39 -63.5 -96.5t-28.5 -112.5q57 2 117.5 22.5t101.5 57.5t41 86q-1 40 -21 61t-56 21q-51 0 -91 -39zM393 822l96 -142l-26 -30l-104 103l-147 -98l-33 10l138 145z" />
    <glyph glyph-name="edieresis" unicode="&#xeb;" horiz-adv-x="514" 
d="M359.5 23q-56.5 -33 -122.5 -33t-109 30t-63.5 78.5t-20.5 105.5q0 94 38 178t103.5 135t145.5 51q68 0 103 -34t35 -88q0 -71 -60 -119.5t-141 -73t-140 -25.5q-1 -7 -1 -23q0 -64 30 -111t92 -47q43 0 89 20t85 59l19 -34q-26 -36 -82.5 -69zM222 482
q-40 -39 -63.5 -96.5t-28.5 -112.5q57 2 117.5 22.5t101.5 57.5t41 86q-1 40 -21 61t-56 21q-51 0 -91 -39zM200 676.5q-13 13.5 -13 33.5q0 27 17 45.5t40 18.5q21 0 33.5 -12.5t12.5 -32.5q0 -28 -17 -47t-42 -19q-18 0 -31 13.5zM406 676.5q-13 13.5 -13 33.5
q0 27 16.5 45.5t40.5 18.5q21 0 33.5 -12.5t12.5 -32.5q0 -28 -17 -47t-42 -19q-18 0 -31 13.5z" />
    <glyph glyph-name="igrave" unicode="&#xec;" horiz-adv-x="310" 
d="M164 67q0 -11 4.5 -17t10.5 -6q20 0 52 33l13 -22q-13 -20 -42 -42.5t-64 -22.5q-27 0 -42.5 14t-13.5 45q2 26 13.5 105t17.5 119l32 219l-65 21l6 32l127 21l20 -10l-68 -477q-1 -4 -1 -12zM128.5 722.5q-62.5 59.5 -81.5 91.5l59 59l147 -207l-26 -25
q-36 22 -98.5 81.5z" />
    <glyph glyph-name="iacute" unicode="&#xed;" horiz-adv-x="310" 
d="M164 67q0 -11 4.5 -17t10.5 -6q20 0 52 33l13 -22q-13 -20 -42 -42.5t-64 -22.5q-27 0 -42.5 14t-13.5 45q2 26 13.5 105t17.5 119l32 219l-65 21l6 32l127 21l20 -10l-68 -477q-1 -4 -1 -12zM308 874l55 -56q-10 -17 -44.5 -54t-75 -72.5t-68.5 -50.5l-25 26z" />
    <glyph glyph-name="icircumflex" unicode="&#xee;" horiz-adv-x="310" 
d="M164 67q0 -11 4.5 -17t10.5 -6q20 0 52 33l13 -22q-13 -20 -42 -42.5t-64 -22.5q-27 0 -42.5 14t-13.5 45q2 26 13.5 105t17.5 119l32 219l-65 21l6 32l127 21l20 -10l-68 -477q-1 -4 -1 -12zM260 823l96 -142l-26 -30l-104 103l-147 -98l-33 10l138 145z" />
    <glyph glyph-name="idieresis" unicode="&#xef;" horiz-adv-x="310" 
d="M164 67q0 -11 4.5 -17t10.5 -6q20 0 52 33l13 -22q-13 -20 -42 -42.5t-64 -22.5q-27 0 -42.5 14t-13.5 45q2 26 13.5 105t17.5 119l32 219l-65 21l6 32l127 21l20 -10l-68 -477q-1 -4 -1 -12zM67 677.5q-13 13.5 -13 33.5q0 27 17 45.5t40 18.5q21 0 33.5 -12.5
t12.5 -32.5q0 -28 -17 -47t-42 -19q-18 0 -31 13.5zM273 677.5q-13 13.5 -13 33.5q0 27 16.5 45.5t40.5 18.5q21 0 33.5 -12.5t12.5 -32.5q0 -28 -17 -47t-42 -19q-18 0 -31 13.5z" />
    <glyph glyph-name="eth" unicode="&#xf0;" horiz-adv-x="565" 
d="M223.5 775.5q-27.5 14.5 -51.5 19.5l18 49q25 -6 58.5 -22t66.5 -38l77 92l38 -37l-73 -83q85 -73 124.5 -158t39.5 -198q0 -114 -33.5 -207.5t-98.5 -148t-155 -54.5q-61 0 -105 31.5t-66 81t-22 104.5q0 100 38 176.5t100 117.5t132 41q42 0 77 -13.5t52 -40.5
q-17 84 -42 129t-82 94l-78 -88l-39 36l76 83q-24 19 -51.5 33.5zM212 454.5q-42 -42.5 -64.5 -111t-22.5 -142.5q0 -71 31.5 -119t87.5 -48q69 0 119 69t66 173q7 47 7 88l-1 16q-2 20 -15.5 47.5t-40.5 48.5t-68 21q-57 0 -99 -42.5z" />
    <glyph glyph-name="ntilde" unicode="&#xf1;" horiz-adv-x="615" 
d="M301.5 529.5q58.5 38.5 115.5 38.5q54 0 83 -33.5t29 -110.5q0 -44 -21 -151l-5 -26q-1 -8 -5 -26q-18 -105 -21 -143q-2 -34 12 -34q20 0 47 26l13 -23q-10 -15 -39 -36t-63 -21q-53 0 -53 56q0 22 6 59t13 73l9 45l6 31q11 61 16 96t5 68q0 49 -15 67.5t-52 18.5
q-43 0 -97.5 -41.5t-92.5 -99.5l-49 -363h-78l65 488l-48 23l7 36l105 21l19 -10l-13 -126q43 59 101.5 97.5zM282 765q27 0 44 -9t38 -27q16 -14 27 -20.5t25 -6.5q23 0 35 9t19.5 20.5t9.5 14.5l30 -36q-10 -34 -36 -52t-65 -18q-27 0 -43 8.5t-36 26.5q-15 14 -26 20.5
t-28 6.5q-21 0 -34 -7.5t-29 -24.5l-24 34q30 61 93 61z" />
    <glyph glyph-name="ograve" unicode="&#xf2;" horiz-adv-x="560" 
d="M467 507q50 -61 50 -171q0 -88 -35.5 -167.5t-99 -129t-143.5 -49.5q-92 0 -143 58.5t-53 165.5q-1 90 35 171.5t100 132t145 50.5q94 0 144 -61zM209.5 474q-41.5 -45 -62.5 -114t-21 -139q0 -88 33 -135t95 -47q56 0 97 44.5t62 112.5t21 137q0 90 -31 138t-94 48
q-58 0 -99.5 -45zM263.5 723.5q-62.5 59.5 -81.5 91.5l59 59l147 -207l-26 -25q-36 22 -98.5 81.5z" />
    <glyph glyph-name="oacute" unicode="&#xf3;" horiz-adv-x="560" 
d="M478 872l55 -55q-10 -17 -45 -54t-75 -72.5t-68 -50.5l-25 25zM467 507q50 -61 50 -171q0 -88 -35.5 -167.5t-99 -129t-143.5 -49.5q-92 0 -143 58.5t-53 165.5q-1 90 35 171.5t100 132t145 50.5q94 0 144 -61zM209.5 474q-41.5 -45 -62.5 -114t-21 -139q0 -88 33 -135
t95 -47q56 0 97 44.5t62 112.5t21 137q0 90 -31 138t-94 48q-58 0 -99.5 -45z" />
    <glyph glyph-name="ocircumflex" unicode="&#xf4;" horiz-adv-x="560" 
d="M467 507q50 -61 50 -171q0 -88 -35.5 -167.5t-99 -129t-143.5 -49.5q-92 0 -143 58.5t-53 165.5q-1 90 35 171.5t100 132t145 50.5q94 0 144 -61zM209.5 474q-41.5 -45 -62.5 -114t-21 -139q0 -88 33 -135t95 -47q56 0 97 44.5t62 112.5t21 137q0 90 -31 138t-94 48
q-58 0 -99.5 -45zM395 824l96 -142l-26 -30l-104 103l-147 -98l-33 10l138 145z" />
    <glyph glyph-name="otilde" unicode="&#xf5;" horiz-adv-x="560" 
d="M467 507q50 -61 50 -171q0 -88 -35.5 -167.5t-99 -129t-143.5 -49.5q-92 0 -143 58.5t-53 165.5q-1 90 35 171.5t100 132t145 50.5q94 0 144 -61zM209.5 474q-41.5 -45 -62.5 -114t-21 -139q0 -88 33 -135t95 -47q56 0 97 44.5t62 112.5t21 137q0 90 -31 138t-94 48
q-58 0 -99.5 -45zM275 766q27 0 44 -9t38 -27q16 -14 27 -20.5t25 -6.5q23 0 35 9t19.5 20.5t9.5 14.5l30 -36q-10 -34 -36 -52t-65 -18q-27 0 -43 8.5t-36 26.5q-15 14 -26 20.5t-28 6.5q-21 0 -34 -7.5t-29 -24.5l-24 34q30 61 93 61z" />
    <glyph glyph-name="odieresis" unicode="&#xf6;" horiz-adv-x="560" 
d="M467 507q50 -61 50 -171q0 -88 -35.5 -167.5t-99 -129t-143.5 -49.5q-92 0 -143 58.5t-53 165.5q-1 90 35 171.5t100 132t145 50.5q94 0 144 -61zM209.5 474q-41.5 -45 -62.5 -114t-21 -139q0 -88 33 -135t95 -47q56 0 97 44.5t62 112.5t21 137q0 90 -31 138t-94 48
q-58 0 -99.5 -45zM202 678.5q-13 13.5 -13 33.5q0 27 17 45.5t40 18.5q21 0 33.5 -12.5t12.5 -32.5q0 -28 -17 -47t-42 -19q-18 0 -31 13.5zM408 678.5q-13 13.5 -13 33.5q0 27 16.5 45.5t40.5 18.5q21 0 33.5 -12.5t12.5 -32.5q0 -28 -17 -47t-42 -19q-18 0 -31 13.5z" />
    <glyph glyph-name="divide" unicode="&#xf7;" horiz-adv-x="669" 
d="M329.5 525q-13.5 14 -10.5 39q2 27 22.5 44.5t43.5 17.5q24 0 35.5 -12t11.5 -33q0 -31 -21 -50.5t-46 -19.5q-22 0 -35.5 14zM564 410l-6 -63h-426l6 63h426zM294 224.5q21 20.5 46 20.5q23 0 34.5 -11.5t11.5 -31.5q0 -31 -20.5 -52t-47.5 -21q-20 0 -32.5 12t-12.5 34
q0 29 21 49.5z" />
    <glyph glyph-name="oslash" unicode="&#xf8;" horiz-adv-x="560" 
d="M515 339q0 -88 -35.5 -168.5t-99 -130t-143.5 -49.5q-57 0 -100 23l-51 -79l-35 19l53 84q-30 29 -46.5 75t-16.5 104q0 90 35.5 171t99.5 131t144 50q51 0 88 -18l50 80l34 -20l-49 -81q72 -58 72 -191zM307 520q-58 0 -99.5 -45t-62.5 -114t-21 -139q0 -78 25 -121
l228 396q-29 23 -70 23zM251 40q56 0 97 45t62.5 114t21.5 138q0 87 -32 132l-230 -399q32 -30 81 -30z" />
    <glyph glyph-name="ugrave" unicode="&#xf9;" horiz-adv-x="589" 
d="M167 247q-4 -29 -7 -58t-3 -53q0 -52 19 -71t56 -19q40 0 85.5 31.5t74.5 73.5l54 411h77l-64 -482q-1 -4 -1 -12q0 -24 13 -24q21 0 55 34l12 -23q-6 -9 -22 -24.5t-39.5 -27.5t-47.5 -12q-23 0 -36 14t-13 37q0 10 1 15q3 12 5 37l-1 1q-35 -45 -82.5 -75t-102.5 -30
q-58 0 -89 30t-31 103q0 50 17 173l27 190l-49 24l6 35l107 21l19 -10l-34 -264zM278.5 722.5q-62.5 59.5 -81.5 91.5l59 59l147 -207l-26 -25q-36 22 -98.5 81.5z" />
    <glyph glyph-name="uacute" unicode="&#xfa;" horiz-adv-x="589" 
d="M167 247q-4 -29 -7 -58t-3 -53q0 -52 19 -71t56 -19q40 0 85.5 31.5t74.5 73.5l54 411h77l-64 -482q-1 -4 -1 -12q0 -24 13 -24q21 0 55 34l12 -23q-6 -9 -22 -24.5t-39.5 -27.5t-47.5 -12q-23 0 -36 14t-13 37q0 10 1 15q3 12 5 37l-1 1q-35 -45 -82.5 -75t-102.5 -30
q-58 0 -89 30t-31 103q0 50 17 173l27 190l-49 24l6 35l107 21l19 -10l-34 -264zM458 874l55 -56q-10 -17 -44.5 -54t-75 -72.5t-68.5 -50.5l-25 26z" />
    <glyph glyph-name="ucircumflex" unicode="&#xfb;" horiz-adv-x="589" 
d="M167 247q-4 -29 -7 -58t-3 -53q0 -52 19 -71t56 -19q40 0 85.5 31.5t74.5 73.5l54 411h77l-64 -482q-1 -4 -1 -12q0 -24 13 -24q21 0 55 34l12 -23q-6 -9 -22 -24.5t-39.5 -27.5t-47.5 -12q-23 0 -36 14t-13 37q0 10 1 15q3 12 5 37l-1 1q-35 -45 -82.5 -75t-102.5 -30
q-58 0 -89 30t-31 103q0 50 17 173l27 190l-49 24l6 35l107 21l19 -10l-34 -264zM410 823l96 -142l-26 -30l-104 103l-147 -98l-33 10l138 145z" />
    <glyph glyph-name="udieresis" unicode="&#xfc;" horiz-adv-x="589" 
d="M167 247q-4 -29 -7 -58t-3 -53q0 -52 19 -71t56 -19q40 0 85.5 31.5t74.5 73.5l54 411h77l-64 -482q-1 -4 -1 -12q0 -24 13 -24q21 0 55 34l12 -23q-6 -9 -22 -24.5t-39.5 -27.5t-47.5 -12q-23 0 -36 14t-13 37q0 10 1 15q3 12 5 37l-1 1q-35 -45 -82.5 -75t-102.5 -30
q-58 0 -89 30t-31 103q0 50 17 173l27 190l-49 24l6 35l107 21l19 -10l-34 -264zM217 677.5q-13 13.5 -13 33.5q0 27 17 45.5t40 18.5q21 0 33.5 -12.5t12.5 -32.5q0 -28 -17 -47t-42 -19q-18 0 -31 13.5zM423 677.5q-13 13.5 -13 33.5q0 27 16.5 45.5t40.5 18.5
q21 0 33.5 -12.5t12.5 -32.5q0 -28 -17 -47t-42 -19q-18 0 -31 13.5z" />
    <glyph glyph-name="yacute" unicode="&#xfd;" horiz-adv-x="524" 
d="M83.5 501q-5.5 7 -14.5 7t-18.5 -6t-24.5 -21l-12 26q9 16 37.5 37.5t58.5 21.5q31 0 44 -16.5t17 -50.5l52 -374l14 -136l81 155q16 34 25 50q43 86 63.5 143.5t20.5 119.5q0 13 -4 24t-5 13q-8 20 -8 30q0 21 10.5 31t27.5 10q26 0 40.5 -23t14.5 -65q0 -64 -28.5 -134
t-78.5 -164l-18 -34q-54 -109 -99.5 -186t-78.5 -117q-62 -89 -166 -89q-21 0 -49 4.5t-43 10.5l19 64q38 -19 83 -19q42 0 90.5 36t86.5 112h-38l-90 514q-4 19 -9.5 26zM415 874l55 -56q-10 -17 -44.5 -54t-75 -72.5t-68.5 -50.5l-25 26z" />
    <glyph glyph-name="thorn" unicode="&#xfe;" horiz-adv-x="575" 
d="M273 541.5q43 26.5 93 26.5q82 0 124 -57.5t42 -154.5q0 -80 -37.5 -165.5t-108.5 -143t-164 -57.5q-31 0 -85 13l-6 -57l-29 -200h-75l35 252l99 741l-48 17l9 34l104 16l20 -12l-42 -317q26 38 69 64.5zM233 39q69 0 118.5 49t74.5 122t25 141q0 75 -26 117t-74 42
t-91 -31.5t-66 -69.5l-46 -346q29 -24 85 -24z" />
    <glyph glyph-name="ydieresis" unicode="&#xff;" horiz-adv-x="524" 
d="M83.5 501q-5.5 7 -14.5 7t-18.5 -6t-24.5 -21l-12 26q9 16 37.5 37.5t58.5 21.5q31 0 44 -16.5t17 -50.5l52 -374l14 -136l81 155q16 34 25 50q43 86 63.5 143.5t20.5 119.5q0 13 -4 24t-5 13q-8 20 -8 30q0 21 10.5 31t27.5 10q26 0 40.5 -23t14.5 -65q0 -64 -28.5 -134
t-78.5 -164l-18 -34q-54 -109 -99.5 -186t-78.5 -117q-62 -89 -166 -89q-21 0 -49 4.5t-43 10.5l19 64q38 -19 83 -19q42 0 90.5 36t86.5 112h-38l-90 514q-4 19 -9.5 26zM174 677.5q-13 13.5 -13 33.5q0 27 17 45.5t40 18.5q21 0 33.5 -12.5t12.5 -32.5q0 -28 -17 -47
t-42 -19q-18 0 -31 13.5zM380 677.5q-13 13.5 -13 33.5q0 27 16.5 45.5t40.5 18.5q21 0 33.5 -12.5t12.5 -32.5q0 -28 -17 -47t-42 -19q-18 0 -31 13.5z" />
    <glyph glyph-name="Amacron" unicode="&#x100;" horiz-adv-x="655" 
d="M437 743l127 -695l82 -13l-2 -35h-251l2 35l89 11l-29 178h-286l-84 -177l90 -12l-3 -35h-232l4 35l68 11l344 697h81zM192 272h254l-56 345l-7 60zM546 912l-8 -61h-250l8 61h250z" />
    <glyph glyph-name="amacron" unicode="&#x101;" horiz-adv-x="574" 
d="M444 74q0 -16 6.5 -23t13.5 -7q10 0 19.5 6.5t24.5 21.5l14 -22q-4 -8 -18.5 -22.5t-35.5 -26t-44 -11.5q-62 0 -58 66l6 41q-34 -44 -79.5 -75.5t-94.5 -31.5q-79 0 -117.5 57t-38.5 154q0 81 38 166.5t109.5 143t166.5 57.5q21 0 49 -5t50 -12l55 16l-65 -481
q-1 -5 -1 -12zM345 519q-69 0 -119 -47.5t-76 -119.5t-26 -142q0 -77 22.5 -119.5t68.5 -42.5q45 0 89.5 35.5t74.5 78.5l44 335q-32 22 -78 22zM504 735l-8 -61h-252l8 61h252z" />
    <glyph glyph-name="Abreve" unicode="&#x102;" horiz-adv-x="655" 
d="M437 743l127 -695l82 -13l-2 -35h-251l2 35l89 11l-29 178h-286l-84 -177l90 -12l-3 -35h-232l4 35l68 11l344 697h81zM192 272h254l-56 345l-7 60zM303.5 841.5q-35.5 43.5 -35.5 105.5q0 14 1 20h43q2 -44 23.5 -76.5t74.5 -32.5q52 0 82 33t38 76h41q0 -42 -22.5 -81
t-60 -63.5t-80.5 -24.5q-69 0 -104.5 43.5z" />
    <glyph glyph-name="abreve" unicode="&#x103;" horiz-adv-x="574" 
d="M444 74q0 -16 6.5 -23t13.5 -7q10 0 19.5 6.5t24.5 21.5l14 -22q-4 -8 -18.5 -22.5t-35.5 -26t-44 -11.5q-62 0 -58 66l6 41q-34 -44 -79.5 -75.5t-94.5 -31.5q-79 0 -117.5 57t-38.5 154q0 81 38 166.5t109.5 143t166.5 57.5q21 0 49 -5t50 -12l55 16l-65 -481
q-1 -5 -1 -12zM345 519q-69 0 -119 -47.5t-76 -119.5t-26 -142q0 -77 22.5 -119.5t68.5 -42.5q45 0 89.5 35.5t74.5 78.5l44 335q-32 22 -78 22zM266 682.5q-39 41.5 -39 106.5l1 16h42l1 -15q5 -36 31 -62.5t71 -26.5q54 0 81 31.5t35 72.5h41q0 -11 -1 -15
q-4 -38 -25.5 -72t-57 -55.5t-80.5 -21.5q-61 0 -100 41.5z" />
    <glyph glyph-name="Aogonek" unicode="&#x104;" horiz-adv-x="655" 
d="M476.5 -60q-24.5 -25 -25.5 -50q-1 -21 8 -31.5t25 -10.5q38 0 78 33l10 -38q-52 -48 -124 -48q-37 0 -55.5 18.5t-18.5 43.5q0 14 5.5 30t13.5 28q20 28 43.5 45t63.5 40h-107l2 35l89 11l-29 178h-286l-84 -177l90 -12l-3 -35h-232l4 35l68 11l344 697h81l127 -695
l82 -13l-2 -35h-96q-47 -35 -71.5 -60zM192 272h254l-56 345l-7 60z" />
    <glyph glyph-name="aogonek" unicode="&#x105;" horiz-adv-x="574" 
d="M80 367.5q38 85.5 109.5 143t166.5 57.5q21 0 49 -5t50 -12l55 16l-65 -481q-1 -5 -1 -12q0 -16 6.5 -23t13.5 -7q10 0 19.5 6.5t24.5 21.5l14 -22q-4 -7 -16.5 -20t-28.5 -23q-34 -31 -54.5 -56t-20.5 -49q-3 -40 27 -40q39 0 72 30l11 -34q-48 -44 -116 -44
q-34 0 -51 17t-16 41q0 12 5 27t11 25q22 35 63 67q-45 8 -42 65l6 41q-34 -44 -79.5 -75.5t-94.5 -31.5q-79 0 -117.5 57t-38.5 154q0 81 38 166.5zM146.5 90.5q22.5 -42.5 68.5 -42.5q45 0 89.5 35.5t74.5 78.5l44 335q-32 22 -78 22q-69 0 -119 -47.5t-76 -119.5
t-26 -142q0 -77 22.5 -119.5z" />
    <glyph glyph-name="Cacute" unicode="&#x106;" horiz-adv-x="604" 
d="M470 696.5q-27 6.5 -73 6.5q-87 0 -148 -57t-91 -144t-30 -176q0 -118 45.5 -201.5t141.5 -83.5q41 0 84 12.5t61 34.5q18 58 32 109h49l-20 -161q-58 -20 -106.5 -32t-114.5 -12q-89 0 -146.5 47t-84 121t-26.5 157q0 128 49.5 226.5t133 153t181.5 54.5q58 0 94.5 -6
t77.5 -17l21 -7l-30 -178h-49l-4 135q-20 12 -47 18.5zM506 983l49 -47q-21 -31 -71.5 -66.5t-93.5 -55.5l-32 19z" />
    <glyph glyph-name="cacute" unicode="&#x107;" horiz-adv-x="437" 
d="M351.5 498.5q-24.5 10.5 -46.5 10.5q-56 0 -98 -36.5t-64.5 -101.5t-22.5 -150q0 -86 30.5 -130t85.5 -44q41 0 71.5 15t69.5 46l16 -33q-26 -32 -71.5 -58.5t-108.5 -26.5q-83 0 -129.5 59.5t-46.5 163.5q0 80 34 162.5t99 137.5t153 55q28 0 58.5 -6.5t50.5 -17.5
l-23 -80l-11 8q-22 16 -46.5 26.5zM426 874l55 -56q-10 -17 -44.5 -54t-75 -72.5t-68.5 -50.5l-25 26z" />
    <glyph glyph-name="Ccircumflex" unicode="&#x108;" horiz-adv-x="604" 
d="M470 696.5q-27 6.5 -73 6.5q-87 0 -148 -57t-91 -144t-30 -176q0 -118 45.5 -201.5t141.5 -83.5q41 0 84 12.5t61 34.5q18 58 32 109h49l-20 -161q-58 -20 -106.5 -32t-114.5 -12q-89 0 -146.5 47t-84 121t-26.5 157q0 128 49.5 226.5t133 153t181.5 54.5q58 0 94.5 -6
t77.5 -17l21 -7l-30 -178h-49l-4 135q-20 12 -47 18.5zM405 977h67l107 -160l-28 -25l-116 125l-164 -123l-26 23z" />
    <glyph glyph-name="ccircumflex" unicode="&#x109;" horiz-adv-x="437" 
d="M351.5 498.5q-24.5 10.5 -46.5 10.5q-56 0 -98 -36.5t-64.5 -101.5t-22.5 -150q0 -86 30.5 -130t85.5 -44q41 0 71.5 15t69.5 46l16 -33q-26 -32 -71.5 -58.5t-108.5 -26.5q-83 0 -129.5 59.5t-46.5 163.5q0 80 34 162.5t99 137.5t153 55q28 0 58.5 -6.5t50.5 -17.5
l-23 -80l-11 8q-22 16 -46.5 26.5zM378 823l96 -142l-26 -30l-104 103l-147 -98l-33 10l138 145z" />
    <glyph glyph-name="Cdotaccent" unicode="&#x10a;" horiz-adv-x="604" 
d="M470 696.5q-27 6.5 -73 6.5q-87 0 -148 -57t-91 -144t-30 -176q0 -118 45.5 -201.5t141.5 -83.5q41 0 84 12.5t61 34.5q18 58 32 109h49l-20 -161q-58 -20 -106.5 -32t-114.5 -12q-89 0 -146.5 47t-84 121t-26.5 157q0 128 49.5 226.5t133 153t181.5 54.5q58 0 94.5 -6
t77.5 -17l21 -7l-30 -178h-49l-4 135q-20 12 -47 18.5zM394.5 842.5q-13.5 13.5 -13.5 33.5q0 26 18 45t39 19t34.5 -12.5t13.5 -32.5q0 -27 -17.5 -46.5t-42.5 -19.5q-18 0 -31.5 13.5z" />
    <glyph glyph-name="cdotaccent" unicode="&#x10b;" horiz-adv-x="437" 
d="M351.5 498.5q-24.5 10.5 -46.5 10.5q-56 0 -98 -36.5t-64.5 -101.5t-22.5 -150q0 -86 30.5 -130t85.5 -44q41 0 71.5 15t69.5 46l16 -33q-26 -32 -71.5 -58.5t-108.5 -26.5q-83 0 -129.5 59.5t-46.5 163.5q0 80 34 162.5t99 137.5t153 55q28 0 58.5 -6.5t50.5 -17.5
l-23 -80l-11 8q-22 16 -46.5 26.5zM285.5 678.5q-13.5 14.5 -13.5 40.5q0 29 18 47.5t44 18.5q22 0 35.5 -13.5t13.5 -34.5q-1 -37 -18.5 -55t-45.5 -18q-20 0 -33.5 14.5z" />
    <glyph glyph-name="Ccaron" unicode="&#x10c;" horiz-adv-x="604" 
d="M470 696.5q-27 6.5 -73 6.5q-87 0 -148 -57t-91 -144t-30 -176q0 -118 45.5 -201.5t141.5 -83.5q41 0 84 12.5t61 34.5q18 58 32 109h49l-20 -161q-58 -20 -106.5 -32t-114.5 -12q-89 0 -146.5 47t-84 121t-26.5 157q0 128 49.5 226.5t133 153t181.5 54.5q58 0 94.5 -6
t77.5 -17l21 -7l-30 -178h-49l-4 135q-20 12 -47 18.5zM310 977l114 -128l157 128l26 -23l-152 -162h-67l-107 162z" />
    <glyph glyph-name="ccaron" unicode="&#x10d;" horiz-adv-x="437" 
d="M351.5 498.5q-24.5 10.5 -46.5 10.5q-56 0 -98 -36.5t-64.5 -101.5t-22.5 -150q0 -86 30.5 -130t85.5 -44q41 0 71.5 15t69.5 46l16 -33q-26 -32 -71.5 -58.5t-108.5 -26.5q-83 0 -129.5 59.5t-46.5 163.5q0 80 34 162.5t99 137.5t153 55q28 0 58.5 -6.5t50.5 -17.5
l-23 -80l-11 8q-22 16 -46.5 26.5zM216 832l108 -132l157 132l28 -23l-157 -167h-68l-100 167z" />
    <glyph glyph-name="Dcaron" unicode="&#x10e;" horiz-adv-x="696" 
d="M302 747q52 4 79 4q147 0 215 -82t68 -229q0 -127 -48 -230.5t-135 -162t-200 -55.5q-52 4 -54 4q-44 4 -103 4h-113l3 35l74 12l82 646l-67 10l4 40h131q20 0 64 4zM235 43.5q39 -3.5 65 -3.5q92 4 156 61t95.5 146t31.5 190q0 142 -52 204.5t-171 62.5q-43 0 -111 -9
l-81 -642q28 -6 67 -9.5zM280 976l114 -128l157 128l26 -23l-152 -162h-67l-107 162z" />
    <glyph glyph-name="dcaron" unicode="&#x10f;" horiz-adv-x="636" 
d="M445 67q0 -11 3.5 -17t9.5 -6q18 0 47 26l13 -22q-11 -17 -38.5 -37.5t-61.5 -20.5q-54 0 -51 61v27q-28 -37 -71 -62.5t-93 -25.5q-80 0 -121.5 57.5t-41.5 153.5q0 81 38 166.5t109.5 143t166.5 57.5q37 0 83 -13l29 184l-64 16l8 34l120 17l21 -12l-105 -715
q-1 -4 -1 -12zM342 519q-70 0 -120 -49.5t-75 -122t-25 -140.5q0 -75 25 -117t71 -42q48 0 91 30t66 67l53 348q-30 26 -86 26zM623 585l-4 6q7 47 7 99q0 61 -12 86l5 17h78q9 -26 9 -73q0 -25 -9.5 -69t-22.5 -66h-51z" />
    <glyph glyph-name="Dcroat" unicode="&#x110;" horiz-adv-x="702" 
d="M307 748q52 4 80 4q147 0 215 -81.5t68 -226.5q0 -128 -48 -232t-135.5 -163t-200.5 -56q-7 1 -25.5 2t-28.5 2q-46 4 -103 4h-113l4 35l73 12l39 308h-76l5 53h78l36 285l-66 10l4 40h130q20 0 64 4zM240.5 44.5q39.5 -3.5 65.5 -3.5q92 4 155.5 61.5t95 147t31.5 191.5
q0 140 -52 202t-171 62q-43 0 -111 -9l-36 -287h205l-5 -53h-207l-38 -302q28 -6 67.5 -9.5z" />
    <glyph glyph-name="dcroat" unicode="&#x111;" horiz-adv-x="576" 
d="M78 367.5q38 85.5 109.5 143t166.5 57.5q37 0 83 -13l12 72h-141l7 53h142l9 59l-64 16l8 34l120 17l21 -12l-16 -114h69l-7 -53h-70l-81 -548q-1 -4 -1 -12q0 -11 3.5 -17t9.5 -6q18 0 47 26l13 -22q-11 -17 -38.5 -37.5t-61.5 -20.5q-54 0 -51 61v27q-28 -37 -71 -62.5
t-93 -25.5q-80 0 -121.5 57.5t-41.5 153.5q0 81 38 166.5zM147 90q25 -42 71 -42q48 0 91 30t66 67l53 348q-30 26 -86 26q-70 0 -120 -49.5t-75 -122t-25 -140.5q0 -75 25 -117z" />
    <glyph glyph-name="Emacron" unicode="&#x112;" horiz-adv-x="599" 
d="M561 743l-4 -153h-44l-17 104l-245 6l-37 -289l234 4l-5 -64l-234 7l-41 -310l298 9l55 114l43 -13l-43 -158h-510l3 35l75 11l81 647l-68 10l5 40h454zM502 912l-8 -61h-250l8 61h250z" />
    <glyph glyph-name="emacron" unicode="&#x113;" horiz-adv-x="514" 
d="M359.5 23q-56.5 -33 -122.5 -33t-109 30t-63.5 78.5t-20.5 105.5q0 94 38 178t103.5 135t145.5 51q68 0 103 -34t35 -88q0 -71 -60 -119.5t-141 -73t-140 -25.5q-1 -7 -1 -23q0 -64 30 -111t92 -47q43 0 89 20t85 59l19 -34q-26 -36 -82.5 -69zM222 482
q-40 -39 -63.5 -96.5t-28.5 -112.5q57 2 117.5 22.5t101.5 57.5t41 86q-1 40 -21 61t-56 21q-51 0 -91 -39zM469 735l-8 -61h-252l8 61h252z" />
    <glyph glyph-name="Ebreve" unicode="&#x114;" horiz-adv-x="599" 
d="M561 743l-4 -153h-44l-17 104l-245 6l-37 -289l234 4l-5 -64l-234 7l-41 -310l298 9l55 114l43 -13l-43 -158h-510l3 35l75 11l81 647l-68 10l5 40h454zM259.5 841.5q-35.5 43.5 -35.5 105.5q0 14 1 20h43q2 -44 23.5 -76.5t74.5 -32.5q52 0 82 33t38 76h41
q0 -42 -22.5 -81t-60 -63.5t-80.5 -24.5q-69 0 -104.5 43.5z" />
    <glyph glyph-name="ebreve" unicode="&#x115;" horiz-adv-x="514" 
d="M359.5 23q-56.5 -33 -122.5 -33t-109 30t-63.5 78.5t-20.5 105.5q0 94 38 178t103.5 135t145.5 51q68 0 103 -34t35 -88q0 -71 -60 -119.5t-141 -73t-140 -25.5q-1 -7 -1 -23q0 -64 30 -111t92 -47q43 0 89 20t85 59l19 -34q-26 -36 -82.5 -69zM222 482
q-40 -39 -63.5 -96.5t-28.5 -112.5q57 2 117.5 22.5t101.5 57.5t41 86q-1 40 -21 61t-56 21q-51 0 -91 -39zM231 682.5q-39 41.5 -39 106.5l1 16h42l1 -15q5 -36 31 -62.5t71 -26.5q54 0 81 31.5t35 72.5h41q0 -11 -1 -15q-4 -38 -25.5 -72t-57 -55.5t-80.5 -21.5
q-61 0 -100 41.5z" />
    <glyph glyph-name="Edotaccent" unicode="&#x116;" horiz-adv-x="599" 
d="M561 743l-4 -153h-44l-17 104l-245 6l-37 -289l234 4l-5 -64l-234 7l-41 -310l298 9l55 114l43 -13l-43 -158h-510l3 35l75 11l81 647l-68 10l5 40h454zM338.5 842.5q-13.5 13.5 -13.5 33.5q0 26 18 45t39 19t34.5 -12.5t13.5 -32.5q0 -27 -17.5 -46.5t-42.5 -19.5
q-18 0 -31.5 13.5z" />
    <glyph glyph-name="edotaccent" unicode="&#x117;" horiz-adv-x="514" 
d="M359.5 23q-56.5 -33 -122.5 -33t-109 30t-63.5 78.5t-20.5 105.5q0 94 38 178t103.5 135t145.5 51q68 0 103 -34t35 -88q0 -71 -60 -119.5t-141 -73t-140 -25.5q-1 -7 -1 -23q0 -64 30 -111t92 -47q43 0 89 20t85 59l19 -34q-26 -36 -82.5 -69zM222 482
q-40 -39 -63.5 -96.5t-28.5 -112.5q57 2 117.5 22.5t101.5 57.5t41 86q-1 40 -21 61t-56 21q-51 0 -91 -39zM300.5 677.5q-13.5 14.5 -13.5 40.5q0 29 18 47.5t44 18.5q22 0 35.5 -13.5t13.5 -34.5q-1 -37 -18.5 -55t-45.5 -18q-20 0 -33.5 14.5z" />
    <glyph glyph-name="Eogonek" unicode="&#x118;" horiz-adv-x="597" 
d="M408 -61.5q-25 -25.5 -25 -51.5q0 -20 9.5 -29.5t24.5 -9.5q37 0 77 33l11 -38q-52 -48 -125 -48q-36 0 -54.5 18.5t-18.5 43.5q0 14 5 30t13 28q20 28 43 44.5t64 40.5h-421l3 35l75 11l81 647l-68 10l5 40h454l-4 -153h-45l-16 104l-245 6l-38 -289l235 4l-5 -64
l-234 6l-42 -310l299 10l55 114l43 -13l-43 -158h-40q-48 -36 -73 -61.5z" />
    <glyph glyph-name="eogonek" unicode="&#x119;" horiz-adv-x="514" 
d="M198 -174.5q-17 20.5 -17 45.5q0 13 4.5 27.5t11.5 26.5q11 19 27 34t38 32q-20 -2 -29 -2q-88 0 -138.5 60t-50.5 154q0 95 38 179t103.5 135t145.5 51q68 0 103 -34t35 -88q0 -71 -60 -119.5t-141 -73t-140 -25.5q-1 -7 -1 -23q0 -64 30 -111t92 -47q43 0 89 20t85 59
l19 -34q-15 -21 -43 -43.5t-63 -37.5q-34 -29 -59.5 -61.5t-25.5 -56.5q-1 -23 8 -29.5t27 -6.5q39 0 72 30l10 -34q-21 -20 -51.5 -34t-66.5 -14q-35 0 -52 20.5zM247.5 295.5q60.5 20.5 101.5 57.5t41 86q-1 40 -21 61t-56 21q-51 0 -91 -39t-63.5 -96.5t-28.5 -112.5
q57 2 117.5 22.5z" />
    <glyph glyph-name="Ecaron" unicode="&#x11a;" horiz-adv-x="599" 
d="M561 743l-4 -153h-44l-17 104l-245 6l-37 -289l234 4l-5 -64l-234 7l-41 -310l298 9l55 114l43 -13l-43 -158h-510l3 35l75 11l81 647l-68 10l5 40h454zM254 977l114 -128l157 128l26 -23l-152 -162h-67l-107 162z" />
    <glyph glyph-name="ecaron" unicode="&#x11b;" horiz-adv-x="514" 
d="M359.5 23q-56.5 -33 -122.5 -33t-109 30t-63.5 78.5t-20.5 105.5q0 94 38 178t103.5 135t145.5 51q68 0 103 -34t35 -88q0 -71 -60 -119.5t-141 -73t-140 -25.5q-1 -7 -1 -23q0 -64 30 -111t92 -47q43 0 89 20t85 59l19 -34q-26 -36 -82.5 -69zM222 482
q-40 -39 -63.5 -96.5t-28.5 -112.5q57 2 117.5 22.5t101.5 57.5t41 86q-1 40 -21 61t-56 21q-51 0 -91 -39zM231 831l108 -132l157 132l28 -23l-157 -167h-68l-100 167z" />
    <glyph glyph-name="Gcircumflex" unicode="&#x11c;" horiz-adv-x="657" 
d="M523 38q-20 -6 -27 -8q-58 -18 -102.5 -28t-95.5 -10q-85 0 -141.5 46.5t-82.5 119.5t-26 155q0 130 49.5 229.5t132.5 154t181 54.5q65 0 109 -7.5t87 -19.5l19 -6l-28 -145h-51l-2 99q-23 15 -55.5 23.5t-87.5 8.5q-87 0 -148.5 -58t-92 -147t-30.5 -181q0 -72 20 -135
t62.5 -103t106.5 -40q46 0 92.5 12t72.5 35l30 213l-135 7l5 47h219l-44 -308q-17 -2 -37 -8zM404 977h67l107 -160l-28 -25l-116 125l-164 -123l-26 23z" />
    <glyph glyph-name="gcircumflex" unicode="&#x11d;" horiz-adv-x="563" 
d="M372.5 -158q-42.5 -47 -98.5 -68.5t-110 -21.5q-30 0 -61 5t-47 12l19 74q24 -11 57 -19.5t68 -8.5q68 0 101 26.5t43 94.5l21 140q-29 -36 -71 -61t-91 -25q-80 0 -121.5 57.5t-41.5 153.5q0 81 38 166.5t110 143t167 57.5q53 0 106 -21l57 21l-93 -606
q-10 -73 -52.5 -120zM343 519q-70 0 -120 -49.5t-75.5 -122t-25.5 -140.5q0 -75 25 -117t71 -42q48 0 90.5 29.5t66.5 66.5l52 350q-31 25 -84 25zM411 822l96 -142l-26 -30l-104 103l-147 -98l-33 10l138 145z" />
    <glyph glyph-name="Gbreve" unicode="&#x11e;" horiz-adv-x="657" 
d="M523 38q-20 -6 -27 -8q-58 -18 -102.5 -28t-95.5 -10q-85 0 -141.5 46.5t-82.5 119.5t-26 155q0 130 49.5 229.5t132.5 154t181 54.5q65 0 109 -7.5t87 -19.5l19 -6l-28 -145h-51l-2 99q-23 15 -55.5 23.5t-87.5 8.5q-87 0 -148.5 -58t-92 -147t-30.5 -181q0 -72 20 -135
t62.5 -103t106.5 -40q46 0 92.5 12t72.5 35l30 213l-135 7l5 47h219l-44 -308q-17 -2 -37 -8zM314.5 841.5q-35.5 43.5 -35.5 105.5q0 14 1 20h43q2 -44 23.5 -76.5t74.5 -32.5q52 0 82 33t38 76h41q0 -42 -22.5 -81t-60 -63.5t-80.5 -24.5q-69 0 -104.5 43.5z" />
    <glyph glyph-name="gbreve" unicode="&#x11f;" horiz-adv-x="563" 
d="M372.5 -158q-42.5 -47 -98.5 -68.5t-110 -21.5q-30 0 -61 5t-47 12l19 74q24 -11 57 -19.5t68 -8.5q68 0 101 26.5t43 94.5l21 140q-29 -36 -71 -61t-91 -25q-80 0 -121.5 57.5t-41.5 153.5q0 81 38 166.5t110 143t167 57.5q53 0 106 -21l57 21l-93 -606
q-10 -73 -52.5 -120zM343 519q-70 0 -120 -49.5t-75.5 -122t-25.5 -140.5q0 -75 25 -117t71 -42q48 0 90.5 29.5t66.5 66.5l52 350q-31 25 -84 25zM249 682.5q-39 41.5 -39 106.5l1 16h42l1 -15q5 -36 31 -62.5t71 -26.5q54 0 81 31.5t35 72.5h41q0 -11 -1 -15
q-4 -38 -25.5 -72t-57 -55.5t-80.5 -21.5q-61 0 -100 41.5z" />
    <glyph glyph-name="Gdotaccent" unicode="&#x120;" horiz-adv-x="657" 
d="M523 38q-20 -6 -27 -8q-58 -18 -102.5 -28t-95.5 -10q-85 0 -141.5 46.5t-82.5 119.5t-26 155q0 130 49.5 229.5t132.5 154t181 54.5q65 0 109 -7.5t87 -19.5l19 -6l-28 -145h-51l-2 99q-23 15 -55.5 23.5t-87.5 8.5q-87 0 -148.5 -58t-92 -147t-30.5 -181q0 -72 20 -135
t62.5 -103t106.5 -40q46 0 92.5 12t72.5 35l30 213l-135 7l5 47h219l-44 -308q-17 -2 -37 -8zM393.5 842.5q-13.5 13.5 -13.5 33.5q0 26 18 45t39 19t34.5 -12.5t13.5 -32.5q0 -27 -17.5 -46.5t-42.5 -19.5q-18 0 -31.5 13.5z" />
    <glyph glyph-name="gdotaccent" unicode="&#x121;" horiz-adv-x="563" 
d="M372.5 -158q-42.5 -47 -98.5 -68.5t-110 -21.5q-30 0 -61 5t-47 12l19 74q24 -11 57 -19.5t68 -8.5q68 0 101 26.5t43 94.5l21 140q-29 -36 -71 -61t-91 -25q-80 0 -121.5 57.5t-41.5 153.5q0 81 38 166.5t110 143t167 57.5q53 0 106 -21l57 21l-93 -606
q-10 -73 -52.5 -120zM343 519q-70 0 -120 -49.5t-75.5 -122t-25.5 -140.5q0 -75 25 -117t71 -42q48 0 90.5 29.5t66.5 66.5l52 350q-31 25 -84 25zM318.5 677.5q-13.5 14.5 -13.5 40.5q0 29 18 47.5t44 18.5q22 0 35.5 -13.5t13.5 -34.5q-1 -37 -18.5 -55t-45.5 -18
q-20 0 -33.5 14.5z" />
    <glyph glyph-name="Gcommaaccent" unicode="&#x122;" horiz-adv-x="657" 
d="M523 38q-20 -6 -27 -8q-58 -18 -102.5 -28t-95.5 -10q-85 0 -141.5 46.5t-82.5 119.5t-26 155q0 130 49.5 229.5t132.5 154t181 54.5q65 0 109 -7.5t87 -19.5l19 -6l-28 -145h-51l-2 99q-23 15 -55.5 23.5t-87.5 8.5q-87 0 -148.5 -58t-92 -147t-30.5 -181q0 -72 20 -135
t62.5 -103t106.5 -40q46 0 92.5 12t72.5 35l30 213l-135 7l5 47h219l-44 -308q-17 -2 -37 -8zM228 -247q34 25 34 77q0 22 -8.5 40t-23.5 23v26l52 33q28 -10 41.5 -39.5t13.5 -64.5q0 -48 -23.5 -80.5t-50.5 -40.5l-35 16v10z" />
    <glyph glyph-name="gcommaaccent" unicode="&#x123;" horiz-adv-x="563" 
d="M372.5 -158q-42.5 -47 -98.5 -68.5t-110 -21.5q-30 0 -61 5t-47 12l19 74q24 -11 57 -19.5t68 -8.5q68 0 101 26.5t43 94.5l21 140q-29 -36 -71 -61t-91 -25q-80 0 -121.5 57.5t-41.5 153.5q0 81 38 166.5t110 143t167 57.5q53 0 106 -21l57 21l-93 -606
q-10 -73 -52.5 -120zM343 519q-70 0 -120 -49.5t-75.5 -122t-25.5 -140.5q0 -75 25 -117t71 -42q48 0 90.5 29.5t66.5 66.5l52 350q-31 25 -84 25zM323 663.5q-14 15.5 -14 45.5q0 41 19 75t43 55t34 24h1l26 -19l-1 -6q-15 -7 -27 -27t-16 -44q-2 -13 2.5 -21t13.5 -15
q7 -5 11 -11.5t4 -17.5q0 -29 -18 -41.5t-36 -12.5h-4q-24 0 -38 15.5z" />
    <glyph glyph-name="Hcircumflex" unicode="&#x124;" horiz-adv-x="744" 
d="M328 743l-5 -40l-73 -10l-37 -288h349l36 288l-73 10l4 40h222l-5 -40l-70 -10l-80 -646l76 -12l-4 -35h-233l3 35l80 12l37 306h-349l-38 -306l76 -12l-3 -35h-229l4 35l73 12l81 646l-67 10l5 40h220zM427 977h67l107 -160l-28 -25l-116 125l-164 -123l-26 23z" />
    <glyph glyph-name="hcircumflex" unicode="&#x125;" horiz-adv-x="607" 
d="M293.5 527.5q58.5 40.5 117.5 40.5q55 0 83.5 -33.5t28.5 -111.5q0 -44 -21 -149q-1 -6 -2 -13t-3 -14q-4 -17 -5 -30q-19 -93 -22 -139q-1 -17 3 -26t12 -9q10 0 21 6.5t31 23.5l12 -22q-5 -9 -20 -23.5t-38 -26t-48 -11.5q-55 0 -55 54q0 26 8 70.5t9 52.5q1 3 10 56
q13 66 20 110.5t7 84.5q0 48 -15.5 67t-49.5 19q-45 0 -100 -41.5t-93 -100.5l-49 -362h-76l97 739l-56 16l6 34l115 17l20 -12l-49 -368q43 61 101.5 101.5zM193 1000h67l107 -160l-28 -25l-116 125l-164 -123l-26 23z" />
    <glyph glyph-name="Hbar" unicode="&#x126;" horiz-adv-x="731" 
d="M324 743l-4 -40l-74 -10l-18 -141h349l18 141l-74 10l4 40h222l-5 -40l-68 -10l-18 -141h103l-5 -52h-104l-57 -453l75 -12l-3 -35h-233l3 35l79 12l34 272h-349l-34 -272l75 -12l-3 -35h-228l3 35l73 12l57 453h-100l5 52h101l18 141l-66 10l5 40h219zM205 370h349
l16 130h-348z" />
    <glyph glyph-name="hbar" unicode="&#x127;" horiz-adv-x="607" 
d="M293.5 527.5q58.5 40.5 117.5 40.5q55 0 83.5 -33.5t28.5 -111.5q0 -44 -21 -149q-1 -6 -2 -13t-3 -14q-4 -17 -5 -30q-19 -93 -22 -139q-1 -17 3 -26t12 -9q10 0 21 6.5t31 23.5l12 -22q-5 -9 -20 -23.5t-38 -26t-48 -11.5q-55 0 -55 54q0 26 8 70.5t9 52.5q1 3 10 56
q13 66 20 110.5t7 84.5q0 48 -15.5 67t-49.5 19q-45 0 -100 -41.5t-93 -100.5l-49 -362h-76l82 624h-79l6 45h78l10 70l-56 16l6 34l115 17l20 -12l-16 -125h131l-7 -45h-131l-26 -198q43 61 101.5 101.5z" />
    <glyph glyph-name="Itilde" unicode="&#x128;" horiz-adv-x="339" 
d="M337 743l-4 -40l-75 -10l-81 -646l77 -12l-3 -35h-230l3 35l73 12l82 646l-67 10l5 40h220zM116.5 937q27.5 23 66.5 23q23 0 40 -10t36 -28q19 -17 32.5 -25t30.5 -8q26 0 44 13.5t34 35.5l26 -29q-13 -32 -40 -57t-65 -25q-25 0 -43 10t-39 29q-20 17 -34 25t-33 8
q-23 0 -39 -12t-33 -36l-26 28q15 35 42.5 58z" />
    <glyph glyph-name="itilde" unicode="&#x129;" horiz-adv-x="310" 
d="M164 67q0 -11 4.5 -17t10.5 -6q20 0 52 33l13 -22q-13 -20 -42 -42.5t-64 -22.5q-27 0 -42.5 14t-13.5 45q2 26 13.5 105t17.5 119l32 219l-65 21l6 32l127 21l20 -10l-68 -477q-1 -4 -1 -12zM140 765q27 0 44 -9t38 -27q16 -14 27 -20.5t25 -6.5q23 0 35 9t19.5 20.5
t9.5 14.5l30 -36q-10 -34 -36 -52t-65 -18q-27 0 -43 8.5t-36 26.5q-15 14 -26 20.5t-28 6.5q-21 0 -34 -7.5t-29 -24.5l-24 34q30 61 93 61z" />
    <glyph glyph-name="Imacron" unicode="&#x12a;" horiz-adv-x="339" 
d="M337 743l-4 -40l-75 -10l-81 -646l77 -12l-3 -35h-230l3 35l73 12l82 646l-67 10l5 40h220zM376 912l-8 -61h-250l8 61h250z" />
    <glyph glyph-name="imacron" unicode="&#x12b;" horiz-adv-x="310" 
d="M164 67q0 -11 4.5 -17t10.5 -6q20 0 52 33l13 -22q-13 -20 -42 -42.5t-64 -22.5q-27 0 -42.5 14t-13.5 45q2 26 13.5 105t17.5 119l32 219l-65 21l6 32l127 21l20 -10l-68 -477q-1 -4 -1 -12zM336 736l-8 -61h-252l8 61h252z" />
    <glyph glyph-name="Ibreve" unicode="&#x12c;" horiz-adv-x="339" 
d="M337 743l-4 -40l-75 -10l-81 -646l77 -12l-3 -35h-230l3 35l73 12l82 646l-67 10l5 40h220zM133.5 841.5q-35.5 43.5 -35.5 105.5q0 14 1 20h43q2 -44 23.5 -76.5t74.5 -32.5q52 0 82 33t38 76h41q0 -42 -22.5 -81t-60 -63.5t-80.5 -24.5q-69 0 -104.5 43.5z" />
    <glyph glyph-name="ibreve" unicode="&#x12d;" horiz-adv-x="310" 
d="M164 67q0 -11 4.5 -17t10.5 -6q20 0 52 33l13 -22q-13 -20 -42 -42.5t-64 -22.5q-27 0 -42.5 14t-13.5 45q2 26 13.5 105t17.5 119l32 219l-65 21l6 32l127 21l20 -10l-68 -477q-1 -4 -1 -12zM98 683.5q-39 41.5 -39 106.5l1 16h42l1 -15q5 -36 31 -62.5t71 -26.5
q54 0 81 31.5t35 72.5h41q0 -11 -1 -15q-4 -38 -25.5 -72t-57 -55.5t-80.5 -21.5q-61 0 -100 41.5z" />
    <glyph glyph-name="Iogonek" unicode="&#x12e;" horiz-adv-x="339" 
d="M106 -61q-25 -26 -25 -52q0 -37 33 -37q42 0 78 31l12 -38q-25 -22 -51.5 -35t-65.5 -13q-36 0 -59 21t-23 45q0 15 5 30.5t13 27.5q20 29 44.5 46.5t58.5 34.5h-105l3 35l73 12l82 646l-67 10l5 40h220l-4 -40l-75 -10l-81 -646l77 -12l-3 -35h-73q-47 -35 -72 -61z" />
    <glyph glyph-name="iogonek" unicode="&#x12f;" horiz-adv-x="310" 
d="M253 781q13 -13 13 -34q-1 -27 -18.5 -46t-41.5 -19q-18 0 -31 13.5t-13 34.5q0 26 17.5 45t38.5 19q22 0 35 -13zM164 67q0 -11 4.5 -17t10.5 -6q20 0 52 33l13 -22q-8 -12 -24.5 -28t-38.5 -26q-46 -33 -72 -59t-27 -52q-1 -21 8 -31.5t25 -10.5q37 0 77 33l11 -38
q-24 -22 -53 -35t-68 -13q-35 0 -55.5 19.5t-20.5 44.5q0 14 4.5 29t11.5 27q33 44 96 77q-39 10 -36 58q2 24 13.5 101t17.5 121l32 220l-65 21l6 32l127 21l20 -10l-68 -477q-1 -4 -1 -12z" />
    <glyph glyph-name="Idotaccent" unicode="&#x130;" horiz-adv-x="339" 
d="M337 743l-4 -40l-75 -10l-81 -646l77 -12l-3 -35h-230l3 35l73 12l82 646l-67 10l5 40h220zM212.5 842.5q-13.5 13.5 -13.5 33.5q0 26 18 45t39 19t34.5 -12.5t13.5 -32.5q0 -27 -17.5 -46.5t-42.5 -19.5q-18 0 -31.5 13.5z" />
    <glyph glyph-name="dotlessi" unicode="&#x131;" horiz-adv-x="310" 
d="M164 67q0 -11 4.5 -17t10.5 -6q20 0 52 33l13 -22q-13 -20 -42 -42.5t-64 -22.5q-27 0 -42.5 14t-13.5 45q2 26 13.5 105t17.5 119l32 219l-65 21l6 32l127 21l20 -10l-68 -477q-1 -4 -1 -12z" />
    <glyph glyph-name="IJ" unicode="&#x132;" horiz-adv-x="678" 
d="M337 743l-4 -40l-75 -10l-81 -646l77 -12l-3 -35h-230l3 35l73 12l82 646l-67 10l5 40h220zM595 635q-32 -290 -49 -429.5t-26 -168.5q-27 -92 -92.5 -141.5t-150.5 -63.5l-15 35q67 18 117.5 67.5t63.5 109.5q18 79 31 183.5t34 303.5q7 77 17 163l-81 9l5 40h241
l-4 -40l-84 -9q-4 -37 -7 -59z" />
    <glyph glyph-name="ij" unicode="&#x133;" horiz-adv-x="626" 
d="M164 67q0 -11 4.5 -17t10.5 -6q20 0 52 33l13 -22q-13 -20 -42 -42.5t-64 -22.5q-27 0 -42.5 14t-13.5 45q2 26 13.5 105t17.5 119l32 219l-65 21l6 32l127 21l20 -10l-68 -477q-1 -4 -1 -12zM173.5 695.5q-13.5 13.5 -13.5 34.5q0 26 18.5 45t39.5 19t33.5 -13t12.5 -34
q0 -27 -17.5 -46t-41.5 -19q-18 0 -31.5 13.5zM417.5 -187q-53.5 -66 -137.5 -66q-24 0 -45.5 5t-29.5 13l14 35q7 -3 20.5 -5.5t24.5 -2.5q67 0 99.5 63t45.5 173l53 465l-69 20l7 32l130 21l20 -10l-65 -555q-14 -122 -67.5 -188zM491.5 695.5q-13.5 13.5 -13.5 34.5
q0 26 18.5 45t39.5 19t33.5 -13t12.5 -34q0 -27 -17.5 -46t-41.5 -19q-18 0 -31.5 13.5z" />
    <glyph glyph-name="Jcircumflex" unicode="&#x134;" horiz-adv-x="339" 
d="M256 635q-32 -290 -49 -429.5t-26 -168.5q-27 -92 -92.5 -141.5t-150.5 -63.5l-15 35q67 18 117.5 67.5t63.5 109.5q18 79 31 183.5t34 303.5q7 77 17 163l-81 9l5 40h241l-4 -40l-84 -9q-4 -37 -7 -59zM224 977h67l107 -160l-28 -25l-116 125l-164 -123l-26 23z" />
    <glyph glyph-name="jcircumflex" unicode="&#x135;" horiz-adv-x="316" 
d="M107.5 -187q-53.5 -66 -137.5 -66q-24 0 -45.5 5t-29.5 13l14 35q7 -3 20.5 -5.5t24.5 -2.5q67 0 99.5 63t45.5 173l53 465l-69 20l7 32l130 21l20 -10l-65 -555q-14 -122 -67.5 -188zM268 823l96 -142l-26 -30l-104 103l-147 -98l-33 10l138 145z" />
    <glyph glyph-name="Kcommaaccent" unicode="&#x136;" horiz-adv-x="662" 
d="M401 313q11 -18 32.5 -54.5t34.5 -56.5q52 -84 71 -111.5t34 -35.5l65 -17l-5 -38h-123q-12 1 -30 30t-51 89l-29 52q-33 56 -76 133q-27 49 -26 47l-107 -115l-23 -189l76 -12l-3 -35h-229l4 35l73 12l81 646l-67 10l4 40h220l-4 -40l-74 -10l-48 -380l341 380l-67 10
l5 40h202l-6 -40l-58 -9l-271 -291q11 -17 54 -90zM264 -247q34 25 34 77q0 22 -8.5 40t-23.5 23v26l52 33q28 -10 41.5 -39.5t13.5 -64.5q0 -48 -23.5 -80.5t-50.5 -40.5l-35 16v10z" />
    <glyph glyph-name="kcommaaccent" unicode="&#x137;" horiz-adv-x="522" 
d="M237 794l-107 -794h-76l97 739l-56 16l6 34l115 17zM247 340q45 27 74 48.5t51 51.5q24 32 28 75q4 23 18.5 34.5t33.5 11.5q18 0 29.5 -12t11.5 -32q0 -27 -22 -59q-24 -34 -70.5 -66t-110.5 -68l-37 -21l141 -209q14 -20 29.5 -32t28.5 -12q10 0 20 4.5t24 18.5l17 -28
q-13 -22 -39 -38.5t-60 -16.5q-50 0 -82 53l-150 255q29 21 65 42zM161 -247q34 25 34 77q0 22 -8.5 40t-23.5 23v26l52 33q28 -10 41.5 -39.5t13.5 -64.5q0 -48 -23.5 -80.5t-50.5 -40.5l-35 16v10z" />
    <glyph glyph-name="kgreenlandic" unicode="&#x138;" horiz-adv-x="523" 
d="M215 550l-72 -550h-76l63 494l-54 16l8 34l111 18zM422 61.5q14 -12.5 26 -12.5q14 0 39 14l15 -26q-13 -18 -37 -32t-53 -14t-46 12t-32 40l-142 243l252 269h89l-266 -266l130 -198q11 -17 25 -29.5z" />
    <glyph glyph-name="Lacute" unicode="&#x139;" horiz-adv-x="573" 
d="M339 743l-3 -40l-87 -10l-82 -646l261 4l64 172l46 -9l-47 -214h-478l3 35l73 12l81 646l-67 10l4 40h232zM322 983l49 -47q-21 -31 -71.5 -66.5t-93.5 -55.5l-32 19z" />
    <glyph glyph-name="lacute" unicode="&#x13a;" horiz-adv-x="297" 
d="M150 69q0 -12 4 -18.5t10 -6.5q21 0 53 33l13 -22q-11 -20 -39 -42.5t-67 -22.5q-52 0 -52 57l3 37l93 655l-60 16l8 34l116 17l19 -12l-100 -715zM301 983l49 -47q-21 -31 -71.5 -66.5t-93.5 -55.5l-32 19z" />
    <glyph glyph-name="Lcommaaccent" unicode="&#x13b;" horiz-adv-x="573" 
d="M339 743l-3 -40l-87 -10l-82 -646l261 4l64 172l46 -9l-47 -214h-478l3 35l73 12l81 646l-67 10l4 40h232zM198 -247q34 25 34 77q0 22 -8.5 40t-23.5 23v26l52 33q28 -10 41.5 -39.5t13.5 -64.5q0 -48 -23.5 -80.5t-50.5 -40.5l-35 16v10z" />
    <glyph glyph-name="lcommaaccent" unicode="&#x13c;" horiz-adv-x="297" 
d="M150 69q0 -12 4 -18.5t10 -6.5q21 0 53 33l13 -22q-11 -20 -39 -42.5t-67 -22.5q-52 0 -52 57l3 37l93 655l-60 16l8 34l116 17l19 -12l-100 -715zM48 -247q34 25 34 77q0 22 -8.5 40t-23.5 23v26l52 33q28 -10 41.5 -39.5t13.5 -64.5q0 -48 -23.5 -80.5t-50.5 -40.5
l-35 16v10z" />
    <glyph glyph-name="Lcaron" unicode="&#x13d;" horiz-adv-x="573" 
d="M339 743l-3 -40l-87 -10l-82 -646l261 4l64 172l46 -9l-47 -214h-478l3 35l73 12l81 646l-67 10l4 40h232zM460 571l-4 6q7 47 7 99q0 61 -12 86l5 17h78q9 -26 9 -73q0 -25 -9.5 -69t-22.5 -66h-51z" />
    <glyph glyph-name="lcaron" unicode="&#x13e;" horiz-adv-x="402" 
d="M150 69q0 -12 4 -18.5t10 -6.5q21 0 53 33l13 -22q-11 -20 -39 -42.5t-67 -22.5q-52 0 -52 57l3 37l93 655l-60 16l8 34l116 17l19 -12l-100 -715zM335 577l-4 6q7 47 7 99q0 61 -12 86l5 17h78q9 -26 9 -73q0 -25 -9.5 -69t-22.5 -66h-51z" />
    <glyph glyph-name="Ldot" unicode="&#x13f;" horiz-adv-x="594" 
d="M339 743l-3 -40l-87 -10l-82 -646l261 4l64 170l46 -9l-47 -212h-478l3 35l73 12l81 646l-67 10l4 40h232zM498 430q19 21 44 21q23 0 35 -11.5t12 -31.5q0 -32 -20 -53t-46 -21q-19 0 -31.5 11.5t-12.5 32.5q0 31 19 52z" />
    <glyph glyph-name="ldot" unicode="&#x140;" horiz-adv-x="383" 
d="M150 69q0 -12 4 -18.5t10 -6.5q21 0 53 33l13 -22q-11 -20 -39 -42.5t-67 -22.5q-52 0 -52 57l3 37l93 655l-60 16l8 34l116 17l19 -12l-100 -715zM278 410.5q19 20.5 44 20.5q23 0 35 -12t12 -32q0 -32 -20 -52t-46 -20q-19 0 -31.5 12t-12.5 33q0 30 19 50.5z" />
    <glyph glyph-name="Lslash" unicode="&#x141;" horiz-adv-x="573" 
d="M339 744l-3 -40l-87 -10l-29 -233l215 93l14 -51l-236 -100l-46 -355l261 4l64 172l46 -9l-47 -214h-478l3 35l73 12l39 320l-75 -32l-14 47l97 42l34 269l-67 10l4 40h232z" />
    <glyph glyph-name="lslash" unicode="&#x142;" horiz-adv-x="298" 
d="M150 69q0 -12 4 -18.5t10 -6.5q22 0 54 33l13 -22q-11 -18 -40.5 -41.5t-65.5 -23.5q-52 0 -52 57l3 37l48 338l-77 -30v54l84 34l37 259l-58 16l8 34l114 17l19 -12l-39 -280l99 40v-58l-107 -42l-53 -375z" />
    <glyph glyph-name="Nacute" unicode="&#x143;" horiz-adv-x="738" 
d="M256 743l248 -555l39 -111l74 617l-80 9l5 40h213l-3 -40l-75 -10l-95 -693h-78l-246 553l-39 111l-69 -617l84 -12l-3 -35h-217l3 35l68 11l85 647l-71 10l6 40h151zM524 983l49 -47q-21 -31 -71.5 -66.5t-93.5 -55.5l-32 19z" />
    <glyph glyph-name="nacute" unicode="&#x144;" horiz-adv-x="615" 
d="M301.5 529.5q58.5 38.5 115.5 38.5q54 0 83 -33.5t29 -110.5q0 -44 -21 -151l-5 -26q-1 -8 -5 -26q-18 -105 -21 -143q-2 -34 12 -34q20 0 47 26l13 -23q-10 -15 -39 -36t-63 -21q-53 0 -53 56q0 22 6 59t13 73l9 45l6 31q11 61 16 96t5 68q0 49 -15 67.5t-52 18.5
q-43 0 -97.5 -41.5t-92.5 -99.5l-49 -363h-78l65 488l-48 23l7 36l105 21l19 -10l-13 -126q43 59 101.5 97.5zM450 874l55 -56q-10 -17 -44.5 -54t-75 -72.5t-68.5 -50.5l-25 26z" />
    <glyph glyph-name="Ncommaaccent" unicode="&#x145;" horiz-adv-x="738" 
d="M256 743l248 -555l39 -111l74 617l-80 9l5 40h213l-3 -40l-75 -10l-95 -693h-78l-246 553l-39 111l-69 -617l84 -12l-3 -35h-217l3 35l68 11l85 647l-71 10l6 40h151zM280 -247q34 25 34 77q0 22 -8.5 40t-23.5 23v26l52 33q28 -10 41.5 -39.5t13.5 -64.5
q0 -48 -23.5 -80.5t-50.5 -40.5l-35 16v10z" />
    <glyph glyph-name="ncommaaccent" unicode="&#x146;" horiz-adv-x="615" 
d="M301.5 529.5q58.5 38.5 115.5 38.5q54 0 83 -33.5t29 -110.5q0 -44 -21 -151l-5 -26q-1 -8 -5 -26q-18 -105 -21 -143q-2 -34 12 -34q20 0 47 26l13 -23q-10 -15 -39 -36t-63 -21q-53 0 -53 56q0 22 6 59t13 73l9 45l6 31q11 61 16 96t5 68q0 49 -15 67.5t-52 18.5
q-43 0 -97.5 -41.5t-92.5 -99.5l-49 -363h-78l65 488l-48 23l7 36l105 21l19 -10l-13 -126q43 59 101.5 97.5zM207 -247q34 25 34 77q0 22 -8.5 40t-23.5 23v26l52 33q28 -10 41.5 -39.5t13.5 -64.5q0 -48 -23.5 -80.5t-50.5 -40.5l-35 16v10z" />
    <glyph glyph-name="Ncaron" unicode="&#x147;" horiz-adv-x="738" 
d="M256 743l248 -555l39 -111l74 617l-80 9l5 40h213l-3 -40l-75 -10l-95 -693h-78l-246 553l-39 111l-69 -617l84 -12l-3 -35h-217l3 35l68 11l85 647l-71 10l6 40h151zM328 977l114 -128l157 128l26 -23l-152 -162h-67l-107 162z" />
    <glyph glyph-name="ncaron" unicode="&#x148;" horiz-adv-x="615" 
d="M301.5 529.5q58.5 38.5 115.5 38.5q54 0 83 -33.5t29 -110.5q0 -44 -21 -151l-5 -26q-1 -8 -5 -26q-18 -105 -21 -143q-2 -34 12 -34q20 0 47 26l13 -23q-10 -15 -39 -36t-63 -21q-53 0 -53 56q0 22 6 59t13 73l9 45l6 31q11 61 16 96t5 68q0 49 -15 67.5t-52 18.5
q-43 0 -97.5 -41.5t-92.5 -99.5l-49 -363h-78l65 488l-48 23l7 36l105 21l19 -10l-13 -126q43 59 101.5 97.5zM240 832l108 -132l157 132l28 -23l-157 -167h-68l-100 167z" />
    <glyph glyph-name="Eng" unicode="&#x14a;" horiz-adv-x="739" 
d="M340 -146q65 19 111.5 55.5t56.5 88.5l-252 548l-37 99l-67 -598l82 -12l-3 -35h-218l4 35l68 11l86 648l-73 10l6 39h152l251 -553l35 -98l71 602l-76 10l5 39h211l-3 -39l-74 -10l-94 -694q-10 -79 -75.5 -122.5t-152.5 -59.5z" />
    <glyph glyph-name="eng" unicode="&#x14b;" horiz-adv-x="617" 
d="M301 528.5q58 38.5 116 38.5q116 0 112 -147q-5 -96 -19 -211t-33 -209q-26 -129 -79.5 -191t-137.5 -62q-24 0 -42.5 4.5t-26.5 13.5l13 34q16 -8 43 -8q67 0 102 63t54 170q9 38 27.5 177.5t18.5 219.5q0 46 -15 64.5t-52 18.5q-43 0 -97.5 -41.5t-93.5 -101.5
l-48 -361h-78l64 480l-48 24l7 35l105 21l19 -10l-12 -118q43 58 101 96.5z" />
    <glyph glyph-name="Omacron" unicode="&#x14c;" horiz-adv-x="677" 
d="M532.5 710.5q55.5 -42.5 82.5 -114.5t27 -161q0 -125 -43.5 -226.5t-121 -160t-174.5 -58.5q-80 0 -135.5 42t-84 114.5t-28.5 164.5q0 125 44.5 226t122.5 158.5t174 57.5q81 0 136.5 -42.5zM257.5 654q-56.5 -49 -89 -136t-32.5 -196q0 -129 47 -206.5t131 -77.5
q69 0 124.5 49t87.5 136t32 196q0 130 -44.5 207t-129.5 77q-70 0 -126.5 -49zM549 912l-8 -61h-250l8 61h250z" />
    <glyph glyph-name="omacron" unicode="&#x14d;" horiz-adv-x="560" 
d="M467 507q50 -61 50 -171q0 -88 -35.5 -167.5t-99 -129t-143.5 -49.5q-92 0 -143 58.5t-53 165.5q-1 90 35 171.5t100 132t145 50.5q94 0 144 -61zM209.5 474q-41.5 -45 -62.5 -114t-21 -139q0 -88 33 -135t95 -47q56 0 97 44.5t62 112.5t21 137q0 90 -31 138t-94 48
q-58 0 -99.5 -45zM471 737l-8 -61h-252l8 61h252z" />
    <glyph glyph-name="Obreve" unicode="&#x14e;" horiz-adv-x="677" 
d="M532.5 710.5q55.5 -42.5 82.5 -114.5t27 -161q0 -125 -43.5 -226.5t-121 -160t-174.5 -58.5q-80 0 -135.5 42t-84 114.5t-28.5 164.5q0 125 44.5 226t122.5 158.5t174 57.5q81 0 136.5 -42.5zM257.5 654q-56.5 -49 -89 -136t-32.5 -196q0 -129 47 -206.5t131 -77.5
q69 0 124.5 49t87.5 136t32 196q0 130 -44.5 207t-129.5 77q-70 0 -126.5 -49zM306.5 841.5q-35.5 43.5 -35.5 105.5q0 14 1 20h43q2 -44 23.5 -76.5t74.5 -32.5q52 0 82 33t38 76h41q0 -42 -22.5 -81t-60 -63.5t-80.5 -24.5q-69 0 -104.5 43.5z" />
    <glyph glyph-name="obreve" unicode="&#x14f;" horiz-adv-x="560" 
d="M467 507q50 -61 50 -171q0 -88 -35.5 -167.5t-99 -129t-143.5 -49.5q-92 0 -143 58.5t-53 165.5q-1 90 35 171.5t100 132t145 50.5q94 0 144 -61zM209.5 474q-41.5 -45 -62.5 -114t-21 -139q0 -88 33 -135t95 -47q56 0 97 44.5t62 112.5t21 137q0 90 -31 138t-94 48
q-58 0 -99.5 -45zM233 684.5q-39 41.5 -39 106.5l1 16h42l1 -15q5 -36 31 -62.5t71 -26.5q54 0 81 31.5t35 72.5h41q0 -11 -1 -15q-4 -38 -25.5 -72t-57 -55.5t-80.5 -21.5q-61 0 -100 41.5z" />
    <glyph glyph-name="Ohungarumlaut" unicode="&#x150;" horiz-adv-x="677" 
d="M532.5 710.5q55.5 -42.5 82.5 -114.5t27 -161q0 -125 -43.5 -226.5t-121 -160t-174.5 -58.5q-80 0 -135.5 42t-84 114.5t-28.5 164.5q0 125 44.5 226t122.5 158.5t174 57.5q81 0 136.5 -42.5zM257.5 654q-56.5 -49 -89 -136t-32.5 -196q0 -129 47 -206.5t131 -77.5
q69 0 124.5 49t87.5 136t32 196q0 130 -44.5 207t-129.5 77q-70 0 -126.5 -49zM398 974l52 -46q-30 -60 -158 -143l-32 26zM610 974l53 -45q-25 -40 -68.5 -78.5t-87.5 -64.5l-35 26z" />
    <glyph glyph-name="ohungarumlaut" unicode="&#x151;" horiz-adv-x="560" 
d="M467 507q50 -61 50 -171q0 -88 -35.5 -167.5t-99 -129t-143.5 -49.5q-92 0 -143 58.5t-53 165.5q-1 90 35 171.5t100 132t145 50.5q94 0 144 -61zM209.5 474q-41.5 -45 -62.5 -114t-21 -139q0 -88 33 -135t95 -47q56 0 97 44.5t62 112.5t21 137q0 90 -31 138t-94 48
q-58 0 -99.5 -45zM332 872l60 -43q-15 -36 -70.5 -98.5t-92.5 -88.5l-33 26zM546 872l58 -42q-17 -38 -75 -102t-94 -86l-34 26z" />
    <glyph glyph-name="OE" unicode="&#x152;" horiz-adv-x="1036" 
d="M448 32q-66 -42 -145 -42q-77 0 -134.5 39t-88.5 112.5t-31 173.5q0 124 46 224t125 156.5t175 56.5q81 0 136 -47.5t79 -128.5l21 167h373l-4 -145h-43l-18 96l-231 6l-37 -292l217 11l-6 -68l-216 7l-39 -310l287 9l46 105l43 -11l-35 -151h-426l17 149
q-45 -75 -111 -117zM255 655q-58 -47 -91.5 -129.5t-33.5 -183.5q0 -144 45.5 -223.5t138.5 -80.5q70 0 125.5 49t87.5 135.5t32 194.5q0 285 -176 285q-70 0 -128 -47z" />
    <glyph glyph-name="oe" unicode="&#x153;" horiz-adv-x="876" 
d="M721.5 22.5q-56.5 -32.5 -121.5 -32.5q-62 0 -104 27t-65 73q-38 -47 -88 -73.5t-107 -26.5q-94 0 -144.5 60t-50.5 169q0 89 36 169.5t99.5 129.5t143.5 49q63 0 106.5 -27.5t65.5 -78.5q39 50 91 78t111 28q68 0 103 -33.5t35 -87.5q0 -71 -60.5 -119.5t-141.5 -73
t-140 -25.5q-1 -7 -1 -23q0 -63 30 -110.5t92 -47.5q44 0 89.5 19.5t85.5 59.5l18 -34q-26 -37 -82.5 -69.5zM584.5 482.5q-39.5 -38.5 -63.5 -96t-30 -113.5q57 2 118 22.5t101.5 57.5t40.5 86q0 40 -19.5 61t-56.5 21q-51 0 -90.5 -38.5zM208.5 473.5
q-41.5 -45.5 -63 -114.5t-21.5 -138q0 -87 32.5 -134.5t93.5 -47.5q54 0 94 44.5t63 114.5q-1 4 -1 14q0 25 7 63.5t15 61.5q-4 76 -31.5 129t-89.5 53q-57 0 -98.5 -45.5z" />
    <glyph glyph-name="Racute" unicode="&#x154;" horiz-adv-x="653" 
d="M290 747q44 4 66 4q123 0 178.5 -41t55.5 -131q0 -88 -52.5 -153t-140.5 -89q24 -18 49.5 -62t58.5 -109q5 -12 15 -32q21 -47 31.5 -64.5t25 -23.5t46.5 -6l-1 -40h-100q-17 0 -34.5 25t-45.5 95q-41 98 -71.5 152.5t-58.5 55.5h-74h-40l-32 -281l91 -12l-3 -35h-235
l3 35l67 12l81 646l-67 10l4 40h120q21 0 63 4zM267 373.5q36 -0.5 60 0.5q55 3 96.5 30t64 71t22.5 98q0 68 -37.5 99.5t-131.5 31.5q-17 0 -43.5 -2.5t-50.5 -5.5l-43 -321q27 -1 63 -1.5zM471 983l49 -47q-21 -31 -71.5 -66.5t-93.5 -55.5l-32 19z" />
    <glyph glyph-name="racute" unicode="&#x155;" horiz-adv-x="408" 
d="M237 489.5q28 32.5 66.5 55t81.5 22.5q24 0 32 -6l-18 -87q-14 8 -46 8q-46 0 -93 -35t-73 -98l-43 -349h-78l63 486l-51 23l7 36l105 21l19 -9l-7 -89l-6 -41q13 30 41 62.5zM376 874l55 -56q-10 -17 -44.5 -54t-75 -72.5t-68.5 -50.5l-25 26z" />
    <glyph glyph-name="Rcommaaccent" unicode="&#x156;" horiz-adv-x="653" 
d="M290 747q44 4 66 4q123 0 178.5 -41t55.5 -131q0 -88 -52.5 -153t-140.5 -89q24 -18 49.5 -62t58.5 -109q5 -12 15 -32q21 -47 31.5 -64.5t25 -23.5t46.5 -6l-1 -40h-100q-17 0 -34.5 25t-45.5 95q-41 98 -71.5 152.5t-58.5 55.5h-74h-40l-32 -281l91 -12l-3 -35h-235
l3 35l67 12l81 646l-67 10l4 40h120q21 0 63 4zM267 373.5q36 -0.5 60 0.5q55 3 96.5 30t64 71t22.5 98q0 68 -37.5 99.5t-131.5 31.5q-17 0 -43.5 -2.5t-50.5 -5.5l-43 -321q27 -1 63 -1.5zM261 -247q34 25 34 77q0 22 -8.5 40t-23.5 23v26l52 33q28 -10 41.5 -39.5
t13.5 -64.5q0 -48 -23.5 -80.5t-50.5 -40.5l-35 16v10z" />
    <glyph glyph-name="rcommaaccent" unicode="&#x157;" horiz-adv-x="408" 
d="M237 489.5q28 32.5 66.5 55t81.5 22.5q24 0 32 -6l-18 -87q-14 8 -46 8q-46 0 -93 -35t-73 -98l-43 -349h-78l63 486l-51 23l7 36l105 21l19 -9l-7 -89l-6 -41q13 30 41 62.5zM34 -247q34 25 34 77q0 22 -8.5 40t-23.5 23v26l52 33q28 -10 41.5 -39.5t13.5 -64.5
q0 -48 -23.5 -80.5t-50.5 -40.5l-35 16v10z" />
    <glyph glyph-name="Rcaron" unicode="&#x158;" horiz-adv-x="653" 
d="M290 747q44 4 66 4q123 0 178.5 -41t55.5 -131q0 -88 -52.5 -153t-140.5 -89q24 -18 49.5 -62t58.5 -109q5 -12 15 -32q21 -47 31.5 -64.5t25 -23.5t46.5 -6l-1 -40h-100q-17 0 -34.5 25t-45.5 95q-41 98 -71.5 152.5t-58.5 55.5h-74h-40l-32 -281l91 -12l-3 -35h-235
l3 35l67 12l81 646l-67 10l4 40h120q21 0 63 4zM267 373.5q36 -0.5 60 0.5q55 3 96.5 30t64 71t22.5 98q0 68 -37.5 99.5t-131.5 31.5q-17 0 -43.5 -2.5t-50.5 -5.5l-43 -321q27 -1 63 -1.5zM275 977l114 -128l157 128l26 -23l-152 -162h-67l-107 162z" />
    <glyph glyph-name="rcaron" unicode="&#x159;" horiz-adv-x="408" 
d="M237 489.5q28 32.5 66.5 55t81.5 22.5q24 0 32 -6l-18 -87q-14 8 -46 8q-46 0 -93 -35t-73 -98l-43 -349h-78l63 486l-51 23l7 36l105 21l19 -9l-7 -89l-6 -41q13 30 41 62.5zM166 832l108 -132l157 132l28 -23l-157 -167h-68l-100 167z" />
    <glyph glyph-name="Sacute" unicode="&#x15a;" horiz-adv-x="531" 
d="M390 698q-30 8 -68 8q-59 0 -103 -31t-44 -89q0 -41 19.5 -72.5t48.5 -54t74 -50.5q58 -38 86.5 -60t51 -58.5t22.5 -86.5q0 -65 -32.5 -114t-90 -75t-129.5 -26q-63 0 -121.5 14t-78.5 29l20 137h48l6 -102q20 -14 55.5 -22.5t72.5 -8.5q42 0 81.5 15.5t64.5 47t25 78.5
q0 54 -33 89.5t-96 73.5q-53 33 -87.5 60t-59.5 67t-25 92q0 56 31.5 100.5t84.5 69t116 24.5q64 0 109.5 -12.5t69.5 -29.5l-22 -128h-44l-5 95q-17 12 -47 20zM424 983l49 -47q-21 -31 -71.5 -66.5t-93.5 -55.5l-32 19z" />
    <glyph glyph-name="sacute" unicode="&#x15b;" horiz-adv-x="425" 
d="M357 494q-16 9 -40.5 15.5t-52.5 6.5q-51 0 -80.5 -21.5t-29.5 -63.5q0 -35 23 -62t64 -58q39 -30 60 -49t39 -49.5t18 -68.5q0 -73 -55.5 -113.5t-137.5 -40.5q-45 0 -88.5 9.5t-56.5 21.5l13 61q19 -14 56.5 -26t78.5 -12q49 0 82 19t33 65q0 27 -14.5 49t-32 36.5
t-51.5 38.5q-40 27 -73 68t-33 94q0 46 25.5 81t68.5 54t95 19q36 0 73 -6.5t52 -13.5l-16 -68q-4 5 -20 14zM381 874l55 -56q-10 -17 -44.5 -54t-75 -72.5t-68.5 -50.5l-25 26z" />
    <glyph glyph-name="Scircumflex" unicode="&#x15c;" horiz-adv-x="531" 
d="M390 698q-30 8 -68 8q-59 0 -103 -31t-44 -89q0 -41 19.5 -72.5t48.5 -54t74 -50.5q58 -38 86.5 -60t51 -58.5t22.5 -86.5q0 -65 -32.5 -114t-90 -75t-129.5 -26q-63 0 -121.5 14t-78.5 29l20 137h48l6 -102q20 -14 55.5 -22.5t72.5 -8.5q42 0 81.5 15.5t64.5 47t25 78.5
q0 54 -33 89.5t-96 73.5q-53 33 -87.5 60t-59.5 67t-25 92q0 56 31.5 100.5t84.5 69t116 24.5q64 0 109.5 -12.5t69.5 -29.5l-22 -128h-44l-5 95q-17 12 -47 20zM323 977h67l107 -160l-28 -25l-116 125l-164 -123l-26 23z" />
    <glyph glyph-name="scircumflex" unicode="&#x15d;" horiz-adv-x="425" 
d="M357 494q-16 9 -40.5 15.5t-52.5 6.5q-51 0 -80.5 -21.5t-29.5 -63.5q0 -35 23 -62t64 -58q39 -30 60 -49t39 -49.5t18 -68.5q0 -73 -55.5 -113.5t-137.5 -40.5q-45 0 -88.5 9.5t-56.5 21.5l13 61q19 -14 56.5 -26t78.5 -12q49 0 82 19t33 65q0 27 -14.5 49t-32 36.5
t-51.5 38.5q-40 27 -73 68t-33 94q0 46 25.5 81t68.5 54t95 19q36 0 73 -6.5t52 -13.5l-16 -68q-4 5 -20 14zM333 823l96 -142l-26 -30l-104 103l-147 -98l-33 10l138 145z" />
    <glyph glyph-name="Scedilla" unicode="&#x15e;" horiz-adv-x="531" 
d="M45 169h48l6 -102q20 -14 55.5 -22.5t72.5 -8.5q42 0 81.5 15.5t64.5 47t25 78.5q0 54 -33 89.5t-96 73.5q-53 33 -87.5 60t-59.5 67t-25 92q0 56 31.5 100.5t84.5 69t116 24.5q64 0 109.5 -12.5t69.5 -29.5l-22 -128h-44l-5 95q-17 12 -47 20t-68 8q-59 0 -103 -31
t-44 -89q0 -41 19.5 -72.5t48.5 -54t74 -50.5q58 -38 86.5 -60t51 -58.5t22.5 -86.5q0 -90 -61 -147.5t-160 -66.5q9 -23 9 -59q0 -78 -36.5 -118.5t-95.5 -40.5q-20 0 -38.5 4t-26.5 10l7 60q6 -4 20 -6.5t29 -2.5q44 0 68 32.5t24 86.5q0 19 -3 33q-60 1 -114.5 15
t-73.5 28z" />
    <glyph glyph-name="scedilla" unicode="&#x15f;" horiz-adv-x="425" 
d="M50.5 -224q-18.5 4 -26.5 10l6 60q6 -4 20 -6.5t30 -2.5q44 0 67.5 32.5t24.5 86.5q0 16 -4 34q-47 0 -91 9t-57 22l13 61q19 -14 56.5 -26t78.5 -12q49 0 82 19t33 65q0 27 -14.5 49t-32 36.5t-51.5 38.5q-40 27 -73 68t-33 94q0 46 25.5 81t68.5 54t95 19q36 0 73 -6.5
t52 -13.5l-16 -68q-4 5 -20 14t-40.5 15.5t-52.5 6.5q-51 0 -80.5 -21.5t-29.5 -63.5q0 -35 23 -62t64 -58q39 -30 60 -49t39 -49.5t18 -68.5q0 -61 -41 -100.5t-106 -49.5q10 -28 10 -63q0 -78 -36.5 -118.5t-95.5 -40.5q-20 0 -38.5 4z" />
    <glyph glyph-name="Scaron" unicode="&#x160;" horiz-adv-x="531" 
d="M390 698q-30 8 -68 8q-59 0 -103 -31t-44 -89q0 -41 19.5 -72.5t48.5 -54t74 -50.5q58 -38 86.5 -60t51 -58.5t22.5 -86.5q0 -65 -32.5 -114t-90 -75t-129.5 -26q-63 0 -121.5 14t-78.5 29l20 137h48l6 -102q20 -14 55.5 -22.5t72.5 -8.5q42 0 81.5 15.5t64.5 47t25 78.5
q0 54 -33 89.5t-96 73.5q-53 33 -87.5 60t-59.5 67t-25 92q0 56 31.5 100.5t84.5 69t116 24.5q64 0 109.5 -12.5t69.5 -29.5l-22 -128h-44l-5 95q-17 12 -47 20zM228 977l114 -128l157 128l26 -23l-152 -162h-67l-107 162z" />
    <glyph glyph-name="scaron" unicode="&#x161;" horiz-adv-x="425" 
d="M357 494q-16 9 -40.5 15.5t-52.5 6.5q-51 0 -80.5 -21.5t-29.5 -63.5q0 -35 23 -62t64 -58q39 -30 60 -49t39 -49.5t18 -68.5q0 -73 -55.5 -113.5t-137.5 -40.5q-45 0 -88.5 9.5t-56.5 21.5l13 61q19 -14 56.5 -26t78.5 -12q49 0 82 19t33 65q0 27 -14.5 49t-32 36.5
t-51.5 38.5q-40 27 -73 68t-33 94q0 46 25.5 81t68.5 54t95 19q36 0 73 -6.5t52 -13.5l-16 -68q-4 5 -20 14zM171 832l108 -132l157 132l28 -23l-157 -167h-68l-100 167z" />
    <glyph glyph-name="uni0162" unicode="&#x162;" horiz-adv-x="604" 
d="M76 743h562l-30 -222l-43 -1l7 172l-182 8l-85 -653l123 -9l-3 -38h-128q12 -26 12 -68q0 -79 -36.5 -119.5t-95.5 -40.5q-19 0 -37.5 4.5t-26.5 10.5l7 59q6 -4 20 -6.5t29 -2.5q45 0 68.5 32.5t23.5 87.5q0 21 -6 43h-151l2 38l120 9l84 653l-180 -8l-44 -170l-45 -1z
" />
    <glyph glyph-name="uni0163" unicode="&#x163;" horiz-adv-x="357" 
d="M-5 -154q6 -4 20 -6.5t29 -2.5q45 0 68.5 32.5t23.5 87.5q0 17 -4 37q-54 13 -54 78q0 26 5 63l47 365h-61l9 35l61 19q21 27 56 137h39l-18 -136h138l-8 -55h-136l-45 -331q-7 -59 -7 -75q0 -26 10.5 -36.5t37.5 -10.5q20 0 51 14t48 28l8 -31q-17 -21 -58.5 -42.5
t-78.5 -24.5q8 -26 8 -59q0 -79 -36.5 -119.5t-95.5 -40.5q-19 0 -37.5 4.5t-26.5 10.5z" />
    <glyph glyph-name="Tcaron" unicode="&#x164;" horiz-adv-x="604" 
d="M638 743l-30 -222l-43 -1l7 172l-182 8l-85 -653l123 -9l-3 -38h-321l2 38l120 9l84 653l-180 -8l-44 -170l-45 -1l35 222h562zM257 977l114 -128l157 128l26 -23l-152 -162h-67l-107 162z" />
    <glyph glyph-name="tcaron" unicode="&#x165;" horiz-adv-x="357" 
d="M158 94q0 -26 10.5 -36.5t37.5 -10.5q20 0 51 14t48 28l8 -31q-19 -23 -64 -45.5t-85 -22.5q-86 0 -86 82q0 26 5 63l47 365h-61l9 35l61 19q21 27 56 137h39l-18 -136h138l-8 -55h-136l-45 -331q-7 -59 -7 -75zM330 601l-4 6q7 47 7 99q0 61 -12 86l5 17h78q9 -26 9 -73
q0 -25 -9.5 -69t-22.5 -66h-51z" />
    <glyph glyph-name="Tbar" unicode="&#x166;" horiz-adv-x="605" 
d="M638 743l-30 -222l-43 -1l7 172l-182 8l-38 -292h155l-6 -52h-156l-40 -309l123 -9l-3 -38h-321l2 38l120 9l39 309h-135l7 52h135l38 292l-180 -8l-44 -170l-45 -1l35 222h562z" />
    <glyph glyph-name="tbar" unicode="&#x167;" horiz-adv-x="357" 
d="M158 94q0 -26 10.5 -36.5t37.5 -10.5q20 0 51 14t48 28l8 -31q-19 -23 -64 -45.5t-85 -22.5q-86 0 -86 82q0 18 5 63l22 175h-66l6 51h67l18 139h-61l9 35l61 19q21 27 56 137h39l-18 -136h138l-8 -55h-136l-19 -139h140l-6 -51h-141l-19 -141q-7 -59 -7 -75z" />
    <glyph glyph-name="Utilde" unicode="&#x168;" horiz-adv-x="675" 
d="M495 63.5q-71 -73.5 -200 -73.5q-105 0 -161.5 58t-58.5 160q-2 41 4 82l53 404l-68 9l4 40h225l-4 -40l-76 -10l-53 -397q-7 -46 -5 -92q2 -80 39.5 -124.5t112.5 -44.5q93 0 145 66.5t69 204.5l51 387l-66 10l4 40h197l-4 -40l-64 -9l-51 -388q-22 -169 -93 -242.5z
M282.5 937q27.5 23 66.5 23q23 0 40 -10t36 -28q19 -17 32.5 -25t30.5 -8q26 0 44 13.5t34 35.5l26 -29q-13 -32 -40 -57t-65 -25q-25 0 -43 10t-39 29q-20 17 -34 25t-33 8q-23 0 -39 -12t-33 -36l-26 28q15 35 42.5 58z" />
    <glyph glyph-name="utilde" unicode="&#x169;" horiz-adv-x="589" 
d="M167 247q-4 -29 -7 -58t-3 -53q0 -52 19 -71t56 -19q40 0 85.5 31.5t74.5 73.5l54 411h77l-64 -482q-1 -4 -1 -12q0 -24 13 -24q21 0 55 34l12 -23q-6 -9 -22 -24.5t-39.5 -27.5t-47.5 -12q-23 0 -36 14t-13 37q0 10 1 15q3 12 5 37l-1 1q-35 -45 -82.5 -75t-102.5 -30
q-58 0 -89 30t-31 103q0 50 17 173l27 190l-49 24l6 35l107 21l19 -10l-34 -264zM290 765q27 0 44 -9t38 -27q16 -14 27 -20.5t25 -6.5q23 0 35 9t19.5 20.5t9.5 14.5l30 -36q-10 -34 -36 -52t-65 -18q-27 0 -43 8.5t-36 26.5q-15 14 -26 20.5t-28 6.5q-21 0 -34 -7.5
t-29 -24.5l-24 34q30 61 93 61z" />
    <glyph glyph-name="Umacron" unicode="&#x16a;" horiz-adv-x="675" 
d="M495 63.5q-71 -73.5 -200 -73.5q-105 0 -161.5 58t-58.5 160q-2 41 4 82l53 404l-68 9l4 40h225l-4 -40l-76 -10l-53 -397q-7 -46 -5 -92q2 -80 39.5 -124.5t112.5 -44.5q93 0 145 66.5t69 204.5l51 387l-66 10l4 40h197l-4 -40l-64 -9l-51 -388q-22 -169 -93 -242.5z
M542 912l-8 -61h-250l8 61h250z" />
    <glyph glyph-name="umacron" unicode="&#x16b;" horiz-adv-x="589" 
d="M167 247q-4 -29 -7 -58t-3 -53q0 -52 19 -71t56 -19q40 0 85.5 31.5t74.5 73.5l54 411h77l-64 -482q-1 -4 -1 -12q0 -24 13 -24q21 0 55 34l12 -23q-6 -9 -22 -24.5t-39.5 -27.5t-47.5 -12q-23 0 -36 14t-13 37q0 10 1 15q3 12 5 37l-1 1q-35 -45 -82.5 -75t-102.5 -30
q-58 0 -89 30t-31 103q0 50 17 173l27 190l-49 24l6 35l107 21l19 -10l-34 -264zM486 736l-8 -61h-252l8 61h252z" />
    <glyph glyph-name="Ubreve" unicode="&#x16c;" horiz-adv-x="675" 
d="M495 63.5q-71 -73.5 -200 -73.5q-105 0 -161.5 58t-58.5 160q-2 41 4 82l53 404l-68 9l4 40h225l-4 -40l-76 -10l-53 -397q-7 -46 -5 -92q2 -80 39.5 -124.5t112.5 -44.5q93 0 145 66.5t69 204.5l51 387l-66 10l4 40h197l-4 -40l-64 -9l-51 -388q-22 -169 -93 -242.5z
M299.5 841.5q-35.5 43.5 -35.5 105.5q0 14 1 20h43q2 -44 23.5 -76.5t74.5 -32.5q52 0 82 33t38 76h41q0 -42 -22.5 -81t-60 -63.5t-80.5 -24.5q-69 0 -104.5 43.5z" />
    <glyph glyph-name="ubreve" unicode="&#x16d;" horiz-adv-x="589" 
d="M167 247q-4 -29 -7 -58t-3 -53q0 -52 19 -71t56 -19q40 0 85.5 31.5t74.5 73.5l54 411h77l-64 -482q-1 -4 -1 -12q0 -24 13 -24q21 0 55 34l12 -23q-6 -9 -22 -24.5t-39.5 -27.5t-47.5 -12q-23 0 -36 14t-13 37q0 10 1 15q3 12 5 37l-1 1q-35 -45 -82.5 -75t-102.5 -30
q-58 0 -89 30t-31 103q0 50 17 173l27 190l-49 24l6 35l107 21l19 -10l-34 -264zM248 683.5q-39 41.5 -39 106.5l1 16h42l1 -15q5 -36 31 -62.5t71 -26.5q54 0 81 31.5t35 72.5h41q0 -11 -1 -15q-4 -38 -25.5 -72t-57 -55.5t-80.5 -21.5q-61 0 -100 41.5z" />
    <glyph glyph-name="Uring" unicode="&#x16e;" horiz-adv-x="675" 
d="M495 63.5q-71 -73.5 -200 -73.5q-105 0 -161.5 58t-58.5 160q-2 41 4 82l53 404l-68 9l4 40h225l-4 -40l-76 -10l-53 -397q-7 -46 -5 -92q2 -80 39.5 -124.5t112.5 -44.5q93 0 145 66.5t69 204.5l51 387l-66 10l4 40h197l-4 -40l-64 -9l-51 -388q-22 -169 -93 -242.5z
M295.5 786q-35.5 28 -35.5 77q0 40 25 67t63.5 40t78.5 13q60 0 95.5 -25t35.5 -69q0 -43 -24 -73t-61.5 -44t-78.5 -14q-63 0 -98.5 28zM474 814q31 23 31 71q0 30 -23 47t-61 17q-44 0 -76.5 -20.5t-32.5 -61.5q0 -34 24 -55t63 -21q44 0 75 23z" />
    <glyph glyph-name="uring" unicode="&#x16f;" horiz-adv-x="589" 
d="M167 247q-4 -29 -7 -58t-3 -53q0 -52 19 -71t56 -19q40 0 85.5 31.5t74.5 73.5l54 411h77l-64 -482q-1 -4 -1 -12q0 -24 13 -24q21 0 55 34l12 -23q-6 -9 -22 -24.5t-39.5 -27.5t-47.5 -12q-23 0 -36 14t-13 37q0 10 1 15q3 12 5 37l-1 1q-35 -45 -82.5 -75t-102.5 -30
q-58 0 -89 30t-31 103q0 50 17 173l27 190l-49 24l6 35l107 21l19 -10l-34 -264zM250 683.5q-35 30.5 -35 83.5q0 48 25 80t63 47t79 15q62 0 96.5 -28t34.5 -78q0 -49 -23.5 -83t-61 -50.5t-79.5 -16.5q-64 0 -99 30.5zM431.5 713q30.5 25 30.5 80q0 37 -23.5 59.5
t-62.5 22.5q-46 0 -77.5 -24.5t-31.5 -76.5q0 -37 24 -61.5t63 -24.5q47 0 77.5 25z" />
    <glyph glyph-name="Uhungarumlaut" unicode="&#x170;" horiz-adv-x="675" 
d="M495 63.5q-71 -73.5 -200 -73.5q-105 0 -161.5 58t-58.5 160q-2 41 4 82l53 404l-68 9l4 40h225l-4 -40l-76 -10l-53 -397q-7 -46 -5 -92q2 -80 39.5 -124.5t112.5 -44.5q93 0 145 66.5t69 204.5l51 387l-66 10l4 40h197l-4 -40l-64 -9l-51 -388q-22 -169 -93 -242.5z
M391 974l52 -46q-30 -60 -158 -143l-32 26zM603 974l53 -45q-25 -40 -68.5 -78.5t-87.5 -64.5l-35 26z" />
    <glyph glyph-name="uhungarumlaut" unicode="&#x171;" horiz-adv-x="589" 
d="M167 247q-4 -29 -7 -58t-3 -53q0 -52 19 -71t56 -19q40 0 85.5 31.5t74.5 73.5l54 411h77l-64 -482q-1 -4 -1 -12q0 -24 13 -24q21 0 55 34l12 -23q-6 -9 -22 -24.5t-39.5 -27.5t-47.5 -12q-23 0 -36 14t-13 37q0 10 1 15q3 12 5 37l-1 1q-35 -45 -82.5 -75t-102.5 -30
q-58 0 -89 30t-31 103q0 50 17 173l27 190l-49 24l6 35l107 21l19 -10l-34 -264zM347 871l60 -43q-15 -36 -70.5 -98.5t-92.5 -88.5l-33 26zM561 871l58 -42q-17 -38 -75 -102t-94 -86l-34 26z" />
    <glyph glyph-name="Uogonek" unicode="&#x172;" horiz-adv-x="675" 
d="M514.5 87q-54.5 -74 -150.5 -90q-74 -70 -74 -106q-1 -21 8 -32t24 -11q37 0 77 33l11 -38q-52 -48 -125 -48q-36 0 -54 18.5t-18 43.5q0 14 5 30t13 27q16 25 38 42.5t51 34.5l-25 -1q-105 0 -161.5 58t-58.5 160q-2 41 4 82l53 404l-68 9l4 40h225l-4 -40l-76 -10
l-53 -397q-7 -46 -5 -92q2 -80 39.5 -124.5t112.5 -44.5q93 0 145 66.5t69 204.5l51 387l-66 10l4 40h197l-4 -40l-64 -9l-51 -388q-19 -145 -73.5 -219z" />
    <glyph glyph-name="uogonek" unicode="&#x173;" horiz-adv-x="589" 
d="M81 545l107 21l19 -10l-34 -264l-6 -45q-4 -29 -7 -58t-3 -53q0 -52 19 -71t56 -19q40 0 85.5 31.5t74.5 73.5l54 411h77l-64 -482q-1 -4 -1 -12q0 -24 13 -24q21 0 55 34l12 -23q-5 -8 -19.5 -21.5t-32.5 -24.5q-36 -33 -56.5 -58t-20.5 -49q-3 -40 27 -40q38 0 73 30
l10 -34q-48 -44 -116 -44q-34 0 -51 17t-16 41q0 12 5 27t11 25q25 39 65 68q-18 3 -27.5 16.5t-9.5 34.5q0 9 1 14q3 12 5 37l-1 1q-35 -45 -82.5 -75t-102.5 -30q-58 0 -89 30t-31 103q0 50 17 173l27 190l-49 24z" />
    <glyph glyph-name="Wcircumflex" unicode="&#x174;" horiz-adv-x="880" 
d="M254 743l-3 -40l-89 -8l62 -481l20 -143l41 116l170 437l-8 70l-67 9l4 40h238l-8 -40l-86 -9l48 -480l10 -143l49 126l208 496l-76 10l4 40h211l-6 -40l-68 -10l-303 -698h-81l-53 521l-207 -521h-79l-99 698l-71 10l5 40h234zM500 977h67l107 -160l-28 -25l-116 125
l-164 -123l-26 23z" />
    <glyph glyph-name="wcircumflex" unicode="&#x175;" horiz-adv-x="830" 
d="M78 501.5q-5 7.5 -15 7.5q-9 1 -16.5 -4t-20.5 -15l-11 26q8 14 34 32.5t56 18.5q32 0 45 -16t18 -51l38 -344l10 -94l38 86l177 415h70l37 -408l8 -93l64 92q35 49 73 135.5t41 157.5q1 17 -3.5 32t-5.5 18q-6 18 -6 26q0 21 10 32.5t28 11.5q52 0 52 -97
q0 -61 -41 -149t-99 -173l-98 -152l-73 -5l-18 167l-23 230l-5 65l-21 -66l-116 -242l-70 -149l-68 -6l-28 169l-52 317q-4 18 -9 25.5zM537 823l96 -142l-26 -30l-104 103l-147 -98l-33 10l138 145z" />
    <glyph glyph-name="Ycircumflex" unicode="&#x176;" horiz-adv-x="577" 
d="M271 743l-6 -40l-90 -10l117 -290l23 -67l39 67l177 290l-77 10l5 40h199l-5 -40l-54 -9l-259 -407l-31 -240l109 -12l-4 -35h-298l3 35l114 12l31 240l-179 406l-57 10l3 40h240zM357 977h67l107 -160l-28 -25l-116 125l-164 -123l-26 23z" />
    <glyph glyph-name="ycircumflex" unicode="&#x177;" horiz-adv-x="524" 
d="M83.5 501q-5.5 7 -14.5 7t-18.5 -6t-24.5 -21l-12 26q9 16 37.5 37.5t58.5 21.5q31 0 44 -16.5t17 -50.5l52 -374l14 -136l81 155q16 34 25 50q43 86 63.5 143.5t20.5 119.5q0 13 -4 24t-5 13q-8 20 -8 30q0 21 10.5 31t27.5 10q26 0 40.5 -23t14.5 -65q0 -64 -28.5 -134
t-78.5 -164l-18 -34q-54 -109 -99.5 -186t-78.5 -117q-62 -89 -166 -89q-21 0 -49 4.5t-43 10.5l19 64q38 -19 83 -19q42 0 90.5 36t86.5 112h-38l-90 514q-4 19 -9.5 26zM367 823l96 -142l-26 -30l-104 103l-147 -98l-33 10l138 145z" />
    <glyph glyph-name="Ydieresis" unicode="&#x178;" horiz-adv-x="577" 
d="M271 743l-6 -40l-90 -10l117 -290l23 -67l39 67l177 290l-77 10l5 40h199l-5 -40l-54 -9l-259 -407l-31 -240l109 -12l-4 -35h-298l3 35l114 12l31 240l-179 406l-57 10l3 40h240zM242 856.5q-13 13.5 -13 32.5q0 26 18 45t39 19t33.5 -13.5t11.5 -33.5q0 -27 -17 -45
t-41 -18q-18 0 -31 13.5zM449.5 857q-12.5 14 -12.5 35q0 26 18 43.5t39 17.5q20 0 32.5 -12.5t12.5 -32.5q0 -28 -16.5 -46.5t-41.5 -18.5q-19 0 -31.5 14z" />
    <glyph glyph-name="Zacute" unicode="&#x179;" horiz-adv-x="585" 
d="M581 743l9 -34l-423 -576l-70 -90l349 11l60 134l47 -14l-45 -174h-496l-11 36l413 560l85 101l-317 -3l-43 -130l-48 10l29 169h461zM452 1065l49 -47q-21 -31 -71.5 -66.5t-93.5 -55.5l-32 19z" />
    <glyph glyph-name="zacute" unicode="&#x17a;" horiz-adv-x="504" 
d="M199 493q-32 0 -34 -1q-24 -1 -41 -30.5t-19 -66.5h-32q-2 41 7.5 94.5t28.5 66.5q13 10 45 10q40 0 150 -8q91 -7 129 -7q28 0 47 14l21 -22l-239 -314l-150 -163l220 -4q38 0 58 24t27 71h32q-3 -54 -13 -99t-30 -59q-18 -10 -49 -10t-84 4t-69 5q-100 8 -125 8
q-27 0 -48 -17l-26 25l327 398l70 77q-116 4 -203 4zM409 874l55 -56q-10 -17 -44.5 -54t-75 -72.5t-68.5 -50.5l-25 26z" />
    <glyph glyph-name="Zdotaccent" unicode="&#x17b;" horiz-adv-x="585" 
d="M581 743l9 -34l-423 -576l-70 -90l349 11l60 134l47 -14l-45 -174h-496l-11 36l413 560l85 101l-317 -3l-43 -130l-48 10l29 169h461zM340.5 924.5q-13.5 13.5 -13.5 33.5q0 26 18 45t39 19t34.5 -12.5t13.5 -32.5q0 -27 -17.5 -46.5t-42.5 -19.5q-18 0 -31.5 13.5z" />
    <glyph glyph-name="zdotaccent" unicode="&#x17c;" horiz-adv-x="504" 
d="M199 493q-32 0 -34 -1q-24 -1 -41 -30.5t-19 -66.5h-32q-2 41 7.5 94.5t28.5 66.5q13 10 45 10q40 0 150 -8q91 -7 129 -7q28 0 47 14l21 -22l-239 -314l-150 -163l220 -4q38 0 58 24t27 71h32q-3 -54 -13 -99t-30 -59q-18 -10 -49 -10t-84 4t-69 5q-100 8 -125 8
q-27 0 -48 -17l-26 25l327 398l70 77q-116 4 -203 4zM268.5 678.5q-13.5 14.5 -13.5 40.5q0 29 18 47.5t44 18.5q22 0 35.5 -13.5t13.5 -34.5q-1 -37 -18.5 -55t-45.5 -18q-20 0 -33.5 14.5z" />
    <glyph glyph-name="Zcaron" unicode="&#x17d;" horiz-adv-x="585" 
d="M581 743l9 -34l-423 -576l-70 -90l349 11l60 134l47 -14l-45 -174h-496l-11 36l413 560l85 101l-317 -3l-43 -130l-48 10l29 169h461zM256 1059l114 -128l157 128l26 -23l-152 -162h-67l-107 162z" />
    <glyph glyph-name="zcaron" unicode="&#x17e;" horiz-adv-x="504" 
d="M199 493q-32 0 -34 -1q-24 -1 -41 -30.5t-19 -66.5h-32q-2 41 7.5 94.5t28.5 66.5q13 10 45 10q40 0 150 -8q91 -7 129 -7q28 0 47 14l21 -22l-239 -314l-150 -163l220 -4q38 0 58 24t27 71h32q-3 -54 -13 -99t-30 -59q-18 -10 -49 -10t-84 4t-69 5q-100 8 -125 8
q-27 0 -48 -17l-26 25l327 398l70 77q-116 4 -203 4zM199 832l108 -132l157 132l28 -23l-157 -167h-68l-100 167z" />
    <glyph glyph-name="uni018F" unicode="&#x18f;" horiz-adv-x="636" 
d="M176 725q49 13 88 19.5t96 6.5q75 0 129.5 -37t83 -104.5t28.5 -157.5q0 -131 -48.5 -237t-131 -166t-178.5 -60q-98 0 -152.5 64t-54.5 181q0 42 5.5 81t13.5 60l462 1q2 46 2 72q0 82 -23 140t-64 88t-94 30q-60 0 -106 -15.5t-70 -35.5l-30 -86h-43l23 143q23 1 64 13
zM114 221q0 -78 40 -132t113 -54q91 0 157.5 76.5t86.5 220.5h-382q-15 -64 -15 -111z" />
    <glyph glyph-name="florin" unicode="&#x192;" horiz-adv-x="487" 
d="M275 713.5q34 53.5 81.5 82.5t91.5 29q53 0 69 -8l-4 -70q-9 5 -30.5 9.5t-52.5 4.5q-52 0 -82.5 -29.5t-37.5 -110.5l-8 -64h158l-5 -55h-158l-80 -676h-71l81 676h-111l3 33l112 22l4 33q6 70 40 123.5z" />
    <glyph glyph-name="Ohorn" unicode="&#x1a0;" horiz-adv-x="663" 
d="M99.5 537q44.5 101 122.5 158.5t174 57.5q56 0 102 -22q51 1 86 19t51.5 44.5t16.5 52.5q0 14 -1 18h78q2 -16 2 -22q0 -66 -45 -108t-122 -54q38 -44 58 -107.5t20 -138.5q0 -125 -43.5 -226.5t-121 -160t-174.5 -58.5q-80 0 -135.5 42t-84 114.5t-28.5 164.5
q0 125 44.5 226zM183 115.5q47 -77.5 131 -77.5q69 0 124.5 49t87.5 136t32 196q0 130 -44.5 207t-129.5 77q-70 0 -126.5 -49t-89 -136t-32.5 -196q0 -129 47 -206.5z" />
    <glyph glyph-name="ohorn" unicode="&#x1a1;" horiz-adv-x="560" 
d="M96 48.5q-51 58.5 -53 165.5q-1 90 35 171.5t100 132t145 50.5q48 0 83 -16q54 2 87.5 24.5t33.5 63.5v11h81q0 -9 -2 -23q-13 -91 -138 -122q49 -60 49 -170q0 -88 -35.5 -167.5t-99 -129t-143.5 -49.5q-92 0 -143 58.5zM159 86q33 -47 95 -47q56 0 97 44.5t62 112.5
t21 137q0 90 -31 138t-94 48q-58 0 -99.5 -45t-62.5 -114t-21 -139q0 -88 33 -135z" />
    <glyph glyph-name="Uhorn" unicode="&#x1af;" horiz-adv-x="710" 
d="M68 743h225l-4 -40l-76 -10l-53 -397q-7 -46 -5 -92q2 -80 39.5 -124.5t112.5 -44.5q93 0 145 66.5t69 204.5l51 387l-66 10l4 40h93q56 0 80 30.5t24 74.5q0 13 -1 17h78q2 -16 2 -22q2 -70 -31.5 -104.5t-115.5 -44.5l-51 -388q-22 -169 -93 -242.5t-200 -73.5
q-105 0 -161.5 58t-58.5 160q-2 41 4 82l53 404l-68 9z" />
    <glyph glyph-name="uhorn" unicode="&#x1b0;" horiz-adv-x="596" 
d="M111 20q-31 30 -31 103q0 50 17 173l27 190l-49 24l6 35l107 21l19 -10l-34 -264l-6 -45q-4 -29 -7 -58t-3 -53q0 -52 19 -71t56 -19q40 0 85.5 31.5t74.5 73.5l54 411h58q29 10 45.5 30t16.5 48v11h81q0 -9 -2 -23q-13 -88 -129 -120l-57 -428q-1 -4 -1 -12
q0 -24 13 -24q21 0 55 34l12 -23q-6 -9 -22 -24.5t-39.5 -27.5t-47.5 -12q-23 0 -36 14t-13 37q0 10 1 15q3 12 5 37l-1 1q-35 -45 -82.5 -75t-102.5 -30q-58 0 -89 30z" />
    <glyph glyph-name="uni01C4" unicode="&#x1c4;" horiz-adv-x="1281" 
d="M302 747q52 4 79 4q147 0 215 -82t68 -229q0 -127 -48 -230.5t-135 -162t-200 -55.5q-52 4 -54 4q-44 4 -103 4h-113l3 35l74 12l82 646l-67 10l4 40h131q20 0 64 4zM235 43.5q39 -3.5 65 -3.5q92 4 156 61t95.5 146t31.5 190q0 142 -52 204.5t-171 62.5q-43 0 -111 -9
l-81 -642q28 -6 67 -9.5zM1277 743l9 -34l-423 -576l-70 -90l349 11l60 134l47 -14l-45 -174h-496l-11 36l413 560l85 101l-317 -3l-43 -130l-48 10l29 169h461zM952 1059l114 -128l157 128l26 -23l-152 -162h-67l-107 162z" />
    <glyph glyph-name="uni01C5" unicode="&#x1c5;" horiz-adv-x="1200" 
d="M302 747q52 4 79 4q147 0 215 -82t68 -229q0 -127 -48 -230.5t-135 -162t-200 -55.5q-52 4 -54 4q-44 4 -103 4h-113l3 35l74 12l82 646l-67 10l4 40h131q20 0 64 4zM235 43.5q39 -3.5 65 -3.5q92 4 156 61t95.5 146t31.5 190q0 142 -52 204.5t-171 62.5q-43 0 -111 -9
l-81 -642q28 -6 67 -9.5zM895 493q-32 0 -34 -1q-24 -1 -41 -30.5t-19 -66.5h-32q-2 41 7.5 94.5t28.5 66.5q13 10 45 10q40 0 150 -8q91 -7 129 -7q28 0 47 14l21 -22l-239 -314l-150 -163l220 -4q38 0 58 24t27 71h32q-3 -54 -13 -99t-30 -59q-18 -10 -49 -10t-84 4t-69 5
q-100 8 -125 8q-27 0 -48 -17l-26 25l327 398l70 77q-116 4 -203 4zM895 832l108 -132l157 132l28 -23l-157 -167h-68l-100 167z" />
    <glyph glyph-name="uni01C6" unicode="&#x1c6;" horiz-adv-x="1080" 
d="M445 67q0 -11 3.5 -17t9.5 -6q18 0 47 26l13 -22q-11 -17 -38.5 -37.5t-61.5 -20.5q-54 0 -51 61v27q-28 -37 -71 -62.5t-93 -25.5q-80 0 -121.5 57.5t-41.5 153.5q0 81 38 166.5t109.5 143t166.5 57.5q37 0 83 -13l29 184l-64 16l8 34l120 17l21 -12l-105 -715
q-1 -4 -1 -12zM342 519q-70 0 -120 -49.5t-75 -122t-25 -140.5q0 -75 25 -117t71 -42q48 0 91 30t66 67l53 348q-30 26 -86 26zM775 493q-32 0 -34 -1q-24 -1 -41 -30.5t-19 -66.5h-32q-2 41 7.5 94.5t28.5 66.5q13 10 45 10q40 0 150 -8q91 -7 129 -7q28 0 47 14l21 -22
l-239 -314l-150 -163l220 -4q38 0 58 24t27 71h32q-3 -54 -13 -99t-30 -59q-18 -10 -49 -10t-84 4t-69 5q-100 8 -125 8q-27 0 -48 -17l-26 25l327 398l70 77q-116 4 -203 4zM775 832l108 -132l157 132l28 -23l-157 -167h-68l-100 167z" />
    <glyph glyph-name="uni01C7" unicode="&#x1c7;" horiz-adv-x="912" 
d="M339 743l-3 -40l-87 -10l-82 -646l261 4l64 172l46 -9l-47 -214h-478l3 35l73 12l81 646l-67 10l4 40h232zM829 635q-32 -290 -49 -429.5t-26 -168.5q-27 -92 -92.5 -141.5t-150.5 -63.5l-15 35q67 18 117.5 67.5t63.5 109.5q18 79 31 183.5t34 303.5q7 77 17 163l-81 9
l5 40h241l-4 -40l-84 -9q-4 -37 -7 -59z" />
    <glyph glyph-name="uni01C8" unicode="&#x1c8;" horiz-adv-x="889" 
d="M339 743l-3 -40l-87 -10l-82 -646l261 4l64 172l46 -9l-47 -214h-478l3 35l73 12l81 646l-67 10l4 40h232zM680.5 -187q-53.5 -66 -137.5 -66q-24 0 -45.5 5t-29.5 13l14 35q7 -3 20.5 -5.5t24.5 -2.5q67 0 99.5 63t45.5 173l53 465l-69 20l7 32l130 21l20 -10l-65 -555
q-14 -122 -67.5 -188zM754.5 695.5q-13.5 13.5 -13.5 34.5q0 26 18.5 45t39.5 19t33.5 -13t12.5 -34q0 -27 -17.5 -46t-41.5 -19q-18 0 -31.5 13.5z" />
    <glyph glyph-name="uni01C9" unicode="&#x1c9;" horiz-adv-x="613" 
d="M150 69q0 -12 4 -18.5t10 -6.5q21 0 53 33l13 -22q-11 -20 -39 -42.5t-67 -22.5q-52 0 -52 57l3 37l93 655l-60 16l8 34l116 17l19 -12l-100 -715zM404.5 -187q-53.5 -66 -137.5 -66q-24 0 -45.5 5t-29.5 13l14 35q7 -3 20.5 -5.5t24.5 -2.5q67 0 99.5 63t45.5 173
l53 465l-69 20l7 32l130 21l20 -10l-65 -555q-14 -122 -67.5 -188zM478.5 695.5q-13.5 13.5 -13.5 34.5q0 26 18.5 45t39.5 19t33.5 -13t12.5 -34q0 -27 -17.5 -46t-41.5 -19q-18 0 -31.5 13.5z" />
    <glyph glyph-name="uni01CA" unicode="&#x1ca;" horiz-adv-x="1077" 
d="M256 743l248 -555l39 -111l74 617l-80 9l5 40h213l-3 -40l-75 -10l-95 -693h-78l-246 553l-39 111l-69 -617l84 -12l-3 -35h-217l3 35l68 11l85 647l-71 10l6 40h151zM994 635q-32 -290 -49 -429.5t-26 -168.5q-27 -92 -92.5 -141.5t-150.5 -63.5l-15 35
q67 18 117.5 67.5t63.5 109.5q18 79 31 183.5t34 303.5q7 77 17 163l-81 9l5 40h241l-4 -40l-84 -9q-4 -37 -7 -59z" />
    <glyph glyph-name="uni01CB" unicode="&#x1cb;" horiz-adv-x="1054" 
d="M256 743l248 -555l39 -111l74 617l-80 9l5 40h213l-3 -40l-75 -10l-95 -693h-78l-246 553l-39 111l-69 -617l84 -12l-3 -35h-217l3 35l68 11l85 647l-71 10l6 40h151zM845.5 -187q-53.5 -66 -137.5 -66q-24 0 -45.5 5t-29.5 13l14 35q7 -3 20.5 -5.5t24.5 -2.5
q67 0 99.5 63t45.5 173l53 465l-69 20l7 32l130 21l20 -10l-65 -555q-14 -122 -67.5 -188zM919.5 695.5q-13.5 13.5 -13.5 34.5q0 26 18.5 45t39.5 19t33.5 -13t12.5 -34q0 -27 -17.5 -46t-41.5 -19q-18 0 -31.5 13.5z" />
    <glyph glyph-name="uni01CC" unicode="&#x1cc;" horiz-adv-x="931" 
d="M301.5 529.5q58.5 38.5 115.5 38.5q54 0 83 -33.5t29 -110.5q0 -44 -21 -151l-5 -26q-1 -8 -5 -26q-18 -105 -21 -143q-2 -34 12 -34q20 0 47 26l13 -23q-10 -15 -39 -36t-63 -21q-53 0 -53 56q0 22 6 59t13 73l9 45l6 31q11 61 16 96t5 68q0 49 -15 67.5t-52 18.5
q-43 0 -97.5 -41.5t-92.5 -99.5l-49 -363h-78l65 488l-48 23l7 36l105 21l19 -10l-13 -126q43 59 101.5 97.5zM722.5 -187q-53.5 -66 -137.5 -66q-24 0 -45.5 5t-29.5 13l14 35q7 -3 20.5 -5.5t24.5 -2.5q67 0 99.5 63t45.5 173l53 465l-69 20l7 32l130 21l20 -10l-65 -555
q-14 -122 -67.5 -188zM796.5 695.5q-13.5 13.5 -13.5 34.5q0 26 18.5 45t39.5 19t33.5 -13t12.5 -34q0 -27 -17.5 -46t-41.5 -19q-18 0 -31.5 13.5z" />
    <glyph glyph-name="uni01CD" unicode="&#x1cd;" horiz-adv-x="655" 
d="M437 743l127 -695l82 -13l-2 -35h-251l2 35l89 11l-29 178h-286l-84 -177l90 -12l-3 -35h-232l4 35l68 11l344 697h81zM192 272h254l-56 345l-7 60zM298 977l114 -128l157 128l26 -23l-152 -162h-67l-107 162z" />
    <glyph glyph-name="uni01CE" unicode="&#x1ce;" horiz-adv-x="574" 
d="M444 74q0 -16 6.5 -23t13.5 -7q10 0 19.5 6.5t24.5 21.5l14 -22q-4 -8 -18.5 -22.5t-35.5 -26t-44 -11.5q-62 0 -58 66l6 41q-34 -44 -79.5 -75.5t-94.5 -31.5q-79 0 -117.5 57t-38.5 154q0 81 38 166.5t109.5 143t166.5 57.5q21 0 49 -5t50 -12l55 16l-65 -481
q-1 -5 -1 -12zM345 519q-69 0 -119 -47.5t-76 -119.5t-26 -142q0 -77 22.5 -119.5t68.5 -42.5q45 0 89.5 35.5t74.5 78.5l44 335q-32 22 -78 22zM266 831l108 -132l157 132l28 -23l-157 -167h-68l-100 167z" />
    <glyph glyph-name="uni01CF" unicode="&#x1cf;" horiz-adv-x="339" 
d="M337 743l-4 -40l-75 -10l-81 -646l77 -12l-3 -35h-230l3 35l73 12l82 646l-67 10l5 40h220zM128 977l114 -128l157 128l26 -23l-152 -162h-67l-107 162z" />
    <glyph glyph-name="uni01D0" unicode="&#x1d0;" horiz-adv-x="310" 
d="M164 67q0 -11 4.5 -17t10.5 -6q20 0 52 33l13 -22q-13 -20 -42 -42.5t-64 -22.5q-27 0 -42.5 14t-13.5 45q2 26 13.5 105t17.5 119l32 219l-65 21l6 32l127 21l20 -10l-68 -477q-1 -4 -1 -12zM98 832l108 -132l157 132l28 -23l-157 -167h-68l-100 167z" />
    <glyph glyph-name="uni01D1" unicode="&#x1d1;" horiz-adv-x="677" 
d="M532.5 710.5q55.5 -42.5 82.5 -114.5t27 -161q0 -125 -43.5 -226.5t-121 -160t-174.5 -58.5q-80 0 -135.5 42t-84 114.5t-28.5 164.5q0 125 44.5 226t122.5 158.5t174 57.5q81 0 136.5 -42.5zM257.5 654q-56.5 -49 -89 -136t-32.5 -196q0 -129 47 -206.5t131 -77.5
q69 0 124.5 49t87.5 136t32 196q0 130 -44.5 207t-129.5 77q-70 0 -126.5 -49zM301 977l114 -128l157 128l26 -23l-152 -162h-67l-107 162z" />
    <glyph glyph-name="uni01D2" unicode="&#x1d2;" horiz-adv-x="560" 
d="M467 507q50 -61 50 -171q0 -88 -35.5 -167.5t-99 -129t-143.5 -49.5q-92 0 -143 58.5t-53 165.5q-1 90 35 171.5t100 132t145 50.5q94 0 144 -61zM209.5 474q-41.5 -45 -62.5 -114t-21 -139q0 -88 33 -135t95 -47q56 0 97 44.5t62 112.5t21 137q0 90 -31 138t-94 48
q-58 0 -99.5 -45zM233 833l108 -132l157 132l28 -23l-157 -167h-68l-100 167z" />
    <glyph glyph-name="uni01D3" unicode="&#x1d3;" horiz-adv-x="675" 
d="M495 63.5q-71 -73.5 -200 -73.5q-105 0 -161.5 58t-58.5 160q-2 41 4 82l53 404l-68 9l4 40h225l-4 -40l-76 -10l-53 -397q-7 -46 -5 -92q2 -80 39.5 -124.5t112.5 -44.5q93 0 145 66.5t69 204.5l51 387l-66 10l4 40h197l-4 -40l-64 -9l-51 -388q-22 -169 -93 -242.5z
M294 977l114 -128l157 128l26 -23l-152 -162h-67l-107 162z" />
    <glyph glyph-name="uni01D4" unicode="&#x1d4;" horiz-adv-x="589" 
d="M167 247q-4 -29 -7 -58t-3 -53q0 -52 19 -71t56 -19q40 0 85.5 31.5t74.5 73.5l54 411h77l-64 -482q-1 -4 -1 -12q0 -24 13 -24q21 0 55 34l12 -23q-6 -9 -22 -24.5t-39.5 -27.5t-47.5 -12q-23 0 -36 14t-13 37q0 10 1 15q3 12 5 37l-1 1q-35 -45 -82.5 -75t-102.5 -30
q-58 0 -89 30t-31 103q0 50 17 173l27 190l-49 24l6 35l107 21l19 -10l-34 -264zM248 832l108 -132l157 132l28 -23l-157 -167h-68l-100 167z" />
    <glyph glyph-name="Gcaron" unicode="&#x1e6;" horiz-adv-x="657" 
d="M523 38q-20 -6 -27 -8q-58 -18 -102.5 -28t-95.5 -10q-85 0 -141.5 46.5t-82.5 119.5t-26 155q0 130 49.5 229.5t132.5 154t181 54.5q65 0 109 -7.5t87 -19.5l19 -6l-28 -145h-51l-2 99q-23 15 -55.5 23.5t-87.5 8.5q-87 0 -148.5 -58t-92 -147t-30.5 -181q0 -72 20 -135
t62.5 -103t106.5 -40q46 0 92.5 12t72.5 35l30 213l-135 7l5 47h219l-44 -308q-17 -2 -37 -8zM309 977l114 -128l157 128l26 -23l-152 -162h-67l-107 162z" />
    <glyph glyph-name="gcaron" unicode="&#x1e7;" horiz-adv-x="563" 
d="M372.5 -158q-42.5 -47 -98.5 -68.5t-110 -21.5q-30 0 -61 5t-47 12l19 74q24 -11 57 -19.5t68 -8.5q68 0 101 26.5t43 94.5l21 140q-29 -36 -71 -61t-91 -25q-80 0 -121.5 57.5t-41.5 153.5q0 81 38 166.5t110 143t167 57.5q53 0 106 -21l57 21l-93 -606
q-10 -73 -52.5 -120zM343 519q-70 0 -120 -49.5t-75.5 -122t-25.5 -140.5q0 -75 25 -117t71 -42q48 0 90.5 29.5t66.5 66.5l52 350q-31 25 -84 25zM249 831l108 -132l157 132l28 -23l-157 -167h-68l-100 167z" />
    <glyph glyph-name="uni01F1" unicode="&#x1f1;" horiz-adv-x="1281" 
d="M302 747q52 4 79 4q147 0 215 -82t68 -229q0 -127 -48 -230.5t-135 -162t-200 -55.5q-52 4 -54 4q-44 4 -103 4h-113l3 35l74 12l82 646l-67 10l4 40h131q20 0 64 4zM235 43.5q39 -3.5 65 -3.5q92 4 156 61t95.5 146t31.5 190q0 142 -52 204.5t-171 62.5q-43 0 -111 -9
l-81 -642q28 -6 67 -9.5zM1277 743l9 -34l-423 -576l-70 -90l349 11l60 134l47 -14l-45 -174h-496l-11 36l413 560l85 101l-317 -3l-43 -130l-48 10l29 169h461z" />
    <glyph glyph-name="uni01F2" unicode="&#x1f2;" horiz-adv-x="1200" 
d="M302 747q52 4 79 4q147 0 215 -82t68 -229q0 -127 -48 -230.5t-135 -162t-200 -55.5q-52 4 -54 4q-44 4 -103 4h-113l3 35l74 12l82 646l-67 10l4 40h131q20 0 64 4zM235 43.5q39 -3.5 65 -3.5q92 4 156 61t95.5 146t31.5 190q0 142 -52 204.5t-171 62.5q-43 0 -111 -9
l-81 -642q28 -6 67 -9.5zM895 493q-32 0 -34 -1q-24 -1 -41 -30.5t-19 -66.5h-32q-2 41 7.5 94.5t28.5 66.5q13 10 45 10q40 0 150 -8q91 -7 129 -7q28 0 47 14l21 -22l-239 -314l-150 -163l220 -4q38 0 58 24t27 71h32q-3 -54 -13 -99t-30 -59q-18 -10 -49 -10t-84 4t-69 5
q-100 8 -125 8q-27 0 -48 -17l-26 25l327 398l70 77q-116 4 -203 4z" />
    <glyph glyph-name="uni01F3" unicode="&#x1f3;" horiz-adv-x="1080" 
d="M445 67q0 -11 3.5 -17t9.5 -6q18 0 47 26l13 -22q-11 -17 -38.5 -37.5t-61.5 -20.5q-54 0 -51 61v27q-28 -37 -71 -62.5t-93 -25.5q-80 0 -121.5 57.5t-41.5 153.5q0 81 38 166.5t109.5 143t166.5 57.5q37 0 83 -13l29 184l-64 16l8 34l120 17l21 -12l-105 -715
q-1 -4 -1 -12zM342 519q-70 0 -120 -49.5t-75 -122t-25 -140.5q0 -75 25 -117t71 -42q48 0 91 30t66 67l53 348q-30 26 -86 26zM775 493q-32 0 -34 -1q-24 -1 -41 -30.5t-19 -66.5h-32q-2 41 7.5 94.5t28.5 66.5q13 10 45 10q40 0 150 -8q91 -7 129 -7q28 0 47 14l21 -22
l-239 -314l-150 -163l220 -4q38 0 58 24t27 71h32q-3 -54 -13 -99t-30 -59q-18 -10 -49 -10t-84 4t-69 5q-100 8 -125 8q-27 0 -48 -17l-26 25l327 398l70 77q-116 4 -203 4z" />
    <glyph glyph-name="uni01F4" unicode="&#x1f4;" horiz-adv-x="657" 
d="M523 38q-20 -6 -27 -8q-58 -18 -102.5 -28t-95.5 -10q-85 0 -141.5 46.5t-82.5 119.5t-26 155q0 130 49.5 229.5t132.5 154t181 54.5q65 0 109 -7.5t87 -19.5l19 -6l-28 -145h-51l-2 99q-23 15 -55.5 23.5t-87.5 8.5q-87 0 -148.5 -58t-92 -147t-30.5 -181q0 -72 20 -135
t62.5 -103t106.5 -40q46 0 92.5 12t72.5 35l30 213l-135 7l5 47h219l-44 -308q-17 -2 -37 -8zM505 983l49 -47q-21 -31 -71.5 -66.5t-93.5 -55.5l-32 19z" />
    <glyph glyph-name="Aringacute" unicode="&#x1fa;" horiz-adv-x="655" 
d="M-56 35l68 11l331 671q-42 6 -66 25t-24 49q0 42 34.5 68t93.5 31l78 93l77 -36q-20 -23 -36 -36t-35 -23q42 -6 65 -25t23 -50q0 -38 -29.5 -63t-81.5 -33l122 -669l82 -13l-2 -35h-251l2 35l89 11l-29 178h-286l-84 -177l90 -12l-3 -35h-232zM338.5 765
q21.5 -11 57.5 -11q42 0 67.5 14.5t25.5 38.5q0 21 -21 32t-58 11q-42 0 -67.5 -13.5t-25.5 -39.5q0 -21 21.5 -32zM446 272l-56 345l-7 60l-191 -405h254z" />
    <glyph glyph-name="aringacute" unicode="&#x1fb;" horiz-adv-x="574" 
d="M444 74q0 -16 6.5 -23t13.5 -7q10 0 19.5 6.5t24.5 21.5l14 -22q-4 -8 -18.5 -22.5t-35.5 -26t-44 -11.5q-62 0 -58 66l6 41q-34 -44 -79.5 -75.5t-94.5 -31.5q-79 0 -117.5 57t-38.5 154q0 81 38 166.5t109.5 143t166.5 57.5q21 0 49 -5t50 -12l55 16l-65 -481
q-1 -5 -1 -12zM345 519q-69 0 -119 -47.5t-76 -119.5t-26 -142q0 -77 22.5 -119.5t68.5 -42.5q45 0 89.5 35.5t74.5 78.5l44 335q-32 22 -78 22zM261 823.5q36 34.5 94 45.5l98 113l60 -32q-16 -24 -39.5 -45t-45.5 -35q50 -8 80.5 -35.5t30.5 -68.5q0 -10 -1 -15
q-9 -62 -58.5 -93t-117.5 -31q-64 0 -100.5 28t-36.5 76q0 58 36 92.5zM370 672q49 0 73.5 16.5t30.5 58.5q1 6 1 18q0 62 -82 62q-49 0 -77 -25t-28 -65q0 -65 82 -65z" />
    <glyph glyph-name="AEacute" unicode="&#x1fc;" horiz-adv-x="894" 
d="M343 35l65 11l23 196h-246l-99 -195l110 -12l-3 -35h-273l6 35l80 11l349 648l-152 9l5 40h656l-5 -145h-44l-16 96l-231 5l-37 -291l218 11l-6 -68l-217 6l-38 -310l286 10l47 105l43 -11l-35 -151h-490zM210 291h227l48 400l-69 2zM668 983l49 -47q-21 -31 -71.5 -66.5
t-93.5 -55.5l-32 19z" />
    <glyph glyph-name="aeacute" unicode="&#x1fd;" horiz-adv-x="848" 
d="M581 547q44 20 92 20q64 0 97.5 -35t33.5 -88q0 -70 -59.5 -118.5t-139.5 -72.5t-139 -25l-1 -26q0 -155 113 -155q45 0 92.5 20t87.5 59l19 -34q-16 -22 -47 -45.5t-74 -40t-90 -16.5q-81 0 -125 43.5t-54 119.5q-31 -65 -84 -114t-113 -49q-75 0 -111.5 55t-36.5 154
q0 81 38.5 167t110.5 143.5t167 57.5q46 0 99 -17l56 17l-14 -77q38 37 82 57zM560 482.5q-39 -38.5 -62.5 -96.5t-29.5 -113q56 2 115.5 22.5t99.5 57.5t40 86q0 40 -19 61t-56 21q-49 0 -88 -38.5zM347 519q-69 0 -120 -48.5t-77 -120.5t-26 -141q0 -161 81 -161
q53 0 101.5 50.5t75.5 105.5l48 289q-30 26 -83 26zM628 874l55 -56q-10 -17 -44.5 -54t-75 -72.5t-68.5 -50.5l-25 26z" />
    <glyph glyph-name="Oslashacute" unicode="&#x1fe;" horiz-adv-x="679" 
d="M618.5 586q23.5 -69 23.5 -152q0 -124 -43.5 -225.5t-121 -159.5t-174.5 -58q-80 0 -135 43l-70 -114l-35 19l73 123q-40 43 -60 108t-20 144q0 125 44.5 225.5t122 157.5t173.5 57q67 0 121 -32l63 105l34 -18l-66 -112q47 -42 70.5 -111zM384 704q-69 0 -126 -49
t-89.5 -136t-32.5 -196q0 -124 44 -200l303 540q-38 41 -99 41zM314 39q69 0 124.5 49t87.5 136t32 196q0 140 -51 215l-305 -545q46 -51 112 -51zM491 983l49 -47q-21 -31 -71.5 -66.5t-93.5 -55.5l-32 19z" />
    <glyph glyph-name="oslashacute" unicode="&#x1ff;" horiz-adv-x="560" 
d="M515 339q0 -88 -35.5 -168.5t-99 -130t-143.5 -49.5q-57 0 -100 23l-51 -79l-35 19l53 84q-30 29 -46.5 75t-16.5 104q0 90 35.5 171t99.5 131t144 50q51 0 88 -18l50 80l34 -20l-49 -81q72 -58 72 -191zM307 520q-58 0 -99.5 -45t-62.5 -114t-21 -139q0 -78 25 -121
l228 396q-29 23 -70 23zM251 40q56 0 97 45t62.5 114t21.5 138q0 87 -32 132l-230 -399q32 -30 81 -30zM442 874l55 -56q-10 -17 -44.5 -54t-75 -72.5t-68.5 -50.5l-25 26z" />
    <glyph glyph-name="Scommaaccent" unicode="&#x218;" horiz-adv-x="531" 
d="M390 698q-30 8 -68 8q-59 0 -103 -31t-44 -89q0 -41 19.5 -72.5t48.5 -54t74 -50.5q58 -38 86.5 -60t51 -58.5t22.5 -86.5q0 -65 -32.5 -114t-90 -75t-129.5 -26q-63 0 -121.5 14t-78.5 29l20 137h48l6 -102q20 -14 55.5 -22.5t72.5 -8.5q42 0 81.5 15.5t64.5 47t25 78.5
q0 54 -33 89.5t-96 73.5q-53 33 -87.5 60t-59.5 67t-25 92q0 56 31.5 100.5t84.5 69t116 24.5q64 0 109.5 -12.5t69.5 -29.5l-22 -128h-44l-5 95q-17 12 -47 20zM155 -247q34 25 34 77q0 22 -8.5 40t-23.5 23v26l52 33q28 -10 41.5 -39.5t13.5 -64.5q0 -48 -23.5 -80.5
t-50.5 -40.5l-35 16v10z" />
    <glyph glyph-name="scommaaccent" unicode="&#x219;" horiz-adv-x="425" 
d="M357 494q-16 9 -40.5 15.5t-52.5 6.5q-51 0 -80.5 -21.5t-29.5 -63.5q0 -35 23 -62t64 -58q39 -30 60 -49t39 -49.5t18 -68.5q0 -73 -55.5 -113.5t-137.5 -40.5q-45 0 -88.5 9.5t-56.5 21.5l13 61q19 -14 56.5 -26t78.5 -12q49 0 82 19t33 65q0 27 -14.5 49t-32 36.5
t-51.5 38.5q-40 27 -73 68t-33 94q0 46 25.5 81t68.5 54t95 19q36 0 73 -6.5t52 -13.5l-16 -68q-4 5 -20 14zM96 -247q34 25 34 77q0 22 -8.5 40t-23.5 23v26l52 33q28 -10 41.5 -39.5t13.5 -64.5q0 -48 -23.5 -80.5t-50.5 -40.5l-35 16v10z" />
    <glyph glyph-name="uni021A" unicode="&#x21a;" horiz-adv-x="604" 
d="M638 743l-30 -222l-43 -1l7 172l-182 8l-85 -653l123 -9l-3 -38h-321l2 38l120 9l84 653l-180 -8l-44 -170l-45 -1l35 222h562zM190 -247q34 25 34 77q0 22 -8.5 40t-23.5 23v26l52 33q28 -10 41.5 -39.5t13.5 -64.5q0 -48 -23.5 -80.5t-50.5 -40.5l-35 16v10z" />
    <glyph glyph-name="uni021B" unicode="&#x21b;" horiz-adv-x="357" 
d="M158 94q0 -26 10.5 -36.5t37.5 -10.5q20 0 51 14t48 28l8 -31q-19 -23 -64 -45.5t-85 -22.5q-86 0 -86 82q0 26 5 63l47 365h-61l9 35l61 19q21 27 56 137h39l-18 -136h138l-8 -55h-136l-45 -331q-7 -59 -7 -75zM64 -247q34 25 34 77q0 22 -8.5 40t-23.5 23v26l52 33
q28 -10 41.5 -39.5t13.5 -64.5q0 -48 -23.5 -80.5t-50.5 -40.5l-35 16v10z" />
    <glyph glyph-name="uni0228" unicode="&#x228;" horiz-adv-x="599" 
d="M14 35l75 11l81 647l-68 10l5 40h454l-4 -153h-44l-17 104l-245 6l-37 -289l234 4l-5 -64l-234 7l-41 -310l298 9l55 114l43 -13l-43 -158h-186q11 -27 11 -67q0 -79 -36.5 -119.5t-95.5 -40.5q-19 0 -37 4.5t-27 10.5l7 60q6 -4 20 -6.5t29 -2.5q45 0 68.5 32.5
t23.5 87.5q-1 24 -6 41h-281z" />
    <glyph glyph-name="uni0229" unicode="&#x229;" horiz-adv-x="514" 
d="M82 382q38 84 103.5 135t145.5 51q68 0 103 -34t35 -88q0 -71 -60 -119.5t-141 -73t-140 -25.5q-1 -7 -1 -23q0 -64 30 -111t92 -47q43 0 89 20t85 59l19 -34q-23 -33 -74.5 -64.5t-111.5 -36.5q9 -24 9 -58q0 -79 -36.5 -120t-95.5 -41q-20 0 -38 4t-26 11l6 60
q6 -4 20 -6.5t29 -2.5q45 0 68.5 32t24.5 87q0 14 -4 34q-84 8 -126.5 69t-42.5 144q0 94 38 178zM247.5 295.5q60.5 20.5 101.5 57.5t41 86q-1 40 -21 61t-56 21q-51 0 -91 -39t-63.5 -96.5t-28.5 -112.5q57 2 117.5 22.5z" />
    <glyph glyph-name="uni0237" unicode="&#x237;" horiz-adv-x="316" 
d="M107.5 -187q-53.5 -66 -137.5 -66q-24 0 -45.5 5t-29.5 13l14 35q7 -3 20.5 -5.5t24.5 -2.5q67 0 99.5 63t45.5 173l53 465l-69 20l7 32l130 21l20 -10l-65 -555q-14 -122 -67.5 -188z" />
    <glyph glyph-name="uni0259" unicode="&#x259;" horiz-adv-x="514" 
d="M155.5 535q56.5 33 121.5 33q66 0 109.5 -30.5t64 -80t20.5 -106.5q0 -93 -38 -176.5t-104 -134t-145 -50.5q-68 0 -103 33.5t-36 88.5q0 71 60 119.5t141 73t141 25.5q1 7 1 23q0 63 -30 110.5t-92 47.5q-44 0 -89.5 -19.5t-84.5 -59.5l-19 34q26 36 82.5 69zM268 262.5
q-61 -20.5 -101.5 -57.5t-40.5 -86q0 -40 20 -61t56 -21q51 0 90.5 38.5t63.5 96t30 113.5q-57 -2 -118 -22.5z" />
    <glyph glyph-name="uni02BC" unicode="&#x2bc;" horiz-adv-x="181" 
d="M166 789.5q21 -38.5 21 -84.5q0 -88 -54.5 -152t-131.5 -97l-16 29v9q27 9 54.5 36t45.5 64.5t18 76.5q0 34 -16 61t-45 32l2 16l56 60q45 -12 66 -50.5z" />
    <glyph glyph-name="circumflex" unicode="&#x2c6;" horiz-adv-x="388" 
d="M195 807h68l99 -182l-30 -22l-113 142l-169 -141l-24 22z" />
    <glyph glyph-name="caron" unicode="&#x2c7;" horiz-adv-x="376" 
d="M123 807l119 -133l157 133l28 -24l-157 -167h-67l-112 167z" />
    <glyph glyph-name="uni02C9" unicode="&#x2c9;" horiz-adv-x="621" 
d="M530 815l-7 -64h-407l7 64h407z" />
    <glyph glyph-name="breve" unicode="&#x2d8;" horiz-adv-x="350" 
d="M94 659.5q-32 22.5 -48.5 59t-16.5 76.5v11h43l1 -15q4 -38 29 -66t70 -28q33 0 58.5 18t40 43t19.5 48h41q0 -11 -1 -15q-4 -37 -26 -72.5t-57.5 -58.5t-76.5 -23q-44 0 -76 22.5z" />
    <glyph glyph-name="dotaccent" unicode="&#x2d9;" horiz-adv-x="189" 
d="M27.5 695.5q-13.5 13.5 -13.5 34.5q0 26 18.5 45t39.5 19t33.5 -13t12.5 -34q0 -27 -17.5 -46t-41.5 -19q-18 0 -31.5 13.5z" />
    <glyph glyph-name="ring" unicode="&#x2da;" horiz-adv-x="353" 
d="M82 643q-35 30 -35 83q0 48 25 80.5t63 47.5t79 15q62 0 96 -28t34 -79q0 -49 -23.5 -82.5t-60.5 -50t-79 -16.5q-64 0 -99 30zM263.5 672q30.5 25 30.5 81q0 37 -23.5 59.5t-62.5 22.5q-46 0 -77.5 -24.5t-31.5 -76.5q0 -38 24 -62.5t63 -24.5q47 0 77.5 25z" />
    <glyph glyph-name="ogonek" unicode="&#x2db;" horiz-adv-x="243" 
d="M88 -32q25 21 60 43l22 12l11 -20q-37 -32 -59 -58t-22 -51q-2 -41 28 -41q38 0 72 31l10 -35q-20 -19 -49.5 -31t-66.5 -12q-34 0 -50.5 17t-16.5 41q0 22 17 52q19 31 44 52z" />
    <glyph glyph-name="tilde" unicode="&#x2dc;" horiz-adv-x="398" 
d="M73 770q33 24 68 24q23 0 38.5 -10t34.5 -29q15 -16 27 -24t27 -8q26 0 43.5 16t34.5 41l24 -38q-12 -36 -45 -61t-71 -25q-27 0 -44 10.5t-35 29.5q-15 17 -25.5 24.5t-27.5 7.5q-35 0 -80 -50l-19 35q17 33 50 57z" />
    <glyph glyph-name="hungarumlaut" unicode="&#x2dd;" horiz-adv-x="448" 
d="M13 834l56 -42q-14 -36 -61 -94.5t-80 -84.5l-32 18zM226 834l58 -42q-14 -37 -64.5 -94.5t-83.5 -81.5l-35 19z" />
    <glyph glyph-name="gravecomb" unicode="&#x300;" 
d="M-17.5 721.5q-62.5 59.5 -81.5 91.5l59 59l147 -207l-26 -25q-36 22 -98.5 81.5z" />
    <glyph glyph-name="acutecomb" unicode="&#x301;" 
d="M161 874l55 -56q-10 -17 -44.5 -54t-75 -72.5t-68.5 -50.5l-25 26z" />
    <glyph glyph-name="uni0302" unicode="&#x302;" 
d="M112 823l96 -142l-26 -30l-104 103l-147 -98l-33 10l138 145z" />
    <glyph glyph-name="tildecomb" unicode="&#x303;" 
d="M-7 765q27 0 44 -9t38 -27q16 -14 27 -20.5t25 -6.5q23 0 35 9t19.5 20.5t9.5 14.5l30 -36q-10 -34 -36 -52t-65 -18q-27 0 -43 8.5t-36 26.5q-15 14 -26 20.5t-28 6.5q-21 0 -34 -7.5t-29 -24.5l-24 34q30 61 93 61z" />
    <glyph glyph-name="uni0304" unicode="&#x304;" 
d="M190 736l-8 -61h-252l8 61h252z" />
    <glyph glyph-name="uni0306" unicode="&#x306;" 
d="M-48 683.5q-39 41.5 -39 106.5l1 16h42l1 -15q5 -36 31 -62.5t71 -26.5q54 0 81 31.5t35 72.5h41q0 -11 -1 -15q-4 -38 -25.5 -72t-57 -55.5t-80.5 -21.5q-61 0 -100 41.5z" />
    <glyph glyph-name="uni0307" unicode="&#x307;" 
d="M21.5 678.5q-13.5 14.5 -13.5 40.5q0 29 18 47.5t44 18.5q22 0 35.5 -13.5t13.5 -34.5q-1 -37 -18.5 -55t-45.5 -18q-20 0 -33.5 14.5z" />
    <glyph glyph-name="uni0308" unicode="&#x308;" 
d="M-79 677.5q-13 13.5 -13 33.5q0 27 17 45.5t40 18.5q21 0 33.5 -12.5t12.5 -32.5q0 -28 -17 -47t-42 -19q-18 0 -31 13.5zM127 677.5q-13 13.5 -13 33.5q0 27 16.5 45.5t40.5 18.5q21 0 33.5 -12.5t12.5 -32.5q0 -28 -17 -47t-42 -19q-18 0 -31 13.5z" />
    <glyph glyph-name="hookabovecomb" unicode="&#x309;" 
d="M-12 643q-3 12 -2 20q3 13 12.5 21.5t28.5 19.5q17 10 26 16.5t14 17.5l1 5q1 3 1 10q0 15 -12 25.5t-36 12.5h-9q-20 0 -26 -3l8 56q2 2 18 4.5t28 2.5q47 0 74 -20t27 -57q0 -6 -2 -22q-5 -25 -22 -41t-47 -33q-13 -7 -24 -15q-17 -11 -16 -34l-34 -6q-5 8 -8 20z" />
    <glyph glyph-name="uni030A" unicode="&#x30a;" 
d="M-46 683.5q-35 30.5 -35 83.5q0 48 25 80t63 47t79 15q62 0 96.5 -28t34.5 -78q0 -49 -23.5 -83t-61 -50.5t-79.5 -16.5q-64 0 -99 30.5zM135.5 713q30.5 25 30.5 80q0 37 -23.5 59.5t-62.5 22.5q-46 0 -77.5 -24.5t-31.5 -76.5q0 -37 24 -61.5t63 -24.5q47 0 77.5 25z
" />
    <glyph glyph-name="uni030B" unicode="&#x30b;" 
d="M50 871l60 -43q-15 -36 -70.5 -98.5t-92.5 -88.5l-33 26zM264 871l58 -42q-17 -38 -75 -102t-94 -86l-34 26z" />
    <glyph glyph-name="uni030C" unicode="&#x30c;" 
d="M-49 832l108 -132l157 132l28 -23l-157 -167h-68l-100 167z" />
    <glyph glyph-name="uni0312" unicode="&#x312;" 
d="M24 664.5q-14 15.5 -14 45.5q0 41 19 75t43 55t34 24h1l26 -19l-1 -6q-15 -7 -27 -27t-16 -44q-2 -13 2.5 -21t13.5 -15q7 -5 11 -11.5t4 -17.5q0 -29 -18 -41.5t-36 -12.5h-4q-24 0 -38 15.5z" />
    <glyph glyph-name="uni031B" unicode="&#x31b;" 
d="M209 660q0 -9 -2 -23q-10 -66 -63.5 -103t-138.5 -36l11 56q57 0 83.5 28t28.5 67v11h81z" />
    <glyph glyph-name="dotbelowcomb" unicode="&#x323;" 
d="M-102 -210.5q-13 13.5 -13 34.5q0 26 18 45t40 19q21 0 33.5 -13t12.5 -34q0 -27 -17.5 -46t-41.5 -19q-19 0 -32 13.5z" />
    <glyph glyph-name="uni0326" unicode="&#x326;" 
d="M-110 -247q34 25 34 77q0 22 -8.5 40t-23.5 23v26l52 33q28 -10 41.5 -39.5t13.5 -64.5q0 -48 -23.5 -80.5t-50.5 -40.5l-35 16v10z" />
    <glyph glyph-name="uni0327" unicode="&#x327;" 
d="M-19 10q18 -31 18 -77q0 -79 -37 -120t-96 -41q-20 0 -37.5 4t-26.5 11l6 60q6 -4 20 -6.5t30 -2.5q45 0 68.5 32t23.5 87q0 30 -9 53l19 2z" />
    <glyph glyph-name="uni0328" unicode="&#x328;" 
d="M-231 -32q25 21 60 43l22 12l11 -20q-37 -32 -59 -58t-22 -51q-2 -41 28 -41q38 0 72 31l10 -35q-20 -19 -49.5 -31t-66.5 -12q-34 0 -50.5 17t-16.5 41q0 22 17 52q19 31 44 52z" />
    <glyph glyph-name="uni0335" unicode="&#x335;" 
d="M197 249h-403l10 64h403z" />
    <glyph glyph-name="uni0336" unicode="&#x336;" 
d="M251 249h-502v64h502v-64z" />
    <glyph glyph-name="uni0337" unicode="&#x337;" 
d="M213 555l-376 -656h-64l378 656h62z" />
    <glyph glyph-name="uni0338" unicode="&#x338;" 
d="M230 803l-375 -904h-64l377 904h62z" />
    <glyph glyph-name="uni0394" unicode="&#x394;" horiz-adv-x="687" 
d="M357 737h17l277 -724l-8 -13h-654l-6 11zM341 608l-283 -556h493z" />
    <glyph glyph-name="uni03A9" unicode="&#x3a9;" horiz-adv-x="811" 
d="M-3 177l50 2l8 -118h192q-38 25 -78 79.5t-66.5 123t-26.5 133.5q0 103 49.5 184t135.5 127t191 46q88 0 155.5 -31.5t105 -93t37.5 -148.5q0 -68 -32 -149t-85 -153t-112 -114h182l43 129l48 -3l-34 -191h-308l-8 51q56 35 107 101.5t83 151.5t32 172q0 114 -62.5 173.5
t-162.5 59.5q-81 0 -145 -36t-101.5 -107t-37.5 -173q0 -72 25 -142.5t62 -123t71 -75.5l-15 -52h-310z" />
    <glyph glyph-name="uni03BC" unicode="&#x3bc;" horiz-adv-x="666" 
d="M60 -182l52 357l15 101q19 120 27 192l1 16q0 24 -14 24t-35 -21l-13 23q9 15 34.5 33.5t56.5 18.5q28 0 41.5 -14.5t10.5 -48.5q-4 -52 -22 -166q-2 -12 -8 -46q-16 -92 -16 -140q0 -101 83 -101q39 0 81.5 25.5t70.5 56.5l59 429h77l-62 -464q-2 -20 -2 -27
q0 -11 3 -16.5t11 -5.5q16 0 39 23l14 -24q-11 -15 -38 -33.5t-57 -18.5q-26 0 -39 11t-13 39q0 5 2 23q-32 -32 -75.5 -53t-96.5 -21q-28 1 -50.5 11t-32.5 27l-32 -210h-72z" />
    <glyph glyph-name="pi" unicode="&#x3c0;" horiz-adv-x="792" 
d="M170 79.5q29 26.5 40.5 58.5t25.5 96l56 247h-40q-40 1 -70 -22.5t-38 -49.5l-49 7q0 31 13 52q24 40 67 59.5t95 19.5h329q42 0 61 9.5t32 38.5h51q-9 -61 -49.5 -87.5t-108.5 -26.5h-13q-30 -230 -50 -348l-5 -30q-1 -23 8.5 -35t23.5 -13q30 0 59.5 23.5t41.5 65.5h52
q-9 -37 -33 -73t-61.5 -59.5t-84.5 -23.5q-40 0 -61 23.5t-19 63.5q6 54 21 150.5t42 255.5h-154l-47 -269q-14 -80 -37.5 -127.5t-56 -69t-78.5 -28.5l-47 52q55 14 84 40.5z" />
    <glyph glyph-name="uni0400" unicode="&#x400;" horiz-adv-x="599" 
d="M561 743l-4 -153h-44l-17 104l-245 6l-37 -289l234 4l-5 -64l-234 7l-41 -310l298 9l55 114l43 -13l-43 -158h-510l3 35l75 11l81 647l-68 10l5 40h454zM283 853.5q-50 42.5 -67 76.5l51 47l134 -170l-27 -19q-41 23 -91 65.5z" />
    <glyph glyph-name="uni0401" unicode="&#x401;" horiz-adv-x="599" 
d="M561 743l-4 -153h-44l-17 104l-245 6l-37 -289l234 4l-5 -64l-234 7l-41 -310l298 9l55 114l43 -13l-43 -158h-510l3 35l75 11l81 647l-68 10l5 40h454zM234 856.5q-13 13.5 -13 32.5q0 26 18 45t39 19t33.5 -13.5t11.5 -33.5q0 -27 -17 -45t-41 -18q-18 0 -31 13.5z
M441.5 857q-12.5 14 -12.5 35q0 26 18 43.5t39 17.5q20 0 32.5 -12.5t12.5 -32.5q0 -28 -16.5 -46.5t-41.5 -18.5q-19 0 -31.5 14z" />
    <glyph glyph-name="uni0402" unicode="&#x402;" horiz-adv-x="784" 
d="M569 425q108 0 147 -53t39 -123q0 -54 -27.5 -113t-79 -98.5t-117.5 -39.5q-19 0 -35 2l3 38q12 -2 44 3q40 6 69 35t43.5 69t14.5 75q0 72 -30 112t-107 40q-45 0 -83 -9t-62.5 -17.5t-30.5 -10.5l-36 -287l102 -13l-3 -35h-281l5 35l100 13l82 654l-186 -6l-46 -173
h-51l38 220h612l-30 -219h-50l6 172l-216 6l-41 -324q110 47 207 47z" />
    <glyph glyph-name="uni0403" unicode="&#x403;" horiz-adv-x="526" 
d="M542 743l-20 -230h-53l-3 182l-218 4l-81 -652l160 -12l-3 -35h-320l4 35l81 12l80 645l-84 12l5 39h452zM428 983l49 -47q-21 -31 -71.5 -66.5t-93.5 -55.5l-32 19z" />
    <glyph glyph-name="uni0404" unicode="&#x404;" horiz-adv-x="599" 
d="M470 696.5q-27 6.5 -73 6.5q-73 0 -128 -41t-88.5 -107.5t-46.5 -144.5l321 8l-14 -69q-219 7 -311 17q-3 -28 -2 -52q2 -114 47.5 -193.5t139.5 -79.5q41 0 84 12.5t61 34.5q18 58 32 109h49l-20 -161q-58 -20 -106.5 -32t-114.5 -12q-89 0 -146.5 47t-84 121t-26.5 157
q0 128 49.5 226.5t133 153t181.5 54.5q58 0 94.5 -6t77.5 -17l21 -7l-30 -178h-49l-4 135q-20 12 -47 18.5z" />
    <glyph glyph-name="uni0405" unicode="&#x405;" horiz-adv-x="531" 
d="M390 698q-30 8 -68 8q-59 0 -103 -31t-44 -89q0 -41 19.5 -72.5t48.5 -54t74 -50.5q58 -38 86.5 -60t51 -58.5t22.5 -86.5q0 -65 -32.5 -114t-90 -75t-129.5 -26q-63 0 -121.5 14t-78.5 29l20 137h48l6 -102q20 -14 55.5 -22.5t72.5 -8.5q42 0 81.5 15.5t64.5 47t25 78.5
q0 54 -33 89.5t-96 73.5q-53 33 -87.5 60t-59.5 67t-25 92q0 56 31.5 100.5t84.5 69t116 24.5q64 0 109.5 -12.5t69.5 -29.5l-22 -128h-44l-5 95q-17 12 -47 20z" />
    <glyph glyph-name="uni0406" unicode="&#x406;" horiz-adv-x="339" 
d="M337 743l-4 -40l-75 -10l-81 -646l77 -12l-3 -35h-230l3 35l73 12l82 646l-67 10l5 40h220z" />
    <glyph glyph-name="uni0407" unicode="&#x407;" horiz-adv-x="339" 
d="M337 743l-4 -40l-75 -10l-81 -646l77 -12l-3 -35h-230l3 35l73 12l82 646l-67 10l5 40h220zM108 856.5q-13 13.5 -13 32.5q0 26 18 45t39 19t33.5 -13.5t11.5 -33.5q0 -27 -17 -45t-41 -18q-18 0 -31 13.5zM315.5 857q-12.5 14 -12.5 35q0 26 18 43.5t39 17.5
q20 0 32.5 -12.5t12.5 -32.5q0 -28 -16.5 -46.5t-41.5 -18.5q-19 0 -31.5 14z" />
    <glyph glyph-name="uni0408" unicode="&#x408;" horiz-adv-x="339" 
d="M256 635q-32 -290 -49 -429.5t-26 -168.5q-27 -92 -92.5 -141.5t-150.5 -63.5l-15 35q67 18 117.5 67.5t63.5 109.5q18 79 31 183.5t34 303.5q7 77 17 163l-81 9l5 40h241l-4 -40l-84 -9q-4 -37 -7 -59z" />
    <glyph glyph-name="uni0409" unicode="&#x409;" horiz-adv-x="924" 
d="M674 418q107 0 164 -44.5t57 -126.5q0 -81 -38 -138.5t-103 -87t-145 -29.5q-19 0 -52 3q-75 5 -89 5h-114l3 35l80 12l82 652h-211l-10 -83q-16 -152 -49.5 -294.5t-83.5 -236t-112 -93.5q-26 0 -43 6t-38 20l18 83q8 -9 26.5 -18t41.5 -9q42 0 81 74.5t68 199.5t44 272
l8 70l-105 13l4 40h532l-5 -40l-88 -10l-36 -288q57 13 113 13zM548.5 41q28.5 -4 66.5 -4q90 0 144.5 52t54.5 146q0 64 -43 98t-121 34q-57 0 -95 -10l-40 -311q5 -1 33.5 -5z" />
    <glyph glyph-name="uni040A" unicode="&#x40a;" horiz-adv-x="979" 
d="M755 418q107 0 163.5 -44.5t56.5 -126.5q0 -81 -38 -138.5t-102.5 -87t-145.5 -29.5q-18 0 -53 3q-75 5 -88 5h-113l3 35l80 12l37 306h-349l-38 -306l76 -12l-3 -35h-229l4 35l73 12l81 646l-67 10l5 40h220l-5 -40l-73 -10l-37 -288h349l36 288l-73 10l4 40h222l-5 -40
l-70 -10l-35 -288q60 13 114 13zM628.5 41q28.5 -4 66.5 -4q91 0 145.5 52t54.5 146q0 64 -43 98t-121 34q-58 0 -96 -10l-40 -311q5 -1 33.5 -5z" />
    <glyph glyph-name="uni040B" unicode="&#x40b;" horiz-adv-x="758" 
d="M440.5 440.5q46.5 10.5 93.5 10.5q79 0 119.5 -33t40.5 -121q0 -31 -4 -60l-24 -190l72 -12l-4 -35h-226l4 35l74 12l18 133q8 66 8 102q0 64 -24.5 88.5t-87.5 24.5q-37 0 -80.5 -9t-70.5 -23l-44 -316l94 -12l-3 -35h-275l3 35l104 12l88 653l-188 -7l-46 -177h-45
l38 227h609l-33 -228h-48l7 181l-214 4l-40 -291q38 21 84.5 31.5z" />
    <glyph glyph-name="uni040C" unicode="&#x40c;" horiz-adv-x="649" 
d="M414 314.5q31 -49.5 76 -133.5q35 -66 53 -96t31 -34l44 -11l-5 -40h-99q-17 0 -38.5 37t-59.5 116q-44 93 -74.5 142t-55.5 49h-82l-37 -297l76 -12l-3 -35h-228l4 35l73 12l81 646l-67 10l4 40h219l-4 -40l-74 -10l-38 -305h95l243 303l-80 12l5 40h217l-5 -40l-74 -11
l-256 -311q28 -17 59 -66.5zM496 983l49 -47q-21 -31 -71.5 -66.5t-93.5 -55.5l-32 19z" />
    <glyph glyph-name="uni040D" unicode="&#x40d;" horiz-adv-x="766" 
d="M328 743l-5 -40l-73 -10l-66 -514l39 46l386 414l7 54l-72 10l4 40h222l-5 -40l-70 -10l-81 -646l76 -12l-3 -35h-231l2 35l78 12l64 518l-76 -85l-348 -373l-8 -60l76 -12l-3 -35h-229l4 35l73 12l81 646l-67 10l5 40h220zM368 853.5q-50 42.5 -67 76.5l51 47l134 -170
l-27 -19q-41 23 -91 65.5z" />
    <glyph glyph-name="uni040E" unicode="&#x40e;" horiz-adv-x="588" 
d="M329 145q-21 -46 -39.5 -77.5t-49.5 -55t-73 -23.5q-43 0 -75 15l6 63h69q45 0 70.5 19t41.5 62l-172 544l-59 11l5 40h219l-3 -40l-80 -10l108 -369l28 -106l43 107l167 368l-72 10l5 40h183l-4 -40l-54 -10l-255 -529zM264 964q0 -9 -1 -19.5t-1 -21.5q0 -37 24 -55.5
t77 -18.5q55 0 81 25t32 73q4 33 18 33h56q0 -10 -1 -16q-13 -78 -63.5 -116.5t-128.5 -38.5q-79 0 -127 34.5t-48 103.5q0 22 4 33h68q10 0 10 -16z" />
    <glyph glyph-name="uni040F" unicode="&#x40f;" horiz-adv-x="722" 
d="M333 743l-4 -40l-79 -10l-82 -647h327l81 647l-77 10l3 40h229l-4 -40l-72 -10l-81 -646l81 -12l-3 -35h-280l-36 -166h-50l15 166h-293l4 35l77 12l81 646l-73 10l5 40h231z" />
    <glyph glyph-name="uni0410" unicode="&#x410;" horiz-adv-x="655" 
d="M437 743l127 -695l82 -13l-2 -35h-251l2 35l89 11l-29 178h-286l-84 -177l90 -12l-3 -35h-232l4 35l68 11l344 697h81zM192 272h254l-56 345l-7 60z" />
    <glyph glyph-name="uni0411" unicode="&#x411;" horiz-adv-x="606" 
d="M281 450.5q30 4.5 67 4.5q106 0 162 -48t56 -136q0 -80 -36 -143.5t-101.5 -99.5t-151.5 -36q-20 0 -59 3q-85 5 -96 5h-119l4 35l82 12l80 646l-74 10l5 40h494l-12 -179h-51l-12 134l-275 1l-32 -261q39 8 69 12.5zM277 37q64 0 111.5 29t72.5 79.5t25 114.5
q0 70 -43 107t-119 37q-43 0 -78 -6t-40 -7l-43 -346q52 -8 114 -8z" />
    <glyph glyph-name="uni0412" unicode="&#x412;" horiz-adv-x="628" 
d="M262 744q15 1 25 2q52 4 80 4q110 0 163.5 -45t53.5 -115q0 -76 -41 -125.5t-115 -70.5q65 -8 108.5 -51t43.5 -107q0 -124 -92 -183.5t-236 -59.5q-21 0 -69 4q-14 1 -30 2t-33 1h-108l4 35l73 12l81 646l-67 10l4 40h120q20 0 35 1zM249 410h76q80 0 130 43.5t50 127.5
q0 62 -37 92.5t-120 30.5q-20 0 -48 -1.5t-52 -4.5l-36 -288h37zM214.5 44.5q33.5 -2.5 54.5 -2.5q104 0 165.5 44t61.5 140q0 133 -159 133q-81 0 -131 -2l-38 -306q13 -4 46.5 -6.5z" />
    <glyph glyph-name="uni0413" unicode="&#x413;" horiz-adv-x="526" 
d="M542 743l-20 -230h-53l-3 182l-218 4l-81 -652l160 -12l-3 -35h-320l4 35l81 12l80 645l-84 12l5 39h452z" />
    <glyph glyph-name="uni0414" unicode="&#x414;" horiz-adv-x="656" 
d="M576 -124l-9 -43h-49l4 48q7 82 7 100q0 14 -1 19h-462q-7 -20 -22.5 -82.5t-19.5 -84.5h-50q4 41 14 123l10 93h67q23 25 58.5 94t72 191t56.5 286l8 73l-108 10l5 40h512l-5 -40l-70 -10l-82 -642h99q-9 -53 -35 -175zM250 349.5q-32 -119.5 -65 -196.5t-55 -104h303
l83 650h-207l-10 -85q-17 -145 -49 -264.5z" />
    <glyph glyph-name="uni0415" unicode="&#x415;" horiz-adv-x="599" 
d="M561 743l-4 -153h-44l-17 104l-245 6l-37 -289l234 4l-5 -64l-234 7l-41 -310l298 9l55 114l43 -13l-43 -158h-510l3 35l75 11l81 647l-68 10l5 40h454z" />
    <glyph glyph-name="uni0416" unicode="&#x416;" horiz-adv-x="987" 
d="M752 321.5q33 -49.5 82 -137.5q37 -67 57 -98.5t35 -38.5l44 -12l-4 -35h-108q-17 0 -38.5 37t-59.5 116q-44 93 -74.5 142t-55.5 49h-81l-37 -297l75 -12l-2 -35h-226l4 35l73 12l38 296h-72q-25 0 -65.5 -48t-107.5 -142q-56 -79 -86 -116t-47 -37h-108l4 35l42 12
q13 4 39 33.5t77 93.5q70 89 118.5 142t82.5 67l-198 309l-75 11l5 40h217l-4 -40l-80 -10l184 -305h79l39 305l-68 10l5 40h216l-4 -40l-74 -10l-38 -305h86l251 305l-77 10l5 40h216l-5 -40l-75 -11l-266 -308q29 -13 62 -62.5z" />
    <glyph glyph-name="uni0417" unicode="&#x417;" horiz-adv-x="565" 
d="M183 730q78 21 126 21q103 0 158 -38t55 -104q0 -90 -52 -143.5t-119 -68.5q84 -1 127.5 -43t43.5 -107q0 -77 -42.5 -134.5t-115 -88t-160.5 -30.5q-108 0 -200 39l42 162h42l-8 -124q22 -12 60 -20t88 -8q59 0 106 23.5t74 68.5t27 107q0 57 -37.5 89.5t-119.5 32.5
l-86 -4l5 51h73q40 0 79 21t65 63t26 102q0 53 -32.5 80.5t-94.5 27.5q-46 0 -83 -12t-52 -30l-20 -92h-47l11 147q17 1 61 12z" />
    <glyph glyph-name="uni0418" unicode="&#x418;" horiz-adv-x="766" 
d="M328 743l-5 -40l-73 -10l-66 -514l39 46l386 414l7 54l-72 10l4 40h222l-5 -40l-70 -10l-81 -646l76 -12l-3 -35h-231l2 35l78 12l64 518l-76 -85l-348 -373l-8 -60l76 -12l-3 -35h-229l4 35l73 12l81 646l-67 10l5 40h220z" />
    <glyph glyph-name="uni0419" unicode="&#x419;" horiz-adv-x="766" 
d="M328 743l-5 -40l-73 -10l-66 -514l39 46l386 414l7 54l-72 10l4 40h222l-5 -40l-70 -10l-81 -646l76 -12l-3 -35h-231l2 35l78 12l64 518l-76 -85l-348 -373l-8 -60l76 -12l-3 -35h-229l4 35l73 12l81 646l-67 10l5 40h220zM358 964q0 -9 -1 -19.5t-1 -21.5
q0 -37 24 -55.5t77 -18.5q55 0 81 25t32 73q4 33 18 33h56q0 -10 -1 -16q-13 -78 -63.5 -116.5t-128.5 -38.5q-79 0 -127 34.5t-48 103.5q0 22 4 33h68q10 0 10 -16z" />
    <glyph glyph-name="uni041A" unicode="&#x41a;" horiz-adv-x="649" 
d="M414 314.5q31 -49.5 76 -133.5q35 -66 53 -96t31 -34l44 -11l-5 -40h-99q-17 0 -38.5 37t-59.5 116q-44 93 -74.5 142t-55.5 49h-82l-37 -297l76 -12l-3 -35h-228l4 35l73 12l81 646l-67 10l4 40h219l-4 -40l-74 -10l-38 -305h95l243 303l-80 12l5 40h217l-5 -40l-74 -11
l-256 -311q28 -17 59 -66.5z" />
    <glyph glyph-name="uni041B" unicode="&#x41b;" horiz-adv-x="660" 
d="M256 355.5q-27 -127.5 -64 -216.5q-62 -147 -138 -147q-26 0 -43.5 5.5t-37.5 19.5l18 85q9 -9 26.5 -18t40.5 -9q44 0 82 75q37 72 66.5 196.5t44.5 273.5l8 70l-106 13l5 40h532l-5 -40l-89 -10l-81 -646l76 -13l-3 -34h-234l3 35l80 12l82 652h-211l-10 -83
q-15 -133 -42 -260.5z" />
    <glyph glyph-name="uni041C" unicode="&#x41c;" horiz-adv-x="919" 
d="M609 496q89 191 112 247h190l-5 -40l-88 -10l-19 -646l83 -12l-3 -35h-254l4 35l91 11l20 450l14 205l-76 -181l-239 -522l-44 -7l-87 517l-33 193l-41 -197l-107 -457l97 -12l-3 -35h-246l4 35l84 12l162 646l-92 10l5 40h202l85 -511l14 -107l49 105q29 74 121 266z
" />
    <glyph glyph-name="uni041D" unicode="&#x41d;" horiz-adv-x="744" 
d="M328 743l-5 -40l-73 -10l-37 -288h349l36 288l-73 10l4 40h222l-5 -40l-70 -10l-80 -646l76 -12l-4 -35h-233l3 35l80 12l37 306h-349l-38 -306l76 -12l-3 -35h-229l4 35l73 12l81 646l-67 10l5 40h220z" />
    <glyph glyph-name="uni041E" unicode="&#x41e;" horiz-adv-x="677" 
d="M532.5 710.5q55.5 -42.5 82.5 -114.5t27 -161q0 -125 -43.5 -226.5t-121 -160t-174.5 -58.5q-80 0 -135.5 42t-84 114.5t-28.5 164.5q0 125 44.5 226t122.5 158.5t174 57.5q81 0 136.5 -42.5zM257.5 654q-56.5 -49 -89 -136t-32.5 -196q0 -129 47 -206.5t131 -77.5
q69 0 124.5 49t87.5 136t32 196q0 130 -44.5 207t-129.5 77q-70 0 -126.5 -49z" />
    <glyph glyph-name="uni041F" unicode="&#x41f;" horiz-adv-x="716" 
d="M728 743l-4 -40l-74 -10l-82 -646l78 -12l-3 -35h-229l3 35l72 12l82 646h-322l-81 -646l76 -12l-3 -35h-227l3 35l72 12l80 642l-81 14l4 40h636z" />
    <glyph glyph-name="uni0420" unicode="&#x420;" horiz-adv-x="600" 
d="M296 747q48 4 74 4q226 0 226 -196q0 -91 -40.5 -156.5t-109.5 -99.5t-153 -34q-27 0 -99 4l-25 -222l91 -12l-3 -35h-245l4 35l73 12l81 646l-67 10l4 40h114q27 0 75 4zM296 313q108 1 162 63t54 182q0 73 -34 109.5t-112 36.5q-23 0 -57 -3t-59 -7l-49 -373
q46 -8 95 -8z" />
    <glyph glyph-name="uni0421" unicode="&#x421;" horiz-adv-x="604" 
d="M470 696.5q-27 6.5 -73 6.5q-87 0 -148 -57t-91 -144t-30 -176q0 -118 45.5 -201.5t141.5 -83.5q41 0 84 12.5t61 34.5q18 58 32 109h49l-20 -161q-58 -20 -106.5 -32t-114.5 -12q-89 0 -146.5 47t-84 121t-26.5 157q0 128 49.5 226.5t133 153t181.5 54.5q58 0 94.5 -6
t77.5 -17l21 -7l-30 -178h-49l-4 135q-20 12 -47 18.5z" />
    <glyph glyph-name="uni0422" unicode="&#x422;" horiz-adv-x="604" 
d="M638 743l-30 -222l-43 -1l7 172l-182 8l-85 -653l123 -9l-3 -38h-321l2 38l120 9l84 653l-180 -8l-44 -170l-45 -1l35 222h562z" />
    <glyph glyph-name="uni0423" unicode="&#x423;" horiz-adv-x="588" 
d="M329 145q-21 -46 -39.5 -77.5t-49.5 -55t-73 -23.5q-43 0 -75 15l6 63h69q45 0 70.5 19t41.5 62l-172 544l-59 11l5 40h219l-3 -40l-80 -10l108 -369l28 -106l43 107l167 368l-72 10l5 40h183l-4 -40l-54 -10l-255 -529z" />
    <glyph glyph-name="uni0424" unicode="&#x424;" horiz-adv-x="715" 
d="M652 595.5q59 -58.5 59 -155.5q0 -88 -40.5 -163t-117.5 -123t-182 -56l-9 -74l81 -12l-5 -39h-239l5 41l84 11l9 72q-148 5 -207 66.5t-59 160.5q0 89 39.5 162.5t116 119t182.5 53.5l9 68l-80 10l4 41h237l-4 -41l-82 -10l-9 -67q149 -6 208 -64.5zM165 528.5
q-60 -84.5 -60 -197.5q0 -183 196 -198l64 492q-140 -12 -200 -96.5zM574.5 231q61.5 85 61.5 206q0 79 -43.5 129.5t-152.5 58.5l-64 -491q137 12 198.5 97z" />
    <glyph glyph-name="uni0425" unicode="&#x425;" horiz-adv-x="634" 
d="M317 743l-4 -40l-85 -9l112 -267l186 266l-83 10l4 40h228l-3 -40l-71 -9l-237 -315l165 -332l80 -12l-2 -35h-260l3 35l86 11l-126 279l-195 -278l87 -12l-4 -35h-229l4 35l66 11l248 329l-150 317l-73 11l4 40h249z" />
    <glyph glyph-name="uni0426" unicode="&#x426;" horiz-adv-x="740" 
d="M640 -167h-48l4 60q6 62 6 88q0 14 -1 19h-611l4 35l95 12l80 645l-68 11l4 40h233l-4 -40l-85 -11l-82 -642h322l79 643l-71 10l4 40h217l-4 -40l-71 -10l-81 -642h122q-12 -73 -44 -218z" />
    <glyph glyph-name="uni0427" unicode="&#x427;" horiz-adv-x="625" 
d="M343.5 303.5q-49.5 -11.5 -94.5 -11.5q-85 0 -128 33t-43 123q0 30 4 58l24 187l-66 9l4 41h219l-4 -40l-73 -11l-17 -129q-8 -64 -8 -100q0 -64 26.5 -89.5t95.5 -25.5q39 0 83.5 10t70.5 27l39 308l-74 10l4 40h222l-6 -40l-67 -10l-81 -646l78 -12l-3 -35h-247l3 35
l90 12l36 291q-38 -23 -87.5 -34.5z" />
    <glyph glyph-name="uni0428" unicode="&#x428;" horiz-adv-x="1014" 
d="M349 743l-5 -40l-100 -11l-80 -646h273l81 646l-75 11l4 40h233l-4 -40l-82 -11l-82 -646h262l82 647l-81 10l4 40h242l-4 -40l-86 -10l-78 -641l92 -12l-4 -40h-927l3 35l72 13l81 645l-68 10l4 40h243z" />
    <glyph glyph-name="uni0429" unicode="&#x429;" horiz-adv-x="1025" 
d="M950 -100l-14 -67h-49l4 48q7 82 7 100q0 14 -1 19h-883l3 35l72 13l81 645l-68 10l4 40h241l-5 -40l-100 -11l-80 -646h275l81 646l-75 11l4 40h232l-4 -40l-83 -11l-80 -646h264l82 647l-81 10l4 40h240l-4 -40l-86 -10l-79 -646h128q-7 -39 -30 -147z" />
    <glyph glyph-name="uni042A" unicode="&#x42a;" horiz-adv-x="745" 
d="M444 449.5q39 5.5 72 5.5q105 0 160 -48.5t55 -136.5q0 -80 -35.5 -143t-101 -99t-149.5 -36q-19 0 -60 3q-87 5 -99 5h-117l4 35l80 12l82 652l-170 -3l-48 -183h-51l40 230h409l-4 -40l-97 -11l-32 -254q23 6 62 11.5zM443 37q65 0 112 29t71.5 79t24.5 114
q0 70 -42.5 107.5t-117.5 37.5q-26 0 -60 -4.5t-54 -8.5l-43 -345q52 -9 109 -9z" />
    <glyph glyph-name="uni042B" unicode="&#x42b;" horiz-adv-x="922" 
d="M342 418q107 0 164 -44.5t57 -126.5q0 -81 -38 -138.5t-103 -87t-146 -29.5q-20 0 -59 3q-85 5 -96 5h-109l4 35l73 12l81 646l-66 10l4 40h227l-4 -40l-82 -10l-36 -291q70 16 129 16zM933 743l-4 -40l-75 -10l-81 -646l77 -12l-3 -35h-230l3 35l73 12l82 646l-67 10
l5 40h220zM283 37q90 0 145 52t55 146q0 64 -43.5 98t-121.5 34q-54 0 -111 -12l-38 -309q69 -9 114 -9z" />
    <glyph glyph-name="uni042C" unicode="&#x42c;" horiz-adv-x="596" 
d="M342 418q107 0 164 -45t57 -126t-38 -138.5t-103 -87t-146 -29.5q-20 0 -59 3q-85 5 -96 5h-109l4 35l73 12l81 646l-67 10l5 40h227l-4 -40l-82 -10l-36 -291q70 16 129 16zM283 37q90 0 145 52t55 146q0 64 -43.5 98t-121.5 34q-54 0 -111 -12l-39 -309q72 -9 115 -9z
" />
    <glyph glyph-name="uni042D" unicode="&#x42d;" horiz-adv-x="598" 
d="M142.5 718.5q18.5 5.5 21.5 6.5q41 12 75 19t85 7q88 0 151 -39.5t96.5 -111t33.5 -166.5q0 -126 -52.5 -228t-141.5 -159.5t-194 -57.5q-40 0 -68 6.5t-59 17.5q-37 14 -60 14l-1 142l49 5l17 -93q20 -15 34 -23t41.5 -15.5t67.5 -7.5q68 0 127.5 40.5t99 116
t49.5 175.5q-70 -8 -255 -16q-32 0 -60 -2l-13 69l331 -8v22q0 120 -51 197t-152 77q-54 0 -85.5 -13.5t-64.5 -37.5l-29 -94h-51l24 151q16 1 34.5 6.5z" />
    <glyph glyph-name="uni042E" unicode="&#x42e;" horiz-adv-x="996" 
d="M443 585.5q47 79.5 117.5 123.5t154.5 44q80 0 134.5 -41t82 -111.5t28.5 -157.5q2 -126 -41 -230t-121 -163.5t-176 -59.5q-78 0 -133.5 41t-84 112t-30.5 160q0 36 2 55h-169l-38 -311l75 -12l-3 -35h-228l3 35l73 12l81 646l-67 10l5 40h219l-4 -40l-73 -10l-37 -288
h168q15 101 62 180.5zM577.5 654q-56.5 -49 -89 -136t-32.5 -196q0 -129 46.5 -206.5t130.5 -77.5q69 0 124.5 49t87.5 135t32 194q0 132 -44 209.5t-130 77.5q-69 0 -125.5 -49z" />
    <glyph glyph-name="uni042F" unicode="&#x42f;" horiz-adv-x="640" 
d="M359 329q-27 -1 -61 -1q-25 -18 -53 -61.5t-70 -119.5q-40 -73 -65 -110t-42 -37h-112l4 34l41 13q17 3 40 33.5t63 93.5q42 67 70 105.5t55 55.5q-56 17 -90.5 63t-34.5 104q0 74 34.5 130.5t100.5 87.5t158 31q25 0 67 -4q44 -4 69 -4h122l-4 -40l-75 -10l-81 -646
l78 -12l-3 -35h-236l4 35l81 12l36 283q-12 -1 -96 -1zM464 697q-51 7 -84 7q-98 0 -146 -49.5t-48 -136.5q0 -65 45.5 -104.5t115.5 -39.5q94 0 114 2l39 317q-8 0 -36 4z" />
    <glyph glyph-name="uni0430" unicode="&#x430;" horiz-adv-x="574" 
d="M444 74q0 -16 6.5 -23t13.5 -7q10 0 19.5 6.5t24.5 21.5l14 -22q-4 -8 -18.5 -22.5t-35.5 -26t-44 -11.5q-62 0 -58 66l6 41q-34 -44 -79.5 -75.5t-94.5 -31.5q-79 0 -117.5 57t-38.5 154q0 81 38 166.5t109.5 143t166.5 57.5q21 0 49 -5t50 -12l55 16l-65 -481
q-1 -5 -1 -12zM345 519q-69 0 -119 -47.5t-76 -119.5t-26 -142q0 -77 22.5 -119.5t68.5 -42.5q45 0 89.5 35.5t74.5 78.5l44 335q-32 22 -78 22z" />
    <glyph glyph-name="uni0431" unicode="&#x431;" horiz-adv-x="545" 
d="M508.5 735q-6.5 -6 -24.5 -6q-139 0 -239.5 -78.5t-140.5 -283.5q32 75 95.5 125.5t140.5 50.5q90 0 131.5 -53.5t41.5 -148.5q0 -93 -36.5 -173t-101.5 -128t-144 -48q-96 0 -145.5 74t-49.5 185q0 165 60 289.5t155 190.5t197 66q11 0 20 14l26 51h40l-17 -103
q-2 -18 -8.5 -24zM217.5 451q-46.5 -40 -74.5 -100t-28 -117q0 -87 32 -142t95 -55q62 0 104.5 43.5t63 109t20.5 132.5q0 169 -113 169q-53 0 -99.5 -40z" />
    <glyph glyph-name="uni0432" unicode="&#x432;" horiz-adv-x="540" 
d="M450 534.5q38 -27.5 38 -64.5q0 -53 -32.5 -90.5t-104.5 -60.5q67 1 101 -33t34 -82q0 -58 -29.5 -106.5t-87.5 -77.5t-140 -29q-50 0 -93 28t-69 80t-26 121q0 111 47.5 188.5t116 115.5t130.5 38q77 0 115 -27.5zM363 368.5q40 29.5 40 79.5q0 31 -23.5 48.5
t-67.5 17.5q-32 0 -72 -23.5t-71 -70t-38 -111.5l113 17q79 13 119 42.5zM122 227v-32q0 -67 34.5 -112t90.5 -45q71 0 115 41.5t44 107.5q0 45 -27.5 74t-84.5 29q-17 0 -27 -1l-142 -21q-3 -12 -3 -41z" />
    <glyph glyph-name="uni0433" unicode="&#x433;" horiz-adv-x="411" 
d="M152 550.5q40 16.5 91 16.5q63 0 102.5 -29.5t39.5 -79.5q0 -41 -19.5 -73t-47 -53.5t-70.5 -48.5l-32 -21q-6 -4 -43 -29t-53.5 -50t-16.5 -53q0 -37 23.5 -61t69.5 -24q40 0 68.5 12.5t62.5 38.5l11 -40q-25 -29 -74 -47.5t-94 -18.5q-42 0 -75.5 17.5t-52.5 47.5
t-19 64q0 43 19 74.5t47.5 53t76.5 51.5q6 5 20 13q59 38 87 68.5t28 70.5q0 27 -20.5 46t-52.5 19q-42 0 -80.5 -14.5t-49.5 -26.5l-9 41q23 19 63 35.5z" />
    <glyph glyph-name="uni0434" unicode="&#x434;" horiz-adv-x="568" 
d="M217.5 806q48.5 15 89.5 15q122 0 171 -98t49 -247q0 -115 -30 -226.5t-97 -186.5t-173 -75q-85 0 -130.5 61t-45.5 157q0 91 39.5 171.5t107 129.5t147.5 49q58 0 101 -32q-6 123 -46 185.5t-121 62.5q-67 0 -124 -41l-23 29q37 31 85.5 46zM239.5 473
q-48.5 -40 -78 -108t-29.5 -147t23.5 -129t85.5 -50q107 0 156 119t50 318q-42 37 -105 37q-54 0 -102.5 -40z" />
    <glyph glyph-name="uni0435" unicode="&#x435;" horiz-adv-x="514" 
d="M359.5 23q-56.5 -33 -122.5 -33t-109 30t-63.5 78.5t-20.5 105.5q0 94 38 178t103.5 135t145.5 51q68 0 103 -34t35 -88q0 -71 -60 -119.5t-141 -73t-140 -25.5q-1 -7 -1 -23q0 -64 30 -111t92 -47q43 0 89 20t85 59l19 -34q-26 -36 -82.5 -69zM222 482
q-40 -39 -63.5 -96.5t-28.5 -112.5q57 2 117.5 22.5t101.5 57.5t41 86q-1 40 -21 61t-56 21q-51 0 -91 -39z" />
    <glyph glyph-name="uni0436" unicode="&#x436;" horiz-adv-x="896" 
d="M658.5 434.5q33.5 57.5 80 91.5t100.5 34q42 0 63 -18l-27 -74q-5 4 -27.5 24.5t-27.5 21.5q-33 0 -67 -39t-56.5 -107t-22.5 -151t21.5 -124t57.5 -41q28 0 50.5 13.5t50.5 44.5l17 -22q-24 -36 -59.5 -67t-81.5 -31q-60 0 -96.5 57t-36.5 157q0 36 4 63h-118l-32 -267
h-78l33 267h-127q-13 -74 -46.5 -137.5t-82 -101.5t-105.5 -38q-42 0 -64 17l27 75q4 -2 17 -15q5 -4 19.5 -17t19.5 -14q32 0 66 39t56.5 107t22.5 151t-22 124t-58 41q-28 0 -49 -13.5t-50 -44.5l-18 21q67 99 141 99q60 0 97 -57.5t37 -156.5q0 -14 -2 -38h125l29 247h78
l-30 -247h122q16 69 49.5 126.5z" />
    <glyph glyph-name="uni0437" unicode="&#x437;" horiz-adv-x="491" 
d="M154 551q28 8 54.5 12t65.5 4q81 0 126.5 -31t45.5 -86q0 -58 -39.5 -98t-106.5 -52q69 -1 108 -32.5t39 -83.5q0 -57 -33.5 -101t-91 -67.5t-127.5 -23.5q-104 0 -183 43l29 77l43 -47q21 -15 47 -21t61 -6q85 0 130 37t45 100q0 45 -35 70t-105 24l-54 -11l10 54l31 3
q150 17 150 129q0 37 -26 57t-81 20q-45 0 -69.5 -8t-51.5 -21l-27 -97h-45l18 145q30 0 72 11z" />
    <glyph glyph-name="uni0438" unicode="&#x438;" horiz-adv-x="589" 
d="M167 247q-4 -29 -7 -58t-3 -53q0 -52 19 -71t56 -19q40 0 85.5 31.5t74.5 73.5l54 411h77l-64 -482q-1 -4 -1 -12q0 -24 13 -24q21 0 55 34l12 -23q-6 -9 -22 -24.5t-39.5 -27.5t-47.5 -12q-23 0 -36 14t-13 37q0 10 1 15q3 12 5 37l-1 1q-35 -45 -82.5 -75t-102.5 -30
q-58 0 -89 30t-31 103q0 50 17 173l27 190l-49 24l6 35l107 21l19 -10l-34 -264z" />
    <glyph glyph-name="uni0439" unicode="&#x439;" horiz-adv-x="589" 
d="M167 247q-4 -29 -7 -58t-3 -53q0 -52 19 -71t56 -19q40 0 85.5 31.5t74.5 73.5l54 411h77l-64 -482q-1 -4 -1 -12q0 -24 13 -24q21 0 55 34l12 -23q-6 -9 -22 -24.5t-39.5 -27.5t-47.5 -12q-23 0 -36 14t-13 37q0 10 1 15q3 12 5 37l-1 1q-35 -45 -82.5 -75t-102.5 -30
q-58 0 -89 30t-31 103q0 50 17 173l27 190l-49 24l6 35l107 21l19 -10l-34 -264zM259 805q0 -10 -1.5 -19t-1.5 -17q0 -37 23 -55.5t74 -18.5q53 0 78 24.5t31 72.5q4 34 18 34h56q0 -10 -1 -16q-13 -78 -62.5 -116.5t-124.5 -38.5q-77 0 -124 34.5t-47 101.5q0 20 4 35h67
q11 0 11 -21z" />
    <glyph glyph-name="uni043A" unicode="&#x43a;" horiz-adv-x="543" 
d="M339.5 368.5q29.5 26.5 62.5 64.5q9 8 18.5 23t11.5 28v4q0 6 -1 12.5t-1 16.5q0 20 16 33.5t37 13.5q16 0 26.5 -9t10.5 -28q0 -49 -48 -97.5t-137 -114.5l-31 -23q20 -22 64 -97q44 -71 70 -105.5t48 -38.5l35 -14l-4 -37h-81q-29 0 -55 36.5t-62 106.5
q-33 64 -54.5 96t-44.5 32h-41l-36 -271h-78l65 486l-48 23l7 36l105 21l22 -11l-32 -243h86q40 30 69.5 56.5z" />
    <glyph glyph-name="uni043B" unicode="&#x43b;" horiz-adv-x="558" 
d="M433 67q0 -23 12 -23q21 0 48 26l12 -23q-10 -15 -41.5 -36t-64.5 -21q-25 0 -39.5 12t-14.5 37l1 11l61 454h-112q-64 -313 -163 -434q-49 -78 -115 -78q-11 0 -26.5 4.5t-17.5 7.5l18 88q4 -3 27 -9t33 -6q21 0 47 40q45 56 88.5 170.5t65.5 214.5l-121 12l5 41h356
l-58 -476q-1 -4 -1 -12z" />
    <glyph glyph-name="uni043C" unicode="&#x43c;" horiz-adv-x="793" 
d="M681 60q7 -17 18 -17q25 0 58 31l14 -23q-6 -8 -23.5 -23t-42 -26.5t-49.5 -11.5q-30 0 -45 15t-16 49l8 310l7 145l-63 -144l-180 -372h-36l-86 375l-27 132l-35 -163q-39 -186 -85 -288q-13 -30 -32.5 -43.5t-58.5 -13.5q-8 0 -24.5 4.5t-17.5 8.5l20 88
q7 -4 34.5 -10.5t37.5 -5.5q34 78 59.5 176.5t49.5 212.5l8 36l-88 12l4 41h195l79 -363l14 -89l33 89l172 363h96l-5 -455q0 -23 7 -40z" />
    <glyph glyph-name="uni043D" unicode="&#x43d;" horiz-adv-x="637" 
d="M512 67q0 -23 12 -23q22 0 48 26l13 -23q-12 -16 -41 -36.5t-62 -20.5q-24 0 -39 11.5t-15 34.5q0 8 1 13l28 213h-280l-34 -262h-78l65 486l-48 23l7 36l105 21l22 -11l-32 -245h279l32 245h75l-57 -476q-1 -4 -1 -12z" />
    <glyph glyph-name="uni043E" unicode="&#x43e;" horiz-adv-x="560" 
d="M467 507q50 -61 50 -171q0 -88 -35.5 -167.5t-99 -129t-143.5 -49.5q-92 0 -143 58.5t-53 165.5q-1 90 35 171.5t100 132t145 50.5q94 0 144 -61zM209.5 474q-41.5 -45 -62.5 -114t-21 -139q0 -88 33 -135t95 -47q56 0 97 44.5t62 112.5t21 137q0 90 -31 138t-94 48
q-58 0 -99.5 -45z" />
    <glyph glyph-name="uni043F" unicode="&#x43f;" horiz-adv-x="615" 
d="M301.5 529.5q58.5 38.5 115.5 38.5q54 0 83 -33.5t29 -110.5q0 -44 -21 -151l-5 -26q-1 -8 -5 -26q-18 -105 -21 -143q-2 -34 12 -34q20 0 47 26l13 -23q-10 -15 -39 -36t-63 -21q-53 0 -53 56q0 22 6 59t13 73l9 45l6 31q11 61 16 96t5 68q0 49 -15 67.5t-52 18.5
q-43 0 -97.5 -41.5t-92.5 -99.5l-49 -363h-78l65 488l-48 23l7 36l105 21l19 -10l-13 -126q43 59 101.5 97.5z" />
    <glyph glyph-name="uni0440" unicode="&#x440;" horiz-adv-x="566" 
d="M266 542q41 26 91 26q82 0 124.5 -57.5t42.5 -154.5q0 -81 -38 -166.5t-109 -142.5t-164 -57q-29 0 -79 12l-35 -256h-76l101 749l-53 20l7 32l110 21l19 -10l-10 -80q28 38 69 64zM225 39q67 0 116 48t74.5 120.5t25.5 143.5q0 76 -26.5 117.5t-72.5 41.5t-87 -29.5
t-64 -66.5l-49 -352q30 -23 83 -23z" />
    <glyph glyph-name="uni0441" unicode="&#x441;" horiz-adv-x="437" 
d="M351.5 498.5q-24.5 10.5 -46.5 10.5q-56 0 -98 -36.5t-64.5 -101.5t-22.5 -150q0 -86 30.5 -130t85.5 -44q41 0 71.5 15t69.5 46l16 -33q-26 -32 -71.5 -58.5t-108.5 -26.5q-83 0 -129.5 59.5t-46.5 163.5q0 80 34 162.5t99 137.5t153 55q28 0 58.5 -6.5t50.5 -17.5
l-23 -80l-11 8q-22 16 -46.5 26.5z" />
    <glyph glyph-name="uni0442" unicode="&#x442;" horiz-adv-x="926" 
d="M301.5 529.5q58.5 38.5 114.5 38.5q53 0 80.5 -31t29.5 -98q39 56 91.5 92.5t105.5 36.5t83.5 -35t30.5 -110q0 -23 -5.5 -60t-11.5 -73l-7 -43l-4 -22q-18 -108 -21 -147l-1 -12q0 -22 12 -22t25 7.5t31 25.5l12 -22q-12 -19 -42 -42t-66 -23q-26 0 -39 13.5t-13 41.5
q0 22 5.5 59t11.5 72l8 49l6 34q19 106 19 159q0 48 -15 66.5t-49 18.5q-38 0 -84.5 -36t-84.5 -90q-5 -49 -17 -130l-33 -247h-80l32 223q10 63 16 109.5t6 85.5q-1 50 -14.5 68t-51.5 18q-43 0 -97.5 -41t-92.5 -99l-49 -364h-78l65 488l-48 23l7 36l105 21l19 -10
l-13 -126q43 59 101.5 97.5z" />
    <glyph glyph-name="uni0443" unicode="&#x443;" horiz-adv-x="524" 
d="M83.5 501q-5.5 7 -14.5 7t-18.5 -6t-24.5 -21l-12 26q9 16 37.5 37.5t58.5 21.5q31 0 44 -16.5t17 -50.5l52 -374l14 -136l81 155q16 34 25 50q43 86 63.5 143.5t20.5 119.5q0 13 -4 24t-5 13q-8 20 -8 30q0 21 10.5 31t27.5 10q26 0 40.5 -23t14.5 -65q0 -64 -28.5 -134
t-78.5 -164l-18 -34q-54 -109 -99.5 -186t-78.5 -117q-62 -89 -166 -89q-21 0 -49 4.5t-43 10.5l19 64q38 -19 83 -19q42 0 90.5 36t86.5 112h-38l-90 514q-4 19 -9.5 26z" />
    <glyph glyph-name="uni0444" unicode="&#x444;" horiz-adv-x="814" 
d="M539 552.5q33 15.5 71 15.5q80 0 121 -58t41 -154q0 -80 -36 -165.5t-103 -143t-156 -57.5q-30 0 -69 15l-25 -169q-1 -4 -1 -11q0 -13 4.5 -19t10.5 -6q23 0 54 34l13 -23q-11 -19 -40.5 -41.5t-65.5 -22.5q-25 0 -41.5 12t-16.5 36q0 7 1 11l35 244q-24 -26 -60 -43
t-78 -17q-78 0 -118 57.5t-40 153.5q0 81 36 166.5t104 143t158 57.5q36 0 74 -19l28 190l-60 16l9 34l113 17l22 -12l-42 -281q24 24 57 39.5zM327 519q-65 0 -111.5 -49.5t-70 -122t-23.5 -140.5q0 -75 24 -117.5t67 -42.5q40 0 75 19.5t58 44.5l56 376q-26 32 -75 32z
M488 39q64 0 109.5 49.5t68.5 122t23 140.5q0 75 -24.5 117.5t-69.5 42.5q-35 0 -67 -17.5t-55 -41.5l-56 -388q26 -25 71 -25z" />
    <glyph glyph-name="uni0445" unicode="&#x445;" horiz-adv-x="496" 
d="M116.5 504.5q-7.5 7.5 -20.5 7.5q-14 0 -28 -8.5t-21 -17.5l-15 23q9 16 37.5 36.5t62.5 20.5q32 0 47.5 -12.5t23.5 -38.5l52 -177l160 224h83l-220 -285l91 -201q7 -16 14 -23.5t18 -7.5q25 0 57 35l15 -23q-4 -9 -20.5 -25t-40.5 -29t-49 -13q-29 0 -43 12.5t-23 39.5
l-63 188l-164 -230h-82l223 291l-80 190q-7 16 -14.5 23.5z" />
    <glyph glyph-name="uni0446" unicode="&#x446;" horiz-adv-x="591" 
d="M167 247q-4 -29 -7 -58t-3 -53q0 -52 19 -71t56 -19q40 0 85.5 31.5t74.5 73.5l54 411h77l-64 -482q-1 -4 -1 -12q0 -24 13 -24q21 0 55 34l12 -23q-6 -10 -24 -26.5t-41 -27.5q-25 -12 -38 -21.5t-13 -27.5q0 -10 8 -34q11 -31 11 -48q0 -35 -36.5 -66.5t-80.5 -41.5
l-21 26q24 7 44.5 26.5t20.5 40.5q0 15 -6 35q-7 17 -7 38q0 39 47 70q-24 13 -24 48q0 17 7 48l-2 1q-37 -45 -83.5 -75t-99.5 -30q-58 0 -89 30t-31 103q0 50 17 173l27 190l-49 24l6 35l107 21l19 -10l-34 -264z" />
    <glyph glyph-name="uni0447" unicode="&#x447;" horiz-adv-x="565" 
d="M151 331q0 -37 10 -55.5t33 -25.5t67 -7q73 0 125 25l36 287h72l-54 -476l-1 -10q0 -12 4 -18.5t10 -6.5q22 0 48 26l13 -23q-10 -16 -40 -36.5t-63 -20.5q-25 0 -39.5 12t-14.5 37l1 11l22 171q-73 -35 -164 -35q-74 0 -107 27t-33 100q0 24 5 66l13 106l-53 25l7 35
l106 21l21 -11l-17 -135q-7 -65 -7 -89z" />
    <glyph glyph-name="uni0448" unicode="&#x448;" horiz-adv-x="892" 
d="M169 252q-1 -6 -6.5 -48t-5.5 -77q0 -53 19 -72t56 -19q38 0 83 32.5t72 74.5q3 29 6.5 54.5t5.5 46.5l6 43l36 268h76q-6 -45 -12.5 -93t-12.5 -97q-14 -100 -21 -157t-7 -81q0 -52 19.5 -71.5t56.5 -19.5t81 31.5t73 73.5l53 414h77l-64 -484q-1 -5 -1 -12
q0 -25 14 -25q20 0 54 35l12 -23q-11 -18 -42 -41t-67 -23q-23 0 -35.5 12.5t-12.5 34.5q0 13 2 20l2 34q-35 -44 -80.5 -73t-99.5 -29q-55 0 -84.5 26.5t-33.5 87.5h-1q-36 -49 -83.5 -81.5t-103.5 -32.5q-58 0 -89 30t-31 103q0 50 17 172l27 192l-48 24l6 36l106 21
l19 -11l-34 -266z" />
    <glyph glyph-name="uni0449" unicode="&#x449;" horiz-adv-x="891" 
d="M169 263q-1 -7 -6.5 -49.5t-5.5 -77.5q0 -52 19 -71t56 -19q38 0 82.5 32.5t72.5 73.5q6 62 18 146l36 266h76l-36 -275l-6 -39q-11 -73 -11 -114q0 -52 19.5 -71t56.5 -19q38 0 81.5 31.5t72.5 72.5l53 414h77l-64 -484q-1 -4 -1 -12q0 -24 14 -24q20 0 54 34l12 -23
q-6 -9 -20 -22.5t-33 -24.5q-7 -5 -22 -13t-24 -18.5t-9 -25.5q0 -9 8 -33q11 -29 11 -46q0 -36 -36.5 -68t-80.5 -42l-21 26q24 8 44.5 27.5t20.5 42.5q0 15 -6 33q-7 17 -7 37q0 37 41 69q-20 18 -20 59q0 15 3 36l-2 1q-35 -44 -81 -73.5t-99 -29.5q-55 0 -84.5 26.5
t-33.5 88.5h-1q-35 -48 -82.5 -81.5t-104.5 -33.5q-58 0 -89 30t-31 103q0 47 17 173l27 192l-48 24l6 35l106 21l19 -10l-34 -266q-2 -20 -4 -29z" />
    <glyph glyph-name="uni044A" unicode="&#x44a;" horiz-adv-x="611" 
d="M64 494.5q10 51.5 29 63.5q16 10 49 10q32 0 72.5 -4t49.5 -5q74 -8 100 -8q11 0 30 5.5t26 11.5q3 2 10 -3t11.5 -12t0.5 -11q-141 -121 -172 -275q64 100 187 100q58 0 89 -40t31 -112q0 -54 -31 -106.5t-85.5 -86t-120.5 -33.5q-72 0 -117 50.5t-45 132.5
q0 95 37.5 173.5t107.5 145.5l-157 4q-19 0 -37 -9t-28 -24q-9 -10 -14.5 -28.5t-6.5 -35.5h-26q0 45 10 96.5zM327.5 279.5q-46.5 -31.5 -65.5 -73.5q-1 -7 -1 -23q0 -62 21.5 -105.5t64.5 -43.5t78 24t54.5 63t19.5 82q0 50 -16 79t-62 29q-47 0 -93.5 -31.5z" />
    <glyph glyph-name="uni044B" unicode="&#x44b;" horiz-adv-x="755" 
d="M232 337q50 30 109 30q126 0 126 -147q0 -52 -33 -106t-89.5 -89.5t-123.5 -35.5q-72 0 -113.5 42.5t-41.5 125.5q0 36 9 81l50 251l-48 22l6 36l105 21l22 -10l-50 -281q22 30 72 60zM609 67q0 -23 14 -23q19 0 54 34l12 -23q-5 -9 -21.5 -24.5t-39.5 -27.5t-48 -12
q-24 0 -36.5 14t-12.5 40q0 10 1 15l64 502h77l-63 -482q-1 -5 -1 -13zM211 277q-47 -34 -64 -75q-4 -24 -5 -36q-1 -8 -1 -23q0 -51 23 -80t65 -29q45 0 81 26t56.5 66t20.5 80q0 49 -17.5 77t-66.5 28q-45 0 -92 -34z" />
    <glyph glyph-name="uni044C" unicode="&#x44c;" horiz-adv-x="511" 
d="M233 337q49 30 108 30q127 0 127 -147q0 -52 -33 -106t-89.5 -89.5t-124.5 -35.5q-72 0 -113 42t-41 124q0 37 9 83l49 251l-48 22l6 36l106 21l22 -10l-50 -281q23 30 72 60zM212 277.5q-47 -33.5 -65 -75.5q-6 -35 -5 -63q1 -49 24 -77t64 -28q44 0 80.5 26t57 66
t20.5 80q0 49 -18 77t-67 28q-44 0 -91 -33.5z" />
    <glyph glyph-name="uni044D" unicode="&#x44d;" horiz-adv-x="494" 
d="M151.5 565q51.5 7 98.5 7q104 0 164 -60.5t60 -176.5q0 -103 -40.5 -181.5t-107 -121.5t-142.5 -43q-59 0 -102.5 15t-70.5 40l13 100h44l3 -83q47 -25 115 -25q84 0 135.5 67t66.5 166q-93 -8 -207 -10q-34 -2 -43 -2l-12 60h267v17q0 96 -42 144.5t-110 48.5
q-34 0 -63 -6.5t-46 -18.5l-28 -81h-41l16 127q21 10 72.5 17z" />
    <glyph glyph-name="uni044E" unicode="&#x44e;" horiz-adv-x="826" 
d="M373 442.5q38 57.5 93 91.5t120 34q95 0 145 -60t50 -170q0 -88 -35.5 -168.5t-99 -130t-143.5 -49.5q-93 0 -143 58.5t-52 165.5q-1 18 3 52h-134l-34 -266h-78l65 488l-48 23l7 36l105 21l23 -10l-32 -244h133q17 71 55 128.5zM473.5 474q-41.5 -45 -62.5 -114
t-21 -139q0 -88 32.5 -135t94.5 -47q56 0 97 45t62.5 114t21.5 138q0 88 -31.5 135.5t-93.5 47.5q-58 0 -99.5 -45z" />
    <glyph glyph-name="uni044F" unicode="&#x44f;" horiz-adv-x="587" 
d="M70 83q21 26 51 75q15 24 31 47.5t30 37.5q-52 15 -77.5 49.5t-25.5 83.5q0 92 67.5 138.5t183.5 46.5q42 0 96 -4q36 -2 48 -2h44l-54 -488v-3q0 -10 4.5 -15t10.5 -5q10 0 22 8t30 26l12 -23q-11 -18 -41.5 -41t-66.5 -23q-25 0 -37.5 14t-11.5 40l21 187l-163 1
q-17 -17 -33.5 -44.5t-39.5 -74.5q-28 -57 -47 -85.5t-38 -28.5h-101l4 40l36 11q24 6 45 32zM416 513q-69 3 -93 3q-77 0 -121.5 -29.5t-44.5 -100.5q0 -51 34.5 -80t105.5 -29h60q49 0 56 1l28 234z" />
    <glyph glyph-name="uni0450" unicode="&#x450;" horiz-adv-x="514" 
d="M359.5 23q-56.5 -33 -122.5 -33t-109 30t-63.5 78.5t-20.5 105.5q0 94 38 178t103.5 135t145.5 51q68 0 103 -34t35 -88q0 -71 -60 -119.5t-141 -73t-140 -25.5q-1 -7 -1 -23q0 -64 30 -111t92 -47q43 0 89 20t85 59l19 -34q-26 -36 -82.5 -69zM222 482
q-40 -39 -63.5 -96.5t-28.5 -112.5q57 2 117.5 22.5t101.5 57.5t41 86q-1 40 -21 61t-56 21q-51 0 -91 -39zM261.5 721.5q-62.5 59.5 -81.5 91.5l59 59l147 -207l-26 -25q-36 22 -98.5 81.5z" />
    <glyph glyph-name="uni0451" unicode="&#x451;" horiz-adv-x="514" 
d="M359.5 23q-56.5 -33 -122.5 -33t-109 30t-63.5 78.5t-20.5 105.5q0 94 38 178t103.5 135t145.5 51q68 0 103 -34t35 -88q0 -71 -60 -119.5t-141 -73t-140 -25.5q-1 -7 -1 -23q0 -64 30 -111t92 -47q43 0 89 20t85 59l19 -34q-26 -36 -82.5 -69zM222 482
q-40 -39 -63.5 -96.5t-28.5 -112.5q57 2 117.5 22.5t101.5 57.5t41 86q-1 40 -21 61t-56 21q-51 0 -91 -39zM200 676.5q-13 13.5 -13 33.5q0 27 17 45.5t40 18.5q21 0 33.5 -12.5t12.5 -32.5q0 -28 -17 -47t-42 -19q-18 0 -31 13.5zM406 676.5q-13 13.5 -13 33.5
q0 27 16.5 45.5t40.5 18.5q21 0 33.5 -12.5t12.5 -32.5q0 -28 -17 -47t-42 -19q-18 0 -31 13.5z" />
    <glyph glyph-name="uni0452" unicode="&#x452;" horiz-adv-x="603" 
d="M293.5 527.5q58.5 40.5 117.5 40.5q111 0 111 -134q0 -20 -33 -282l-17 -144q-16 -126 -64 -190t-125 -64q-44 0 -52 8l3 40q4 -1 14 -1q18 0 41 5q49 10 74 66t36 150q2 6 22.5 199t20.5 204q-1 43 -15.5 61t-49.5 18q-45 0 -99.5 -41.5t-93.5 -101.5l-49 -361h-76
l83 634h-83l6 43h82l9 62l-56 16l6 34l115 17l20 -12l-15 -117h162l-6 -43h-162l-28 -208q43 61 101.5 101.5z" />
    <glyph glyph-name="uni0453" unicode="&#x453;" horiz-adv-x="411" 
d="M415 872l55 -55q-10 -17 -45 -54t-75 -72.5t-68 -50.5l-25 25zM152 550.5q40 16.5 91 16.5q63 0 102.5 -29.5t39.5 -79.5q0 -41 -19.5 -73t-47 -53.5t-70.5 -48.5l-32 -21q-6 -4 -43 -29t-53.5 -50t-16.5 -53q0 -37 23.5 -61t69.5 -24q40 0 68.5 12.5t62.5 38.5l11 -40
q-25 -29 -74 -47.5t-94 -18.5q-42 0 -75.5 17.5t-52.5 47.5t-19 64q0 43 19 74.5t47.5 53t76.5 51.5q6 5 20 13q59 38 87 68.5t28 70.5q0 27 -20.5 46t-52.5 19q-42 0 -80.5 -14.5t-49.5 -26.5l-9 41q23 19 63 35.5z" />
    <glyph glyph-name="uni0454" unicode="&#x454;" horiz-adv-x="504" 
d="M332 527q-79 0 -131 -57.5t-71 -147.5l274 1l-12 -67q-10 1 -22.5 1t-24.5 1q-160 5 -223 12q-2 -15 -2 -44q0 -94 41 -142.5t108 -48.5q30 0 64 6t54 15l24 82h44l-14 -101q-30 -21 -78.5 -34.5t-103.5 -13.5q-108 0 -164.5 60.5t-56.5 172.5q0 96 40 176.5t110.5 127
t155.5 46.5q49 0 91.5 -9t64.5 -22l-16 -122h-39l-11 78q-32 30 -102 30z" />
    <glyph glyph-name="uni0455" unicode="&#x455;" horiz-adv-x="425" 
d="M357 494q-16 9 -40.5 15.5t-52.5 6.5q-51 0 -80.5 -21.5t-29.5 -63.5q0 -35 23 -62t64 -58q39 -30 60 -49t39 -49.5t18 -68.5q0 -73 -55.5 -113.5t-137.5 -40.5q-45 0 -88.5 9.5t-56.5 21.5l13 61q19 -14 56.5 -26t78.5 -12q49 0 82 19t33 65q0 27 -14.5 49t-32 36.5
t-51.5 38.5q-40 27 -73 68t-33 94q0 46 25.5 81t68.5 54t95 19q36 0 73 -6.5t52 -13.5l-16 -68q-4 5 -20 14z" />
    <glyph glyph-name="uni0456" unicode="&#x456;" horiz-adv-x="310" 
d="M164 67q0 -11 4.5 -17t10.5 -6q20 0 52 33l13 -22q-13 -20 -42 -42.5t-64 -22.5q-27 0 -42.5 14t-13.5 45q2 26 13.5 105t17.5 119l32 219l-65 21l6 32l127 21l20 -10l-68 -477q-1 -4 -1 -12zM173.5 695.5q-13.5 13.5 -13.5 34.5q0 26 18.5 45t39.5 19t33.5 -13t12.5 -34
q0 -27 -17.5 -46t-41.5 -19q-18 0 -31.5 13.5z" />
    <glyph glyph-name="uni0457" unicode="&#x457;" horiz-adv-x="310" 
d="M164 67q0 -11 4.5 -17t10.5 -6q20 0 52 33l13 -22q-13 -20 -42 -42.5t-64 -22.5q-27 0 -42.5 14t-13.5 45q2 26 13.5 105t17.5 119l32 219l-65 21l6 32l127 21l20 -10l-68 -477q-1 -4 -1 -12zM67 677.5q-13 13.5 -13 33.5q0 27 17 45.5t40 18.5q21 0 33.5 -12.5
t12.5 -32.5q0 -28 -17 -47t-42 -19q-18 0 -31 13.5zM273 677.5q-13 13.5 -13 33.5q0 27 16.5 45.5t40.5 18.5q21 0 33.5 -12.5t12.5 -32.5q0 -28 -17 -47t-42 -19q-18 0 -31 13.5z" />
    <glyph glyph-name="uni0458" unicode="&#x458;" horiz-adv-x="316" 
d="M107.5 -187q-53.5 -66 -137.5 -66q-24 0 -45.5 5t-29.5 13l14 35q7 -3 20.5 -5.5t24.5 -2.5q67 0 99.5 63t45.5 173l53 465l-69 20l7 32l130 21l20 -10l-65 -555q-14 -122 -67.5 -188zM181.5 695.5q-13.5 13.5 -13.5 34.5q0 26 18.5 45t39.5 19t33.5 -13t12.5 -34
q0 -27 -17.5 -46t-41.5 -19q-18 0 -31.5 13.5z" />
    <glyph glyph-name="uni0459" unicode="&#x459;" horiz-adv-x="810" 
d="M527 336.5q53 30.5 116 30.5t93.5 -40.5t30.5 -110.5q0 -50 -32 -103t-88 -88.5t-123 -35.5q-71 0 -115 48t-44 133q0 20 3 41q3 19 14 120l21 173h-181l-7 -66q-12 -100 -34.5 -205.5t-44.5 -151.5q-21 -44 -45.5 -66.5t-73.5 -22.5q-11 0 -26.5 4.5t-17.5 8.5l18 88
q6 -4 28.5 -10t31.5 -6q19 0 30.5 14t21.5 41q21 54 42 158.5t34 211.5l-93 12l6 41h396l-35 -288q21 39 74 69.5zM442 155q0 -56 21.5 -88.5t67.5 -32.5q45 0 81.5 26t57 66t20.5 80q0 54 -17 79.5t-67 25.5q-56 0 -99 -32t-61 -77l-1 -4q-3 -22 -3 -43z" />
    <glyph glyph-name="uni045A" unicode="&#x45a;" horiz-adv-x="889" 
d="M577 314q32 23 71.5 38t73.5 15q63 0 93.5 -41t30.5 -110q0 -50 -32 -103t-88 -88.5t-123 -35.5q-70 0 -113 46.5t-43 127.5q0 25 4 48l5 51h-279l-34 -262h-78l65 486l-48 23l7 36l105 21l22 -11l-32 -245h278l30 246h77l-37 -288q13 23 45 46zM621.5 295
q-33.5 -16 -60.5 -41t-37 -49q-3 -16 -3 -35q-1 -7 -1 -21q0 -53 22.5 -84t67.5 -31t81 26t56.5 66t20.5 80q0 50 -17 77.5t-67 27.5q-29 0 -62.5 -16z" />
    <glyph glyph-name="uni045B" unicode="&#x45b;" horiz-adv-x="607" 
d="M293.5 527.5q58.5 40.5 117.5 40.5q55 0 83.5 -33.5t28.5 -111.5q0 -44 -21 -149q-1 -6 -2 -13t-3 -14q-4 -17 -5 -30q-19 -93 -22 -139q-1 -17 3 -26t12 -9q10 0 21 6.5t31 23.5l12 -22q-5 -9 -20 -23.5t-38 -26t-48 -11.5q-55 0 -55 54q0 26 8 70.5t9 52.5q1 3 10 56
q13 66 20 110.5t7 84.5q0 48 -15.5 67t-49.5 19q-45 0 -100 -41.5t-93 -100.5l-49 -362h-76l82 628h-72l1 44h76l10 67l-56 16l6 34l115 17l20 -12l-16 -122h125v-44h-131l-27 -202q43 61 101.5 101.5z" />
    <glyph glyph-name="uni045C" unicode="&#x45c;" horiz-adv-x="543" 
d="M339.5 368.5q29.5 26.5 62.5 64.5q9 8 18.5 23t11.5 28v4q0 6 -1 12.5t-1 16.5q0 20 16 33.5t37 13.5q16 0 26.5 -9t10.5 -28q0 -49 -48 -97.5t-137 -114.5l-31 -23q20 -22 64 -97q44 -71 70 -105.5t48 -38.5l35 -14l-4 -37h-81q-29 0 -55 36.5t-62 106.5
q-33 64 -54.5 96t-44.5 32h-41l-36 -271h-78l65 486l-48 23l7 36l105 21l22 -11l-32 -243h86q40 30 69.5 56.5zM446 874l55 -56q-10 -17 -44.5 -54t-75 -72.5t-68.5 -50.5l-25 26z" />
    <glyph glyph-name="uni045D" unicode="&#x45d;" horiz-adv-x="589" 
d="M167 247q-4 -29 -7 -58t-3 -53q0 -52 19 -71t56 -19q40 0 85.5 31.5t74.5 73.5l54 411h77l-64 -482q-1 -4 -1 -12q0 -24 13 -24q21 0 55 34l12 -23q-6 -9 -22 -24.5t-39.5 -27.5t-47.5 -12q-23 0 -36 14t-13 37q0 10 1 15q3 12 5 37l-1 1q-35 -45 -82.5 -75t-102.5 -30
q-58 0 -89 30t-31 103q0 50 17 173l27 190l-49 24l6 35l107 21l19 -10l-34 -264zM278.5 722.5q-62.5 59.5 -81.5 91.5l59 59l147 -207l-26 -25q-36 22 -98.5 81.5z" />
    <glyph glyph-name="uni045E" unicode="&#x45e;" horiz-adv-x="524" 
d="M83.5 501q-5.5 7 -14.5 7t-18.5 -6t-24.5 -21l-12 26q9 16 37.5 37.5t58.5 21.5q31 0 44 -16.5t17 -50.5l52 -374l14 -136l81 155q16 34 25 50q43 86 63.5 143.5t20.5 119.5q0 13 -4 24t-5 13q-8 20 -8 30q0 21 10.5 31t27.5 10q26 0 40.5 -23t14.5 -65q0 -64 -28.5 -134
t-78.5 -164l-18 -34q-54 -109 -99.5 -186t-78.5 -117q-62 -89 -166 -89q-21 0 -49 4.5t-43 10.5l19 64q38 -19 83 -19q42 0 90.5 36t86.5 112h-38l-90 514q-4 19 -9.5 26zM216 805q0 -10 -1.5 -19t-1.5 -17q0 -37 23 -55.5t74 -18.5q53 0 78 24.5t31 72.5q4 34 18 34h56
q0 -10 -1 -16q-13 -78 -62.5 -116.5t-124.5 -38.5q-77 0 -124 34.5t-47 101.5q0 20 4 35h67q11 0 11 -21z" />
    <glyph glyph-name="uni045F" unicode="&#x45f;" horiz-adv-x="611" 
d="M167 247q-4 -29 -7 -58t-3 -53q0 -52 19 -71t56 -19q40 0 85.5 31.5t74.5 73.5l20 150q33 256 34 261h77l-64 -482q-1 -4 -1 -12q0 -24 13 -24q21 0 55 34l12 -23q-6 -9 -22 -24.5t-39.5 -27.5t-47.5 -12t-36.5 15.5t-12.5 44.5q0 19 6 43q-41 -49 -89.5 -76.5
t-96.5 -27.5q-58 0 -89 30t-31 103q0 50 17 173l27 190l-49 24l6 35l107 21l19 -10l-34 -264zM323.5 -52q-8.5 -11 -7.5 -32q0 -9 6 -31q7 -28 7 -45q0 -33 -29.5 -51.5t-79.5 -30.5l-21 27q4 1 23 6.5t28.5 15.5t9.5 25t-5 32q-5 25 -5 41q0 33 26 54.5t52 25.5l18 -19
q-14 -7 -22.5 -18z" />
    <glyph glyph-name="uni0462" unicode="&#x462;" horiz-adv-x="678" 
d="M436 378q106 0 160 -44.5t54 -121.5q0 -107 -76.5 -163.5t-206.5 -56.5q-19 0 -54 3q-78 5 -90 5h-122l4 40l80 11l71 523l-176 -8l-30 -76h-46l28 125h230l11 82l-66 12l4 34h227l-4 -34l-80 -14l-12 -80h285l-31 -125h-43l9 76l-225 7l-29 -206q74 11 128 11zM367 36
q94 0 148 45t54 120q0 56 -40.5 92.5t-113.5 36.5q-26 0 -59.5 -3t-53.5 -7l-38 -275q56 -9 103 -9z" />
    <glyph glyph-name="uni0463" unicode="&#x463;" horiz-adv-x="852" 
d="M301.5 529.5q58.5 38.5 114.5 38.5q55 0 84 -33.5t29 -110.5q0 -36 -21 -149q10 15 38 37t67 38.5t81 16.5q62 0 92 -40.5t30 -110.5q0 -50 -31.5 -103t-87 -88.5t-121.5 -35.5q-70 0 -114 46t-44 126q0 26 4 50l4 23q23 129 23 184q0 49 -15 67.5t-52 18.5
q-43 0 -97.5 -41t-93.5 -100l-49 -363h-77l65 488l-48 23l7 36l105 21l19 -10l-13 -126q43 59 101.5 97.5zM492 151q0 -53 23 -85t68 -32q44 0 80 26t56.5 66t20.5 80q0 49 -17.5 77t-66.5 28q-29 0 -62 -15.5t-59.5 -41t-36.5 -52.5l-2 -3q-4 -23 -4 -48z" />
    <glyph glyph-name="uni046A" unicode="&#x46a;" horiz-adv-x="978" 
d="M327.5 295q-40.5 -48 -106.5 -141q-57 -80 -87 -117t-47 -37h-108l5 35l42 12q13 5 39 34.5t78 94.5q68 87 114.5 138.5t78.5 65.5q17 8 53 8h54l-208 311l11 44h626l-1 -44l-295 -311h59q32 0 51 -9q30 -9 63.5 -59.5t81.5 -139.5q31 -60 51.5 -93t35.5 -40l44 -12
l-4 -35h-109q-16 0 -38 37.5t-58 113.5q-47 97 -76.5 145t-55.5 48h-81l-37 -297l76 -12l-2 -35h-227l4 35l74 12l37 296h-72q-25 0 -65.5 -48zM510 388l266 296h-451z" />
    <glyph glyph-name="uni046B" unicode="&#x46b;" horiz-adv-x="863" 
d="M864 45l-7 -45h-67q-25 0 -45.5 31t-48.5 93q-32 70 -57 106t-58 36h-80l-36 -266h-83l37 266h-81q-33 0 -68 -36t-86 -105q-46 -63 -75.5 -94t-55.5 -31h-67l6 45l39 10q14 4 34 26t55 65q60 76 105.5 119t86.5 43h84l-180 207l11 40h545l-1 -40l-238 -207h84
q41 0 74 -43t73 -120q25 -46 38.5 -67t26.5 -24zM682 500h-382l163 -192h3z" />
    <glyph glyph-name="uni0472" unicode="&#x472;" horiz-adv-x="677" 
d="M532.5 710q55.5 -43 82.5 -115.5t27 -161.5q0 -124 -43.5 -225.5t-121 -159.5t-174.5 -58q-80 0 -135.5 42.5t-83.5 115.5t-28 165q0 125 44.5 225.5t122 157.5t173.5 57q81 0 136.5 -43zM268 662q-53 -41 -87.5 -114.5t-42.5 -167.5q57 63 130 63q27 0 49.5 -9.5
t51.5 -27.5q25 -15 41.5 -22.5t34.5 -7.5q36 0 63 17.5t50 41.5q-3 123 -47.5 195.5t-126.5 72.5q-63 0 -116 -41zM185 113q47 -75 129 -75q65 0 118.5 44t86.5 122.5t38 177.5q-52 -62 -127 -62q-28 0 -51.5 10t-52.5 28q-24 15 -40 22.5t-33 7.5q-30 0 -61 -17t-56 -40
v-18q2 -125 49 -200z" />
    <glyph glyph-name="uni0473" unicode="&#x473;" horiz-adv-x="560" 
d="M464.5 507.5q50.5 -60.5 50.5 -169.5q0 -88 -35.5 -168t-99 -130t-143.5 -50q-94 0 -145 59t-51 167q0 90 35.5 171t99.5 131t144 50q94 0 144.5 -60.5zM399.5 473q-31.5 46 -92.5 46q-69 0 -114 -62t-62 -153q18 21 41.5 33t48.5 12q24 0 39.5 -10t38.5 -32
q18 -18 30.5 -26.5t29.5 -8.5q26 0 41 15t32 42v13q-1 85 -32.5 131zM163 269.5q-19 -14.5 -39 -37.5v-17q1 -85 33.5 -130.5t93.5 -45.5q63 0 107.5 57.5t62.5 141.5q-31 -31 -76 -31q-28 0 -45 10.5t-38 31.5q-16 18 -28 26.5t-31 8.5q-21 0 -40 -14.5z" />
    <glyph glyph-name="uni0474" unicode="&#x474;" horiz-adv-x="623" 
d="M561.5 715q40.5 29 82.5 29q17 0 31 -2t18 -4l-7 -56q-9 3 -21 3q-37 0 -74.5 -28t-59.5 -92l-216 -572l-63 -1l-142 701l-68 10l4 40h247l-5 -40l-100 -10l93 -482l24 -143l46 142l148 411q22 65 62.5 94z" />
    <glyph glyph-name="uni0475" unicode="&#x475;" horiz-adv-x="512" 
d="M455 533q38 34 72 34q28 0 40 -6l-6 -64q-10 2 -16 2q-64 0 -126 -121l-193 -385l-60 -1l-80 484q-6 34 -23 34q-15 0 -37 -20l-12 26q11 15 35.5 33.5t54.5 18.5q31 0 44 -16.5t18 -50.5l38 -326l10 -104l49 103l122 258q32 67 70 101z" />
    <glyph glyph-name="uni048A" unicode="&#x48a;" horiz-adv-x="766" 
d="M324 843.5q-48 34.5 -48 103.5q0 22 4 33h68q10 0 10 -16q0 -9 -1 -19.5t-1 -21.5q0 -37 24 -55.5t77 -18.5q55 0 81 25t32 73q4 33 18 33h56q0 -10 -1 -16q-13 -78 -63.5 -116.5t-128.5 -38.5q-79 0 -127 34.5zM695 693l-80 -642h123q-6 -35 -32 -165l-11 -53h-48
q3 40 4 55q1 13 3 43t2 48q0 15 -1 21h-199l2 35l78 12l64 518l-76 -85l-348 -373l-8 -60l76 -12l-3 -35h-229l4 35l73 12l81 646l-67 10l5 40h220l-5 -40l-73 -10l-66 -514l39 46l386 414l7 54l-72 10l4 40h222l-5 -40z" />
    </font>
</defs>
</svg>
