<?xml version="1.0" standalone="no"?>
<!DOCTYPE svg PUBLIC "-//W3C//DTD SVG 1.1//EN" "http://www.w3.org/Graphics/SVG/1.1/DTD/svg11.dtd" >
<svg xmlns="http://www.w3.org/2000/svg" xmlns:xlink="http://www.w3.org/1999/xlink" version="1.1">
<metadata>
Created by FontForge 20170731 at Wed Feb 26 18:24:49 2014
 By Aleksey,,,
Digitized data Copyright (c) 2011-2014, vernon adams.
</metadata>
<defs>
<font id="Muli-BoldItalic" horiz-adv-x="1671" >
  <font-face 
    font-family="Muli"
    font-weight="700"
    font-style="italic"
    font-stretch="normal"
    units-per-em="2048"
    panose-1="2 0 8 3 0 0 0 0 0 0"
    ascent="1638"
    descent="-410"
    x-height="1026"
    cap-height="1456"
    bbox="-251 -647 4053 2384"
    underline-thickness="0"
    underline-position="0"
    slope="-7"
    unicode-range="U+000D-FB04"
  />
<missing-glyph horiz-adv-x="748" 
d="M68 0v1365h544v-1365h-544zM136 68h408v1229h-408v-1229z" />
    <glyph glyph-name=".notdef" horiz-adv-x="748" 
d="M68 0v1365h544v-1365h-544zM136 68h408v1229h-408v-1229z" />
    <glyph glyph-name=".null" horiz-adv-x="0" 
 />
    <glyph glyph-name="uni000D" unicode="&#xd;" horiz-adv-x="599" 
 />
    <glyph glyph-name="space" unicode=" " horiz-adv-x="562" 
 />
    <glyph glyph-name="exclam" unicode="!" horiz-adv-x="688" 
d="M223 387l57 1069h295l-204 -1069h-148zM91 0l34 273h313l-33 -273h-314z" />
    <glyph glyph-name="quotedbl" unicode="&#x22;" horiz-adv-x="703" 
d="M426 957l10 499h239l-114 -499h-135zM84 957l10 499h238l-113 -499h-135z" />
    <glyph glyph-name="numbersign" unicode="#" horiz-adv-x="1465" 
d="M585 608h230l85 262h-230zM146 -10l145 459h-237l29 159h259l85 262h-267l29 158h290l137 434h243l-137 -434h230l138 434h242l-136 -434h221l-27 -158h-247l-85 -262h252l-26 -159h-276l-146 -459h-243l146 459h-231l-145 -459h-243z" />
    <glyph glyph-name="dollar" unicode="$" horiz-adv-x="1238" 
d="M646 1259q-217 -28 -217 -202q0 -55 36 -91t136 -74zM616 198q217 29 217 241q0 52 -34 88t-133 75zM465 -219l24 197q-139 6 -260.5 49.5t-185.5 115.5l130 182q60 -51 159 -88t184 -42l54 441q-100 34 -119 40q-153 61 -224 139.5t-71 204.5q0 110 40 197t111.5 143
t164 86.5t201.5 35.5l18 144h100l-18 -144q162 -6 254.5 -44t170.5 -123l-152 -168q-100 111 -299 117l-50 -406q95 -31 135 -47q148 -62 210.5 -137.5t62.5 -197.5q0 -123 -41.5 -218t-114.5 -152.5t-163 -88.5t-197 -38l-24 -198h-100z" />
    <glyph glyph-name="percent" unicode="%" horiz-adv-x="1899" 
d="M1434 740q150 0 238 -93t88 -235q0 -26 -3 -53q-21 -166 -135 -272.5t-280 -106.5q-150 0 -237.5 89t-87.5 232q0 186 119 312.5t298 126.5zM1362 136q79 0 124 52.5t60 170.5q4 31 4 65q0 159 -134 159q-81 0 -125.5 -55t-58.5 -168q-5 -42 -5 -67q0 -157 135 -157z
M297 0l1109 1456h203l-1109 -1456h-203zM557 1474q152 0 238 -84.5t86 -230.5q0 -206 -116.5 -325t-300.5 -119q-153 0 -239.5 82t-86.5 230q0 203 117 325t302 122zM482 871q79 0 124.5 52.5t60.5 169.5q4 32 4 65q0 160 -135 160q-81 0 -125.5 -55.5t-58.5 -168.5
q-4 -31 -4 -64q0 -83 33.5 -121t100.5 -38z" />
    <glyph glyph-name="ampersand" unicode="&#x26;" horiz-adv-x="1587" 
d="M570 1126q0 -82 71 -166q86 50 132 98t46 113q0 49 -32 72t-77 23q-62 0 -101 -35t-39 -105zM564 186q156 0 310 128l-309 384q-54 -29 -91 -54t-75.5 -62t-58 -84t-19.5 -103q0 -92 67.5 -150.5t175.5 -58.5zM443 856q-61 78 -89.5 135t-28.5 123q0 86 33.5 155.5
t90 112.5t127 65.5t148.5 22.5q162 0 250.5 -67t88.5 -201q0 -25 -2 -39q-25 -193 -291 -354l258 -326q125 190 157 461l223 -49q-19 -155 -84 -313.5t-159 -277.5q33 -40 69 -69t81 -50.5t67.5 -30.5t74.5 -27l-180 -146q-96 17 -148 51t-125 123q-220 -183 -468 -183
q-206 0 -335 104t-129 284q0 76 21 142t53 114.5t84 94.5t99.5 77t113.5 68z" />
    <glyph glyph-name="quotesingle" unicode="'" horiz-adv-x="484" 
d="M137 910l28 546h257l-104 -546h-181z" />
    <glyph glyph-name="parenleft" unicode="(" horiz-adv-x="689" 
d="M302 -171q-193 362 -193 706q0 61 8 130q52 412 384 851h242q-156 -204 -254.5 -425t-123.5 -428q-7 -56 -7 -122q0 -170 47 -357t130 -355h-233z" />
    <glyph glyph-name="parenright" unicode=")" horiz-adv-x="689" 
d="M-53 -191q157 204 255 425.5t123 428.5q7 56 7 124q0 169 -47.5 355t-129.5 354h234q192 -361 192 -705q0 -62 -8 -131q-52 -412 -384 -851h-242z" />
    <glyph glyph-name="asterisk" unicode="*" horiz-adv-x="1054" 
d="M624 644l-138 248l-199 -249l-168 127l245 232l-265 108l108 179l228 -125l5 292h235l-70 -292l263 125l61 -179l-294 -108l188 -231z" />
    <glyph glyph-name="plus" unicode="+" horiz-adv-x="1268" 
d="M455 77l49 393h-380l26 206h381l49 395h232l-49 -395h380l-26 -206h-381l-48 -393h-233z" />
    <glyph glyph-name="comma" unicode="," horiz-adv-x="545" 
d="M21 -229l174 497h278l-241 -497h-211z" />
    <glyph glyph-name="hyphen" unicode="-" horiz-adv-x="741" 
d="M43 457l23 190h632l-23 -190h-632z" />
    <glyph glyph-name="period" unicode="." horiz-adv-x="539" 
d="M95 0l33 271h289l-33 -271h-289z" />
    <glyph glyph-name="slash" unicode="/" horiz-adv-x="684" 
d="M-185 -237l853 1693h220l-858 -1693h-215z" />
    <glyph glyph-name="zero" unicode="0" horiz-adv-x="1272" 
d="M544 -23q-209 0 -320 155t-111 426q0 87 12 183q43 353 199.5 547.5t405.5 194.5q211 0 321 -148.5t110 -412.5q0 -85 -12 -181q-28 -229 -105.5 -399.5t-206 -267.5t-293.5 -97zM371 532q0 -338 203 -338q250 0 316 546q11 94 11 177q0 76 -10 137t-32.5 110t-61 75.5
t-91.5 26.5q-87 0 -154 -68t-105 -179t-57 -235t-19 -252z" />
    <glyph glyph-name="one" unicode="1" horiz-adv-x="1272" 
d="M204 0l24 202h257l123 996q-150 -67 -305 -114l28 230q152 47 337 142h225l-154 -1258h262l-24 -198h-773z" />
    <glyph glyph-name="two" unicode="2" horiz-adv-x="1272" 
d="M643 1266q-28 0 -58.5 -4.5t-59.5 -12t-58 -17t-55 -20t-49.5 -21t-42 -20t-32.5 -17t-22 -12.5l-7 -4l-61 199q9 6 25 15.5t67.5 34.5t106 44t135.5 34.5t159 15.5q183 0 286.5 -99.5t103.5 -292.5q0 -59 -10.5 -114t-24.5 -97.5t-43 -89.5t-49.5 -76t-61.5 -72
t-62.5 -63.5t-67.5 -63.5l-327 -305h533l-26 -208h-844l23 183l479 468q44 43 58 57t46.5 48t43 48t31.5 42.5t27 46.5t16 46t12.5 55t2.5 60q0 115 -51 163.5t-143 48.5z" />
    <glyph glyph-name="three" unicode="3" horiz-adv-x="1272" 
d="M530 -23q-83 0 -159.5 12.5t-125.5 30.5t-86 36.5t-53 31.5l-17 12l102 191q4 -4 20 -13t48 -24t69 -28t87 -22.5t98 -9.5q135 0 214.5 61.5t92.5 168.5q2 20 2 28q0 100 -90.5 149.5t-251.5 49.5h-32l-64 -2l25 215h71q195 0 280 51t101 182q1 6 1 19q0 71 -68 110.5
t-160 39.5q-58 0 -115 -14.5t-85 -27t-73 -38.5t-46 -26l-90 183q128 79 221 109.5t249 30.5q85 0 161 -21t135.5 -60.5t94.5 -104.5t35 -146q0 -23 -3 -48q-7 -57 -29.5 -111t-60 -101.5t-95.5 -81.5t-129 -44q127 -24 196.5 -107t69.5 -198q0 -23 -3 -47
q-12 -100 -61.5 -183.5t-123 -138t-164.5 -84.5t-188 -30zM191 291z" />
    <glyph glyph-name="four" unicode="4" horiz-adv-x="1272" 
d="M370 580h340l69 554q-69 -91 -409 -554zM635 0l47 381h-617l23 189l692 886h286l-108 -876h229l-23 -199h-224l-47 -381h-258z" />
    <glyph glyph-name="five" unicode="5" horiz-adv-x="1272" 
d="M858 524q0 91 -43.5 151t-120.5 60q-121 0 -174 -65l-249 34l92 752h809l-28 -217h-585l-57 -373q84 94 271 94q149 0 249 -117.5t100 -297.5q0 -110 -35 -204.5t-93.5 -160t-135 -112.5t-160 -69t-167.5 -22q-125 0 -240 51t-196 149l156 190q59 -84 139.5 -128.5
t162.5 -44.5q57 0 110.5 21.5t97.5 61.5t70.5 104t26.5 143z" />
    <glyph glyph-name="six" unicode="6" horiz-adv-x="1272" 
d="M894 529q0 101 -50 163t-146 62q-129 0 -214 -92.5t-85 -233.5q0 -106 65 -170t150 -64q121 0 200.5 96t79.5 239zM832 1483q230 0 354 -130l-107 -189q-117 102 -271 102q-122 0 -222 -105.5t-143 -275.5q-4 -21 -13 -75q123 152 308 152q196 0 308 -108.5t112 -297.5
q0 -35 -5 -80q-27 -218 -180.5 -358.5t-377.5 -140.5q-227 0 -342.5 147t-115.5 408q0 153 31 295t91.5 261t143.5 207.5t193.5 138t235.5 49.5z" />
    <glyph glyph-name="seven" unicode="7" horiz-adv-x="1272" 
d="M224 0l704 1248h-719l25 208h1013l-23 -194l-728 -1262h-272z" />
    <glyph glyph-name="eight" unicode="8" horiz-adv-x="1274" 
d="M465 1056q0 -71 48.5 -122.5t135.5 -75.5q103 29 165 89t74 148q1 7 1 19q0 68 -53.5 107t-137.5 39q-103 0 -168 -51.5t-65 -152.5zM570 199q112 0 181.5 53t83.5 161q1 8 1 24q0 79 -57.5 146t-144.5 91q-120 -26 -198.5 -106t-78.5 -194q0 -84 56.5 -129.5
t156.5 -45.5zM890 761q90 -48 146.5 -138t56.5 -194q0 -21 -3 -42q-16 -128 -98 -223t-198 -141t-247 -46q-202 0 -327.5 96t-125.5 267q0 26 3 55q16 121 93 216.5t200 152.5q-179 108 -179 287q0 24 3 48q21 178 163 281t347 103q200 0 312 -89.5t112 -248.5
q0 -266 -258 -384z" />
    <glyph glyph-name="nine" unicode="9" horiz-adv-x="1272" 
d="M394 947q0 -100 52 -159.5t155 -59.5q117 0 198.5 74t98.5 214q2 24 2 35q0 93 -56.5 154t-157.5 61q-127 0 -209.5 -89t-82.5 -230zM464 -26q-168 0 -363 103l117 206q121 -87 254 -87q67 0 128 24.5t114 74.5t90 135.5t51 198.5l3 26q-106 -138 -308 -138
q-193 0 -303.5 109t-110.5 291q0 32 5 74q27 214 181 353t380 139q212 0 324 -135t112 -397q0 -84 -12 -180q-29 -234 -116 -413t-228.5 -281.5t-317.5 -102.5z" />
    <glyph glyph-name="colon" unicode=":" horiz-adv-x="591" 
d="M174 900l33 271h310l-32 -271h-311zM61 -15l33 270h311l-33 -270h-311z" />
    <glyph glyph-name="semicolon" unicode=";" horiz-adv-x="539" 
d="M232 900l33 271h252l-33 -271h-252zM-21 -229l169 497h281l-239 -497h-211z" />
    <glyph glyph-name="less" unicode="&#x3c;" horiz-adv-x="1416" 
d="M1132 36l-991 473l13 115l1113 491l-27 -227l-764 -319l683 -310z" />
    <glyph glyph-name="equal" unicode="=" horiz-adv-x="1479" 
d="M229 667l26 201h1043l-25 -201h-1044zM179 261l25 200h1046l-26 -200h-1045z" />
    <glyph glyph-name="greater" unicode="&#x3e;" horiz-adv-x="1418" 
d="M146 39l30 233l757 301l-676 324l29 226l988 -499l-15 -124z" />
    <glyph glyph-name="question" unicode="?" horiz-adv-x="1018" 
d="M168 0l33 273h313l-33 -273h-313zM261 411l17 137q6 53 31.5 103t61 90t77.5 78.5t83.5 74t76.5 70t59 74t29 79.5q1 8 1 22q0 67 -50 98t-134 31q-78 0 -167.5 -22t-143.5 -44l26 211q144 72 334 72q111 0 198.5 -33.5t142.5 -105.5t55 -173q0 -72 -25 -134t-66 -108
t-90.5 -88t-101 -81.5t-95 -80.5t-75 -93.5t-38.5 -111.5l-7 -65h-199z" />
    <glyph glyph-name="at" unicode="@" horiz-adv-x="1814" 
d="M826 448q100 0 178 111t96 258q2 18 2 25q0 53 -29.5 81t-79.5 28q-72 0 -134 -56.5t-97.5 -136.5t-45.5 -165q-1 -8 -1 -23q0 -56 30.5 -89t80.5 -33zM986 1136q157 0 190 -114l31 96h218l-147 -474q-34 -109 -41 -178q-1 -5 -1 -16q0 -29 11 -51t35 -22q30 0 71.5 30.5
t83.5 82.5t76.5 134.5t45.5 173.5q5 45 5 78q0 112 -43 199.5t-115.5 139.5t-162 78.5t-190.5 26.5q-139 0 -262.5 -40t-225.5 -118.5t-170 -205.5t-88 -291q-6 -47 -6 -90q0 -260 151.5 -389.5t432.5 -129.5q240 0 489 132l67 -118q-266 -171 -595 -171q-219 0 -389 79
t-266 229.5t-96 351.5q0 43 7 106q19 150 79 280.5t151 228t206.5 168t249.5 106t275 35.5q292 0 477.5 -166.5t185.5 -434.5q0 -52 -5 -89q-16 -127 -78.5 -250.5t-159 -206t-195.5 -82.5q-95 0 -149 53t-54 132q0 7 2 25q-40 -92 -120.5 -150t-196.5 -58q-76 0 -142.5 33
t-112 106.5t-45.5 174.5q0 100 35 191.5t91 158t124 116.5t137.5 75t128.5 25z" />
    <glyph glyph-name="A" unicode="A" horiz-adv-x="1458" 
d="M507 592h390q-44 207 -124 567q-109 -236 -266 -567zM-77 0l763 1456h258l412 -1456h-287l-98 355h-588l-181 -355h-279z" />
    <glyph glyph-name="B" unicode="B" horiz-adv-x="1367" 
d="M960 1085q0 88 -71 120.5t-218 32.5h-164l-48 -386h217q43 0 82 7t76.5 24t65 42.5t44 66.5t16.5 93zM950 474q0 97 -66 134.5t-224 37.5h-223l-53 -429h229q168 0 252.5 62t84.5 195zM101 0l178 1456h403q59 0 106 -2t107 -9.5t105.5 -20.5t92 -37t76.5 -57t49 -81.5
t19 -109.5q0 -16 -4 -56q-27 -216 -232 -311q111 -30 165 -108.5t54 -188.5q0 -35 -4 -64q-10 -83 -51.5 -156t-112.5 -130.5t-179.5 -91t-240.5 -33.5h-531z" />
    <glyph glyph-name="C" unicode="C" horiz-adv-x="1436" 
d="M367 642q0 -205 116 -325t303 -120q220 0 420 147l61 -201q-233 -165 -524 -165q-132 0 -248 42t-205 120t-140.5 200t-51.5 272q0 59 7 115q18 148 74 273.5t135.5 213t178.5 149.5t203.5 91t210.5 29q286 0 467 -157l-120 -177q-153 115 -352 115q-100 0 -195.5 -44.5
t-171 -122.5t-122 -197.5t-46.5 -257.5z" />
    <glyph glyph-name="D" unicode="D" horiz-adv-x="1571" 
d="M101 0l178 1456h406q397 0 593 -153.5t196 -443.5q0 -55 -8 -122q-45 -361 -279 -549t-639 -188h-447zM382 218h205q265 0 422.5 132t188.5 388q6 47 6 88q0 412 -522 412h-175z" />
    <glyph glyph-name="E" unicode="E" horiz-adv-x="1249" 
d="M101 0l178 1456h919l-26 -218h-665l-48 -389h629l-28 -219h-626l-50 -412h691l-26 -218h-948z" />
    <glyph glyph-name="F" unicode="F" horiz-adv-x="1145" 
d="M101 0l178 1456h889l-27 -218h-634l-49 -397h598l-26 -219h-598l-77 -622h-254z" />
    <glyph glyph-name="G" unicode="G" horiz-adv-x="1538" 
d="M759 -23q-324 0 -494.5 161t-170.5 442q0 55 8 124q19 158 87.5 297.5t176.5 247.5t264.5 171t338.5 63q103 0 186 -14.5t139.5 -41.5t83.5 -44.5t59 -44.5l-124 -178q-132 104 -369 104q-102 0 -191 -31t-154 -84t-114 -123.5t-78 -149t-39 -161.5q-6 -48 -6 -94
q0 -197 110 -312t325 -115q121 0 254 38l43 344h-340l25 217h598l-86 -705q-263 -111 -532 -111z" />
    <glyph glyph-name="H" unicode="H" horiz-adv-x="1572" 
d="M101 0l178 1456h254l-73 -599h683l73 599h254l-178 -1456h-249l79 637h-683l-79 -637h-259z" />
    <glyph glyph-name="I" unicode="I" horiz-adv-x="586" 
d="M71 0l178 1456h254l-178 -1456h-254z" />
    <glyph glyph-name="J" unicode="J" horiz-adv-x="1019" 
d="M307 -331q-141 0 -313 64l69 193q133 -44 224 -44q206 0 234 228l165 1346h254l-164 -1334q-27 -218 -150.5 -335.5t-318.5 -117.5z" />
    <glyph glyph-name="K" unicode="K" horiz-adv-x="1351" 
d="M101 0l178 1456h254l-77 -636l638 636h317l-717 -703l588 -753h-330l-514 651l-80 -651h-257z" />
    <glyph glyph-name="L" unicode="L" horiz-adv-x="1173" 
d="M101 0l178 1456h254l-151 -1238h673l-26 -218h-928z" />
    <glyph glyph-name="M" unicode="M" horiz-adv-x="1987" 
d="M101 0l178 1456h298q28 -85 163 -497.5t208 -632.5q97 167 201 350.5t240.5 426.5t198.5 353h298l-178 -1456h-238l128 1040q-91 -152 -190 -324.5t-220.5 -387.5t-186.5 -328h-187q-40 117 -107.5 324.5t-125 379t-111.5 319.5l-124 -1023h-245z" />
    <glyph glyph-name="N" unicode="N" horiz-adv-x="1630" 
d="M101 0l178 1456h269q70 -124 191.5 -339t224 -395.5t193.5 -337.5l130 1072h242l-178 -1456h-270q-57 100 -276 483.5t-338 590.5l-131 -1074h-235z" />
    <glyph glyph-name="O" unicode="O" 
d="M748 -23q-307 0 -478.5 169t-171.5 462q0 57 8 127q21 167 88.5 305t173.5 236t251.5 152.5t315.5 54.5q299 0 468.5 -168.5t169.5 -456.5q0 -56 -8 -123q-42 -348 -260 -553t-557 -205zM373 616q0 -205 99.5 -313.5t295.5 -108.5q223 0 356 140.5t165 400.5q7 56 7 113
q0 200 -99.5 309t-292.5 109q-246 0 -388.5 -176t-142.5 -474z" />
    <glyph glyph-name="P" unicode="P" horiz-adv-x="1299" 
d="M1006 1080q0 26 -5.5 46.5t-13 35.5t-24 27t-29.5 19.5t-40 13t-44.5 8t-52.5 4t-56 1.5h-63h-171l-48 -390h217q78 0 134 10t102.5 35t70 72.5t23.5 117.5zM101 0l178 1456h415q77 0 133 -2.5t120.5 -10.5t109.5 -22t89 -39t70.5 -60t42.5 -85.5t16 -115.5q0 -44 -5 -80
q-12 -94 -46 -164.5t-86 -117.5t-127 -76.5t-161.5 -42t-196.5 -12.5h-221l-77 -628h-254z" />
    <glyph glyph-name="Q" unicode="Q" 
d="M1143 -447q-9 11 -24 29.5t-57.5 77t-80 116.5t-81.5 139t-72 153l227 45q26 -74 87.5 -176.5t109.5 -168.5l49 -65zM748 -23q-307 0 -478.5 169t-171.5 462q0 57 8 127q21 167 88.5 305t173.5 236t251.5 152.5t315.5 54.5q299 0 468.5 -168.5t169.5 -456.5
q0 -56 -8 -123q-42 -348 -260 -553t-557 -205zM373 616q0 -205 99.5 -313.5t295.5 -108.5q223 0 356 140.5t165 400.5q7 56 7 113q0 200 -99.5 309t-292.5 109q-246 0 -388.5 -176t-142.5 -474z" />
    <glyph glyph-name="R" unicode="R" horiz-adv-x="1388" 
d="M997 1087q0 87 -52.5 119t-170.5 32h-270l-51 -407h243q301 0 301 256zM101 0l178 1456h525q87 0 155 -9t128 -31.5t99 -59t61.5 -94t22.5 -133.5q0 -30 -5 -75q-8 -59 -31.5 -112t-64 -99.5t-102 -81.5t-138.5 -52q122 -73 164 -228l139 -481h-275l-114 433
q-28 107 -71.5 145t-140.5 38h-200l-76 -616h-254z" />
    <glyph glyph-name="S" unicode="S" horiz-adv-x="1256" 
d="M833 439q0 54 -37.5 91t-147.5 79q-26 9 -94.5 32t-102.5 35q-153 61 -224 139.5t-71 204.5q0 114 44 204t120.5 145.5t175.5 84.5t215 29q195 0 298.5 -38t188.5 -130l-152 -168q-106 117 -325 117q-134 0 -213 -49t-79 -158q0 -58 39 -94.5t152 -77.5q28 -10 103 -35.5
t109 -38.5q148 -62 210.5 -137.5t62.5 -197.5q0 -131 -47.5 -230t-129.5 -156.5t-181.5 -85t-215.5 -27.5q-150 0 -284.5 44t-203.5 122l130 182q64 -56 173 -93.5t195 -37.5q147 0 219.5 60t72.5 185z" />
    <glyph glyph-name="T" unicode="T" horiz-adv-x="1181" 
d="M371 0l152 1238h-449l26 218h1159l-26 -218h-456l-152 -1238h-254z" />
    <glyph glyph-name="U" unicode="U" horiz-adv-x="1509" 
d="M664 -23q-120 0 -211.5 24.5t-150 66t-95.5 103.5t-52 130t-15 152q0 63 10 146l105 857h254l-108 -868q-6 -51 -6 -93q0 -301 296 -301q76 0 136.5 19t112.5 62.5t86.5 122.5t47.5 191l108 867h254l-105 -858q-11 -87 -30 -159.5t-52 -145.5t-83.5 -128t-119.5 -98.5
t-166 -66.5t-216 -23z" />
    <glyph glyph-name="V" unicode="V" horiz-adv-x="1393" 
d="M482 0l-376 1456h285q18 -75 113.5 -490t149.5 -633q24 48 544 1123h267l-731 -1456h-252z" />
    <glyph glyph-name="W" unicode="W" horiz-adv-x="2096" 
d="M339 0l-238 1456h270q15 -104 51.5 -354.5t62 -435.5t46.5 -360q69 177 147 361t189 435.5t155 353.5h242q22 -114 71.5 -357.5t85 -431.5t62.5 -366q62 175 131 361.5t163 436.5t134 357h262l-584 -1456h-291l-205 1105l-467 -1105h-287z" />
    <glyph glyph-name="X" unicode="X" horiz-adv-x="1407" 
d="M-67 0l625 736l-409 720h317l279 -504l420 504h295l-595 -709l427 -747h-316l-299 532l-440 -532h-304z" />
    <glyph glyph-name="Y" unicode="Y" horiz-adv-x="1280" 
d="M416 0l68 563l-409 893h289l278 -667l441 667h296l-641 -892l-68 -564h-254z" />
    <glyph glyph-name="Z" unicode="Z" horiz-adv-x="1202" 
d="M-18 0l17 136l824 1102h-663l26 218h1014l-15 -132l-829 -1106h691l-26 -218h-1039z" />
    <glyph glyph-name="bracketleft" unicode="[" horiz-adv-x="620" 
d="M38 -158l203 1660h421l-23 -190h-169l-156 -1280h169l-23 -190h-422z" />
    <glyph glyph-name="backslash" unicode="\" horiz-adv-x="650" 
d="M435 -112l-513 1568h275l505 -1568h-267z" />
    <glyph glyph-name="bracketright" unicode="]" horiz-adv-x="620" 
d="M-10 -158l23 190h163l157 1280h-163l23 190h417l-204 -1660h-416z" />
    <glyph glyph-name="asciicircum" unicode="^" horiz-adv-x="1559" 
d="M127 532l626 924h160l406 -924h-251l-272 641l-414 -641h-255z" />
    <glyph glyph-name="underscore" unicode="_" horiz-adv-x="1012" 
d="M-25 -254l23 195h1039l-23 -195h-1039z" />
    <glyph glyph-name="grave" unicode="`" horiz-adv-x="610" 
d="M319 1166l-316 289h318l226 -289h-228z" />
    <glyph glyph-name="a" unicode="a" horiz-adv-x="1291" 
d="M924 589q0 124 -60 193t-183 69q-152 0 -241.5 -112t-89.5 -292q0 -126 62.5 -198t188.5 -72q108 0 182.5 56.5t107.5 147t33 208.5zM547 -23q-113 0 -200 36.5t-139.5 99.5t-79 141.5t-26.5 168.5q0 36 5 79q13 107 56.5 203.5t114.5 175t178 125t235 46.5
q187 0 270 -136l13 110h243l-126 -1026h-249l17 140q-132 -163 -312 -163z" />
    <glyph glyph-name="b" unicode="b" horiz-adv-x="1291" 
d="M903 580q0 122 -55 196.5t-166 74.5q-145 0 -237 -115t-92 -282q0 -120 60.5 -198.5t178.5 -78.5q99 0 171.5 58t106 147.5t33.5 197.5zM613 -23q-103 0 -182 44.5t-109 105.5l-15 -127h-253q38 251 41 272l145 1185h247l-71 -575q7 19 31 44.5t64 55t106 50t142 20.5
q193 0 300 -121t107 -321q0 -136 -47 -256t-124 -201.5t-177 -128.5t-205 -47z" />
    <glyph glyph-name="c" unicode="c" horiz-adv-x="1071" 
d="M362 455q0 -127 71 -202.5t200 -75.5t261 92q6 3 8 5l53 -182q-92 -60 -181.5 -87.5t-195.5 -27.5q-114 0 -205.5 37t-149.5 100.5t-89 146t-31 177.5q0 33 5 76q14 114 63 212t125 170.5t182 114t229 41.5q240 0 354 -138l-107 -160q-100 98 -245 98q-158 0 -252.5 -110
t-94.5 -287z" />
    <glyph glyph-name="d" unicode="d" horiz-adv-x="1267" 
d="M864 584q0 121 -54.5 194t-167.5 73q-98 0 -168 -58t-102.5 -149.5t-32.5 -204.5q0 -117 53.5 -189.5t168.5 -72.5q75 0 134 34t95 91.5t55 129t19 152.5zM485 -23q-179 0 -293.5 120.5t-114.5 323.5q0 49 5 87q13 109 56 206t111 173t168.5 120.5t218.5 44.5
q106 0 175 -43.5t90 -90.5l66 539h247l-145 -1183q-2 -13 -25 -274h-254l15 131q-30 -54 -112.5 -104t-207.5 -50z" />
    <glyph glyph-name="e" unicode="e" horiz-adv-x="1195" 
d="M388 636h509q-3 108 -58.5 166.5t-147.5 58.5q-107 0 -186.5 -60t-116.5 -165zM1084 471h-720q-1 -13 -1 -36q0 -131 75.5 -194.5t208.5 -63.5q167 0 338 110l45 -180q-105 -67 -207.5 -98.5t-222.5 -31.5q-236 0 -366.5 123.5t-130.5 329.5q0 47 5 82q13 107 60.5 204.5
t122.5 172.5t181 119t228 44q106 0 185.5 -32t126 -91t69 -134.5t22.5 -168.5q0 -118 -19 -155z" />
    <glyph glyph-name="f" unicode="f" horiz-adv-x="820" 
d="M170 0l105 860h-191l21 166h191l5 40q9 70 17.5 116t24 94.5t38 78t57 57t82.5 42t113.5 23t150.5 8.5h53l-32 -193q-57 0 -91 -2t-63.5 -11.5t-44 -22t-27.5 -40.5t-19 -60t-13 -87l-4 -43h231l-21 -166h-232l-104 -860h-247z" />
    <glyph glyph-name="g" unicode="g" horiz-adv-x="1235" 
d="M387 439q0 -120 54.5 -186t168.5 -66q59 0 106.5 19.5t79 51t55 75.5t35.5 88.5t18 94.5q5 43 5 76q0 119 -52.5 189t-160.5 70q-97 0 -168.5 -59t-106 -151t-34.5 -202zM488 -418q-199 0 -382 70l69 214q142 -78 321 -78q144 0 232 61t104 186l10 87
q-106 -122 -271 -122q-206 0 -325 116t-119 316q0 35 5 83q13 108 54 202.5t107 170.5t166 120t221 44q95 0 161.5 -38t98.5 -98l14 110h263q-39 -152 -63 -344l-65 -535q-10 -83 -29 -153t-62.5 -149.5t-106 -134.5t-166.5 -91.5t-237 -36.5z" />
    <glyph glyph-name="h" unicode="h" horiz-adv-x="1219" 
d="M54 0l180 1457h248l-70 -564q47 71 145 115t181 44q81 0 142.5 -22t98 -56.5t59.5 -84t31 -98.5t8 -105q0 -59 -8 -115l-70 -571h-248l72 579q6 48 6 86q0 98 -38 142t-114 44q-102 0 -194.5 -70.5t-104.5 -162.5l-76 -618h-248z" />
    <glyph glyph-name="i" unicode="i" horiz-adv-x="562" 
d="M263 1238l26 218h240l-26 -218h-240zM112 0l126 1026h239l-126 -1026h-239z" />
    <glyph glyph-name="j" unicode="j" horiz-adv-x="600" 
d="M325 1228l28 228h246l-28 -228h-246zM16 -362q-50 0 -96 6.5t-67.5 12.5t-21.5 8h3l48 170q61 -19 140 -19q48 0 75.5 12.5t49 58t32.5 133.5l124 1006h239l-127 -1035q-11 -92 -32.5 -152.5t-65.5 -108.5t-118 -70t-183 -22zM-118 -165v1h-3z" />
    <glyph glyph-name="k" unicode="k" horiz-adv-x="1076" 
d="M50 0l180 1457h248l-106 -850l424 419h342l-549 -496l455 -530h-329l-361 444l-56 -444h-248z" />
    <glyph glyph-name="l" unicode="l" horiz-adv-x="572" 
d="M111 0l179 1457h246l-180 -1457h-245z" />
    <glyph glyph-name="m" unicode="m" horiz-adv-x="1839" 
d="M95 0l86 696q10 78 14 142.5t5 115.5t2 72h261l-16 -134q46 70 130 115t177 45q99 0 175 -47.5t109 -142.5q153 190 356 190q166 0 248 -89t82 -249q0 -35 -5 -85l-78 -629h-248l76 614q4 36 4 56q0 77 -28.5 129t-94.5 52q-110 0 -191 -84t-94 -186l-72 -581h-248
l78 627q3 25 3 53q0 171 -134 171q-104 0 -182.5 -68.5t-89.5 -159.5l-77 -623h-248z" />
    <glyph glyph-name="n" unicode="n" horiz-adv-x="1224" 
d="M93 0l79 635q27 220 27 379v12h263l-17 -137q63 80 157 121.5t177 41.5q160 0 245.5 -80.5t85.5 -268.5q0 -49 -8 -118l-73 -585h-248l74 602q5 36 5 79q0 91 -37.5 130.5t-119.5 39.5q-36 0 -81 -16t-89 -44.5t-76.5 -75t-38.5 -101.5l-77 -614h-248z" />
    <glyph glyph-name="o" unicode="o" horiz-adv-x="1286" 
d="M582 -23q-121 0 -214 35.5t-150 97.5t-86 143t-29 176q0 49 5 84q13 111 59 207.5t121 171t184.5 117.5t240.5 43q236 0 353.5 -123.5t117.5 -324.5q0 -45 -6 -93q-13 -107 -58 -201.5t-117.5 -169.5t-181.5 -119t-239 -44zM925 586q0 119 -59.5 192t-179.5 73
q-102 0 -176.5 -55.5t-111 -145.5t-36.5 -202q0 -120 58.5 -195.5t180.5 -75.5q106 0 181 58.5t109 149t34 201.5z" />
    <glyph glyph-name="p" unicode="p" horiz-adv-x="1273" 
d="M937 587q0 119 -55 191.5t-168 72.5q-143 0 -224 -116t-81 -288q0 -121 54 -195.5t169 -74.5q100 0 170.5 59t102.5 149.5t32 201.5zM71 -395l132 1076q9 75 24 345h263l-18 -147q18 56 113.5 114.5t223.5 58.5q122 0 211.5 -61.5t133 -161t43.5 -222.5q0 -35 -5 -82
q-13 -105 -56.5 -202.5t-109.5 -175t-160.5 -124t-201.5 -46.5q-64 0 -119.5 18t-89 44.5t-52.5 53.5t-21 48l-66 -536h-245z" />
    <glyph glyph-name="q" unicode="q" horiz-adv-x="1250" 
d="M909 585q0 120 -55.5 193t-168.5 73q-143 0 -223.5 -117t-80.5 -290q0 -119 53.5 -193t169.5 -74q100 0 170.5 59t102.5 149t32 200zM779 -395l59 477q-144 -105 -294 -105q-107 0 -189.5 37.5t-132 102t-74.5 146t-25 175.5q0 45 6 90q13 104 56.5 198t112 167t167 116
t213.5 43q72 0 142.5 -34t122.5 -102l13 110h253q-26 -132 -47 -296l-138 -1125h-245z" />
    <glyph glyph-name="r" unicode="r" horiz-adv-x="780" 
d="M97 0l95 766q12 98 12 211l-1 49h264l-16 -135q72 80 137 120.5t141 40.5q45 0 100 -15l-28 -217q-63 22 -120 22q-103 0 -176 -67t-88 -194l-73 -581h-247z" />
    <glyph glyph-name="s" unicode="s" horiz-adv-x="988" 
d="M656 323q0 24 -26 45t-102 47l-140 47q-62 21 -100.5 39t-75 46t-53 67t-16.5 92q0 73 23.5 132t63 98t94 65t114 37.5t125.5 11.5q98 0 193 -25t163 -74l-86 -170q-56 32 -133.5 54t-142.5 22q-92 0 -133 -25t-41 -86q0 -34 32.5 -55.5t137.5 -57.5l129 -45
q102 -35 151.5 -88t49.5 -150q0 -80 -25 -145t-66 -106.5t-96 -69.5t-111.5 -40t-116.5 -12q-135 0 -243 38t-169 91l84 178q56 -49 148 -80.5t182 -31.5q92 0 139 35.5t47 115.5z" />
    <glyph glyph-name="t" unicode="t" horiz-adv-x="804" 
d="M656 1h-100q-76 0 -128.5 5.5t-104 22.5t-82 47t-49.5 82t-19 125q0 42 6 93l59 484h-214l21 166h224l29 240l246 73l-38 -313h268l-21 -166h-268l-61 -499q-4 -28 -4 -55q0 -75 51 -95t208 -20z" />
    <glyph glyph-name="u" unicode="u" horiz-adv-x="1186" 
d="M460 -23q-167 0 -258.5 87t-91.5 241q0 29 5 71l79 650h246l-79 -646q-3 -21 -3 -40q0 -82 47 -122.5t130 -40.5q111 0 171 55.5t76 178.5l75 615h248l-91 -750q-5 -43 -23 -276h-256l15 152q-9 -22 -29 -48.5t-54.5 -56.5t-89 -50t-117.5 -20z" />
    <glyph glyph-name="v" unicode="v" horiz-adv-x="1126" 
d="M386 0l-306 1026h276q165 -667 187 -749q41 82 361 749h269l-562 -1026h-225z" />
    <glyph glyph-name="w" unicode="w" horiz-adv-x="1685" 
d="M323 0l-246 1026h264q10 -48 64 -313.5t81 -407.5q62 137 177 387t154 334h216q13 -64 62.5 -324.5t79.5 -398.5q63 144 185.5 411t142.5 312h231l-515 -1026h-207q-17 80 -47 220t-54.5 257t-45.5 221q-63 -134 -180 -377t-154 -321h-208z" />
    <glyph glyph-name="x" unicode="x" horiz-adv-x="1040" 
d="M-52 0l432 500l-289 526h276l180 -331l287 331h256l-423 -492l299 -534h-275l-190 339l-292 -339h-261z" />
    <glyph glyph-name="y" unicode="y" horiz-adv-x="1114" 
d="M164 -445l-85 168q147 55 224 112t110 138l20 50l-313 1003h258l207 -736l346 736h253l-549 -1082q-152 -293 -471 -389z" />
    <glyph glyph-name="z" unicode="z" horiz-adv-x="997" 
d="M34 0l16 131l569 697h-458l24 198h781l-16 -129l-573 -700h513l-24 -197h-832z" />
    <glyph glyph-name="braceleft" unicode="{" horiz-adv-x="987" 
d="M658 1176l-26 -223q-16 -126 -81.5 -196t-196.5 -74q216 -3 216 -203q0 -16 -4 -56l-27 -226q-6 -47 -6 -77q0 -20 2 -34.5t10 -26t14.5 -19t25 -12.5t31.5 -7.5t44.5 -4t53 -2t66.5 -0.5h2l-23 -195h-9q-145 0 -233.5 11t-144.5 40.5t-77 76.5t-21 124q0 49 10 134
l28 230q4 40 4 54q0 68 -36 92t-127 24h-13l18 149h13q110 0 150 35.5t53 142.5l28 231q10 83 24 137.5t41 99.5t64 70t100.5 42.5t142 23t195.5 5.5l-23 -195h-77q-45 0 -69.5 -1t-50.5 -7t-38 -16t-24 -30t-18 -47.5t-11 -69.5z" />
    <glyph glyph-name="bar" unicode="|" horiz-adv-x="395" 
d="M-41 -455l240 1961h237l-240 -1961h-237z" />
    <glyph glyph-name="braceright" unicode="}" horiz-adv-x="982" 
d="M3 -180l22 194h78q46 0 70 1t50 7t38 16t24 30.5t18 47.5t11 69l26 223q15 126 81 196.5t197 74.5q-216 1 -216 202q0 16 4 56l27 226q6 45 6 77q0 66 -37 86q-34 18 -160 20h-51h-2l24 196h9q192 0 292 -22.5t141.5 -75t41.5 -154.5q0 -50 -10 -135l-27 -230
q-4 -40 -4 -54q0 -68 36 -92t127 -24h13l-18 -149h-13q-110 0 -150 -35.5t-53 -142.5l-28 -231q-10 -83 -24 -137.5t-41 -99.5t-64 -69.5t-100.5 -42t-142 -23t-195.5 -5.5z" />
    <glyph glyph-name="asciitilde" unicode="~" horiz-adv-x="1508" 
d="M311 367l-145 74q39 93 78 152.5t81 88t79 38t88 9.5q112 0 286 -64q147 -59 250 -59q30 0 45.5 3.5t32.5 19t30.5 44.5t32.5 83l149 -71q-35 -93 -67 -151t-68 -88.5t-72 -41t-88 -10.5q-121 0 -328 70q-142 50 -211 50q-62 0 -95 -26t-78 -121z" />
    <glyph glyph-name="uni007F" horiz-adv-x="1521" 
d="M99 0l178 1456h1145l-178 -1456h-1145zM286 124h801l148 1206h-801z" />
    <glyph glyph-name="uni00A0" unicode="&#xa0;" horiz-adv-x="562" 
 />
    <glyph glyph-name="exclamdown" unicode="&#xa1;" horiz-adv-x="786" 
d="M351 769h148l-63 -1069h-295zM316 1156h314l-36 -273h-313z" />
    <glyph glyph-name="cent" unicode="&#xa2;" horiz-adv-x="1076" 
d="M648 847q-132 -21 -209 -127t-77 -265q0 -109 53 -181t152 -91zM786 844l-81 -660q92 17 197 90l53 -182q-136 -88 -274 -108l-28 -226h-138l27 220q-208 12 -323.5 142t-115.5 318q0 33 5 76q28 225 180.5 375.5t384.5 161.5l24 199h139l-25 -205q161 -24 250 -131
l-107 -160q-70 70 -168 90z" />
    <glyph glyph-name="sterling" unicode="&#xa3;" horiz-adv-x="1255" 
d="M896 1282q-131 0 -200 -76.5t-92 -256.5l-13 -107h338l-24 -193h-338l-4 -31q-19 -154 -46.5 -253.5t-79.5 -160.5h675l-25 -204h-1032l23 186q6 5 36.5 30t41.5 36.5t38 40.5t40.5 56t32.5 67.5t30.5 92t19.5 113.5l3 27h-185l24 193h181l7 50q13 104 34 186t62.5 161
t101 130.5t151 83t209.5 31.5q204 0 329 -73l-85 -192q-131 63 -253 63z" />
    <glyph glyph-name="currency" unicode="&#xa4;" horiz-adv-x="1218" 
d="M913 1062q0 117 -74 193t-193 76q-140 0 -241.5 -102.5t-101.5 -251.5q0 -116 74 -191.5t192 -75.5q139 0 241.5 102t102.5 250zM344 1276l-171 195l57 51l173 -196q115 83 253 83q135 0 233 -82l219 195l45 -51l-217 -193q68 -90 68 -206q0 -164 -122 -293l163 -185
l-57 -51l-163 186q-121 -90 -263 -90q-144 0 -241 91l-210 -187l-45 51l210 187q-61 86 -61 196q0 170 129 299z" />
    <glyph glyph-name="yen" unicode="&#xa5;" horiz-adv-x="1280" 
d="M416 0l34 280h-365l19 133h362l18 150l-5 10h-361l18 140h279l-340 743h289l278 -667l441 667h296l-534 -743h286l-18 -140h-369l-6 -9l-18 -151h382l-20 -133h-378l-34 -280h-254z" />
    <glyph glyph-name="brokenbar" unicode="&#xa6;" horiz-adv-x="500" 
d="M97 565l115 941h247l-115 -941h-247zM-26 -455l107 870h247l-107 -870h-247z" />
    <glyph glyph-name="section" unicode="&#xa7;" horiz-adv-x="1104" 
d="M629 592q42 50 42 109q0 14 -3 26t-12.5 22.5t-17 17.5t-26 17t-30.5 16t-39.5 18.5t-43.5 20.5q-72 -53 -72 -117q0 -14 6.5 -25.5t16 -20t30 -18.5t38.5 -17.5t51 -22t60 -26.5zM611 262q0 31 -47 61.5t-218 118.5q-83 42 -130 103.5t-47 137.5q0 153 160 260
q-81 72 -81 185q0 72 23 131t62.5 99.5t94.5 68.5t117.5 41t132.5 13q151 0 292 -50l-25 -202q-16 3 -63.5 19t-98 28t-95.5 12q-64 0 -113 -26.5t-49 -77.5q0 -41 48 -82t146 -90q56 -31 89.5 -53t70.5 -55t54.5 -71.5t17.5 -84.5q0 -78 -41 -138t-117 -117q93 -59 93 -189
q0 -92 -38.5 -163.5t-104 -114.5t-146 -65t-171.5 -22q-168 0 -327 61l26 209q65 -27 153 -46t164 -19q69 0 118.5 29.5t49.5 88.5z" />
    <glyph glyph-name="dieresis" unicode="&#xa8;" horiz-adv-x="743" 
d="M461 1151l29 225h246l-29 -225h-246zM3 1151l29 225h247l-29 -225h-247z" />
    <glyph glyph-name="copyright" unicode="&#xa9;" horiz-adv-x="1713" 
d="M765 -22q-141 0 -265 51.5t-211.5 140t-138 211t-50.5 259.5q0 46 6 92q25 203 147 376t307 274t389 101q141 0 264.5 -51t211 -139t138 -210t50.5 -259q0 -46 -6 -92q-25 -204 -147 -377.5t-307 -275t-388 -101.5zM776 93q169 0 322.5 86.5t253.5 232.5t121 317
q5 45 5 78q0 153 -69.5 279.5t-195 200.5t-281.5 74q-169 0 -322 -85.5t-252.5 -231t-120.5 -315.5q-5 -45 -5 -79q0 -154 69 -281t194 -201.5t281 -74.5zM646 678q0 -105 57 -167.5t166 -62.5q53 0 104.5 18t68 29t45.5 31l45 -151q-143 -92 -311 -92q-97 0 -172.5 30.5
t-122 83t-70.5 120.5t-24 146q0 35 4 64q24 191 158 316.5t334 125.5q198 0 292 -114l-88 -131q-84 80 -202 80q-130 0 -207 -90.5t-77 -235.5z" />
    <glyph glyph-name="ordfeminine" unicode="&#xaa;" horiz-adv-x="868" 
d="M330 850q68 0 133.5 45t76.5 134l2 14q-170 0 -224.5 -17.5t-63.5 -89.5q0 -2 -0.5 -5.5t-0.5 -4.5q0 -34 23.5 -55t53.5 -21zM301 721q-91 0 -153.5 48.5t-62.5 137.5q0 9 2 29q13 104 87 160t206 56h178l5 40q1 7 1 21q0 102 -117 102q-46 0 -103.5 -13.5t-92.5 -26.5
l-35 -13l-40 145q14 8 41 19.5t109 30.5t164 19q58 0 105.5 -12t86 -39t59.5 -74t21 -112q0 -27 -3 -55q-13 -107 -31 -276q-10 -95 -10 -131q0 -16 1 -23h-181l-5 98q-21 -49 -82.5 -90t-149.5 -41z" />
    <glyph glyph-name="guillemotleft" unicode="&#xab;" horiz-adv-x="1177" 
d="M807 158l-230 383l331 381h200l-286 -383l183 -381h-198zM365 158l-229 383l331 381h200l-286 -383l183 -381h-199z" />
    <glyph glyph-name="logicalnot" unicode="&#xac;" horiz-adv-x="1457" 
d="M959 220l47 389h-832l25 205h1065l-72 -594h-233z" />
    <glyph glyph-name="uni00AD" unicode="&#xad;" horiz-adv-x="739" 
d="M43 457l23 190h632l-23 -190h-632z" />
    <glyph glyph-name="registered" unicode="&#xae;" horiz-adv-x="1713" 
d="M765 -22q-141 0 -265 51.5t-211.5 140t-138 211t-50.5 259.5q0 46 6 92q25 203 147 376t307 274t389 101q141 0 264.5 -51t211 -139t138 -210t50.5 -259q0 -46 -6 -92q-25 -204 -147 -377.5t-307 -275t-388 -101.5zM776 93q169 0 322.5 86.5t253.5 232.5t121 317
q5 45 5 78q0 153 -69.5 279.5t-195 200.5t-281.5 74q-169 0 -322 -85.5t-252.5 -231t-120.5 -315.5q-5 -45 -5 -79q0 -154 69 -281t194 -201.5t281 -74.5zM1041 928q0 48 -32 61.5t-132 13.5h-109l-26 -215h91q110 0 159 28.5t49 111.5zM466 290l107 881h318q367 0 367 -224
q0 -19 -3 -40q-24 -194 -207 -242l142 -375h-235l-111 340h-123l-41 -340h-214z" />
    <glyph glyph-name="macron" unicode="&#xaf;" horiz-adv-x="756" 
d="M56 1146l19 157h625l-19 -157h-625z" />
    <glyph glyph-name="degree" unicode="&#xb0;" horiz-adv-x="886" 
d="M482 1466q118 0 197.5 -78t79.5 -194q0 -145 -107.5 -245t-246.5 -100q-119 0 -198.5 77t-79.5 193q0 144 108.5 245.5t246.5 101.5zM613 1179q0 65 -41.5 107t-107.5 42q-76 0 -132 -56.5t-56 -139.5q0 -65 40.5 -106.5t104.5 -41.5q78 0 135 56t57 139z" />
    <glyph glyph-name="plusminus" unicode="&#xb1;" horiz-adv-x="1272" 
d="M123 0l23 184h890l-23 -184h-890zM484 291l35 301h-324l25 200h319l37 307h237l-37 -307h332l-25 -200h-323l-36 -301h-240z" />
    <glyph glyph-name="uni00B2" unicode="&#xb2;" horiz-adv-x="1072" 
d="M173 613l22 182l290 227q148 115 157 179q1 5 1 15q0 71 -93 71q-101 0 -259 -64l-40 166q177 77 335 77q119 0 194 -54.5t75 -165.5q0 -20 -3 -43q-10 -85 -74.5 -158.5t-177.5 -158.5l-98 -73h289l-24 -200h-594z" />
    <glyph glyph-name="uni00B3" unicode="&#xb3;" horiz-adv-x="909" 
d="M599 891q0 41 -37.5 67t-103.5 26h-95l18 142h93q63 0 104.5 31.5t41.5 79.5q0 41 -30 62t-81 21q-99 0 -230 -65l-45 123q167 85 329 85q111 0 179 -46t68 -138q0 -8 -2 -30q-17 -128 -159 -176q77 -22 111.5 -67.5t34.5 -103.5q0 -9 -2 -27q-16 -135 -114 -203
t-230 -68q-165 0 -287 93l78 134q120 -75 212 -75q65 0 106 37.5t41 97.5z" />
    <glyph glyph-name="acute" unicode="&#xb4;" horiz-adv-x="607" 
d="M21 1166l299 290h319l-390 -290h-228z" />
    <glyph glyph-name="mu" unicode="&#xb5;" horiz-adv-x="1179" 
d="M303 -213h-254l152 1239h241l-64 -560q-6 -52 -6 -97q0 -96 35.5 -144.5t118.5 -48.5q58 0 99.5 10.5t76 37.5t55.5 76.5t31 124.5l73 601h251l-94 -764q-16 -130 -16 -262h-259l15 149q-26 -50 -63.5 -86t-78.5 -53.5t-76 -25t-69 -7.5q-41 0 -82 14t-57 36z" />
    <glyph glyph-name="paragraph" unicode="&#xb6;" horiz-adv-x="1226" 
d="M670 1455h494l-23 -192h-73l-177 -1441h-206l177 1441h-168l-177 -1441h-205l118 967q-284 25 -284 281q0 90 27 158.5t72.5 111t113.5 69t143 36.5t168 10z" />
    <glyph glyph-name="periodcentered" unicode="&#xb7;" horiz-adv-x="596" 
d="M170 561l35 282h303l-34 -282h-304z" />
    <glyph glyph-name="cedilla" unicode="&#xb8;" horiz-adv-x="529" 
d="M304 -216q0 32 -31 48t-112 28l-29 4l53 175h124l-32 -114q230 -16 230 -160q0 -9 -2 -27q-14 -113 -95 -172.5t-189 -59.5q-116 0 -229 68l32 162q79 -37 153 -37q60 0 93.5 17.5t33.5 67.5z" />
    <glyph glyph-name="uni00B9" unicode="&#xb9;" horiz-adv-x="851" 
d="M96 625l20 165h219l58 480q5 3 -50.5 -9.5t-117.5 -27t-67 -15.5l21 171q5 1 81 23t141.5 40.5t59.5 15.5l160 -4l-82 -676h189l-20 -163h-612z" />
    <glyph glyph-name="ordmasculine" unicode="&#xba;" horiz-adv-x="913" 
d="M415 713q-168 0 -256.5 85t-88.5 226q0 28 3 56q19 157 135.5 260t293.5 103q162 0 251.5 -87.5t89.5 -226.5q0 -26 -3 -53q-19 -155 -133.5 -259t-291.5 -104zM649 1111q0 81 -44.5 126.5t-120.5 45.5q-93 0 -156.5 -67.5t-63.5 -175.5q0 -79 44 -123t123 -44
q93 0 155.5 66t62.5 172z" />
    <glyph glyph-name="guillemotright" unicode="&#xbb;" horiz-adv-x="1177" 
d="M528 158l286 383l-183 381h198l230 -383l-330 -381h-201zM87 158l286 383l-183 381h198l230 -383l-331 -381h-200z" />
    <glyph glyph-name="onequarter" unicode="&#xbc;" horiz-adv-x="2113" 
d="M1502 329h177l32 254zM540 0l1063 1456h213l-1062 -1456h-214zM1642 1l23 194h-369l15 113l430 506h180l-60 -485h116l-16 -134h-116l-23 -194h-180zM212 619l20 167h211l58 471l-231 -53l22 175q18 5 47 13.5t90.5 26t101 28.5t36.5 9h156l-82 -672h184l-20 -165h-593z
" />
    <glyph glyph-name="onehalf" unicode="&#xbd;" horiz-adv-x="2554" 
d="M181 619l20 167h211l59 471l-231 -53l21 175q18 5 47 13.5t90.5 26t101 28.5t36.5 9h156l-81 -672h183l-20 -165h-593zM549 0l1063 1456h213l-1062 -1456h-214zM1516 0l20 169l301 220q92 68 120.5 107.5t28.5 87.5q0 49 -23.5 70t-71.5 21q-109 0 -253 -67l-43 160
q171 83 333 83q120 0 192 -57.5t72 -175.5q0 -55 -19 -104t-58 -93t-78.5 -78t-99.5 -77l-102 -73h293l-22 -193h-590z" />
    <glyph glyph-name="threequarters" unicode="&#xbe;" horiz-adv-x="2534" 
d="M1533 329h177l31 254zM560 0l1064 1456h213l-1063 -1456h-214zM1672 1l24 194h-369l15 113l430 506h180l-60 -485h116l-17 -134h-115l-24 -194h-180zM672 888q0 42 -39 69t-106 27h-92l17 143h90q66 0 108.5 29t42.5 80q0 80 -111 80q-104 0 -230 -66l-44 126
q163 86 325 86q110 0 178 -46.5t68 -138.5q0 -9 -2 -31q-18 -133 -161 -176q78 -19 112.5 -65.5t34.5 -104.5q0 -10 -2 -28q-16 -133 -113 -201t-228 -68q-77 0 -152.5 24.5t-132.5 69.5l77 135q117 -76 212 -76q65 0 106.5 36t41.5 96z" />
    <glyph glyph-name="questiondown" unicode="&#xbf;" horiz-adv-x="1032" 
d="M847 1164l-33 -273h-313l33 273h313zM754 753l-17 -137q-6 -53 -31.5 -103t-61 -90t-77.5 -78.5t-83.5 -74t-76.5 -70t-59 -74t-29 -79.5q-1 -8 -1 -22q0 -67 50 -98t134 -31q78 0 167.5 22t143.5 44l-26 -211q-144 -72 -334 -72q-111 0 -198.5 33.5t-142.5 105.5
t-55 173q0 72 25 134t66 108t90.5 88t101 81.5t95 80.5t75 93.5t38.5 111.5l7 65h199z" />
    <glyph glyph-name="Agrave" unicode="&#xc0;" horiz-adv-x="1458" 
d="M734 1596l-316 289h318l226 -289h-228zM507 592h390q-44 207 -124 567q-109 -236 -266 -567zM-77 0l763 1456h258l412 -1456h-287l-98 355h-588l-181 -355h-279z" />
    <glyph glyph-name="Aacute" unicode="&#xc1;" horiz-adv-x="1458" 
d="M726 1596l299 290h319l-390 -290h-228zM507 592h390q-44 207 -124 567q-109 -236 -266 -567zM-77 0l763 1456h258l412 -1456h-287l-98 355h-588l-181 -355h-279z" />
    <glyph glyph-name="Acircumflex" unicode="&#xc2;" horiz-adv-x="1458" 
d="M449 1615l304 370h253l218 -370h-233l-127 189l-188 -189h-227zM507 592h390q-44 207 -124 567q-109 -236 -266 -567zM-77 0l763 1456h258l412 -1456h-287l-98 355h-588l-181 -355h-279z" />
    <glyph glyph-name="Atilde" unicode="&#xc3;" horiz-adv-x="1458" 
d="M921 1792q30 0 49.5 22.5t26.5 85.5h163q-19 -149 -88.5 -222.5t-175.5 -73.5q-41 0 -97 27t-105 53.5t-73 26.5q-22 0 -45 -25t-34 -77h-160q15 128 86 209.5t168 81.5q55 0 110.5 -27t100.5 -54t74 -27zM507 592h390q-44 207 -124 567q-109 -236 -266 -567zM-77 0
l763 1456h258l412 -1456h-287l-98 355h-588l-181 -355h-279z" />
    <glyph glyph-name="Adieresis" unicode="&#xc4;" horiz-adv-x="1458" 
d="M933 1581l29 225h246l-29 -225h-246zM475 1581l29 225h247l-29 -225h-247zM507 592h390q-44 207 -124 567q-109 -236 -266 -567zM-77 0l763 1456h258l412 -1456h-287l-98 355h-588l-181 -355h-279z" />
    <glyph glyph-name="Aring" unicode="&#xc5;" horiz-adv-x="1458" 
d="M882 2009q85 0 140.5 -52t55.5 -133q0 -103 -75 -172t-174 -69q-85 0 -140.5 51.5t-55.5 132.5q0 104 75 173t174 69zM964 1809q0 41 -27 68t-68 27q-47 0 -83.5 -35.5t-36.5 -85.5q0 -41 27 -68.5t67 -27.5q48 0 84.5 35.5t36.5 86.5zM507 592h390q-44 207 -124 567
q-109 -236 -266 -567zM-77 0l763 1456h258l412 -1456h-287l-98 355h-588l-181 -355h-279z" />
    <glyph glyph-name="AE" unicode="&#xc6;" horiz-adv-x="2215" 
d="M614 558h466l35 672h-33zM-70 0l1045 1456h1084l-28 -226h-657l-11 -376h620l-28 -220h-592l-10 -408h582l-28 -226h-848l14 355h-584l-245 -355h-314z" />
    <glyph glyph-name="Ccedilla" unicode="&#xc7;" horiz-adv-x="1436" 
d="M805 -216q0 32 -31 48t-112 28l-29 4l53 175h124l-32 -114q230 -16 230 -160q0 -9 -2 -27q-14 -113 -95 -172.5t-189 -59.5q-116 0 -229 68l32 162q79 -37 153 -37q60 0 93.5 17.5t33.5 67.5zM367 642q0 -205 116 -325t303 -120q220 0 420 147l61 -201
q-233 -165 -524 -165q-132 0 -248 42t-205 120t-140.5 200t-51.5 272q0 59 7 115q18 148 74 273.5t135.5 213t178.5 149.5t203.5 91t210.5 29q286 0 467 -157l-120 -177q-153 115 -352 115q-100 0 -195.5 -44.5t-171 -122.5t-122 -197.5t-46.5 -257.5z" />
    <glyph glyph-name="Egrave" unicode="&#xc8;" horiz-adv-x="1249" 
d="M672 1596l-316 289h318l226 -289h-228zM101 0l178 1456h919l-26 -218h-665l-48 -389h629l-28 -219h-626l-50 -412h691l-26 -218h-948z" />
    <glyph glyph-name="Eacute" unicode="&#xc9;" horiz-adv-x="1249" 
d="M665 1596l299 290h319l-390 -290h-228zM101 0l178 1456h919l-26 -218h-665l-48 -389h629l-28 -219h-626l-50 -412h691l-26 -218h-948z" />
    <glyph glyph-name="Ecircumflex" unicode="&#xca;" horiz-adv-x="1249" 
d="M387 1615l304 370h253l218 -370h-233l-127 189l-188 -189h-227zM101 0l178 1456h919l-26 -218h-665l-48 -389h629l-28 -219h-626l-50 -412h691l-26 -218h-948z" />
    <glyph glyph-name="Edieresis" unicode="&#xcb;" horiz-adv-x="1249" 
d="M872 1581l29 225h246l-29 -225h-246zM414 1581l29 225h247l-29 -225h-247zM101 0l178 1456h919l-26 -218h-665l-48 -389h629l-28 -219h-626l-50 -412h691l-26 -218h-948z" />
    <glyph glyph-name="Igrave" unicode="&#xcc;" horiz-adv-x="586" 
d="M289 1596l-316 289h318l226 -289h-228zM71 0l178 1456h254l-178 -1456h-254z" />
    <glyph glyph-name="Iacute" unicode="&#xcd;" horiz-adv-x="586" 
d="M282 1596l299 290h319l-390 -290h-228zM71 0l178 1456h254l-178 -1456h-254z" />
    <glyph glyph-name="Icircumflex" unicode="&#xce;" horiz-adv-x="586" 
d="M4 1615l304 370h253l218 -370h-233l-127 189l-188 -189h-227zM71 0l178 1456h254l-178 -1456h-254z" />
    <glyph glyph-name="Idieresis" unicode="&#xcf;" horiz-adv-x="586" 
d="M489 1581l29 225h246l-29 -225h-246zM31 1581l29 225h247l-29 -225h-247zM71 0l178 1456h254l-178 -1456h-254z" />
    <glyph glyph-name="Eth" unicode="&#xd0;" horiz-adv-x="1571" 
d="M7 646l23 190h632l-23 -190h-632zM101 0l178 1456h406q397 0 593 -153.5t196 -443.5q0 -55 -8 -122q-45 -361 -279 -549t-639 -188h-447zM382 218h205q265 0 422.5 132t188.5 388q6 47 6 88q0 412 -522 412h-175z" />
    <glyph glyph-name="Ntilde" unicode="&#xd1;" horiz-adv-x="1630" 
d="M1028 1792q30 0 49.5 22.5t26.5 85.5h163q-19 -149 -88.5 -222.5t-175.5 -73.5q-41 0 -97 27t-105 53.5t-73 26.5q-22 0 -45 -25t-34 -77h-160q15 128 86 209.5t168 81.5q55 0 110.5 -27t100.5 -54t74 -27zM101 0l178 1456h269q70 -124 191.5 -339t224 -395.5
t193.5 -337.5l130 1072h242l-178 -1456h-270q-57 100 -276 483.5t-338 590.5l-131 -1074h-235z" />
    <glyph glyph-name="Ograve" unicode="&#xd2;" 
d="M841 1596l-316 289h318l226 -289h-228zM748 -23q-307 0 -478.5 169t-171.5 462q0 57 8 127q21 167 88.5 305t173.5 236t251.5 152.5t315.5 54.5q299 0 468.5 -168.5t169.5 -456.5q0 -56 -8 -123q-42 -348 -260 -553t-557 -205zM373 616q0 -205 99.5 -313.5t295.5 -108.5
q223 0 356 140.5t165 400.5q7 56 7 113q0 200 -99.5 309t-292.5 109q-246 0 -388.5 -176t-142.5 -474z" />
    <glyph glyph-name="Oacute" unicode="&#xd3;" 
d="M833 1596l299 290h319l-390 -290h-228zM748 -23q-307 0 -478.5 169t-171.5 462q0 57 8 127q21 167 88.5 305t173.5 236t251.5 152.5t315.5 54.5q299 0 468.5 -168.5t169.5 -456.5q0 -56 -8 -123q-42 -348 -260 -553t-557 -205zM373 616q0 -205 99.5 -313.5t295.5 -108.5
q223 0 356 140.5t165 400.5q7 56 7 113q0 200 -99.5 309t-292.5 109q-246 0 -388.5 -176t-142.5 -474z" />
    <glyph glyph-name="Ocircumflex" unicode="&#xd4;" 
d="M556 1615l304 370h253l218 -370h-233l-127 189l-188 -189h-227zM748 -23q-307 0 -478.5 169t-171.5 462q0 57 8 127q21 167 88.5 305t173.5 236t251.5 152.5t315.5 54.5q299 0 468.5 -168.5t169.5 -456.5q0 -56 -8 -123q-42 -348 -260 -553t-557 -205zM373 616
q0 -205 99.5 -313.5t295.5 -108.5q223 0 356 140.5t165 400.5q7 56 7 113q0 200 -99.5 309t-292.5 109q-246 0 -388.5 -176t-142.5 -474z" />
    <glyph glyph-name="Otilde" unicode="&#xd5;" 
d="M1028 1792q30 0 49.5 22.5t26.5 85.5h163q-19 -149 -88.5 -222.5t-175.5 -73.5q-41 0 -97 27t-105 53.5t-73 26.5q-22 0 -45 -25t-34 -77h-160q15 128 86 209.5t168 81.5q55 0 110.5 -27t100.5 -54t74 -27zM748 -23q-307 0 -478.5 169t-171.5 462q0 57 8 127
q21 167 88.5 305t173.5 236t251.5 152.5t315.5 54.5q299 0 468.5 -168.5t169.5 -456.5q0 -56 -8 -123q-42 -348 -260 -553t-557 -205zM373 616q0 -205 99.5 -313.5t295.5 -108.5q223 0 356 140.5t165 400.5q7 56 7 113q0 200 -99.5 309t-292.5 109q-246 0 -388.5 -176
t-142.5 -474z" />
    <glyph glyph-name="Odieresis" unicode="&#xd6;" 
d="M1040 1581l29 225h246l-29 -225h-246zM582 1581l29 225h247l-29 -225h-247zM748 -23q-307 0 -478.5 169t-171.5 462q0 57 8 127q21 167 88.5 305t173.5 236t251.5 152.5t315.5 54.5q299 0 468.5 -168.5t169.5 -456.5q0 -56 -8 -123q-42 -348 -260 -553t-557 -205z
M373 616q0 -205 99.5 -313.5t295.5 -108.5q223 0 356 140.5t165 400.5q7 56 7 113q0 200 -99.5 309t-292.5 109q-246 0 -388.5 -176t-142.5 -474z" />
    <glyph glyph-name="multiply" unicode="&#xd7;" horiz-adv-x="1272" 
d="M310 116l-143 162l303 269l-236 269l181 161l236 -268l303 268l141 -160l-303 -270l236 -271l-179 -160l-238 270z" />
    <glyph glyph-name="Oslash" unicode="&#xd8;" 
d="M748 -23q-167 0 -297 52l-103 -157l-110 53l106 161q-120 81 -183 214t-63 308q0 57 8 127q21 167 88.5 305t173.5 236t251.5 152.5t315.5 54.5q163 0 293 -54l96 146l110 -52l-100 -151q116 -80 177.5 -212t61.5 -302q0 -56 -8 -123q-42 -348 -260 -553t-557 -205z
M1195 1159l-613 -932q78 -33 186 -33q223 0 356 140.5t165 400.5q7 56 7 113q0 204 -101 311zM373 616q0 -214 108 -322l615 935q-82 37 -192 37q-246 0 -388.5 -176t-142.5 -474z" />
    <glyph glyph-name="Ugrave" unicode="&#xd9;" horiz-adv-x="1509" 
d="M751 1596l-316 289h318l226 -289h-228zM664 -23q-120 0 -211.5 24.5t-150 66t-95.5 103.5t-52 130t-15 152q0 63 10 146l105 857h254l-108 -868q-6 -51 -6 -93q0 -301 296 -301q76 0 136.5 19t112.5 62.5t86.5 122.5t47.5 191l108 867h254l-105 -858q-11 -87 -30 -159.5
t-52 -145.5t-83.5 -128t-119.5 -98.5t-166 -66.5t-216 -23z" />
    <glyph glyph-name="Uacute" unicode="&#xda;" horiz-adv-x="1509" 
d="M743 1596l299 290h319l-390 -290h-228zM664 -23q-120 0 -211.5 24.5t-150 66t-95.5 103.5t-52 130t-15 152q0 63 10 146l105 857h254l-108 -868q-6 -51 -6 -93q0 -301 296 -301q76 0 136.5 19t112.5 62.5t86.5 122.5t47.5 191l108 867h254l-105 -858q-11 -87 -30 -159.5
t-52 -145.5t-83.5 -128t-119.5 -98.5t-166 -66.5t-216 -23z" />
    <glyph glyph-name="Ucircumflex" unicode="&#xdb;" horiz-adv-x="1509" 
d="M466 1615l304 370h253l218 -370h-233l-127 189l-188 -189h-227zM664 -23q-120 0 -211.5 24.5t-150 66t-95.5 103.5t-52 130t-15 152q0 63 10 146l105 857h254l-108 -868q-6 -51 -6 -93q0 -301 296 -301q76 0 136.5 19t112.5 62.5t86.5 122.5t47.5 191l108 867h254
l-105 -858q-11 -87 -30 -159.5t-52 -145.5t-83.5 -128t-119.5 -98.5t-166 -66.5t-216 -23z" />
    <glyph glyph-name="Udieresis" unicode="&#xdc;" horiz-adv-x="1509" 
d="M950 1581l29 225h246l-29 -225h-246zM492 1581l29 225h247l-29 -225h-247zM664 -23q-120 0 -211.5 24.5t-150 66t-95.5 103.5t-52 130t-15 152q0 63 10 146l105 857h254l-108 -868q-6 -51 -6 -93q0 -301 296 -301q76 0 136.5 19t112.5 62.5t86.5 122.5t47.5 191l108 867
h254l-105 -858q-11 -87 -30 -159.5t-52 -145.5t-83.5 -128t-119.5 -98.5t-166 -66.5t-216 -23z" />
    <glyph glyph-name="Yacute" unicode="&#xdd;" horiz-adv-x="1281" 
d="M651 1596l299 290h319l-390 -290h-228zM416 0l68 563l-409 893h289l278 -667l441 667h296l-641 -892l-68 -564h-254z" />
    <glyph glyph-name="Thorn" unicode="&#xde;" horiz-adv-x="1300" 
d="M957 817q0 108 -77.5 149t-233.5 41h-172l-56 -462h222q148 0 232.5 67t84.5 205zM570 326h-180l-39 -326h-250l178 1456h253l-29 -233h158q102 0 182 -9t155.5 -34t125 -65.5t79 -107.5t29.5 -156q0 -109 -36 -198t-98 -149t-147 -100.5t-180 -59t-201 -18.5z" />
    <glyph glyph-name="germandbls" unicode="&#xdf;" horiz-adv-x="1265" 
d="M876 377q0 95 -70 168.5t-238 163.5l23 188q84 35 153.5 103.5t79.5 145.5q1 6 1 16q0 55 -43.5 86.5t-105.5 31.5q-100 0 -169 -72.5t-86 -208.5l-124 -999h-240l121 1000q28 238 165.5 358t354.5 120q179 0 289.5 -78.5t110.5 -204.5q0 -10 -2 -34q-11 -92 -72 -177.5
t-158 -131.5q-50 -24 -112 -41q84 -19 154.5 -52t127 -81.5t88.5 -117.5t32 -152q0 -97 -35.5 -179.5t-94 -136.5t-133.5 -84t-156 -30q-79 0 -158 15t-119 29l-40 15l66 193q12 -6 32.5 -15t75.5 -24.5t100 -15.5q88 0 135 51t47 151z" />
    <glyph glyph-name="agrave" unicode="&#xe0;" horiz-adv-x="1291" 
d="M669 1166l-316 289h318l226 -289h-228zM924 589q0 124 -60 193t-183 69q-152 0 -241.5 -112t-89.5 -292q0 -126 62.5 -198t188.5 -72q108 0 182.5 56.5t107.5 147t33 208.5zM547 -23q-113 0 -200 36.5t-139.5 99.5t-79 141.5t-26.5 168.5q0 36 5 79q13 107 56.5 203.5
t114.5 175t178 125t235 46.5q187 0 270 -136l13 110h243l-126 -1026h-249l17 140q-132 -163 -312 -163z" />
    <glyph glyph-name="aacute" unicode="&#xe1;" horiz-adv-x="1291" 
d="M662 1166l299 290h319l-390 -290h-228zM924 589q0 124 -60 193t-183 69q-152 0 -241.5 -112t-89.5 -292q0 -126 62.5 -198t188.5 -72q108 0 182.5 56.5t107.5 147t33 208.5zM547 -23q-113 0 -200 36.5t-139.5 99.5t-79 141.5t-26.5 168.5q0 36 5 79q13 107 56.5 203.5
t114.5 175t178 125t235 46.5q187 0 270 -136l13 110h243l-126 -1026h-249l17 140q-132 -163 -312 -163z" />
    <glyph glyph-name="acircumflex" unicode="&#xe2;" horiz-adv-x="1291" 
d="M384 1185l304 370h253l218 -370h-233l-127 189l-188 -189h-227zM924 589q0 124 -60 193t-183 69q-152 0 -241.5 -112t-89.5 -292q0 -126 62.5 -198t188.5 -72q108 0 182.5 56.5t107.5 147t33 208.5zM547 -23q-113 0 -200 36.5t-139.5 99.5t-79 141.5t-26.5 168.5
q0 36 5 79q13 107 56.5 203.5t114.5 175t178 125t235 46.5q187 0 270 -136l13 110h243l-126 -1026h-249l17 140q-132 -163 -312 -163z" />
    <glyph glyph-name="atilde" unicode="&#xe3;" horiz-adv-x="1291" 
d="M856 1362q30 0 49.5 22.5t26.5 85.5h163q-19 -149 -88.5 -222.5t-175.5 -73.5q-41 0 -97 27t-105 53.5t-73 26.5q-22 0 -45 -25t-34 -77h-160q15 128 86 209.5t168 81.5q55 0 110.5 -27t100.5 -54t74 -27zM924 589q0 124 -60 193t-183 69q-152 0 -241.5 -112t-89.5 -292
q0 -126 62.5 -198t188.5 -72q108 0 182.5 56.5t107.5 147t33 208.5zM547 -23q-113 0 -200 36.5t-139.5 99.5t-79 141.5t-26.5 168.5q0 36 5 79q13 107 56.5 203.5t114.5 175t178 125t235 46.5q187 0 270 -136l13 110h243l-126 -1026h-249l17 140q-132 -163 -312 -163z" />
    <glyph glyph-name="adieresis" unicode="&#xe4;" horiz-adv-x="1291" 
d="M869 1151l29 225h246l-29 -225h-246zM411 1151l29 225h247l-29 -225h-247zM924 589q0 124 -60 193t-183 69q-152 0 -241.5 -112t-89.5 -292q0 -126 62.5 -198t188.5 -72q108 0 182.5 56.5t107.5 147t33 208.5zM547 -23q-113 0 -200 36.5t-139.5 99.5t-79 141.5
t-26.5 168.5q0 36 5 79q13 107 56.5 203.5t114.5 175t178 125t235 46.5q187 0 270 -136l13 110h243l-126 -1026h-249l17 140q-132 -163 -312 -163z" />
    <glyph glyph-name="aring" unicode="&#xe5;" horiz-adv-x="1291" 
d="M817 1579q85 0 140.5 -52t55.5 -133q0 -103 -75 -172t-174 -69q-85 0 -140.5 51.5t-55.5 132.5q0 104 75 173t174 69zM899 1379q0 41 -27 68t-68 27q-47 0 -83.5 -35.5t-36.5 -85.5q0 -41 27 -68.5t67 -27.5q48 0 84.5 35.5t36.5 86.5zM924 589q0 124 -60 193t-183 69
q-152 0 -241.5 -112t-89.5 -292q0 -126 62.5 -198t188.5 -72q108 0 182.5 56.5t107.5 147t33 208.5zM547 -23q-113 0 -200 36.5t-139.5 99.5t-79 141.5t-26.5 168.5q0 36 5 79q13 107 56.5 203.5t114.5 175t178 125t235 46.5q187 0 270 -136l13 110h243l-126 -1026h-249
l17 140q-132 -163 -312 -163z" />
    <glyph glyph-name="ae" unicode="&#xe6;" horiz-adv-x="1776" 
d="M994 632h461l3 23q1 9 1 26q0 91 -56 141t-131 50q-96 0 -167 -66.5t-111 -173.5zM284 286q0 -56 43 -82.5t112 -26.5q55 0 101 17.5t77.5 45.5t55.5 66.5t37 78t20 82.5h-100q-67 0 -125 -9t-109.5 -28.5t-81.5 -56t-30 -87.5zM1666 634q0 -60 -7 -115l-12 -52h-677
q-3 -17 -3 -34q0 -134 62.5 -195t182.5 -61q73 0 157.5 28t132.5 56l47 28l45 -181q-8 -5 -22.5 -14t-60 -31.5t-92 -40t-113.5 -31.5t-129 -14q-143 0 -232.5 44t-130.5 151q-43 -70 -114.5 -115t-143 -62t-148.5 -17q-171 0 -269 70.5t-98 200.5q0 21 3 45
q23 195 178.5 269.5t488.5 74.5h40q2 22 2 32q0 86 -52.5 137.5t-150.5 51.5q-116 0 -296 -81l-50 164q197 110 426 110q84 0 171.5 -49.5t122.5 -138.5q57 88 164.5 138t206.5 50q190 0 280.5 -114t90.5 -304z" />
    <glyph glyph-name="ccedilla" unicode="&#xe7;" horiz-adv-x="1071" 
d="M622 -216q0 32 -31 48t-112 28l-29 4l53 175h124l-32 -114q230 -16 230 -160q0 -9 -2 -27q-14 -113 -95 -172.5t-189 -59.5q-116 0 -229 68l32 162q79 -37 153 -37q60 0 93.5 17.5t33.5 67.5zM362 455q0 -127 71 -202.5t200 -75.5t261 92q6 3 8 5l53 -182
q-92 -60 -181.5 -87.5t-195.5 -27.5q-114 0 -205.5 37t-149.5 100.5t-89 146t-31 177.5q0 33 5 76q14 114 63 212t125 170.5t182 114t229 41.5q240 0 354 -138l-107 -160q-100 98 -245 98q-158 0 -252.5 -110t-94.5 -287z" />
    <glyph glyph-name="egrave" unicode="&#xe8;" horiz-adv-x="1195" 
d="M656 1166l-316 289h318l226 -289h-228zM388 636h509q-3 108 -58.5 166.5t-147.5 58.5q-107 0 -186.5 -60t-116.5 -165zM1084 471h-720q-1 -13 -1 -36q0 -131 75.5 -194.5t208.5 -63.5q167 0 338 110l45 -180q-105 -67 -207.5 -98.5t-222.5 -31.5q-236 0 -366.5 123.5
t-130.5 329.5q0 47 5 82q13 107 60.5 204.5t122.5 172.5t181 119t228 44q106 0 185.5 -32t126 -91t69 -134.5t22.5 -168.5q0 -118 -19 -155z" />
    <glyph glyph-name="eacute" unicode="&#xe9;" horiz-adv-x="1195" 
d="M388 636h509q-3 108 -58.5 166.5t-147.5 58.5q-107 0 -186.5 -60t-116.5 -165zM1084 471h-720q-1 -13 -1 -36q0 -131 75.5 -194.5t208.5 -63.5q167 0 338 110l45 -180q-105 -67 -207.5 -98.5t-222.5 -31.5q-236 0 -366.5 123.5t-130.5 329.5q0 47 5 82q13 107 60.5 204.5
t122.5 172.5t181 119t228 44q106 0 185.5 -32t126 -91t69 -134.5t22.5 -168.5q0 -118 -19 -155zM648 1166l299 290h319l-390 -290h-228z" />
    <glyph glyph-name="ecircumflex" unicode="&#xea;" horiz-adv-x="1195" 
d="M388 636h509q-3 108 -58.5 166.5t-147.5 58.5q-107 0 -186.5 -60t-116.5 -165zM1084 471h-720q-1 -13 -1 -36q0 -131 75.5 -194.5t208.5 -63.5q167 0 338 110l45 -180q-105 -67 -207.5 -98.5t-222.5 -31.5q-236 0 -366.5 123.5t-130.5 329.5q0 47 5 82q13 107 60.5 204.5
t122.5 172.5t181 119t228 44q106 0 185.5 -32t126 -91t69 -134.5t22.5 -168.5q0 -118 -19 -155zM371 1185l304 370h253l218 -370h-233l-127 189l-188 -189h-227z" />
    <glyph glyph-name="edieresis" unicode="&#xeb;" horiz-adv-x="1195" 
d="M388 636h509q-3 108 -58.5 166.5t-147.5 58.5q-107 0 -186.5 -60t-116.5 -165zM1084 471h-720q-1 -13 -1 -36q0 -131 75.5 -194.5t208.5 -63.5q167 0 338 110l45 -180q-105 -67 -207.5 -98.5t-222.5 -31.5q-236 0 -366.5 123.5t-130.5 329.5q0 47 5 82q13 107 60.5 204.5
t122.5 172.5t181 119t228 44q106 0 185.5 -32t126 -91t69 -134.5t22.5 -168.5q0 -118 -19 -155zM855 1151l29 225h246l-29 -225h-246zM397 1151l29 225h247l-29 -225h-247z" />
    <glyph glyph-name="igrave" unicode="&#xec;" horiz-adv-x="485" 
d="M204 1166l-316 289h318l226 -289h-228zM40 0l126 1026h249l-126 -1026h-249z" />
    <glyph glyph-name="iacute" unicode="&#xed;" horiz-adv-x="485" 
d="M40 0l126 1026h249l-126 -1026h-249zM197 1166l299 290h319l-390 -290h-228z" />
    <glyph glyph-name="icircumflex" unicode="&#xee;" horiz-adv-x="485" 
d="M40 0l126 1026h249l-126 -1026h-249zM-81 1185l304 370h253l218 -370h-233l-127 189l-188 -189h-227z" />
    <glyph glyph-name="idieresis" unicode="&#xef;" horiz-adv-x="485" 
d="M40 0l126 1026h249l-126 -1026h-249zM404 1151l29 225h246l-29 -225h-246zM-54 1151l29 225h247l-29 -225h-247z" />
    <glyph glyph-name="eth" unicode="&#xf0;" horiz-adv-x="1217" 
d="M810 476q0 99 -67 158t-158 59q-66 0 -124.5 -29.5t-100 -97.5t-41.5 -164q0 -113 64.5 -171.5t155.5 -58.5q34 0 70.5 12t72 37t64.5 60t46.5 86t17.5 109zM494 -25q-132 0 -230.5 59t-147.5 155t-49 215q0 36 4 67q25 200 152 315.5t333 115.5q202 0 325 -149
q1 5 4.5 21.5t6 33.5t2.5 34q0 134 -173 273l-270 -126l-49 133l170 79q-76 25 -207 57l98 159q47 -1 141 -27.5t188 -83.5l272 128l50 -134l-197 -92q183 -174 183 -465q0 -53 -8 -122q-42 -338 -193.5 -492t-404.5 -154z" />
    <glyph glyph-name="ntilde" unicode="&#xf1;" horiz-adv-x="1224" 
d="M830 1362q30 0 49.5 22.5t26.5 85.5h163q-19 -149 -88.5 -222.5t-175.5 -73.5q-41 0 -97 27t-105 53.5t-73 26.5q-22 0 -45 -25t-34 -77h-160q15 128 86 209.5t168 81.5q55 0 110.5 -27t100.5 -54t74 -27zM93 0l79 635q27 220 27 379v12h263l-17 -137q63 80 157 121.5
t177 41.5q160 0 245.5 -80.5t85.5 -268.5q0 -49 -8 -118l-73 -585h-248l74 602q5 36 5 79q0 91 -37.5 130.5t-119.5 39.5q-36 0 -81 -16t-89 -44.5t-76.5 -75t-38.5 -101.5l-77 -614h-248z" />
    <glyph glyph-name="ograve" unicode="&#xf2;" horiz-adv-x="1286" 
d="M582 -23q-121 0 -214 35.5t-150 97.5t-86 143t-29 176q0 49 5 84q13 111 59 207.5t121 171t184.5 117.5t240.5 43q236 0 353.5 -123.5t117.5 -324.5q0 -45 -6 -93q-13 -107 -58 -201.5t-117.5 -169.5t-181.5 -119t-239 -44zM925 586q0 119 -59.5 192t-179.5 73
q-102 0 -176.5 -55.5t-111 -145.5t-36.5 -202q0 -120 58.5 -195.5t180.5 -75.5q106 0 181 58.5t109 149t34 201.5zM622 1166l-316 289h318l226 -289h-228z" />
    <glyph glyph-name="oacute" unicode="&#xf3;" horiz-adv-x="1286" 
d="M582 -23q-121 0 -214 35.5t-150 97.5t-86 143t-29 176q0 49 5 84q13 111 59 207.5t121 171t184.5 117.5t240.5 43q236 0 353.5 -123.5t117.5 -324.5q0 -45 -6 -93q-13 -107 -58 -201.5t-117.5 -169.5t-181.5 -119t-239 -44zM925 586q0 119 -59.5 192t-179.5 73
q-102 0 -176.5 -55.5t-111 -145.5t-36.5 -202q0 -120 58.5 -195.5t180.5 -75.5q106 0 181 58.5t109 149t34 201.5zM615 1166l299 290h319l-390 -290h-228z" />
    <glyph glyph-name="ocircumflex" unicode="&#xf4;" horiz-adv-x="1286" 
d="M582 -23q-121 0 -214 35.5t-150 97.5t-86 143t-29 176q0 49 5 84q13 111 59 207.5t121 171t184.5 117.5t240.5 43q236 0 353.5 -123.5t117.5 -324.5q0 -45 -6 -93q-13 -107 -58 -201.5t-117.5 -169.5t-181.5 -119t-239 -44zM925 586q0 119 -59.5 192t-179.5 73
q-102 0 -176.5 -55.5t-111 -145.5t-36.5 -202q0 -120 58.5 -195.5t180.5 -75.5q106 0 181 58.5t109 149t34 201.5zM337 1185l304 370h253l218 -370h-233l-127 189l-188 -189h-227z" />
    <glyph glyph-name="otilde" unicode="&#xf5;" horiz-adv-x="1286" 
d="M809 1362q30 0 49.5 22.5t26.5 85.5h163q-19 -149 -88.5 -222.5t-175.5 -73.5q-41 0 -97 27t-105 53.5t-73 26.5q-22 0 -45 -25t-34 -77h-160q15 128 86 209.5t168 81.5q55 0 110.5 -27t100.5 -54t74 -27zM582 -23q-121 0 -214 35.5t-150 97.5t-86 143t-29 176q0 49 5 84
q13 111 59 207.5t121 171t184.5 117.5t240.5 43q236 0 353.5 -123.5t117.5 -324.5q0 -45 -6 -93q-13 -107 -58 -201.5t-117.5 -169.5t-181.5 -119t-239 -44zM925 586q0 119 -59.5 192t-179.5 73q-102 0 -176.5 -55.5t-111 -145.5t-36.5 -202q0 -120 58.5 -195.5t180.5 -75.5
q106 0 181 58.5t109 149t34 201.5z" />
    <glyph glyph-name="odieresis" unicode="&#xf6;" horiz-adv-x="1286" 
d="M582 -23q-121 0 -214 35.5t-150 97.5t-86 143t-29 176q0 49 5 84q13 111 59 207.5t121 171t184.5 117.5t240.5 43q236 0 353.5 -123.5t117.5 -324.5q0 -45 -6 -93q-13 -107 -58 -201.5t-117.5 -169.5t-181.5 -119t-239 -44zM925 586q0 119 -59.5 192t-179.5 73
q-102 0 -176.5 -55.5t-111 -145.5t-36.5 -202q0 -120 58.5 -195.5t180.5 -75.5q106 0 181 58.5t109 149t34 201.5zM822 1151l29 225h246l-29 -225h-246zM364 1151l29 225h247l-29 -225h-247z" />
    <glyph glyph-name="divide" unicode="&#xf7;" horiz-adv-x="1499" 
d="M654 840l33 271h201l-33 -271h-201zM155 449l26 207h1086l-25 -207h-1087zM551 -19l34 272h201l-33 -272h-202z" />
    <glyph glyph-name="oslash" unicode="&#xf8;" horiz-adv-x="1288" 
d="M582 -23q-96 0 -176 23l-117 -199l-93 47l113 192q-103 58 -154.5 159.5t-51.5 229.5q0 49 5 84q13 111 59 207.5t121 171t184.5 117.5t240.5 43q100 0 180 -23l105 178l93 -46l-102 -173q98 -56 146.5 -156t48.5 -228q0 -45 -6 -93q-13 -107 -58 -201.5t-117.5 -169.5
t-181.5 -119t-239 -44zM925 586q0 122 -60 192l-348 -590q39 -11 84 -11q106 0 181 58.5t109 149t34 201.5zM362 448q0 -135 67 -206l350 595q-42 14 -93 14q-102 0 -176.5 -55.5t-111 -145.5t-36.5 -202z" />
    <glyph glyph-name="ugrave" unicode="&#xf9;" horiz-adv-x="1186" 
d="M460 -23q-167 0 -258.5 87t-91.5 241q0 29 5 71l79 650h246l-79 -646q-3 -21 -3 -40q0 -82 47 -122.5t130 -40.5q111 0 171 55.5t76 178.5l75 615h248l-91 -750q-5 -43 -23 -276h-256l15 152q-9 -22 -29 -48.5t-54.5 -56.5t-89 -50t-117.5 -20zM579 1166l-316 289h318
l226 -289h-228z" />
    <glyph glyph-name="uacute" unicode="&#xfa;" horiz-adv-x="1186" 
d="M460 -23q-167 0 -258.5 87t-91.5 241q0 29 5 71l79 650h246l-79 -646q-3 -21 -3 -40q0 -82 47 -122.5t130 -40.5q111 0 171 55.5t76 178.5l75 615h248l-91 -750q-5 -43 -23 -276h-256l15 152q-9 -22 -29 -48.5t-54.5 -56.5t-89 -50t-117.5 -20zM572 1166l299 290h319
l-390 -290h-228z" />
    <glyph glyph-name="ucircumflex" unicode="&#xfb;" horiz-adv-x="1186" 
d="M460 -23q-167 0 -258.5 87t-91.5 241q0 29 5 71l79 650h246l-79 -646q-3 -21 -3 -40q0 -82 47 -122.5t130 -40.5q111 0 171 55.5t76 178.5l75 615h248l-91 -750q-5 -43 -23 -276h-256l15 152q-9 -22 -29 -48.5t-54.5 -56.5t-89 -50t-117.5 -20zM294 1185l304 370h253
l218 -370h-233l-127 189l-188 -189h-227z" />
    <glyph glyph-name="udieresis" unicode="&#xfc;" horiz-adv-x="1186" 
d="M460 -23q-167 0 -258.5 87t-91.5 241q0 29 5 71l79 650h246l-79 -646q-3 -21 -3 -40q0 -82 47 -122.5t130 -40.5q111 0 171 55.5t76 178.5l75 615h248l-91 -750q-5 -43 -23 -276h-256l15 152q-9 -22 -29 -48.5t-54.5 -56.5t-89 -50t-117.5 -20zM779 1151l29 225h246
l-29 -225h-246zM321 1151l29 225h247l-29 -225h-247z" />
    <glyph glyph-name="yacute" unicode="&#xfd;" horiz-adv-x="1114" 
d="M164 -445l-85 168q147 55 224 112t110 138l20 50l-313 1003h258l207 -736l346 736h253l-549 -1082q-152 -293 -471 -389zM590 1166l299 290h319l-390 -290h-228z" />
    <glyph glyph-name="thorn" unicode="&#xfe;" horiz-adv-x="1229" 
d="M871 598q0 114 -48.5 182.5t-157.5 68.5q-68 0 -122 -28.5t-89 -79.5t-56 -112.5t-30 -134.5q-4 -31 -4 -67q0 -114 53.5 -182t156.5 -68q94 0 163 60.5t101.5 154t32.5 206.5zM27 -395l227 1859h238l-66 -516q47 45 133.5 74t149.5 29q205 0 314 -123.5t109 -316.5
q0 -50 -5 -86q-13 -109 -56 -206.5t-111 -174.5t-167.5 -122t-216.5 -45q-72 0 -141 24t-121 61l-57 -457h-230z" />
    <glyph glyph-name="ydieresis" unicode="&#xff;" horiz-adv-x="1114" 
d="M164 -445l-85 168q147 55 224 112t110 138l20 50l-313 1003h258l207 -736l346 736h253l-549 -1082q-152 -293 -471 -389zM797 1151l29 225h246l-29 -225h-246zM339 1151l29 225h247l-29 -225h-247z" />
    <glyph glyph-name="Amacron" unicode="&#x100;" horiz-adv-x="1458" 
d="M490 1576l19 157h625l-19 -157h-625zM507 592h390q-44 207 -124 567q-109 -236 -266 -567zM-77 0l763 1456h258l412 -1456h-287l-98 355h-588l-181 -355h-279z" />
    <glyph glyph-name="amacron" unicode="&#x101;" horiz-adv-x="1291" 
d="M425 1146l19 157h625l-19 -157h-625zM924 589q0 124 -60 193t-183 69q-152 0 -241.5 -112t-89.5 -292q0 -126 62.5 -198t188.5 -72q108 0 182.5 56.5t107.5 147t33 208.5zM547 -23q-113 0 -200 36.5t-139.5 99.5t-79 141.5t-26.5 168.5q0 36 5 79q13 107 56.5 203.5
t114.5 175t178 125t235 46.5q187 0 270 -136l13 110h243l-126 -1026h-249l17 140q-132 -163 -312 -163z" />
    <glyph glyph-name="Abreve" unicode="&#x102;" horiz-adv-x="1458" 
d="M842 1590q-287 0 -287 267q0 19 1 29h174v-11q0 -66 36.5 -88.5t97.5 -22.5q63 0 104 24.5t57 97.5h172q-29 -154 -118.5 -225t-236.5 -71zM507 592h390q-44 207 -124 567q-109 -236 -266 -567zM-77 0l763 1456h258l412 -1456h-287l-98 355h-588l-181 -355h-279z" />
    <glyph glyph-name="abreve" unicode="&#x103;" horiz-adv-x="1291" 
d="M777 1160q-287 0 -287 267q0 19 1 29h174v-11q0 -66 36.5 -88.5t97.5 -22.5q63 0 104 24.5t57 97.5h172q-29 -154 -118.5 -225t-236.5 -71zM924 589q0 124 -60 193t-183 69q-152 0 -241.5 -112t-89.5 -292q0 -126 62.5 -198t188.5 -72q108 0 182.5 56.5t107.5 147
t33 208.5zM547 -23q-113 0 -200 36.5t-139.5 99.5t-79 141.5t-26.5 168.5q0 36 5 79q13 107 56.5 203.5t114.5 175t178 125t235 46.5q187 0 270 -136l13 110h243l-126 -1026h-249l17 140q-132 -163 -312 -163z" />
    <glyph glyph-name="Aogonek" unicode="&#x104;" horiz-adv-x="1458" 
d="M1111 -164q0 -40 57 -40q52 0 179 37l-18 -148q-141 -41 -259 -41q-92 0 -145 28t-53 85q0 29 9 55.5t22.5 47t36 41t40.5 34t46.5 29t44.5 23t42.5 19.5t33.5 15l135 2q-76 -40 -123.5 -92.5t-47.5 -94.5zM507 592h390q-44 207 -124 567q-109 -236 -266 -567zM-77 0
l763 1456h258l412 -1456h-287l-98 355h-588l-181 -355h-279z" />
    <glyph glyph-name="aogonek" unicode="&#x105;" horiz-adv-x="1291" 
d="M879 -164q0 -40 57 -40q52 0 179 37l-18 -148q-141 -41 -259 -41q-92 0 -145 28t-53 85q0 29 9 55.5t22.5 47t36 41t40.5 34t46.5 29t44.5 23t42.5 19.5t33.5 15l135 2q-76 -40 -123.5 -92.5t-47.5 -94.5zM924 589q0 124 -60 193t-183 69q-152 0 -241.5 -112t-89.5 -292
q0 -126 62.5 -198t188.5 -72q108 0 182.5 56.5t107.5 147t33 208.5zM547 -23q-113 0 -200 36.5t-139.5 99.5t-79 141.5t-26.5 168.5q0 36 5 79q13 107 56.5 203.5t114.5 175t178 125t235 46.5q187 0 270 -136l13 110h243l-126 -1026h-249l17 140q-132 -163 -312 -163z" />
    <glyph glyph-name="Cacute" unicode="&#x106;" horiz-adv-x="1436" 
d="M822 1596l299 290h319l-390 -290h-228zM367 642q0 -205 116 -325t303 -120q220 0 420 147l61 -201q-233 -165 -524 -165q-132 0 -248 42t-205 120t-140.5 200t-51.5 272q0 59 7 115q18 148 74 273.5t135.5 213t178.5 149.5t203.5 91t210.5 29q286 0 467 -157l-120 -177
q-153 115 -352 115q-100 0 -195.5 -44.5t-171 -122.5t-122 -197.5t-46.5 -257.5z" />
    <glyph glyph-name="cacute" unicode="&#x107;" horiz-adv-x="1071" 
d="M362 455q0 -127 71 -202.5t200 -75.5t261 92q6 3 8 5l53 -182q-92 -60 -181.5 -87.5t-195.5 -27.5q-114 0 -205.5 37t-149.5 100.5t-89 146t-31 177.5q0 33 5 76q14 114 63 212t125 170.5t182 114t229 41.5q240 0 354 -138l-107 -160q-100 98 -245 98q-158 0 -252.5 -110
t-94.5 -287zM616 1166l299 290h319l-390 -290h-228z" />
    <glyph glyph-name="Ccircumflex" unicode="&#x108;" horiz-adv-x="1436" 
d="M545 1615l304 370h253l218 -370h-233l-127 189l-188 -189h-227zM367 642q0 -205 116 -325t303 -120q220 0 420 147l61 -201q-233 -165 -524 -165q-132 0 -248 42t-205 120t-140.5 200t-51.5 272q0 59 7 115q18 148 74 273.5t135.5 213t178.5 149.5t203.5 91t210.5 29
q286 0 467 -157l-120 -177q-153 115 -352 115q-100 0 -195.5 -44.5t-171 -122.5t-122 -197.5t-46.5 -257.5z" />
    <glyph glyph-name="ccircumflex" unicode="&#x109;" horiz-adv-x="1071" 
d="M338 1185l304 370h253l218 -370h-233l-127 189l-188 -189h-227zM362 455q0 -127 71 -202.5t200 -75.5t261 92q6 3 8 5l53 -182q-92 -60 -181.5 -87.5t-195.5 -27.5q-114 0 -205.5 37t-149.5 100.5t-89 146t-31 177.5q0 33 5 76q14 114 63 212t125 170.5t182 114t229 41.5
q240 0 354 -138l-107 -160q-100 98 -245 98q-158 0 -252.5 -110t-94.5 -287z" />
    <glyph glyph-name="Cdotaccent" unicode="&#x10a;" horiz-adv-x="1436" 
d="M818 1596l27 228h246l-27 -228h-246zM367 642q0 -205 116 -325t303 -120q220 0 420 147l61 -201q-233 -165 -524 -165q-132 0 -248 42t-205 120t-140.5 200t-51.5 272q0 59 7 115q18 148 74 273.5t135.5 213t178.5 149.5t203.5 91t210.5 29q286 0 467 -157l-120 -177
q-153 115 -352 115q-100 0 -195.5 -44.5t-171 -122.5t-122 -197.5t-46.5 -257.5z" />
    <glyph glyph-name="cdotaccent" unicode="&#x10b;" horiz-adv-x="1071" 
d="M612 1166l27 228h246l-27 -228h-246zM362 455q0 -127 71 -202.5t200 -75.5t261 92q6 3 8 5l53 -182q-92 -60 -181.5 -87.5t-195.5 -27.5q-114 0 -205.5 37t-149.5 100.5t-89 146t-31 177.5q0 33 5 76q14 114 63 212t125 170.5t182 114t229 41.5q240 0 354 -138l-107 -160
q-100 98 -245 98q-158 0 -252.5 -110t-94.5 -287z" />
    <glyph glyph-name="Ccaron" unicode="&#x10c;" horiz-adv-x="1436" 
d="M817 1615l-235 367h254l102 -145l140 145h266l-325 -367h-202zM367 642q0 -205 116 -325t303 -120q220 0 420 147l61 -201q-233 -165 -524 -165q-132 0 -248 42t-205 120t-140.5 200t-51.5 272q0 59 7 115q18 148 74 273.5t135.5 213t178.5 149.5t203.5 91t210.5 29
q286 0 467 -157l-120 -177q-153 115 -352 115q-100 0 -195.5 -44.5t-171 -122.5t-122 -197.5t-46.5 -257.5z" />
    <glyph glyph-name="ccaron" unicode="&#x10d;" horiz-adv-x="1071" 
d="M611 1185l-235 367h254l102 -145l140 145h266l-325 -367h-202zM362 455q0 -127 71 -202.5t200 -75.5t261 92q6 3 8 5l53 -182q-92 -60 -181.5 -87.5t-195.5 -27.5q-114 0 -205.5 37t-149.5 100.5t-89 146t-31 177.5q0 33 5 76q14 114 63 212t125 170.5t182 114t229 41.5
q240 0 354 -138l-107 -160q-100 98 -245 98q-158 0 -252.5 -110t-94.5 -287z" />
    <glyph glyph-name="Dcaron" unicode="&#x10e;" horiz-adv-x="1571" 
d="M729 1615l-235 367h254l102 -145l140 145h266l-325 -367h-202zM101 0l178 1456h406q397 0 593 -153.5t196 -443.5q0 -55 -8 -122q-45 -361 -279 -549t-639 -188h-447zM382 218h205q265 0 422.5 132t188.5 388q6 47 6 88q0 412 -522 412h-175z" />
    <glyph glyph-name="dcaron" unicode="&#x10f;" horiz-adv-x="1267" 
d="M864 584q0 121 -54.5 194t-167.5 73q-98 0 -168 -58t-102.5 -149.5t-32.5 -204.5q0 -117 53.5 -189.5t168.5 -72.5q75 0 134 34t95 91.5t55 129t19 152.5zM485 -23q-179 0 -293.5 120.5t-114.5 323.5q0 49 5 87q13 109 56 206t111 173t168.5 120.5t218.5 44.5
q106 0 175 -43.5t90 -90.5l66 539h247l-145 -1183q-2 -13 -25 -274h-254l15 131q-30 -54 -112.5 -104t-207.5 -50zM1277 951l176 505h279l-243 -505h-212z" />
    <glyph glyph-name="Dcroat" unicode="&#x110;" horiz-adv-x="1571" 
d="M7 646l23 190h632l-23 -190h-632zM101 0l178 1456h406q397 0 593 -153.5t196 -443.5q0 -55 -8 -122q-45 -361 -279 -549t-639 -188h-447zM382 218h205q265 0 422.5 132t188.5 388q6 47 6 88q0 412 -522 412h-175z" />
    <glyph glyph-name="dcroat" unicode="&#x111;" horiz-adv-x="1267" 
d="M705 1149l19 157h625l-19 -157h-625zM864 584q0 121 -54.5 194t-167.5 73q-98 0 -168 -58t-102.5 -149.5t-32.5 -204.5q0 -117 53.5 -189.5t168.5 -72.5q75 0 134 34t95 91.5t55 129t19 152.5zM485 -23q-179 0 -293.5 120.5t-114.5 323.5q0 49 5 87q13 109 56 206
t111 173t168.5 120.5t218.5 44.5q106 0 175 -43.5t90 -90.5l66 539h247l-145 -1183q-2 -13 -25 -274h-254l15 131q-30 -54 -112.5 -104t-207.5 -50z" />
    <glyph glyph-name="Emacron" unicode="&#x112;" horiz-adv-x="1249" 
d="M428 1576l19 157h625l-19 -157h-625zM101 0l178 1456h919l-26 -218h-665l-48 -389h629l-28 -219h-626l-50 -412h691l-26 -218h-948z" />
    <glyph glyph-name="emacron" unicode="&#x113;" horiz-adv-x="1195" 
d="M412 1146l19 157h625l-19 -157h-625zM388 636h509q-3 108 -58.5 166.5t-147.5 58.5q-107 0 -186.5 -60t-116.5 -165zM1084 471h-720q-1 -13 -1 -36q0 -131 75.5 -194.5t208.5 -63.5q167 0 338 110l45 -180q-105 -67 -207.5 -98.5t-222.5 -31.5q-236 0 -366.5 123.5
t-130.5 329.5q0 47 5 82q13 107 60.5 204.5t122.5 172.5t181 119t228 44q106 0 185.5 -32t126 -91t69 -134.5t22.5 -168.5q0 -118 -19 -155z" />
    <glyph glyph-name="Ebreve" unicode="&#x114;" horiz-adv-x="1249" 
d="M780 1590q-287 0 -287 267q0 19 1 29h174v-11q0 -66 36.5 -88.5t97.5 -22.5q63 0 104 24.5t57 97.5h172q-29 -154 -118.5 -225t-236.5 -71zM101 0l178 1456h919l-26 -218h-665l-48 -389h629l-28 -219h-626l-50 -412h691l-26 -218h-948z" />
    <glyph glyph-name="ebreve" unicode="&#x115;" horiz-adv-x="1195" 
d="M388 636h509q-3 108 -58.5 166.5t-147.5 58.5q-107 0 -186.5 -60t-116.5 -165zM1084 471h-720q-1 -13 -1 -36q0 -131 75.5 -194.5t208.5 -63.5q167 0 338 110l45 -180q-105 -67 -207.5 -98.5t-222.5 -31.5q-236 0 -366.5 123.5t-130.5 329.5q0 47 5 82q13 107 60.5 204.5
t122.5 172.5t181 119t228 44q106 0 185.5 -32t126 -91t69 -134.5t22.5 -168.5q0 -118 -19 -155zM764 1160q-287 0 -287 267q0 19 1 29h174v-11q0 -66 36.5 -88.5t97.5 -22.5q63 0 104 24.5t57 97.5h172q-29 -154 -118.5 -225t-236.5 -71z" />
    <glyph glyph-name="Edotaccent" unicode="&#x116;" horiz-adv-x="1249" 
d="M661 1596l27 228h246l-27 -228h-246zM101 0l178 1456h919l-26 -218h-665l-48 -389h629l-28 -219h-626l-50 -412h691l-26 -218h-948z" />
    <glyph glyph-name="edotaccent" unicode="&#x117;" horiz-adv-x="1195" 
d="M388 636h509q-3 108 -58.5 166.5t-147.5 58.5q-107 0 -186.5 -60t-116.5 -165zM1084 471h-720q-1 -13 -1 -36q0 -131 75.5 -194.5t208.5 -63.5q167 0 338 110l45 -180q-105 -67 -207.5 -98.5t-222.5 -31.5q-236 0 -366.5 123.5t-130.5 329.5q0 47 5 82q13 107 60.5 204.5
t122.5 172.5t181 119t228 44q106 0 185.5 -32t126 -91t69 -134.5t22.5 -168.5q0 -118 -19 -155zM644 1166l27 228h246l-27 -228h-246z" />
    <glyph glyph-name="Eogonek" unicode="&#x118;" horiz-adv-x="1249" 
d="M636 -164q0 -40 57 -40q52 0 179 37l-18 -148q-141 -41 -259 -41q-92 0 -145 28t-53 85q0 29 9 55.5t22.5 47t36 41t40.5 34t46.5 29t44.5 23t42.5 19.5t33.5 15l135 2q-76 -40 -123.5 -92.5t-47.5 -94.5zM101 0l178 1456h919l-26 -218h-665l-48 -389h629l-28 -219h-626
l-50 -412h691l-26 -218h-948z" />
    <glyph glyph-name="eogonek" unicode="&#x119;" horiz-adv-x="1195" 
d="M699 -164q0 -40 57 -40q52 0 179 37l-18 -148q-141 -41 -259 -41q-92 0 -145 28t-53 85q0 29 9 55.5t22.5 47t36 41t40.5 34t46.5 29t44.5 23t42.5 19.5t33.5 15l135 2q-76 -40 -123.5 -92.5t-47.5 -94.5zM388 636h509q-3 108 -58.5 166.5t-147.5 58.5q-107 0 -186.5 -60
t-116.5 -165zM1084 471h-720q-1 -13 -1 -36q0 -131 75.5 -194.5t208.5 -63.5q167 0 338 110l45 -180q-105 -67 -207.5 -98.5t-222.5 -31.5q-236 0 -366.5 123.5t-130.5 329.5q0 47 5 82q13 107 60.5 204.5t122.5 172.5t181 119t228 44q106 0 185.5 -32t126 -91t69 -134.5
t22.5 -168.5q0 -118 -19 -155z" />
    <glyph glyph-name="Ecaron" unicode="&#x11a;" horiz-adv-x="1249" 
d="M660 1615l-235 367h254l102 -145l140 145h266l-325 -367h-202zM101 0l178 1456h919l-26 -218h-665l-48 -389h629l-28 -219h-626l-50 -412h691l-26 -218h-948z" />
    <glyph glyph-name="ecaron" unicode="&#x11b;" horiz-adv-x="1195" 
d="M388 636h509q-3 108 -58.5 166.5t-147.5 58.5q-107 0 -186.5 -60t-116.5 -165zM1084 471h-720q-1 -13 -1 -36q0 -131 75.5 -194.5t208.5 -63.5q167 0 338 110l45 -180q-105 -67 -207.5 -98.5t-222.5 -31.5q-236 0 -366.5 123.5t-130.5 329.5q0 47 5 82q13 107 60.5 204.5
t122.5 172.5t181 119t228 44q106 0 185.5 -32t126 -91t69 -134.5t22.5 -168.5q0 -118 -19 -155zM643 1185l-235 367h254l102 -145l140 145h266l-325 -367h-202z" />
    <glyph glyph-name="Gcircumflex" unicode="&#x11c;" horiz-adv-x="1538" 
d="M555 1615l304 370h253l218 -370h-233l-127 189l-188 -189h-227zM759 -23q-324 0 -494.5 161t-170.5 442q0 55 8 124q19 158 87.5 297.5t176.5 247.5t264.5 171t338.5 63q103 0 186 -14.5t139.5 -41.5t83.5 -44.5t59 -44.5l-124 -178q-132 104 -369 104q-102 0 -191 -31
t-154 -84t-114 -123.5t-78 -149t-39 -161.5q-6 -48 -6 -94q0 -197 110 -312t325 -115q121 0 254 38l43 344h-340l25 217h598l-86 -705q-263 -111 -532 -111z" />
    <glyph glyph-name="gcircumflex" unicode="&#x11d;" horiz-adv-x="1235" 
d="M387 439q0 -120 54.5 -186t168.5 -66q59 0 106.5 19.5t79 51t55 75.5t35.5 88.5t18 94.5q5 43 5 76q0 119 -52.5 189t-160.5 70q-97 0 -168.5 -59t-106 -151t-34.5 -202zM488 -418q-199 0 -382 70l69 214q142 -78 321 -78q144 0 232 61t104 186l10 87
q-106 -122 -271 -122q-206 0 -325 116t-119 316q0 35 5 83q13 108 54 202.5t107 170.5t166 120t221 44q95 0 161.5 -38t98.5 -98l14 110h263q-39 -152 -63 -344l-65 -535q-10 -83 -29 -153t-62.5 -149.5t-106 -134.5t-166.5 -91.5t-237 -36.5zM335 1185l304 370h253
l218 -370h-233l-127 189l-188 -189h-227z" />
    <glyph glyph-name="Gbreve" unicode="&#x11e;" horiz-adv-x="1538" 
d="M948 1590q-287 0 -287 267q0 19 1 29h174v-11q0 -66 36.5 -88.5t97.5 -22.5q63 0 104 24.5t57 97.5h172q-29 -154 -118.5 -225t-236.5 -71zM759 -23q-324 0 -494.5 161t-170.5 442q0 55 8 124q19 158 87.5 297.5t176.5 247.5t264.5 171t338.5 63q103 0 186 -14.5
t139.5 -41.5t83.5 -44.5t59 -44.5l-124 -178q-132 104 -369 104q-102 0 -191 -31t-154 -84t-114 -123.5t-78 -149t-39 -161.5q-6 -48 -6 -94q0 -197 110 -312t325 -115q121 0 254 38l43 344h-340l25 217h598l-86 -705q-263 -111 -532 -111z" />
    <glyph glyph-name="gbreve" unicode="&#x11f;" horiz-adv-x="1235" 
d="M387 439q0 -120 54.5 -186t168.5 -66q59 0 106.5 19.5t79 51t55 75.5t35.5 88.5t18 94.5q5 43 5 76q0 119 -52.5 189t-160.5 70q-97 0 -168.5 -59t-106 -151t-34.5 -202zM488 -418q-199 0 -382 70l69 214q142 -78 321 -78q144 0 232 61t104 186l10 87
q-106 -122 -271 -122q-206 0 -325 116t-119 316q0 35 5 83q13 108 54 202.5t107 170.5t166 120t221 44q95 0 161.5 -38t98.5 -98l14 110h263q-39 -152 -63 -344l-65 -535q-10 -83 -29 -153t-62.5 -149.5t-106 -134.5t-166.5 -91.5t-237 -36.5zM728 1160q-287 0 -287 267
q0 19 1 29h174v-11q0 -66 36.5 -88.5t97.5 -22.5q63 0 104 24.5t57 97.5h172q-29 -154 -118.5 -225t-236.5 -71z" />
    <glyph glyph-name="Gdotaccent" unicode="&#x120;" horiz-adv-x="1538" 
d="M828 1596l27 228h246l-27 -228h-246zM759 -23q-324 0 -494.5 161t-170.5 442q0 55 8 124q19 158 87.5 297.5t176.5 247.5t264.5 171t338.5 63q103 0 186 -14.5t139.5 -41.5t83.5 -44.5t59 -44.5l-124 -178q-132 104 -369 104q-102 0 -191 -31t-154 -84t-114 -123.5
t-78 -149t-39 -161.5q-6 -48 -6 -94q0 -197 110 -312t325 -115q121 0 254 38l43 344h-340l25 217h598l-86 -705q-263 -111 -532 -111z" />
    <glyph glyph-name="gdotaccent" unicode="&#x121;" horiz-adv-x="1235" 
d="M387 439q0 -120 54.5 -186t168.5 -66q59 0 106.5 19.5t79 51t55 75.5t35.5 88.5t18 94.5q5 43 5 76q0 119 -52.5 189t-160.5 70q-97 0 -168.5 -59t-106 -151t-34.5 -202zM488 -418q-199 0 -382 70l69 214q142 -78 321 -78q144 0 232 61t104 186l10 87
q-106 -122 -271 -122q-206 0 -325 116t-119 316q0 35 5 83q13 108 54 202.5t107 170.5t166 120t221 44q95 0 161.5 -38t98.5 -98l14 110h263q-39 -152 -63 -344l-65 -535q-10 -83 -29 -153t-62.5 -149.5t-106 -134.5t-166.5 -91.5t-237 -36.5zM609 1166l27 228h246l-27 -228
h-246z" />
    <glyph glyph-name="Gcommaaccent" unicode="&#x122;" horiz-adv-x="1538" 
d="M458 -647l176 505h280l-244 -505h-212zM759 -23q-324 0 -494.5 161t-170.5 442q0 55 8 124q19 158 87.5 297.5t176.5 247.5t264.5 171t338.5 63q103 0 186 -14.5t139.5 -41.5t83.5 -44.5t59 -44.5l-124 -178q-132 104 -369 104q-102 0 -191 -31t-154 -84t-114 -123.5
t-78 -149t-39 -161.5q-6 -48 -6 -94q0 -197 110 -312t325 -115q121 0 254 38l43 344h-340l25 217h598l-86 -705q-263 -111 -532 -111z" />
    <glyph glyph-name="gcommaaccent" unicode="&#x123;" horiz-adv-x="1235" 
d="M1096 1736l-174 -497h-278l242 497h210zM387 439q0 -120 54.5 -186t168.5 -66q59 0 106.5 19.5t79 51t55 75.5t35.5 88.5t18 94.5q5 43 5 76q0 119 -52.5 189t-160.5 70q-97 0 -168.5 -59t-106 -151t-34.5 -202zM488 -418q-199 0 -382 70l69 214q142 -78 321 -78
q144 0 232 61t104 186l10 87q-106 -122 -271 -122q-206 0 -325 116t-119 316q0 35 5 83q13 108 54 202.5t107 170.5t166 120t221 44q95 0 161.5 -38t98.5 -98l14 110h263q-39 -152 -63 -344l-65 -535q-10 -83 -29 -153t-62.5 -149.5t-106 -134.5t-166.5 -91.5t-237 -36.5z
" />
    <glyph glyph-name="Hcircumflex" unicode="&#x124;" horiz-adv-x="1572" 
d="M489 1615l304 370h253l218 -370h-233l-127 189l-188 -189h-227zM101 0l178 1456h254l-73 -599h683l73 599h254l-178 -1456h-249l79 637h-683l-79 -637h-259z" />
    <glyph glyph-name="hcircumflex" unicode="&#x125;" horiz-adv-x="1219" 
d="M54 0l180 1457h248l-70 -564q47 71 145 115t181 44q81 0 142.5 -22t98 -56.5t59.5 -84t31 -98.5t8 -105q0 -59 -8 -115l-70 -571h-248l72 579q6 48 6 86q0 98 -38 142t-114 44q-102 0 -194.5 -70.5t-104.5 -162.5l-76 -618h-248zM456 1185l304 370h253l218 -370h-233
l-127 189l-188 -189h-227z" />
    <glyph glyph-name="Hbar" unicode="&#x126;" horiz-adv-x="1572" 
d="M136 1062l18 151h1365l-18 -151h-1365zM101 0l178 1456h254l-73 -599h683l73 599h254l-178 -1456h-249l79 637h-683l-79 -637h-259z" />
    <glyph glyph-name="hbar" unicode="&#x127;" horiz-adv-x="1219" 
d="M28 1149l19 157h625l-19 -157h-625zM54 0l180 1457h248l-70 -564q47 71 145 115t181 44q81 0 142.5 -22t98 -56.5t59.5 -84t31 -98.5t8 -105q0 -59 -8 -115l-70 -571h-248l72 579q6 48 6 86q0 98 -38 142t-114 44q-102 0 -194.5 -70.5t-104.5 -162.5l-76 -618h-248z" />
    <glyph glyph-name="Itilde" unicode="&#x128;" horiz-adv-x="586" 
d="M476 1792q30 0 49.5 22.5t26.5 85.5h163q-19 -149 -88.5 -222.5t-175.5 -73.5q-41 0 -97 27t-105 53.5t-73 26.5q-22 0 -45 -25t-34 -77h-160q15 128 86 209.5t168 81.5q55 0 110.5 -27t100.5 -54t74 -27zM71 0l178 1456h254l-178 -1456h-254z" />
    <glyph glyph-name="itilde" unicode="&#x129;" horiz-adv-x="485" 
d="M391 1362q30 0 49.5 22.5t26.5 85.5h163q-19 -149 -88.5 -222.5t-175.5 -73.5q-41 0 -97 27t-105 53.5t-73 26.5q-22 0 -45 -25t-34 -77h-160q15 128 86 209.5t168 81.5q55 0 110.5 -27t100.5 -54t74 -27zM40 0l126 1026h249l-126 -1026h-249z" />
    <glyph glyph-name="Imacron" unicode="&#x12a;" horiz-adv-x="586" 
d="M45 1576l19 157h625l-19 -157h-625zM71 0l178 1456h254l-178 -1456h-254z" />
    <glyph glyph-name="imacron" unicode="&#x12b;" horiz-adv-x="485" 
d="M-40 1146l19 157h625l-19 -157h-625zM40 0l126 1026h249l-126 -1026h-249z" />
    <glyph glyph-name="Ibreve" unicode="&#x12c;" horiz-adv-x="586" 
d="M397 1590q-287 0 -287 267q0 19 1 29h174v-11q0 -66 36.5 -88.5t97.5 -22.5q63 0 104 24.5t57 97.5h172q-29 -154 -118.5 -225t-236.5 -71zM71 0l178 1456h254l-178 -1456h-254z" />
    <glyph glyph-name="ibreve" unicode="&#x12d;" horiz-adv-x="485" 
d="M40 0l126 1026h249l-126 -1026h-249zM312 1160q-287 0 -287 267q0 19 1 29h174v-11q0 -66 36.5 -88.5t97.5 -22.5q63 0 104 24.5t57 97.5h172q-29 -154 -118.5 -225t-236.5 -71z" />
    <glyph glyph-name="Iogonek" unicode="&#x12e;" horiz-adv-x="586" 
d="M143 -164q0 -40 57 -40q52 0 179 37l-18 -148q-141 -41 -259 -41q-92 0 -145 28t-53 85q0 29 9 55.5t22.5 47t36 41t40.5 34t46.5 29t44.5 23t42.5 19.5t33.5 15l135 2q-76 -40 -123.5 -92.5t-47.5 -94.5zM71 0l178 1456h254l-178 -1456h-254z" />
    <glyph glyph-name="iogonek" unicode="&#x12f;" horiz-adv-x="485" 
d="M134 -164q0 -40 57 -40q52 0 179 37l-18 -148q-141 -41 -259 -41q-92 0 -145 28t-53 85q0 29 9 55.5t22.5 47t36 41t40.5 34t46.5 29t44.5 23t42.5 19.5t33.5 15l135 2q-76 -40 -123.5 -92.5t-47.5 -94.5zM40 0l126 1026h249l-126 -1026h-249zM193 1166l27 228h246
l-27 -228h-246z" />
    <glyph glyph-name="Idotaccent" unicode="&#x130;" horiz-adv-x="586" 
d="M278 1596l27 228h246l-27 -228h-246zM71 0l178 1456h254l-178 -1456h-254z" />
    <glyph glyph-name="dotlessi" unicode="&#x131;" horiz-adv-x="485" 
d="M40 0l126 1026h249l-126 -1026h-249z" />
    <glyph glyph-name="IJ" unicode="&#x132;" horiz-adv-x="1605" 
d="M893 -331q-141 0 -313 64l69 193q133 -44 224 -44q206 0 234 228l165 1346h254l-164 -1334q-27 -218 -150.5 -335.5t-318.5 -117.5zM71 0l178 1456h254l-178 -1456h-254z" />
    <glyph glyph-name="ij" unicode="&#x133;" horiz-adv-x="1124" 
d="M849 1228l28 228h246l-28 -228h-246zM540 -362q-50 0 -96 6.5t-67.5 12.5t-21.5 8h3l48 170q61 -19 140 -19q48 0 75.5 12.5t49 58t32.5 133.5l124 1006h239l-127 -1035q-11 -92 -32.5 -152.5t-65.5 -108.5t-118 -70t-183 -22zM406 -165v1h-3zM263 1238l26 218h240
l-26 -218h-240zM112 0l126 1026h239l-126 -1026h-239z" />
    <glyph glyph-name="Jcircumflex" unicode="&#x134;" horiz-adv-x="1019" 
d="M444 1615l304 370h253l218 -370h-233l-127 189l-188 -189h-227zM307 -331q-141 0 -313 64l69 193q133 -44 224 -44q206 0 234 228l165 1346h254l-164 -1334q-27 -218 -150.5 -335.5t-318.5 -117.5z" />
    <glyph glyph-name="jcircumflex" unicode="&#x135;" horiz-adv-x="600" 
d="M16 -362q-50 0 -96 6.5t-67.5 12.5t-21.5 8h3l48 170q61 -19 140 -19q48 0 75.5 12.5t49 58t32.5 133.5l124 1006h239l-127 -1035q-11 -92 -32.5 -152.5t-65.5 -108.5t-118 -70t-183 -22zM-118 -165v1h-3zM52 1185l304 370h253l218 -370h-233l-127 189l-188 -189h-227z
" />
    <glyph glyph-name="Kcommaaccent" unicode="&#x136;" horiz-adv-x="1352" 
d="M355 -647l176 505h280l-244 -505h-212zM101 0l178 1456h254l-77 -636l638 636h317l-717 -703l588 -753h-330l-514 651l-80 -651h-257z" />
    <glyph glyph-name="kcommaaccent" unicode="&#x137;" horiz-adv-x="1076" 
d="M173 -647l176 505h280l-244 -505h-212zM50 0l180 1457h248l-106 -850l424 419h342l-549 -496l455 -530h-329l-361 444l-56 -444h-248z" />
    <glyph glyph-name="kgreenlandic" unicode="&#x138;" horiz-adv-x="1082" 
d="M82 0l126 1026h247l-48 -394l403 394h342l-579 -521q179 -186 224 -235q20 -21 263 -270h-333l-351 383l-47 -383h-247z" />
    <glyph glyph-name="Lacute" unicode="&#x139;" horiz-adv-x="1173" 
d="M380 1596l299 290h319l-390 -290h-228zM101 0l178 1456h254l-151 -1238h673l-26 -218h-928z" />
    <glyph glyph-name="lacute" unicode="&#x13a;" horiz-adv-x="572" 
d="M111 0l179 1457h246l-180 -1457h-245zM329 1596l299 290h319l-390 -290h-228z" />
    <glyph glyph-name="Lcommaaccent" unicode="&#x13b;" horiz-adv-x="1173" 
d="M229 -647l176 505h280l-244 -505h-212zM101 0l178 1456h254l-151 -1238h673l-26 -218h-928z" />
    <glyph glyph-name="lcommaaccent" unicode="&#x13c;" horiz-adv-x="572" 
d="M-84 -647l176 505h280l-244 -505h-212zM111 0l179 1457h246l-180 -1457h-245z" />
    <glyph glyph-name="Lcaron" unicode="&#x13d;" horiz-adv-x="1173" 
d="M639 951l176 505h279l-243 -505h-212zM101 0l178 1456h254l-151 -1238h673l-26 -218h-928z" />
    <glyph glyph-name="lcaron" unicode="&#x13e;" horiz-adv-x="572" 
d="M111 0l179 1457h246l-180 -1457h-245zM559 951l176 505h279l-243 -505h-212z" />
    <glyph glyph-name="Ldot" unicode="&#x13f;" horiz-adv-x="1173" 
d="M590 643l35 282h303l-34 -282h-304zM101 0l178 1456h254l-151 -1238h673l-26 -218h-928z" />
    <glyph glyph-name="ldot" unicode="&#x140;" horiz-adv-x="572" 
d="M534 637l35 282h303l-34 -282h-304zM111 0l179 1457h246l-180 -1457h-245z" />
    <glyph glyph-name="Lslash" unicode="&#x141;" horiz-adv-x="1166" 
d="M-2 421l28 225l631 450l-28 -225zM101 0l178 1456h254l-151 -1238h673l-26 -218h-928z" />
    <glyph glyph-name="lslash" unicode="&#x142;" horiz-adv-x="503" 
d="M28 0l90 727l-124 -100l28 218l121 100l63 513h249l-40 -328l113 96l-27 -223l-113 -99l-111 -904h-249z" />
    <glyph glyph-name="Nacute" unicode="&#x143;" horiz-adv-x="1630" 
d="M833 1596l299 290h319l-390 -290h-228zM101 0l178 1456h269q70 -124 191.5 -339t224 -395.5t193.5 -337.5l130 1072h242l-178 -1456h-270q-57 100 -276 483.5t-338 590.5l-131 -1074h-235z" />
    <glyph glyph-name="nacute" unicode="&#x144;" horiz-adv-x="1224" 
d="M93 0l79 635q27 220 27 379v12h263l-17 -137q63 80 157 121.5t177 41.5q160 0 245.5 -80.5t85.5 -268.5q0 -49 -8 -118l-73 -585h-248l74 602q5 36 5 79q0 91 -37.5 130.5t-119.5 39.5q-36 0 -81 -16t-89 -44.5t-76.5 -75t-38.5 -101.5l-77 -614h-248zM635 1166l299 290
h319l-390 -290h-228z" />
    <glyph glyph-name="Ncommaaccent" unicode="&#x145;" horiz-adv-x="1630" 
d="M441 -647l176 505h280l-244 -505h-212zM101 0l178 1456h269q70 -124 191.5 -339t224 -395.5t193.5 -337.5l130 1072h242l-178 -1456h-270q-57 100 -276 483.5t-338 590.5l-131 -1074h-235z" />
    <glyph glyph-name="ncommaaccent" unicode="&#x146;" horiz-adv-x="1224" 
d="M239 -647l176 505h280l-244 -505h-212zM93 0l79 635q27 220 27 379v12h263l-17 -137q63 80 157 121.5t177 41.5q160 0 245.5 -80.5t85.5 -268.5q0 -49 -8 -118l-73 -585h-248l74 602q5 36 5 79q0 91 -37.5 130.5t-119.5 39.5q-36 0 -81 -16t-89 -44.5t-76.5 -75
t-38.5 -101.5l-77 -614h-248z" />
    <glyph glyph-name="Ncaron" unicode="&#x147;" horiz-adv-x="1630" 
d="M828 1615l-235 367h254l102 -145l140 145h266l-325 -367h-202zM101 0l178 1456h269q70 -124 191.5 -339t224 -395.5t193.5 -337.5l130 1072h242l-178 -1456h-270q-57 100 -276 483.5t-338 590.5l-131 -1074h-235z" />
    <glyph glyph-name="ncaron" unicode="&#x148;" horiz-adv-x="1224" 
d="M93 0l79 635q27 220 27 379v12h263l-17 -137q63 80 157 121.5t177 41.5q160 0 245.5 -80.5t85.5 -268.5q0 -49 -8 -118l-73 -585h-248l74 602q5 36 5 79q0 91 -37.5 130.5t-119.5 39.5q-36 0 -81 -16t-89 -44.5t-76.5 -75t-38.5 -101.5l-77 -614h-248zM630 1185l-235 367
h254l102 -145l140 145h266l-325 -367h-202z" />
    <glyph glyph-name="napostrophe" unicode="&#x149;" horiz-adv-x="1221" 
d="M93 0l79 635q27 220 27 379v12h263l-17 -137q63 80 157 121.5t177 41.5q160 0 245.5 -80.5t85.5 -268.5q0 -49 -8 -118l-73 -585h-248l74 602q5 36 5 79q0 91 -37.5 130.5t-119.5 39.5q-36 0 -81 -16t-89 -44.5t-76.5 -75t-38.5 -101.5l-77 -614h-248zM28 1227l170 590
h280l-268 -590h-182z" />
    <glyph glyph-name="Eng" unicode="&#x14a;" horiz-adv-x="1622" 
d="M1547 1456l-179 -1455q-60 -475 -599 -475l13 195q56 0 96 4t85.5 18t75.5 39t53 70t31 107l17 139l-528 849l-108 191l-139 -1138h-233l180 1456h267q24 -39 257 -420t347 -586l124 1006h240z" />
    <glyph glyph-name="eng" unicode="&#x14b;" horiz-adv-x="1191" 
d="M436 -396l23 199q59 0 109.5 11.5t97 38t77 77t38.5 120.5l69 552q6 51 6 91q0 86 -33 122.5t-112 36.5q-49 0 -106.5 -26t-107 -83t-58.5 -129l-75 -614h-248l79 635q27 232 27 385v6h262l-18 -148q50 82 143.5 128t175.5 46q157 0 238 -77.5t81 -260.5q0 -58 -9 -129
l-58 -475q-31 -251 -192 -378.5t-409 -127.5z" />
    <glyph glyph-name="Omacron" unicode="&#x14c;" 
d="M596 1576l19 157h625l-19 -157h-625zM748 -23q-307 0 -478.5 169t-171.5 462q0 57 8 127q21 167 88.5 305t173.5 236t251.5 152.5t315.5 54.5q299 0 468.5 -168.5t169.5 -456.5q0 -56 -8 -123q-42 -348 -260 -553t-557 -205zM373 616q0 -205 99.5 -313.5t295.5 -108.5
q223 0 356 140.5t165 400.5q7 56 7 113q0 200 -99.5 309t-292.5 109q-246 0 -388.5 -176t-142.5 -474z" />
    <glyph glyph-name="omacron" unicode="&#x14d;" horiz-adv-x="1286" 
d="M582 -23q-121 0 -214 35.5t-150 97.5t-86 143t-29 176q0 49 5 84q13 111 59 207.5t121 171t184.5 117.5t240.5 43q236 0 353.5 -123.5t117.5 -324.5q0 -45 -6 -93q-13 -107 -58 -201.5t-117.5 -169.5t-181.5 -119t-239 -44zM925 586q0 119 -59.5 192t-179.5 73
q-102 0 -176.5 -55.5t-111 -145.5t-36.5 -202q0 -120 58.5 -195.5t180.5 -75.5q106 0 181 58.5t109 149t34 201.5zM378 1146l19 157h625l-19 -157h-625z" />
    <glyph glyph-name="Obreve" unicode="&#x14e;" 
d="M948 1590q-287 0 -287 267q0 19 1 29h174v-11q0 -66 36.5 -88.5t97.5 -22.5q63 0 104 24.5t57 97.5h172q-29 -154 -118.5 -225t-236.5 -71zM748 -23q-307 0 -478.5 169t-171.5 462q0 57 8 127q21 167 88.5 305t173.5 236t251.5 152.5t315.5 54.5q299 0 468.5 -168.5
t169.5 -456.5q0 -56 -8 -123q-42 -348 -260 -553t-557 -205zM373 616q0 -205 99.5 -313.5t295.5 -108.5q223 0 356 140.5t165 400.5q7 56 7 113q0 200 -99.5 309t-292.5 109q-246 0 -388.5 -176t-142.5 -474z" />
    <glyph glyph-name="obreve" unicode="&#x14f;" horiz-adv-x="1286" 
d="M582 -23q-121 0 -214 35.5t-150 97.5t-86 143t-29 176q0 49 5 84q13 111 59 207.5t121 171t184.5 117.5t240.5 43q236 0 353.5 -123.5t117.5 -324.5q0 -45 -6 -93q-13 -107 -58 -201.5t-117.5 -169.5t-181.5 -119t-239 -44zM925 586q0 119 -59.5 192t-179.5 73
q-102 0 -176.5 -55.5t-111 -145.5t-36.5 -202q0 -120 58.5 -195.5t180.5 -75.5q106 0 181 58.5t109 149t34 201.5zM730 1160q-287 0 -287 267q0 19 1 29h174v-11q0 -66 36.5 -88.5t97.5 -22.5q63 0 104 24.5t57 97.5h172q-29 -154 -118.5 -225t-236.5 -71z" />
    <glyph glyph-name="Ohungarumlaut" unicode="&#x150;" 
d="M1009 1542l273 344h305l-392 -344h-186zM701 1542l236 344h286l-343 -344h-179zM748 -23q-307 0 -478.5 169t-171.5 462q0 57 8 127q21 167 88.5 305t173.5 236t251.5 152.5t315.5 54.5q299 0 468.5 -168.5t169.5 -456.5q0 -56 -8 -123q-42 -348 -260 -553t-557 -205z
M373 616q0 -205 99.5 -313.5t295.5 -108.5q223 0 356 140.5t165 400.5q7 56 7 113q0 200 -99.5 309t-292.5 109q-246 0 -388.5 -176t-142.5 -474z" />
    <glyph glyph-name="ohungarumlaut" unicode="&#x151;" horiz-adv-x="1286" 
d="M582 -23q-121 0 -214 35.5t-150 97.5t-86 143t-29 176q0 49 5 84q13 111 59 207.5t121 171t184.5 117.5t240.5 43q236 0 353.5 -123.5t117.5 -324.5q0 -45 -6 -93q-13 -107 -58 -201.5t-117.5 -169.5t-181.5 -119t-239 -44zM925 586q0 119 -59.5 192t-179.5 73
q-102 0 -176.5 -55.5t-111 -145.5t-36.5 -202q0 -120 58.5 -195.5t180.5 -75.5q106 0 181 58.5t109 149t34 201.5zM791 1112l273 344h305l-392 -344h-186zM483 1112l236 344h286l-343 -344h-179z" />
    <glyph glyph-name="OE" unicode="&#x152;" horiz-adv-x="2057" 
d="M756 174q79 0 144.5 18.5t88 32.5t35.5 26l114 940q-87 77 -231 77q-28 0 -61 -3q-63 -7 -121 -27.5t-115.5 -62t-103 -101t-79.5 -149t-47 -200.5q-8 -67 -8 -120q0 -210 102.5 -320.5t281.5 -110.5zM885 1483q57 0 106.5 -8t78 -19t51.5 -24.5t31 -21t12 -12.5l7 58
h836l-27 -217h-582l-47 -385h546l-28 -218h-543l-51 -419h608l-27 -217h-864l8 63q-4 -3 -12 -8.5t-35 -20t-56.5 -26t-76 -21.5t-94.5 -11h-28q-128 0 -235.5 37.5t-190 111t-129 192.5t-46.5 273q0 163 42 306t116 249t173 183t216 116t241 39z" />
    <glyph glyph-name="oe" unicode="&#x153;" horiz-adv-x="2003" 
d="M1637 688q0 79 -60 124t-146 45q-98 0 -170 -54t-97 -162h469q0 6 2 22.5t2 24.5zM897 593q0 120 -54 189t-167 69q-143 0 -232 -116.5t-89 -290.5q0 -120 61.5 -193.5t183.5 -73.5q95 0 163.5 59.5t101 152t32.5 204.5zM574 -22q-225 0 -352 124t-127 329q0 35 5 80
q15 115 62.5 213.5t122.5 171.5t181.5 114.5t231.5 41.5q134 0 226 -49t140 -130q74 91 166.5 136.5t229.5 45.5q192 0 297 -119t105 -326q0 -58 -7 -111l-7 -66h-711l-1 -5v-12v-6v-15q0 -218 280 -218q48 0 100 11.5t91.5 27.5t72.5 32.5t50 27.5l18 12l44 -181
q-7 -5 -20.5 -14t-57.5 -31t-90.5 -39t-118 -31t-142.5 -14q-121 0 -230 50.5t-156 130.5q-58 -79 -172.5 -130t-230.5 -51z" />
    <glyph glyph-name="Racute" unicode="&#x154;" horiz-adv-x="1388" 
d="M657 1596l299 290h319l-390 -290h-228zM997 1087q0 87 -52.5 119t-170.5 32h-270l-51 -407h243q301 0 301 256zM101 0l178 1456h525q87 0 155 -9t128 -31.5t99 -59t61.5 -94t22.5 -133.5q0 -30 -5 -75q-8 -59 -31.5 -112t-64 -99.5t-102 -81.5t-138.5 -52
q122 -73 164 -228l139 -481h-275l-114 433q-28 107 -71.5 145t-140.5 38h-200l-76 -616h-254z" />
    <glyph glyph-name="racute" unicode="&#x155;" horiz-adv-x="780" 
d="M97 0l95 766q12 98 12 211l-1 49h264l-16 -135q72 80 137 120.5t141 40.5q45 0 100 -15l-28 -217q-63 22 -120 22q-103 0 -176 -67t-88 -194l-73 -581h-247zM406 1166l299 290h319l-390 -290h-228z" />
    <glyph glyph-name="Rcommaaccent" unicode="&#x156;" horiz-adv-x="1388" 
d="M319 -647l176 505h280l-244 -505h-212zM997 1087q0 87 -52.5 119t-170.5 32h-270l-51 -407h243q301 0 301 256zM101 0l178 1456h525q87 0 155 -9t128 -31.5t99 -59t61.5 -94t22.5 -133.5q0 -30 -5 -75q-8 -59 -31.5 -112t-64 -99.5t-102 -81.5t-138.5 -52
q122 -73 164 -228l139 -481h-275l-114 433q-28 107 -71.5 145t-140.5 38h-200l-76 -616h-254z" />
    <glyph glyph-name="rcommaaccent" unicode="&#x157;" horiz-adv-x="780" 
d="M-43 -647l176 505h280l-244 -505h-212zM97 0l95 766q12 98 12 211l-1 49h264l-16 -135q72 80 137 120.5t141 40.5q45 0 100 -15l-28 -217q-63 22 -120 22q-103 0 -176 -67t-88 -194l-73 -581h-247z" />
    <glyph glyph-name="Rcaron" unicode="&#x158;" horiz-adv-x="1388" 
d="M652 1615l-235 367h254l102 -145l140 145h266l-325 -367h-202zM997 1087q0 87 -52.5 119t-170.5 32h-270l-51 -407h243q301 0 301 256zM101 0l178 1456h525q87 0 155 -9t128 -31.5t99 -59t61.5 -94t22.5 -133.5q0 -30 -5 -75q-8 -59 -31.5 -112t-64 -99.5t-102 -81.5
t-138.5 -52q122 -73 164 -228l139 -481h-275l-114 433q-28 107 -71.5 145t-140.5 38h-200l-76 -616h-254z" />
    <glyph glyph-name="rcaron" unicode="&#x159;" horiz-adv-x="780" 
d="M97 0l95 766q12 98 12 211l-1 49h264l-16 -135q72 80 137 120.5t141 40.5q45 0 100 -15l-28 -217q-63 22 -120 22q-103 0 -176 -67t-88 -194l-73 -581h-247zM401 1185l-235 367h254l102 -145l140 145h266l-325 -367h-202z" />
    <glyph glyph-name="Sacute" unicode="&#x15a;" horiz-adv-x="1256" 
d="M604 1596l299 290h319l-390 -290h-228zM833 439q0 54 -37.5 91t-147.5 79q-26 9 -94.5 32t-102.5 35q-153 61 -224 139.5t-71 204.5q0 114 44 204t120.5 145.5t175.5 84.5t215 29q195 0 298.5 -38t188.5 -130l-152 -168q-106 117 -325 117q-134 0 -213 -49t-79 -158
q0 -58 39 -94.5t152 -77.5q28 -10 103 -35.5t109 -38.5q148 -62 210.5 -137.5t62.5 -197.5q0 -131 -47.5 -230t-129.5 -156.5t-181.5 -85t-215.5 -27.5q-150 0 -284.5 44t-203.5 122l130 182q64 -56 173 -93.5t195 -37.5q147 0 219.5 60t72.5 185z" />
    <glyph glyph-name="sacute" unicode="&#x15b;" horiz-adv-x="988" 
d="M656 323q0 24 -26 45t-102 47l-140 47q-62 21 -100.5 39t-75 46t-53 67t-16.5 92q0 73 23.5 132t63 98t94 65t114 37.5t125.5 11.5q98 0 193 -25t163 -74l-86 -170q-56 32 -133.5 54t-142.5 22q-92 0 -133 -25t-41 -86q0 -34 32.5 -55.5t137.5 -57.5l129 -45
q102 -35 151.5 -88t49.5 -150q0 -80 -25 -145t-66 -106.5t-96 -69.5t-111.5 -40t-116.5 -12q-135 0 -243 38t-169 91l84 178q56 -49 148 -80.5t182 -31.5q92 0 139 35.5t47 115.5zM470 1166l299 290h319l-390 -290h-228z" />
    <glyph glyph-name="Scircumflex" unicode="&#x15c;" horiz-adv-x="1256" 
d="M327 1615l304 370h253l218 -370h-233l-127 189l-188 -189h-227zM833 439q0 54 -37.5 91t-147.5 79q-26 9 -94.5 32t-102.5 35q-153 61 -224 139.5t-71 204.5q0 114 44 204t120.5 145.5t175.5 84.5t215 29q195 0 298.5 -38t188.5 -130l-152 -168q-106 117 -325 117
q-134 0 -213 -49t-79 -158q0 -58 39 -94.5t152 -77.5q28 -10 103 -35.5t109 -38.5q148 -62 210.5 -137.5t62.5 -197.5q0 -131 -47.5 -230t-129.5 -156.5t-181.5 -85t-215.5 -27.5q-150 0 -284.5 44t-203.5 122l130 182q64 -56 173 -93.5t195 -37.5q147 0 219.5 60t72.5 185z
" />
    <glyph glyph-name="scircumflex" unicode="&#x15d;" horiz-adv-x="988" 
d="M656 323q0 24 -26 45t-102 47l-140 47q-62 21 -100.5 39t-75 46t-53 67t-16.5 92q0 73 23.5 132t63 98t94 65t114 37.5t125.5 11.5q98 0 193 -25t163 -74l-86 -170q-56 32 -133.5 54t-142.5 22q-92 0 -133 -25t-41 -86q0 -34 32.5 -55.5t137.5 -57.5l129 -45
q102 -35 151.5 -88t49.5 -150q0 -80 -25 -145t-66 -106.5t-96 -69.5t-111.5 -40t-116.5 -12q-135 0 -243 38t-169 91l84 178q56 -49 148 -80.5t182 -31.5q92 0 139 35.5t47 115.5zM192 1185l304 370h253l218 -370h-233l-127 189l-188 -189h-227z" />
    <glyph glyph-name="Scedilla" unicode="&#x15e;" horiz-adv-x="1256" 
d="M605 -216q0 32 -31 48t-112 28l-29 4l53 175h124l-32 -114q230 -16 230 -160q0 -9 -2 -27q-14 -113 -95 -172.5t-189 -59.5q-116 0 -229 68l32 162q79 -37 153 -37q60 0 93.5 17.5t33.5 67.5zM833 439q0 54 -37.5 91t-147.5 79q-26 9 -94.5 32t-102.5 35
q-153 61 -224 139.5t-71 204.5q0 114 44 204t120.5 145.5t175.5 84.5t215 29q195 0 298.5 -38t188.5 -130l-152 -168q-106 117 -325 117q-134 0 -213 -49t-79 -158q0 -58 39 -94.5t152 -77.5q28 -10 103 -35.5t109 -38.5q148 -62 210.5 -137.5t62.5 -197.5
q0 -131 -47.5 -230t-129.5 -156.5t-181.5 -85t-215.5 -27.5q-150 0 -284.5 44t-203.5 122l130 182q64 -56 173 -93.5t195 -37.5q147 0 219.5 60t72.5 185z" />
    <glyph glyph-name="scedilla" unicode="&#x15f;" horiz-adv-x="988" 
d="M656 323q0 24 -26 45t-102 47l-140 47q-62 21 -100.5 39t-75 46t-53 67t-16.5 92q0 73 23.5 132t63 98t94 65t114 37.5t125.5 11.5q98 0 193 -25t163 -74l-86 -170q-56 32 -133.5 54t-142.5 22q-92 0 -133 -25t-41 -86q0 -34 32.5 -55.5t137.5 -57.5l129 -45
q102 -35 151.5 -88t49.5 -150q0 -80 -25 -145t-66 -106.5t-96 -69.5t-111.5 -40t-116.5 -12q-135 0 -243 38t-169 91l84 178q56 -49 148 -80.5t182 -31.5q92 0 139 35.5t47 115.5zM520 -216q0 32 -31 48t-112 28l-29 4l53 175h124l-32 -114q230 -16 230 -160q0 -9 -2 -27
q-14 -113 -95 -172.5t-189 -59.5q-116 0 -229 68l32 162q79 -37 153 -37q60 0 93.5 17.5t33.5 67.5z" />
    <glyph glyph-name="Scaron" unicode="&#x160;" horiz-adv-x="1256" 
d="M599 1615l-235 367h254l102 -145l140 145h266l-325 -367h-202zM833 439q0 54 -37.5 91t-147.5 79q-26 9 -94.5 32t-102.5 35q-153 61 -224 139.5t-71 204.5q0 114 44 204t120.5 145.5t175.5 84.5t215 29q195 0 298.5 -38t188.5 -130l-152 -168q-106 117 -325 117
q-134 0 -213 -49t-79 -158q0 -58 39 -94.5t152 -77.5q28 -10 103 -35.5t109 -38.5q148 -62 210.5 -137.5t62.5 -197.5q0 -131 -47.5 -230t-129.5 -156.5t-181.5 -85t-215.5 -27.5q-150 0 -284.5 44t-203.5 122l130 182q64 -56 173 -93.5t195 -37.5q147 0 219.5 60t72.5 185z
" />
    <glyph glyph-name="scaron" unicode="&#x161;" horiz-adv-x="988" 
d="M656 323q0 24 -26 45t-102 47l-140 47q-62 21 -100.5 39t-75 46t-53 67t-16.5 92q0 73 23.5 132t63 98t94 65t114 37.5t125.5 11.5q98 0 193 -25t163 -74l-86 -170q-56 32 -133.5 54t-142.5 22q-92 0 -133 -25t-41 -86q0 -34 32.5 -55.5t137.5 -57.5l129 -45
q102 -35 151.5 -88t49.5 -150q0 -80 -25 -145t-66 -106.5t-96 -69.5t-111.5 -40t-116.5 -12q-135 0 -243 38t-169 91l84 178q56 -49 148 -80.5t182 -31.5q92 0 139 35.5t47 115.5zM465 1185l-235 367h254l102 -145l140 145h266l-325 -367h-202z" />
    <glyph glyph-name="Tcommaaccent" unicode="&#x162;" horiz-adv-x="1181" 
d="M567 -216q0 32 -31 48t-112 28l-29 4l53 175h124l-32 -114q230 -16 230 -160q0 -9 -2 -27q-14 -113 -95 -172.5t-189 -59.5q-116 0 -229 68l32 162q79 -37 153 -37q60 0 93.5 17.5t33.5 67.5zM371 0l152 1238h-449l26 218h1159l-26 -218h-456l-152 -1238h-254z" />
    <glyph glyph-name="tcommaaccent" unicode="&#x163;" horiz-adv-x="804" 
d="M656 1h-100q-76 0 -128.5 5.5t-104 22.5t-82 47t-49.5 82t-19 125q0 42 6 93l59 484h-214l21 166h224l29 240l246 73l-38 -313h268l-21 -166h-268l-61 -499q-4 -28 -4 -55q0 -75 51 -95t208 -20zM421 -216q0 32 -31 48t-112 28l-29 4l53 175h124l-32 -114
q230 -16 230 -160q0 -9 -2 -27q-14 -113 -95 -172.5t-189 -59.5q-116 0 -229 68l32 162q79 -37 153 -37q60 0 93.5 17.5t33.5 67.5z" />
    <glyph glyph-name="Tcaron" unicode="&#x164;" horiz-adv-x="1181" 
d="M591 1615l-235 367h254l102 -145l140 145h266l-325 -367h-202zM371 0l152 1238h-449l26 218h1159l-26 -218h-456l-152 -1238h-254z" />
    <glyph glyph-name="tcaron" unicode="&#x165;" horiz-adv-x="804" 
d="M656 1h-100q-76 0 -128.5 5.5t-104 22.5t-82 47t-49.5 82t-19 125q0 42 6 93l59 484h-214l21 166h224l29 240l246 73l-38 -313h268l-21 -166h-268l-61 -499q-4 -28 -4 -55q0 -75 51 -95t208 -20zM628 1285l176 505h279l-243 -505h-212z" />
    <glyph glyph-name="Tbar" unicode="&#x166;" horiz-adv-x="1181" 
d="M274 658l19 157h625l-19 -157h-625zM371 0l152 1238h-449l26 218h1159l-26 -218h-456l-152 -1238h-254z" />
    <glyph glyph-name="tbar" unicode="&#x167;" horiz-adv-x="804" 
d="M656 1h-100q-76 0 -128.5 5.5t-104 22.5t-82 47t-49.5 82t-19 125q0 42 6 93l59 484h-214l21 166h224l29 240l246 73l-38 -313h268l-21 -166h-268l-61 -499q-4 -28 -4 -55q0 -75 51 -95t208 -20zM6 522l19 157h625l-19 -157h-625z" />
    <glyph glyph-name="Utilde" unicode="&#x168;" horiz-adv-x="1509" 
d="M1037 1834q30 0 49.5 22.5t26.5 85.5h163q-19 -149 -88.5 -222.5t-175.5 -73.5q-41 0 -97 27t-105 53.5t-73 26.5q-22 0 -45 -25t-34 -77h-160q15 128 86 209.5t168 81.5q55 0 110.5 -27t100.5 -54t74 -27zM664 -23q-120 0 -211.5 24.5t-150 66t-95.5 103.5t-52 130
t-15 152q0 63 10 146l105 857h254l-108 -868q-6 -51 -6 -93q0 -301 296 -301q76 0 136.5 19t112.5 62.5t86.5 122.5t47.5 191l108 867h254l-105 -858q-11 -87 -30 -159.5t-52 -145.5t-83.5 -128t-119.5 -98.5t-166 -66.5t-216 -23z" />
    <glyph glyph-name="utilde" unicode="&#x169;" horiz-adv-x="1186" 
d="M460 -23q-167 0 -258.5 87t-91.5 241q0 29 5 71l79 650h246l-79 -646q-3 -21 -3 -40q0 -82 47 -122.5t130 -40.5q111 0 171 55.5t76 178.5l75 615h248l-91 -750q-5 -43 -23 -276h-256l15 152q-9 -22 -29 -48.5t-54.5 -56.5t-89 -50t-117.5 -20zM841 1403q30 0 49.5 22.5
t26.5 85.5h163q-19 -149 -88.5 -222.5t-175.5 -73.5q-41 0 -97 27t-105 53.5t-73 26.5q-22 0 -45 -25t-34 -77h-160q15 128 86 209.5t168 81.5q55 0 110.5 -27t100.5 -54t74 -27z" />
    <glyph glyph-name="Umacron" unicode="&#x16a;" horiz-adv-x="1509" 
d="M557 1646l19 157h625l-19 -157h-625zM664 -23q-120 0 -211.5 24.5t-150 66t-95.5 103.5t-52 130t-15 152q0 63 10 146l105 857h254l-108 -868q-6 -51 -6 -93q0 -301 296 -301q76 0 136.5 19t112.5 62.5t86.5 122.5t47.5 191l108 867h254l-105 -858q-11 -87 -30 -159.5
t-52 -145.5t-83.5 -128t-119.5 -98.5t-166 -66.5t-216 -23z" />
    <glyph glyph-name="umacron" unicode="&#x16b;" horiz-adv-x="1186" 
d="M460 -23q-167 0 -258.5 87t-91.5 241q0 29 5 71l79 650h246l-79 -646q-3 -21 -3 -40q0 -82 47 -122.5t130 -40.5q111 0 171 55.5t76 178.5l75 615h248l-91 -750q-5 -43 -23 -276h-256l15 152q-9 -22 -29 -48.5t-54.5 -56.5t-89 -50t-117.5 -20zM360 1215l19 157h625
l-19 -157h-625z" />
    <glyph glyph-name="Ubreve" unicode="&#x16c;" horiz-adv-x="1509" 
d="M858 1590q-287 0 -287 267q0 19 1 29h174v-11q0 -66 36.5 -88.5t97.5 -22.5q63 0 104 24.5t57 97.5h172q-29 -154 -118.5 -225t-236.5 -71zM664 -23q-120 0 -211.5 24.5t-150 66t-95.5 103.5t-52 130t-15 152q0 63 10 146l105 857h254l-108 -868q-6 -51 -6 -93
q0 -301 296 -301q76 0 136.5 19t112.5 62.5t86.5 122.5t47.5 191l108 867h254l-105 -858q-11 -87 -30 -159.5t-52 -145.5t-83.5 -128t-119.5 -98.5t-166 -66.5t-216 -23z" />
    <glyph glyph-name="ubreve" unicode="&#x16d;" horiz-adv-x="1186" 
d="M460 -23q-167 0 -258.5 87t-91.5 241q0 29 5 71l79 650h246l-79 -646q-3 -21 -3 -40q0 -82 47 -122.5t130 -40.5q111 0 171 55.5t76 178.5l75 615h248l-91 -750q-5 -43 -23 -276h-256l15 152q-9 -22 -29 -48.5t-54.5 -56.5t-89 -50t-117.5 -20zM687 1160q-287 0 -287 267
q0 19 1 29h174v-11q0 -66 36.5 -88.5t97.5 -22.5q63 0 104 24.5t57 97.5h172q-29 -154 -118.5 -225t-236.5 -71z" />
    <glyph glyph-name="Uring" unicode="&#x16e;" horiz-adv-x="1509" 
d="M899 2009q85 0 140.5 -52t55.5 -133q0 -103 -75 -172t-174 -69q-85 0 -140.5 51.5t-55.5 132.5q0 104 75 173t174 69zM981 1809q0 41 -27 68t-68 27q-47 0 -83.5 -35.5t-36.5 -85.5q0 -41 27 -68.5t67 -27.5q48 0 84.5 35.5t36.5 86.5zM664 -23q-120 0 -211.5 24.5
t-150 66t-95.5 103.5t-52 130t-15 152q0 63 10 146l105 857h254l-108 -868q-6 -51 -6 -93q0 -301 296 -301q76 0 136.5 19t112.5 62.5t86.5 122.5t47.5 191l108 867h254l-105 -858q-11 -87 -30 -159.5t-52 -145.5t-83.5 -128t-119.5 -98.5t-166 -66.5t-216 -23z" />
    <glyph glyph-name="uring" unicode="&#x16f;" horiz-adv-x="1186" 
d="M460 -23q-167 0 -258.5 87t-91.5 241q0 29 5 71l79 650h246l-79 -646q-3 -21 -3 -40q0 -82 47 -122.5t130 -40.5q111 0 171 55.5t76 178.5l75 615h248l-91 -750q-5 -43 -23 -276h-256l15 152q-9 -22 -29 -48.5t-54.5 -56.5t-89 -50t-117.5 -20zM728 1579q85 0 140.5 -52
t55.5 -133q0 -103 -75 -172t-174 -69q-85 0 -140.5 51.5t-55.5 132.5q0 104 75 173t174 69zM810 1379q0 41 -27 68t-68 27q-47 0 -83.5 -35.5t-36.5 -85.5q0 -41 27 -68.5t67 -27.5q48 0 84.5 35.5t36.5 86.5z" />
    <glyph glyph-name="Uhungarumlaut" unicode="&#x170;" horiz-adv-x="1509" 
d="M919 1542l273 344h305l-392 -344h-186zM611 1542l236 344h286l-343 -344h-179zM664 -23q-120 0 -211.5 24.5t-150 66t-95.5 103.5t-52 130t-15 152q0 63 10 146l105 857h254l-108 -868q-6 -51 -6 -93q0 -301 296 -301q76 0 136.5 19t112.5 62.5t86.5 122.5t47.5 191
l108 867h254l-105 -858q-11 -87 -30 -159.5t-52 -145.5t-83.5 -128t-119.5 -98.5t-166 -66.5t-216 -23z" />
    <glyph glyph-name="uhungarumlaut" unicode="&#x171;" horiz-adv-x="1186" 
d="M460 -23q-167 0 -258.5 87t-91.5 241q0 29 5 71l79 650h246l-79 -646q-3 -21 -3 -40q0 -82 47 -122.5t130 -40.5q111 0 171 55.5t76 178.5l75 615h248l-91 -750q-5 -43 -23 -276h-256l15 152q-9 -22 -29 -48.5t-54.5 -56.5t-89 -50t-117.5 -20zM748 1112l273 344h305
l-392 -344h-186zM440 1112l236 344h286l-343 -344h-179z" />
    <glyph glyph-name="Uogonek" unicode="&#x172;" horiz-adv-x="1509" 
d="M742 -164q0 -40 57 -40q52 0 179 37l-18 -148q-141 -41 -259 -41q-92 0 -145 28t-53 85q0 29 9 55.5t22.5 47t36 41t40.5 34t46.5 29t44.5 23t42.5 19.5t33.5 15l135 2q-76 -40 -123.5 -92.5t-47.5 -94.5zM664 -23q-120 0 -211.5 24.5t-150 66t-95.5 103.5t-52 130
t-15 152q0 63 10 146l105 857h254l-108 -868q-6 -51 -6 -93q0 -301 296 -301q76 0 136.5 19t112.5 62.5t86.5 122.5t47.5 191l108 867h254l-105 -858q-11 -87 -30 -159.5t-52 -145.5t-83.5 -128t-119.5 -98.5t-166 -66.5t-216 -23z" />
    <glyph glyph-name="uogonek" unicode="&#x173;" horiz-adv-x="1186" 
d="M460 -23q-167 0 -258.5 87t-91.5 241q0 29 5 71l79 650h246l-79 -646q-3 -21 -3 -40q0 -82 47 -122.5t130 -40.5q111 0 171 55.5t76 178.5l75 615h248l-91 -750q-5 -43 -23 -276h-256l15 152q-9 -22 -29 -48.5t-54.5 -56.5t-89 -50t-117.5 -20zM798 -164q0 -40 57 -40
q52 0 179 37l-18 -148q-141 -41 -259 -41q-92 0 -145 28t-53 85q0 29 9 55.5t22.5 47t36 41t40.5 34t46.5 29t44.5 23t42.5 19.5t33.5 15l135 2q-76 -40 -123.5 -92.5t-47.5 -94.5z" />
    <glyph glyph-name="Wcircumflex" unicode="&#x174;" horiz-adv-x="2096" 
d="M765 1615l304 370h253l218 -370h-233l-127 189l-188 -189h-227zM339 0l-238 1456h270q15 -104 51.5 -354.5t62 -435.5t46.5 -360q69 177 147 361t189 435.5t155 353.5h242q22 -114 71.5 -357.5t85 -431.5t62.5 -366q62 175 131 361.5t163 436.5t134 357h262l-584 -1456
h-291l-205 1105l-467 -1105h-287z" />
    <glyph glyph-name="wcircumflex" unicode="&#x175;" horiz-adv-x="1685" 
d="M323 0l-246 1026h264q10 -48 64 -313.5t81 -407.5q62 137 177 387t154 334h216q13 -64 62.5 -324.5t79.5 -398.5q63 144 185.5 411t142.5 312h231l-515 -1026h-207q-17 80 -47 220t-54.5 257t-45.5 221q-63 -134 -180 -377t-154 -321h-208zM553 1185l304 370h253
l218 -370h-233l-127 189l-188 -189h-227z" />
    <glyph glyph-name="Ycircumflex" unicode="&#x176;" horiz-adv-x="1281" 
d="M373 1615l304 370h253l218 -370h-233l-127 189l-188 -189h-227zM416 0l68 563l-409 893h289l278 -667l441 667h296l-641 -892l-68 -564h-254z" />
    <glyph glyph-name="ycircumflex" unicode="&#x177;" horiz-adv-x="1114" 
d="M164 -445l-85 168q147 55 224 112t110 138l20 50l-313 1003h258l207 -736l346 736h253l-549 -1082q-152 -293 -471 -389zM312 1185l304 370h253l218 -370h-233l-127 189l-188 -189h-227z" />
    <glyph glyph-name="Ydieresis" unicode="&#x178;" horiz-adv-x="1281" 
d="M858 1581l29 225h246l-29 -225h-246zM400 1581l29 225h247l-29 -225h-247zM416 0l68 563l-409 893h289l278 -667l441 667h296l-641 -892l-68 -564h-254z" />
    <glyph glyph-name="Zacute" unicode="&#x179;" horiz-adv-x="1202" 
d="M626 1596l299 290h319l-390 -290h-228zM-18 0l17 136l824 1102h-663l26 218h1014l-15 -132l-829 -1106h691l-26 -218h-1039z" />
    <glyph glyph-name="zacute" unicode="&#x17a;" horiz-adv-x="998" 
d="M34 0l16 131l569 697h-458l24 198h781l-16 -129l-573 -700h513l-24 -197h-832zM522 1166l299 290h319l-390 -290h-228z" />
    <glyph glyph-name="Zdotaccent" unicode="&#x17b;" horiz-adv-x="1202" 
d="M622 1596l27 228h246l-27 -228h-246zM-18 0l17 136l824 1102h-663l26 218h1014l-15 -132l-829 -1106h691l-26 -218h-1039z" />
    <glyph glyph-name="zdotaccent" unicode="&#x17c;" horiz-adv-x="998" 
d="M34 0l16 131l569 697h-458l24 198h781l-16 -129l-573 -700h513l-24 -197h-832zM518 1166l27 228h246l-27 -228h-246z" />
    <glyph glyph-name="Zcaron" unicode="&#x17d;" horiz-adv-x="1202" 
d="M621 1615l-235 367h254l102 -145l140 145h266l-325 -367h-202zM-18 0l17 136l824 1102h-663l26 218h1014l-15 -132l-829 -1106h691l-26 -218h-1039z" />
    <glyph glyph-name="zcaron" unicode="&#x17e;" horiz-adv-x="998" 
d="M34 0l16 131l569 697h-458l24 198h781l-16 -129l-573 -700h513l-24 -197h-832zM516 1185l-235 367h254l102 -145l140 145h266l-325 -367h-202z" />
    <glyph glyph-name="longs" unicode="&#x17f;" horiz-adv-x="988" 
d="M656 323q0 24 -26 45t-102 47l-140 47q-62 21 -100.5 39t-75 46t-53 67t-16.5 92q0 73 23.5 132t63 98t94 65t114 37.5t125.5 11.5q98 0 193 -25t163 -74l-86 -170q-56 32 -133.5 54t-142.5 22q-92 0 -133 -25t-41 -86q0 -34 32.5 -55.5t137.5 -57.5l129 -45
q102 -35 151.5 -88t49.5 -150q0 -80 -25 -145t-66 -106.5t-96 -69.5t-111.5 -40t-116.5 -12q-135 0 -243 38t-169 91l84 178q56 -49 148 -80.5t182 -31.5q92 0 139 35.5t47 115.5z" />
    <glyph glyph-name="florin" unicode="&#x192;" horiz-adv-x="1111" 
d="M95 -315q-52 0 -106 18l43 207q70 -10 96 -10q23 0 40.5 5t41.5 22t46 57.5t41 102.5l166 546h-139l61 163h130l95 311q16 51 32 89.5t49 89.5t72.5 84t103.5 56.5t142 23.5q58 0 104 -11t63 -23l17 -11l-41 -200q-60 20 -113 20q-22 0 -39.5 -4t-40 -15.5t-41.5 -39.5
t-32 -71l-95 -299h150l-53 -163h-154l-179 -588q-60 -198 -174 -279t-286 -81z" />
    <glyph glyph-name="uni01C4" unicode="&#x1c4;" horiz-adv-x="2773" 
d="M2192 1615l-235 367h254l102 -145l140 145h266l-325 -367h-202zM1553 0l17 136l824 1102h-663l26 218h1014l-15 -132l-829 -1106h691l-26 -218h-1039zM101 0l178 1456h406q397 0 593 -153.5t196 -443.5q0 -55 -8 -122q-45 -361 -279 -549t-639 -188h-447zM382 218h205
q265 0 422.5 132t188.5 388q6 47 6 88q0 412 -522 412h-175z" />
    <glyph glyph-name="uni01C5" unicode="&#x1c5;" horiz-adv-x="2569" 
d="M1605 0l16 131l569 697h-458l24 198h781l-16 -129l-573 -700h513l-24 -197h-832zM2087 1185l-235 367h254l102 -145l140 145h266l-325 -367h-202zM101 0l178 1456h406q397 0 593 -153.5t196 -443.5q0 -55 -8 -122q-45 -361 -279 -549t-639 -188h-447zM382 218h205
q265 0 422.5 132t188.5 388q6 47 6 88q0 412 -522 412h-175z" />
    <glyph glyph-name="uni01C6" unicode="&#x1c6;" horiz-adv-x="2265" 
d="M1301 0l16 131l569 697h-458l24 198h781l-16 -129l-573 -700h513l-24 -197h-832zM1783 1185l-235 367h254l102 -145l140 145h266l-325 -367h-202zM864 584q0 121 -54.5 194t-167.5 73q-98 0 -168 -58t-102.5 -149.5t-32.5 -204.5q0 -117 53.5 -189.5t168.5 -72.5
q75 0 134 34t95 91.5t55 129t19 152.5zM485 -23q-179 0 -293.5 120.5t-114.5 323.5q0 49 5 87q13 109 56 206t111 173t168.5 120.5t218.5 44.5q106 0 175 -43.5t90 -90.5l66 539h247l-145 -1183q-2 -13 -25 -274h-254l15 131q-30 -54 -112.5 -104t-207.5 -50z" />
    <glyph glyph-name="uni01C7" unicode="&#x1c7;" horiz-adv-x="2192" 
d="M101 0l178 1456h254l-151 -1238h673l-26 -218h-928zM1480 -331q-141 0 -313 64l69 193q133 -44 224 -44q206 0 234 228l165 1346h254l-164 -1334q-27 -218 -150.5 -335.5t-318.5 -117.5z" />
    <glyph glyph-name="uni01C8" unicode="&#x1c8;" horiz-adv-x="1773" 
d="M1498 1228l28 228h246l-28 -228h-246zM1189 -362q-50 0 -96 6.5t-67.5 12.5t-21.5 8h3l48 170q61 -19 140 -19q48 0 75.5 12.5t49 58t32.5 133.5l124 1006h239l-127 -1035q-11 -92 -32.5 -152.5t-65.5 -108.5t-118 -70t-183 -22zM1055 -165v1h-3zM101 0l178 1456h254
l-151 -1238h673l-26 -218h-928z" />
    <glyph glyph-name="uni01C9" unicode="&#x1c9;" horiz-adv-x="1172" 
d="M111 0l179 1457h246l-180 -1457h-245zM897 1228l28 228h246l-28 -228h-246zM588 -362q-50 0 -96 6.5t-67.5 12.5t-21.5 8h3l48 170q61 -19 140 -19q48 0 75.5 12.5t49 58t32.5 133.5l124 1006h239l-127 -1035q-11 -92 -32.5 -152.5t-65.5 -108.5t-118 -70t-183 -22z
M454 -165v1h-3z" />
    <glyph glyph-name="uni01CA" unicode="&#x1ca;" horiz-adv-x="2649" 
d="M101 0l178 1456h269q70 -124 191.5 -339t224 -395.5t193.5 -337.5l130 1072h242l-178 -1456h-270q-57 100 -276 483.5t-338 590.5l-131 -1074h-235zM1937 -331q-141 0 -313 64l69 193q133 -44 224 -44q206 0 234 228l165 1346h254l-164 -1334q-27 -218 -150.5 -335.5
t-318.5 -117.5z" />
    <glyph glyph-name="uni01CB" unicode="&#x1cb;" horiz-adv-x="2230" 
d="M1955 1228l28 228h246l-28 -228h-246zM1646 -362q-50 0 -96 6.5t-67.5 12.5t-21.5 8h3l48 170q61 -19 140 -19q48 0 75.5 12.5t49 58t32.5 133.5l124 1006h239l-127 -1035q-11 -92 -32.5 -152.5t-65.5 -108.5t-118 -70t-183 -22zM1512 -165v1h-3zM101 0l178 1456h269
q70 -124 191.5 -339t224 -395.5t193.5 -337.5l130 1072h242l-178 -1456h-270q-57 100 -276 483.5t-338 590.5l-131 -1074h-235z" />
    <glyph glyph-name="uni01CC" unicode="&#x1cc;" horiz-adv-x="1824" 
d="M93 0l79 635q27 220 27 379v12h263l-17 -137q63 80 157 121.5t177 41.5q160 0 245.5 -80.5t85.5 -268.5q0 -49 -8 -118l-73 -585h-248l74 602q5 36 5 79q0 91 -37.5 130.5t-119.5 39.5q-36 0 -81 -16t-89 -44.5t-76.5 -75t-38.5 -101.5l-77 -614h-248zM1549 1228l28 228
h246l-28 -228h-246zM1240 -362q-50 0 -96 6.5t-67.5 12.5t-21.5 8h3l48 170q61 -19 140 -19q48 0 75.5 12.5t49 58t32.5 133.5l124 1006h239l-127 -1035q-11 -92 -32.5 -152.5t-65.5 -108.5t-118 -70t-183 -22zM1106 -165v1h-3z" />
    <glyph glyph-name="uni01CD" unicode="&#x1cd;" horiz-adv-x="1458" 
d="M721 1615l-235 367h254l102 -145l140 145h266l-325 -367h-202zM507 592h390q-44 207 -124 567q-109 -236 -266 -567zM-77 0l763 1456h258l412 -1456h-287l-98 355h-588l-181 -355h-279z" />
    <glyph glyph-name="uni01CE" unicode="&#x1ce;" horiz-adv-x="1291" 
d="M656 1185l-235 367h254l102 -145l140 145h266l-325 -367h-202zM924 589q0 124 -60 193t-183 69q-152 0 -241.5 -112t-89.5 -292q0 -126 62.5 -198t188.5 -72q108 0 182.5 56.5t107.5 147t33 208.5zM547 -23q-113 0 -200 36.5t-139.5 99.5t-79 141.5t-26.5 168.5
q0 36 5 79q13 107 56.5 203.5t114.5 175t178 125t235 46.5q187 0 270 -136l13 110h243l-126 -1026h-249l17 140q-132 -163 -312 -163z" />
    <glyph glyph-name="uni01CF" unicode="&#x1cf;" horiz-adv-x="586" 
d="M277 1615l-235 367h254l102 -145l140 145h266l-325 -367h-202zM71 0l178 1456h254l-178 -1456h-254z" />
    <glyph glyph-name="uni01D0" unicode="&#x1d0;" horiz-adv-x="485" 
d="M40 0l126 1026h249l-126 -1026h-249zM192 1185l-235 367h254l102 -145l140 145h266l-325 -367h-202z" />
    <glyph glyph-name="uni01D1" unicode="&#x1d1;" 
d="M828 1615l-235 367h254l102 -145l140 145h266l-325 -367h-202zM748 -23q-307 0 -478.5 169t-171.5 462q0 57 8 127q21 167 88.5 305t173.5 236t251.5 152.5t315.5 54.5q299 0 468.5 -168.5t169.5 -456.5q0 -56 -8 -123q-42 -348 -260 -553t-557 -205zM373 616
q0 -205 99.5 -313.5t295.5 -108.5q223 0 356 140.5t165 400.5q7 56 7 113q0 200 -99.5 309t-292.5 109q-246 0 -388.5 -176t-142.5 -474z" />
    <glyph glyph-name="uni01D2" unicode="&#x1d2;" horiz-adv-x="1286" 
d="M582 -23q-121 0 -214 35.5t-150 97.5t-86 143t-29 176q0 49 5 84q13 111 59 207.5t121 171t184.5 117.5t240.5 43q236 0 353.5 -123.5t117.5 -324.5q0 -45 -6 -93q-13 -107 -58 -201.5t-117.5 -169.5t-181.5 -119t-239 -44zM925 586q0 119 -59.5 192t-179.5 73
q-102 0 -176.5 -55.5t-111 -145.5t-36.5 -202q0 -120 58.5 -195.5t180.5 -75.5q106 0 181 58.5t109 149t34 201.5zM610 1185l-235 367h254l102 -145l140 145h266l-325 -367h-202z" />
    <glyph glyph-name="uni01D3" unicode="&#x1d3;" horiz-adv-x="1509" 
d="M738 1615l-235 367h254l102 -145l140 145h266l-325 -367h-202zM664 -23q-120 0 -211.5 24.5t-150 66t-95.5 103.5t-52 130t-15 152q0 63 10 146l105 857h254l-108 -868q-6 -51 -6 -93q0 -301 296 -301q76 0 136.5 19t112.5 62.5t86.5 122.5t47.5 191l108 867h254
l-105 -858q-11 -87 -30 -159.5t-52 -145.5t-83.5 -128t-119.5 -98.5t-166 -66.5t-216 -23z" />
    <glyph glyph-name="uni01D4" unicode="&#x1d4;" horiz-adv-x="1186" 
d="M460 -23q-167 0 -258.5 87t-91.5 241q0 29 5 71l79 650h246l-79 -646q-3 -21 -3 -40q0 -82 47 -122.5t130 -40.5q111 0 171 55.5t76 178.5l75 615h248l-91 -750q-5 -43 -23 -276h-256l15 152q-9 -22 -29 -48.5t-54.5 -56.5t-89 -50t-117.5 -20zM567 1185l-235 367h254
l102 -145l140 145h266l-325 -367h-202z" />
    <glyph glyph-name="uni01E2" unicode="&#x1e2;" horiz-adv-x="2215" 
d="M1061 1576l19 157h625l-19 -157h-625zM614 558h466l35 672h-33zM-70 0l1045 1456h1084l-28 -226h-657l-11 -376h620l-28 -220h-592l-10 -408h582l-28 -226h-848l14 355h-584l-245 -355h-314z" />
    <glyph glyph-name="uni01E3" unicode="&#x1e3;" horiz-adv-x="1776" 
d="M618 1146l19 157h625l-19 -157h-625zM994 632h461l3 23q1 9 1 26q0 91 -56 141t-131 50q-96 0 -167 -66.5t-111 -173.5zM284 286q0 -56 43 -82.5t112 -26.5q55 0 101 17.5t77.5 45.5t55.5 66.5t37 78t20 82.5h-100q-67 0 -125 -9t-109.5 -28.5t-81.5 -56t-30 -87.5z
M1666 634q0 -60 -7 -115l-12 -52h-677q-3 -17 -3 -34q0 -134 62.5 -195t182.5 -61q73 0 157.5 28t132.5 56l47 28l45 -181q-8 -5 -22.5 -14t-60 -31.5t-92 -40t-113.5 -31.5t-129 -14q-143 0 -232.5 44t-130.5 151q-43 -70 -114.5 -115t-143 -62t-148.5 -17
q-171 0 -269 70.5t-98 200.5q0 21 3 45q23 195 178.5 269.5t488.5 74.5h40q2 22 2 32q0 86 -52.5 137.5t-150.5 51.5q-116 0 -296 -81l-50 164q197 110 426 110q84 0 171.5 -49.5t122.5 -138.5q57 88 164.5 138t206.5 50q190 0 280.5 -114t90.5 -304z" />
    <glyph glyph-name="Gcaron" unicode="&#x1e6;" horiz-adv-x="1538" 
d="M827 1615l-235 367h254l102 -145l140 145h266l-325 -367h-202zM759 -23q-324 0 -494.5 161t-170.5 442q0 55 8 124q19 158 87.5 297.5t176.5 247.5t264.5 171t338.5 63q103 0 186 -14.5t139.5 -41.5t83.5 -44.5t59 -44.5l-124 -178q-132 104 -369 104q-102 0 -191 -31
t-154 -84t-114 -123.5t-78 -149t-39 -161.5q-6 -48 -6 -94q0 -197 110 -312t325 -115q121 0 254 38l43 344h-340l25 217h598l-86 -705q-263 -111 -532 -111z" />
    <glyph glyph-name="gcaron" unicode="&#x1e7;" horiz-adv-x="1235" 
d="M387 439q0 -120 54.5 -186t168.5 -66q59 0 106.5 19.5t79 51t55 75.5t35.5 88.5t18 94.5q5 43 5 76q0 119 -52.5 189t-160.5 70q-97 0 -168.5 -59t-106 -151t-34.5 -202zM488 -418q-199 0 -382 70l69 214q142 -78 321 -78q144 0 232 61t104 186l10 87
q-106 -122 -271 -122q-206 0 -325 116t-119 316q0 35 5 83q13 108 54 202.5t107 170.5t166 120t221 44q95 0 161.5 -38t98.5 -98l14 110h263q-39 -152 -63 -344l-65 -535q-10 -83 -29 -153t-62.5 -149.5t-106 -134.5t-166.5 -91.5t-237 -36.5zM608 1185l-235 367h254
l102 -145l140 145h266l-325 -367h-202z" />
    <glyph glyph-name="uni01E8" unicode="&#x1e8;" horiz-adv-x="1352" 
d="M691 1615l-235 367h254l102 -145l140 145h266l-325 -367h-202zM101 0l178 1456h254l-77 -636l638 636h317l-717 -703l588 -753h-330l-514 651l-80 -651h-257z" />
    <glyph glyph-name="uni01E9" unicode="&#x1e9;" horiz-adv-x="1076" 
d="M50 0l180 1457h248l-106 -850l424 419h342l-549 -496l455 -530h-329l-361 444l-56 -444h-248zM585 1185l-235 367h254l102 -145l140 145h266l-325 -367h-202z" />
    <glyph glyph-name="uni01EA" unicode="&#x1ea;" 
d="M681 -164q0 -40 57 -40q52 0 179 37l-18 -148q-141 -41 -259 -41q-92 0 -145 28t-53 85q0 29 9 55.5t22.5 47t36 41t40.5 34t46.5 29t44.5 23t42.5 19.5t33.5 15l135 2q-76 -40 -123.5 -92.5t-47.5 -94.5zM748 -23q-307 0 -478.5 169t-171.5 462q0 57 8 127
q21 167 88.5 305t173.5 236t251.5 152.5t315.5 54.5q299 0 468.5 -168.5t169.5 -456.5q0 -56 -8 -123q-42 -348 -260 -553t-557 -205zM373 616q0 -205 99.5 -313.5t295.5 -108.5q223 0 356 140.5t165 400.5q7 56 7 113q0 200 -99.5 309t-292.5 109q-246 0 -388.5 -176
t-142.5 -474z" />
    <glyph glyph-name="uni01EB" unicode="&#x1eb;" horiz-adv-x="1286" 
d="M519 -164q0 -40 57 -40q52 0 179 37l-18 -148q-141 -41 -259 -41q-92 0 -145 28t-53 85q0 29 9 55.5t22.5 47t36 41t40.5 34t46.5 29t44.5 23t42.5 19.5t33.5 15l135 2q-76 -40 -123.5 -92.5t-47.5 -94.5zM582 -23q-121 0 -214 35.5t-150 97.5t-86 143t-29 176q0 49 5 84
q13 111 59 207.5t121 171t184.5 117.5t240.5 43q236 0 353.5 -123.5t117.5 -324.5q0 -45 -6 -93q-13 -107 -58 -201.5t-117.5 -169.5t-181.5 -119t-239 -44zM925 586q0 119 -59.5 192t-179.5 73q-102 0 -176.5 -55.5t-111 -145.5t-36.5 -202q0 -120 58.5 -195.5t180.5 -75.5
q106 0 181 58.5t109 149t34 201.5z" />
    <glyph glyph-name="uni01F0" unicode="&#x1f0;" horiz-adv-x="600" 
d="M16 -362q-50 0 -96 6.5t-67.5 12.5t-21.5 8h3l48 170q61 -19 140 -19q48 0 75.5 12.5t49 58t32.5 133.5l124 1006h239l-127 -1035q-11 -92 -32.5 -152.5t-65.5 -108.5t-118 -70t-183 -22zM-118 -165v1h-3zM325 1185l-235 367h254l102 -145l140 145h266l-325 -367h-202z
" />
    <glyph glyph-name="uni01F1" unicode="&#x1f1;" horiz-adv-x="2773" 
d="M1553 0l17 136l824 1102h-663l26 218h1014l-15 -132l-829 -1106h691l-26 -218h-1039zM101 0l178 1456h406q397 0 593 -153.5t196 -443.5q0 -55 -8 -122q-45 -361 -279 -549t-639 -188h-447zM382 218h205q265 0 422.5 132t188.5 388q6 47 6 88q0 412 -522 412h-175z" />
    <glyph glyph-name="uni01F2" unicode="&#x1f2;" horiz-adv-x="2568" 
d="M1605 0l16 131l569 697h-458l24 198h781l-16 -129l-573 -700h513l-24 -197h-832zM101 0l178 1456h406q397 0 593 -153.5t196 -443.5q0 -55 -8 -122q-45 -361 -279 -549t-639 -188h-447zM382 218h205q265 0 422.5 132t188.5 388q6 47 6 88q0 412 -522 412h-175z" />
    <glyph glyph-name="uni01F3" unicode="&#x1f3;" horiz-adv-x="2264" 
d="M1301 0l16 131l569 697h-458l24 198h781l-16 -129l-573 -700h513l-24 -197h-832zM864 584q0 121 -54.5 194t-167.5 73q-98 0 -168 -58t-102.5 -149.5t-32.5 -204.5q0 -117 53.5 -189.5t168.5 -72.5q75 0 134 34t95 91.5t55 129t19 152.5zM485 -23q-179 0 -293.5 120.5
t-114.5 323.5q0 49 5 87q13 109 56 206t111 173t168.5 120.5t218.5 44.5q106 0 175 -43.5t90 -90.5l66 539h247l-145 -1183q-2 -13 -25 -274h-254l15 131q-30 -54 -112.5 -104t-207.5 -50z" />
    <glyph glyph-name="uni01F4" unicode="&#x1f4;" horiz-adv-x="1538" 
d="M832 1596l299 290h319l-390 -290h-228zM759 -23q-324 0 -494.5 161t-170.5 442q0 55 8 124q19 158 87.5 297.5t176.5 247.5t264.5 171t338.5 63q103 0 186 -14.5t139.5 -41.5t83.5 -44.5t59 -44.5l-124 -178q-132 104 -369 104q-102 0 -191 -31t-154 -84t-114 -123.5
t-78 -149t-39 -161.5q-6 -48 -6 -94q0 -197 110 -312t325 -115q121 0 254 38l43 344h-340l25 217h598l-86 -705q-263 -111 -532 -111z" />
    <glyph glyph-name="uni01F5" unicode="&#x1f5;" horiz-adv-x="1235" 
d="M387 439q0 -120 54.5 -186t168.5 -66q59 0 106.5 19.5t79 51t55 75.5t35.5 88.5t18 94.5q5 43 5 76q0 119 -52.5 189t-160.5 70q-97 0 -168.5 -59t-106 -151t-34.5 -202zM488 -418q-199 0 -382 70l69 214q142 -78 321 -78q144 0 232 61t104 186l10 87
q-106 -122 -271 -122q-206 0 -325 116t-119 316q0 35 5 83q13 108 54 202.5t107 170.5t166 120t221 44q95 0 161.5 -38t98.5 -98l14 110h263q-39 -152 -63 -344l-65 -535q-10 -83 -29 -153t-62.5 -149.5t-106 -134.5t-166.5 -91.5t-237 -36.5zM613 1166l299 290h319
l-390 -290h-228z" />
    <glyph glyph-name="uni01F8" unicode="&#x1f8;" horiz-adv-x="1630" 
d="M841 1596l-316 289h318l226 -289h-228zM101 0l178 1456h269q70 -124 191.5 -339t224 -395.5t193.5 -337.5l130 1072h242l-178 -1456h-270q-57 100 -276 483.5t-338 590.5l-131 -1074h-235z" />
    <glyph glyph-name="uni01F9" unicode="&#x1f9;" horiz-adv-x="1224" 
d="M93 0l79 635q27 220 27 379v12h263l-17 -137q63 80 157 121.5t177 41.5q160 0 245.5 -80.5t85.5 -268.5q0 -49 -8 -118l-73 -585h-248l74 602q5 36 5 79q0 91 -37.5 130.5t-119.5 39.5q-36 0 -81 -16t-89 -44.5t-76.5 -75t-38.5 -101.5l-77 -614h-248zM643 1166l-316 289
h318l226 -289h-228z" />
    <glyph glyph-name="Aringacute" unicode="&#x1fa;" horiz-adv-x="1458" 
d="M882 2009q85 0 140.5 -52t55.5 -133q0 -103 -75 -172t-174 -69q-85 0 -140.5 51.5t-55.5 132.5q0 104 75 173t174 69zM964 1809q0 41 -27 68t-68 27q-47 0 -83.5 -35.5t-36.5 -85.5q0 -41 27 -68.5t67 -27.5q48 0 84.5 35.5t36.5 86.5zM773 2094l299 290h319l-390 -290
h-228zM507 592h390q-44 207 -124 567q-109 -236 -266 -567zM-77 0l763 1456h258l412 -1456h-287l-98 355h-588l-181 -355h-279z" />
    <glyph glyph-name="aringacute" unicode="&#x1fb;" horiz-adv-x="1291" 
d="M817 1579q85 0 140.5 -52t55.5 -133q0 -103 -75 -172t-174 -69q-85 0 -140.5 51.5t-55.5 132.5q0 104 75 173t174 69zM899 1379q0 41 -27 68t-68 27q-47 0 -83.5 -35.5t-36.5 -85.5q0 -41 27 -68.5t67 -27.5q48 0 84.5 35.5t36.5 86.5zM708 1664l299 290h319l-390 -290
h-228zM924 589q0 124 -60 193t-183 69q-152 0 -241.5 -112t-89.5 -292q0 -126 62.5 -198t188.5 -72q108 0 182.5 56.5t107.5 147t33 208.5zM547 -23q-113 0 -200 36.5t-139.5 99.5t-79 141.5t-26.5 168.5q0 36 5 79q13 107 56.5 203.5t114.5 175t178 125t235 46.5
q187 0 270 -136l13 110h243l-126 -1026h-249l17 140q-132 -163 -312 -163z" />
    <glyph glyph-name="AEacute" unicode="&#x1fc;" horiz-adv-x="2215" 
d="M1298 1596l299 290h319l-390 -290h-228zM614 558h466l35 672h-33zM-70 0l1045 1456h1084l-28 -226h-657l-11 -376h620l-28 -220h-592l-10 -408h582l-28 -226h-848l14 355h-584l-245 -355h-314z" />
    <glyph glyph-name="aeacute" unicode="&#x1fd;" horiz-adv-x="1776" 
d="M994 632h461l3 23q1 9 1 26q0 91 -56 141t-131 50q-96 0 -167 -66.5t-111 -173.5zM284 286q0 -56 43 -82.5t112 -26.5q55 0 101 17.5t77.5 45.5t55.5 66.5t37 78t20 82.5h-100q-67 0 -125 -9t-109.5 -28.5t-81.5 -56t-30 -87.5zM1666 634q0 -60 -7 -115l-12 -52h-677
q-3 -17 -3 -34q0 -134 62.5 -195t182.5 -61q73 0 157.5 28t132.5 56l47 28l45 -181q-8 -5 -22.5 -14t-60 -31.5t-92 -40t-113.5 -31.5t-129 -14q-143 0 -232.5 44t-130.5 151q-43 -70 -114.5 -115t-143 -62t-148.5 -17q-171 0 -269 70.5t-98 200.5q0 21 3 45
q23 195 178.5 269.5t488.5 74.5h40q2 22 2 32q0 86 -52.5 137.5t-150.5 51.5q-116 0 -296 -81l-50 164q197 110 426 110q84 0 171.5 -49.5t122.5 -138.5q57 88 164.5 138t206.5 50q190 0 280.5 -114t90.5 -304zM855 1166l299 290h319l-390 -290h-228z" />
    <glyph glyph-name="Oslashacute" unicode="&#x1fe;" 
d="M833 1596l299 290h319l-390 -290h-228zM748 -23q-167 0 -297 52l-103 -157l-110 53l106 161q-120 81 -183 214t-63 308q0 57 8 127q21 167 88.5 305t173.5 236t251.5 152.5t315.5 54.5q163 0 293 -54l96 146l110 -52l-100 -151q116 -80 177.5 -212t61.5 -302
q0 -56 -8 -123q-42 -348 -260 -553t-557 -205zM1195 1159l-613 -932q78 -33 186 -33q223 0 356 140.5t165 400.5q7 56 7 113q0 204 -101 311zM373 616q0 -214 108 -322l615 935q-82 37 -192 37q-246 0 -388.5 -176t-142.5 -474z" />
    <glyph glyph-name="oslashacute" unicode="&#x1ff;" horiz-adv-x="1288" 
d="M582 -23q-96 0 -176 23l-117 -199l-93 47l113 192q-103 58 -154.5 159.5t-51.5 229.5q0 49 5 84q13 111 59 207.5t121 171t184.5 117.5t240.5 43q100 0 180 -23l105 178l93 -46l-102 -173q98 -56 146.5 -156t48.5 -228q0 -45 -6 -93q-13 -107 -58 -201.5t-117.5 -169.5
t-181.5 -119t-239 -44zM925 586q0 122 -60 192l-348 -590q39 -11 84 -11q106 0 181 58.5t109 149t34 201.5zM362 448q0 -135 67 -206l350 595q-42 14 -93 14q-102 0 -176.5 -55.5t-111 -145.5t-36.5 -202zM615 1166l299 290h319l-390 -290h-228z" />
    <glyph glyph-name="uni0200" unicode="&#x200;" horiz-adv-x="1458" 
d="M866 1594l-262 336h297l148 -336h-183zM556 1594l-313 336h319l186 -336h-192zM507 592h390q-44 207 -124 567q-109 -236 -266 -567zM-77 0l763 1456h258l412 -1456h-287l-98 355h-588l-181 -355h-279z" />
    <glyph glyph-name="uni0201" unicode="&#x201;" horiz-adv-x="1291" 
d="M801 1164l-262 336h297l148 -336h-183zM491 1164l-313 336h319l186 -336h-192zM924 589q0 124 -60 193t-183 69q-152 0 -241.5 -112t-89.5 -292q0 -126 62.5 -198t188.5 -72q108 0 182.5 56.5t107.5 147t33 208.5zM547 -23q-113 0 -200 36.5t-139.5 99.5t-79 141.5
t-26.5 168.5q0 36 5 79q13 107 56.5 203.5t114.5 175t178 125t235 46.5q187 0 270 -136l13 110h243l-126 -1026h-249l17 140q-132 -163 -312 -163z" />
    <glyph glyph-name="uni0202" unicode="&#x202;" horiz-adv-x="1458" 
d="M504 1581q28 156 117 229.5t246 73.5q151 0 223 -67t72 -209q0 -4 -0.5 -13t-0.5 -14h-188v6q0 110 -129 110q-131 0 -151 -116h-189zM507 592h390q-44 207 -124 567q-109 -236 -266 -567zM-77 0l763 1456h258l412 -1456h-287l-98 355h-588l-181 -355h-279z" />
    <glyph glyph-name="uni0203" unicode="&#x203;" horiz-adv-x="1291" 
d="M440 1151q28 156 117 229.5t246 73.5q151 0 223 -67t72 -209q0 -4 -0.5 -13t-0.5 -14h-188v6q0 110 -129 110q-131 0 -151 -116h-189zM924 589q0 124 -60 193t-183 69q-152 0 -241.5 -112t-89.5 -292q0 -126 62.5 -198t188.5 -72q108 0 182.5 56.5t107.5 147t33 208.5z
M547 -23q-113 0 -200 36.5t-139.5 99.5t-79 141.5t-26.5 168.5q0 36 5 79q13 107 56.5 203.5t114.5 175t178 125t235 46.5q187 0 270 -136l13 110h243l-126 -1026h-249l17 140q-132 -163 -312 -163z" />
    <glyph glyph-name="uni0204" unicode="&#x204;" horiz-adv-x="1249" 
d="M805 1594l-262 336h297l148 -336h-183zM495 1594l-313 336h319l186 -336h-192zM101 0l178 1456h919l-26 -218h-665l-48 -389h629l-28 -219h-626l-50 -412h691l-26 -218h-948z" />
    <glyph glyph-name="uni0205" unicode="&#x205;" horiz-adv-x="1195" 
d="M788 1164l-262 336h297l148 -336h-183zM478 1164l-313 336h319l186 -336h-192zM388 636h509q-3 108 -58.5 166.5t-147.5 58.5q-107 0 -186.5 -60t-116.5 -165zM1084 471h-720q-1 -13 -1 -36q0 -131 75.5 -194.5t208.5 -63.5q167 0 338 110l45 -180q-105 -67 -207.5 -98.5
t-222.5 -31.5q-236 0 -366.5 123.5t-130.5 329.5q0 47 5 82q13 107 60.5 204.5t122.5 172.5t181 119t228 44q106 0 185.5 -32t126 -91t69 -134.5t22.5 -168.5q0 -118 -19 -155z" />
    <glyph glyph-name="uni0206" unicode="&#x206;" horiz-adv-x="1249" 
d="M443 1581q28 156 117 229.5t246 73.5q151 0 223 -67t72 -209q0 -4 -0.5 -13t-0.5 -14h-188v6q0 110 -129 110q-131 0 -151 -116h-189zM101 0l178 1456h919l-26 -218h-665l-48 -389h629l-28 -219h-626l-50 -412h691l-26 -218h-948z" />
    <glyph glyph-name="uni0207" unicode="&#x207;" horiz-adv-x="1195" 
d="M426 1151q28 156 117 229.5t246 73.5q151 0 223 -67t72 -209q0 -4 -0.5 -13t-0.5 -14h-188v6q0 110 -129 110q-131 0 -151 -116h-189zM388 636h509q-3 108 -58.5 166.5t-147.5 58.5q-107 0 -186.5 -60t-116.5 -165zM1084 471h-720q-1 -13 -1 -36q0 -131 75.5 -194.5
t208.5 -63.5q167 0 338 110l45 -180q-105 -67 -207.5 -98.5t-222.5 -31.5q-236 0 -366.5 123.5t-130.5 329.5q0 47 5 82q13 107 60.5 204.5t122.5 172.5t181 119t228 44q106 0 185.5 -32t126 -91t69 -134.5t22.5 -168.5q0 -118 -19 -155z" />
    <glyph glyph-name="uni0208" unicode="&#x208;" horiz-adv-x="586" 
d="M422 1594l-262 336h297l148 -336h-183zM112 1594l-313 336h319l186 -336h-192zM71 0l178 1456h254l-178 -1456h-254z" />
    <glyph glyph-name="uni0209" unicode="&#x209;" horiz-adv-x="485" 
d="M372 1174l-262 336h297l148 -336h-183zM62 1174l-313 336h319l186 -336h-192zM40 0l126 1026h249l-126 -1026h-249z" />
    <glyph glyph-name="uni020A" unicode="&#x20a;" horiz-adv-x="586" 
d="M60 1581q28 156 117 229.5t246 73.5q151 0 223 -67t72 -209q0 -4 -0.5 -13t-0.5 -14h-188v6q0 110 -129 110q-131 0 -151 -116h-189zM71 0l178 1456h254l-178 -1456h-254z" />
    <glyph glyph-name="uni020B" unicode="&#x20b;" horiz-adv-x="485" 
d="M-20 1174q28 156 117 229.5t246 73.5q151 0 223 -67t72 -209q0 -4 -0.5 -13t-0.5 -14h-188v6q0 110 -129 110q-131 0 -151 -116h-189zM40 0l126 1026h249l-126 -1026h-249z" />
    <glyph glyph-name="uni020C" unicode="&#x20c;" 
d="M973 1594l-262 336h297l148 -336h-183zM663 1594l-313 336h319l186 -336h-192zM748 -23q-307 0 -478.5 169t-171.5 462q0 57 8 127q21 167 88.5 305t173.5 236t251.5 152.5t315.5 54.5q299 0 468.5 -168.5t169.5 -456.5q0 -56 -8 -123q-42 -348 -260 -553t-557 -205z
M373 616q0 -205 99.5 -313.5t295.5 -108.5q223 0 356 140.5t165 400.5q7 56 7 113q0 200 -99.5 309t-292.5 109q-246 0 -388.5 -176t-142.5 -474z" />
    <glyph glyph-name="uni020D" unicode="&#x20d;" horiz-adv-x="1286" 
d="M755 1164l-262 336h297l148 -336h-183zM445 1164l-313 336h319l186 -336h-192zM582 -23q-121 0 -214 35.5t-150 97.5t-86 143t-29 176q0 49 5 84q13 111 59 207.5t121 171t184.5 117.5t240.5 43q236 0 353.5 -123.5t117.5 -324.5q0 -45 -6 -93q-13 -107 -58 -201.5
t-117.5 -169.5t-181.5 -119t-239 -44zM925 586q0 119 -59.5 192t-179.5 73q-102 0 -176.5 -55.5t-111 -145.5t-36.5 -202q0 -120 58.5 -195.5t180.5 -75.5q106 0 181 58.5t109 149t34 201.5z" />
    <glyph glyph-name="uni020E" unicode="&#x20e;" 
d="M611 1581q28 156 117 229.5t246 73.5q151 0 223 -67t72 -209q0 -4 -0.5 -13t-0.5 -14h-188v6q0 110 -129 110q-131 0 -151 -116h-189zM748 -23q-307 0 -478.5 169t-171.5 462q0 57 8 127q21 167 88.5 305t173.5 236t251.5 152.5t315.5 54.5q299 0 468.5 -168.5
t169.5 -456.5q0 -56 -8 -123q-42 -348 -260 -553t-557 -205zM373 616q0 -205 99.5 -313.5t295.5 -108.5q223 0 356 140.5t165 400.5q7 56 7 113q0 200 -99.5 309t-292.5 109q-246 0 -388.5 -176t-142.5 -474z" />
    <glyph glyph-name="uni020F" unicode="&#x20f;" horiz-adv-x="1286" 
d="M393 1151q28 156 117 229.5t246 73.5q151 0 223 -67t72 -209q0 -4 -0.5 -13t-0.5 -14h-188v6q0 110 -129 110q-131 0 -151 -116h-189zM582 -23q-121 0 -214 35.5t-150 97.5t-86 143t-29 176q0 49 5 84q13 111 59 207.5t121 171t184.5 117.5t240.5 43q236 0 353.5 -123.5
t117.5 -324.5q0 -45 -6 -93q-13 -107 -58 -201.5t-117.5 -169.5t-181.5 -119t-239 -44zM925 586q0 119 -59.5 192t-179.5 73q-102 0 -176.5 -55.5t-111 -145.5t-36.5 -202q0 -120 58.5 -195.5t180.5 -75.5q106 0 181 58.5t109 149t34 201.5z" />
    <glyph glyph-name="uni0210" unicode="&#x210;" horiz-adv-x="1388" 
d="M797 1594l-262 336h297l148 -336h-183zM487 1594l-313 336h319l186 -336h-192zM997 1087q0 87 -52.5 119t-170.5 32h-270l-51 -407h243q301 0 301 256zM101 0l178 1456h525q87 0 155 -9t128 -31.5t99 -59t61.5 -94t22.5 -133.5q0 -30 -5 -75q-8 -59 -31.5 -112t-64 -99.5
t-102 -81.5t-138.5 -52q122 -73 164 -228l139 -481h-275l-114 433q-28 107 -71.5 145t-140.5 38h-200l-76 -616h-254z" />
    <glyph glyph-name="uni0211" unicode="&#x211;" horiz-adv-x="780" 
d="M546 1164l-262 336h297l148 -336h-183zM236 1164l-313 336h319l186 -336h-192zM97 0l95 766q12 98 12 211l-1 49h264l-16 -135q72 80 137 120.5t141 40.5q45 0 100 -15l-28 -217q-63 22 -120 22q-103 0 -176 -67t-88 -194l-73 -581h-247z" />
    <glyph glyph-name="uni0212" unicode="&#x212;" horiz-adv-x="1388" 
d="M435 1581q28 156 117 229.5t246 73.5q151 0 223 -67t72 -209q0 -4 -0.5 -13t-0.5 -14h-188v6q0 110 -129 110q-131 0 -151 -116h-189zM997 1087q0 87 -52.5 119t-170.5 32h-270l-51 -407h243q301 0 301 256zM101 0l178 1456h525q87 0 155 -9t128 -31.5t99 -59t61.5 -94
t22.5 -133.5q0 -30 -5 -75q-8 -59 -31.5 -112t-64 -99.5t-102 -81.5t-138.5 -52q122 -73 164 -228l139 -481h-275l-114 433q-28 107 -71.5 145t-140.5 38h-200l-76 -616h-254z" />
    <glyph glyph-name="uni0213" unicode="&#x213;" horiz-adv-x="780" 
d="M184 1151q28 156 117 229.5t246 73.5q151 0 223 -67t72 -209q0 -4 -0.5 -13t-0.5 -14h-188v6q0 110 -129 110q-131 0 -151 -116h-189zM97 0l95 766q12 98 12 211l-1 49h264l-16 -135q72 80 137 120.5t141 40.5q45 0 100 -15l-28 -217q-63 22 -120 22q-103 0 -176 -67
t-88 -194l-73 -581h-247z" />
    <glyph glyph-name="uni0214" unicode="&#x214;" horiz-adv-x="1509" 
d="M883 1594l-262 336h297l148 -336h-183zM573 1594l-313 336h319l186 -336h-192zM664 -23q-120 0 -211.5 24.5t-150 66t-95.5 103.5t-52 130t-15 152q0 63 10 146l105 857h254l-108 -868q-6 -51 -6 -93q0 -301 296 -301q76 0 136.5 19t112.5 62.5t86.5 122.5t47.5 191
l108 867h254l-105 -858q-11 -87 -30 -159.5t-52 -145.5t-83.5 -128t-119.5 -98.5t-166 -66.5t-216 -23z" />
    <glyph glyph-name="uni0215" unicode="&#x215;" horiz-adv-x="1186" 
d="M711 1164l-262 336h297l148 -336h-183zM401 1164l-313 336h319l186 -336h-192zM460 -23q-167 0 -258.5 87t-91.5 241q0 29 5 71l79 650h246l-79 -646q-3 -21 -3 -40q0 -82 47 -122.5t130 -40.5q111 0 171 55.5t76 178.5l75 615h248l-91 -750q-5 -43 -23 -276h-256l15 152
q-9 -22 -29 -48.5t-54.5 -56.5t-89 -50t-117.5 -20z" />
    <glyph glyph-name="uni0216" unicode="&#x216;" horiz-adv-x="1509" 
d="M521 1581q28 156 117 229.5t246 73.5q151 0 223 -67t72 -209q0 -4 -0.5 -13t-0.5 -14h-188v6q0 110 -129 110q-131 0 -151 -116h-189zM664 -23q-120 0 -211.5 24.5t-150 66t-95.5 103.5t-52 130t-15 152q0 63 10 146l105 857h254l-108 -868q-6 -51 -6 -93
q0 -301 296 -301q76 0 136.5 19t112.5 62.5t86.5 122.5t47.5 191l108 867h254l-105 -858q-11 -87 -30 -159.5t-52 -145.5t-83.5 -128t-119.5 -98.5t-166 -66.5t-216 -23z" />
    <glyph glyph-name="uni0217" unicode="&#x217;" horiz-adv-x="1186" 
d="M350 1151q28 156 117 229.5t246 73.5q151 0 223 -67t72 -209q0 -4 -0.5 -13t-0.5 -14h-188v6q0 110 -129 110q-131 0 -151 -116h-189zM460 -23q-167 0 -258.5 87t-91.5 241q0 29 5 71l79 650h246l-79 -646q-3 -21 -3 -40q0 -82 47 -122.5t130 -40.5q111 0 171 55.5
t76 178.5l75 615h248l-91 -750q-5 -43 -23 -276h-256l15 152q-9 -22 -29 -48.5t-54.5 -56.5t-89 -50t-117.5 -20z" />
    <glyph glyph-name="Scommaaccent" unicode="&#x218;" horiz-adv-x="1256" 
d="M230 -647l176 505h280l-244 -505h-212zM833 439q0 54 -37.5 91t-147.5 79q-26 9 -94.5 32t-102.5 35q-153 61 -224 139.5t-71 204.5q0 114 44 204t120.5 145.5t175.5 84.5t215 29q195 0 298.5 -38t188.5 -130l-152 -168q-106 117 -325 117q-134 0 -213 -49t-79 -158
q0 -58 39 -94.5t152 -77.5q28 -10 103 -35.5t109 -38.5q148 -62 210.5 -137.5t62.5 -197.5q0 -131 -47.5 -230t-129.5 -156.5t-181.5 -85t-215.5 -27.5q-150 0 -284.5 44t-203.5 122l130 182q64 -56 173 -93.5t195 -37.5q147 0 219.5 60t72.5 185z" />
    <glyph glyph-name="scommaaccent" unicode="&#x219;" horiz-adv-x="988" 
d="M145 -647l176 505h280l-244 -505h-212zM656 323q0 24 -26 45t-102 47l-140 47q-62 21 -100.5 39t-75 46t-53 67t-16.5 92q0 73 23.5 132t63 98t94 65t114 37.5t125.5 11.5q98 0 193 -25t163 -74l-86 -170q-56 32 -133.5 54t-142.5 22q-92 0 -133 -25t-41 -86
q0 -34 32.5 -55.5t137.5 -57.5l129 -45q102 -35 151.5 -88t49.5 -150q0 -80 -25 -145t-66 -106.5t-96 -69.5t-111.5 -40t-116.5 -12q-135 0 -243 38t-169 91l84 178q56 -49 148 -80.5t182 -31.5q92 0 139 35.5t47 115.5z" />
    <glyph glyph-name="uni021A" unicode="&#x21a;" horiz-adv-x="1181" 
d="M192 -647l176 505h280l-244 -505h-212zM371 0l152 1238h-449l26 218h1159l-26 -218h-456l-152 -1238h-254z" />
    <glyph glyph-name="uni021B" unicode="&#x21b;" horiz-adv-x="804" 
d="M46 -647l176 505h280l-244 -505h-212zM656 1h-100q-76 0 -128.5 5.5t-104 22.5t-82 47t-49.5 82t-19 125q0 42 6 93l59 484h-214l21 166h224l29 240l246 73l-38 -313h268l-21 -166h-268l-61 -499q-4 -28 -4 -55q0 -75 51 -95t208 -20z" />
    <glyph glyph-name="uni021E" unicode="&#x21e;" horiz-adv-x="1572" 
d="M762 1615l-235 367h254l102 -145l140 145h266l-325 -367h-202zM101 0l178 1456h254l-73 -599h683l73 599h254l-178 -1456h-249l79 637h-683l-79 -637h-259z" />
    <glyph glyph-name="uni021F" unicode="&#x21f;" horiz-adv-x="1219" 
d="M54 0l180 1457h248l-70 -564q47 71 145 115t181 44q81 0 142.5 -22t98 -56.5t59.5 -84t31 -98.5t8 -105q0 -59 -8 -115l-70 -571h-248l72 579q6 48 6 86q0 98 -38 142t-114 44q-102 0 -194.5 -70.5t-104.5 -162.5l-76 -618h-248zM729 1185l-235 367h254l102 -145l140 145
h266l-325 -367h-202z" />
    <glyph glyph-name="uni0226" unicode="&#x226;" horiz-adv-x="1458" 
d="M722 1596l27 228h246l-27 -228h-246zM507 592h390q-44 207 -124 567q-109 -236 -266 -567zM-77 0l763 1456h258l412 -1456h-287l-98 355h-588l-181 -355h-279z" />
    <glyph glyph-name="uni0227" unicode="&#x227;" horiz-adv-x="1291" 
d="M658 1166l27 228h246l-27 -228h-246zM924 589q0 124 -60 193t-183 69q-152 0 -241.5 -112t-89.5 -292q0 -126 62.5 -198t188.5 -72q108 0 182.5 56.5t107.5 147t33 208.5zM547 -23q-113 0 -200 36.5t-139.5 99.5t-79 141.5t-26.5 168.5q0 36 5 79q13 107 56.5 203.5
t114.5 175t178 125t235 46.5q187 0 270 -136l13 110h243l-126 -1026h-249l17 140q-132 -163 -312 -163z" />
    <glyph glyph-name="uni0228" unicode="&#x228;" horiz-adv-x="1249" 
d="M625 -216q0 32 -31 48t-112 28l-29 4l53 175h124l-32 -114q230 -16 230 -160q0 -9 -2 -27q-14 -113 -95 -172.5t-189 -59.5q-116 0 -229 68l32 162q79 -37 153 -37q60 0 93.5 17.5t33.5 67.5zM101 0l178 1456h919l-26 -218h-665l-48 -389h629l-28 -219h-626l-50 -412h691
l-26 -218h-948z" />
    <glyph glyph-name="uni0229" unicode="&#x229;" horiz-adv-x="1195" 
d="M388 636h509q-3 108 -58.5 166.5t-147.5 58.5q-107 0 -186.5 -60t-116.5 -165zM1084 471h-720q-1 -13 -1 -36q0 -131 75.5 -194.5t208.5 -63.5q167 0 338 110l45 -180q-105 -67 -207.5 -98.5t-222.5 -31.5q-236 0 -366.5 123.5t-130.5 329.5q0 47 5 82q13 107 60.5 204.5
t122.5 172.5t181 119t228 44q106 0 185.5 -32t126 -91t69 -134.5t22.5 -168.5q0 -118 -19 -155zM662 -216q0 32 -31 48t-112 28l-29 4l53 175h124l-32 -114q230 -16 230 -160q0 -9 -2 -27q-14 -113 -95 -172.5t-189 -59.5q-116 0 -229 68l32 162q79 -37 153 -37
q60 0 93.5 17.5t33.5 67.5z" />
    <glyph glyph-name="uni022E" unicode="&#x22e;" 
d="M829 1596l27 228h246l-27 -228h-246zM748 -23q-307 0 -478.5 169t-171.5 462q0 57 8 127q21 167 88.5 305t173.5 236t251.5 152.5t315.5 54.5q299 0 468.5 -168.5t169.5 -456.5q0 -56 -8 -123q-42 -348 -260 -553t-557 -205zM373 616q0 -205 99.5 -313.5t295.5 -108.5
q223 0 356 140.5t165 400.5q7 56 7 113q0 200 -99.5 309t-292.5 109q-246 0 -388.5 -176t-142.5 -474z" />
    <glyph glyph-name="uni022F" unicode="&#x22f;" horiz-adv-x="1286" 
d="M582 -23q-121 0 -214 35.5t-150 97.5t-86 143t-29 176q0 49 5 84q13 111 59 207.5t121 171t184.5 117.5t240.5 43q236 0 353.5 -123.5t117.5 -324.5q0 -45 -6 -93q-13 -107 -58 -201.5t-117.5 -169.5t-181.5 -119t-239 -44zM925 586q0 119 -59.5 192t-179.5 73
q-102 0 -176.5 -55.5t-111 -145.5t-36.5 -202q0 -120 58.5 -195.5t180.5 -75.5q106 0 181 58.5t109 149t34 201.5zM611 1166l27 228h246l-27 -228h-246z" />
    <glyph glyph-name="uni0232" unicode="&#x232;" horiz-adv-x="1281" 
d="M414 1576l19 157h625l-19 -157h-625zM416 0l68 563l-409 893h289l278 -667l441 667h296l-641 -892l-68 -564h-254z" />
    <glyph glyph-name="uni0233" unicode="&#x233;" horiz-adv-x="1114" 
d="M164 -445l-85 168q147 55 224 112t110 138l20 50l-313 1003h258l207 -736l346 736h253l-549 -1082q-152 -293 -471 -389zM353 1146l19 157h625l-19 -157h-625z" />
    <glyph glyph-name="uni0237" unicode="&#x237;" horiz-adv-x="600" 
d="M16 -362q-50 0 -96 6.5t-67.5 12.5t-21.5 8h3l48 170q61 -19 140 -19q48 0 75.5 12.5t49 58t32.5 133.5l124 1006h239l-127 -1035q-11 -92 -32.5 -152.5t-65.5 -108.5t-118 -70t-183 -22zM-118 -165v1h-3z" />
    <glyph glyph-name="afii57929" unicode="&#x2bc;" horiz-adv-x="600" 
d="M28 1227l170 590h280l-268 -590h-182z" />
    <glyph glyph-name="circumflex" unicode="&#x2c6;" horiz-adv-x="699" 
d="M-61 1185l304 370h253l218 -370h-233l-127 189l-188 -189h-227z" />
    <glyph glyph-name="caron" unicode="&#x2c7;" horiz-adv-x="699" 
d="M227 1185l-235 367h254l102 -145l140 145h266l-325 -367h-202z" />
    <glyph glyph-name="uni02C9" unicode="&#x2c9;" horiz-adv-x="756" 
d="M56 1146l19 157h625l-19 -157h-625z" />
    <glyph glyph-name="breve" unicode="&#x2d8;" horiz-adv-x="700" 
d="M334 1160q-287 0 -287 267q0 19 1 29h174v-11q0 -66 36.5 -88.5t97.5 -22.5q63 0 104 24.5t57 97.5h172q-29 -154 -118.5 -225t-236.5 -71z" />
    <glyph glyph-name="dotaccent" unicode="&#x2d9;" horiz-adv-x="524" 
d="M114 1166l27 228h246l-27 -228h-246z" />
    <glyph glyph-name="ring" unicode="&#x2da;" horiz-adv-x="700" 
d="M365 1579q85 0 140.5 -52t55.5 -133q0 -103 -75 -172t-174 -69q-85 0 -140.5 51.5t-55.5 132.5q0 104 75 173t174 69zM447 1379q0 41 -27 68t-68 27q-47 0 -83.5 -35.5t-36.5 -85.5q0 -41 27 -68.5t67 -27.5q48 0 84.5 35.5t36.5 86.5z" />
    <glyph glyph-name="ogonek" unicode="&#x2db;" horiz-adv-x="508" 
d="M253 -164q0 -40 57 -40q52 0 179 37l-18 -148q-141 -41 -259 -41q-92 0 -145 28t-53 85q0 29 9 55.5t22.5 47t36 41t40.5 34t46.5 29t44.5 23t42.5 19.5t33.5 15l135 2q-76 -40 -123.5 -92.5t-47.5 -94.5z" />
    <glyph glyph-name="tilde" unicode="&#x2dc;" horiz-adv-x="739" 
d="M520 1362q30 0 49.5 22.5t26.5 85.5h163q-19 -149 -88.5 -222.5t-175.5 -73.5q-41 0 -97 27t-105 53.5t-73 26.5q-22 0 -45 -25t-34 -77h-160q15 128 86 209.5t168 81.5q55 0 110.5 -27t100.5 -54t74 -27z" />
    <glyph glyph-name="hungarumlaut" unicode="&#x2dd;" horiz-adv-x="969" 
d="M356 1112l273 344h305l-392 -344h-186zM48 1112l236 344h286l-343 -344h-179z" />
    <glyph glyph-name="uni0307" unicode="&#x307;" horiz-adv-x="524" 
d="M122 1153l28 233h252l-28 -233h-252z" />
    <glyph glyph-name="uni030F" unicode="&#x30f;" horiz-adv-x="969" 
d="M676 1164l-262 336h297l148 -336h-183zM366 1164l-313 336h319l186 -336h-192z" />
    <glyph glyph-name="uni0311" unicode="&#x311;" horiz-adv-x="629" 
d="M-32 1151q28 156 117 229.5t246 73.5q151 0 223 -67t72 -209q0 -4 -0.5 -13t-0.5 -14h-188v6q0 110 -129 110q-131 0 -151 -116h-189z" />
    <glyph glyph-name="uni0312" unicode="&#x312;" horiz-adv-x="600" 
d="M613 1736l-174 -497h-278l242 497h210z" />
    <glyph glyph-name="uni0326" unicode="&#x326;" horiz-adv-x="540" 
d="M42 -647l176 505h280l-244 -505h-212z" />
    <glyph glyph-name="uni0358" unicode="&#x358;" horiz-adv-x="524" 
d="M122 1153l28 233h252l-28 -233h-252z" />
    <glyph glyph-name="uni0394" unicode="&#x394;" horiz-adv-x="1502" 
d="M259 217h800l-296 942zM-28 0l27 219l701 1237h271l404 -1222l-28 -234h-1375z" />
    <glyph glyph-name="Sigma" unicode="&#x3a3;" horiz-adv-x="1262" 
d="M-24 -267l16 133l610 738l-408 724l16 128h1066l-26 -204h-692l349 -646l-524 -661h748l-25 -212h-1130z" />
    <glyph glyph-name="uni03A9" unicode="&#x3a9;" horiz-adv-x="1603" 
d="M887 1479q185 0 328.5 -67t226 -197t82.5 -306q0 -45 -6 -95q-24 -204 -101.5 -347t-242.5 -259l327 3l-51 -211h-626l21 170q159 93 268 248t133 351q5 42 5 88q0 57 -8.5 110t-34.5 110.5t-67.5 99.5t-112.5 69.5t-164 27.5q-82 0 -152 -20.5t-118.5 -53.5t-88 -79
t-64 -91.5t-42 -97t-25.5 -89.5t-13 -75q-6 -46 -6 -91q0 -164 71.5 -294t191.5 -213l-21 -170h-618l4 211l317 -3q-110 94 -159 205.5t-49 256.5q0 184 60.5 337t167 256t252.5 159.5t315 56.5z" />
    <glyph glyph-name="uni03BC" unicode="&#x3bc;" horiz-adv-x="1179" 
d="M303 -213h-254l152 1239h241l-64 -560q-6 -52 -6 -97q0 -96 35.5 -144.5t118.5 -48.5q58 0 99.5 10.5t76 37.5t55.5 76.5t31 124.5l73 601h251l-94 -764q-16 -130 -16 -262h-259l15 149q-26 -50 -63.5 -86t-78.5 -53.5t-76 -25t-69 -7.5q-41 0 -82 14t-57 36z" />
    <glyph glyph-name="pi" unicode="&#x3c0;" horiz-adv-x="1288" 
d="M98 0q43 65 80 165t65 225.5t46 225t37 230.5q-84 -2 -146.5 -20t-88.5 -41l5 178q31 25 103 44t164 19h915l-22 -180h-205l-64 -521q-4 -34 -4 -54q0 -93 85 -93q39 0 97 13l-25 -197q-75 -14 -155 -14q-112 0 -175.5 55.5t-63.5 173.5q0 31 4 59l72 578h-272
q-4 -27 -10.5 -73t-28.5 -171t-44.5 -229.5t-55.5 -213.5t-65 -159h-248z" />
    <glyph glyph-name="uni1E02" unicode="&#x1e02;" horiz-adv-x="1367" 
d="M639 1596l27 228h246l-27 -228h-246zM960 1085q0 88 -71 120.5t-218 32.5h-164l-48 -386h217q43 0 82 7t76.5 24t65 42.5t44 66.5t16.5 93zM950 474q0 97 -66 134.5t-224 37.5h-223l-53 -429h229q168 0 252.5 62t84.5 195zM101 0l178 1456h403q59 0 106 -2t107 -9.5
t105.5 -20.5t92 -37t76.5 -57t49 -81.5t19 -109.5q0 -16 -4 -56q-27 -216 -232 -311q111 -30 165 -108.5t54 -188.5q0 -35 -4 -64q-10 -83 -51.5 -156t-112.5 -130.5t-179.5 -91t-240.5 -33.5h-531z" />
    <glyph glyph-name="uni1E03" unicode="&#x1e03;" horiz-adv-x="1291" 
d="M697 1166l27 228h246l-27 -228h-246zM903 580q0 122 -55 196.5t-166 74.5q-145 0 -237 -115t-92 -282q0 -120 60.5 -198.5t178.5 -78.5q99 0 171.5 58t106 147.5t33.5 197.5zM613 -23q-103 0 -182 44.5t-109 105.5l-15 -127h-253q38 251 41 272l145 1185h247l-71 -575
q7 19 31 44.5t64 55t106 50t142 20.5q193 0 300 -121t107 -321q0 -136 -47 -256t-124 -201.5t-177 -128.5t-205 -47z" />
    <glyph glyph-name="uni1E0A" unicode="&#x1e0a;" horiz-adv-x="1571" 
d="M730 1596l27 228h246l-27 -228h-246zM101 0l178 1456h406q397 0 593 -153.5t196 -443.5q0 -55 -8 -122q-45 -361 -279 -549t-639 -188h-447zM382 218h205q265 0 422.5 132t188.5 388q6 47 6 88q0 412 -522 412h-175z" />
    <glyph glyph-name="uni1E0B" unicode="&#x1e0b;" horiz-adv-x="1267" 
d="M512 1166l27 228h246l-27 -228h-246zM864 584q0 121 -54.5 194t-167.5 73q-98 0 -168 -58t-102.5 -149.5t-32.5 -204.5q0 -117 53.5 -189.5t168.5 -72.5q75 0 134 34t95 91.5t55 129t19 152.5zM485 -23q-179 0 -293.5 120.5t-114.5 323.5q0 49 5 87q13 109 56 206
t111 173t168.5 120.5t218.5 44.5q106 0 175 -43.5t90 -90.5l66 539h247l-145 -1183q-2 -13 -25 -274h-254l15 131q-30 -54 -112.5 -104t-207.5 -50z" />
    <glyph glyph-name="uni1E1E" unicode="&#x1e1e;" horiz-adv-x="1145" 
d="M638 1596l27 228h246l-27 -228h-246zM101 0l178 1456h889l-27 -218h-634l-49 -397h598l-26 -219h-598l-77 -622h-254z" />
    <glyph glyph-name="uni1E1F" unicode="&#x1e1f;" horiz-adv-x="820" 
d="M170 0l105 860h-191l21 166h191l5 40q9 70 17.5 116t24 94.5t38 78t57 57t82.5 42t113.5 23t150.5 8.5h53l-32 -193q-57 0 -91 -2t-63.5 -11.5t-44 -22t-27.5 -40.5t-19 -60t-13 -87l-4 -43h231l-21 -166h-232l-104 -860h-247zM363 1596l27 228h246l-27 -228h-246z" />
    <glyph glyph-name="uni1E40" unicode="&#x1e40;" horiz-adv-x="1987" 
d="M981 1596l27 228h246l-27 -228h-246zM101 0l178 1456h298q28 -85 163 -497.5t208 -632.5q97 167 201 350.5t240.5 426.5t198.5 353h298l-178 -1456h-238l128 1040q-91 -152 -190 -324.5t-220.5 -387.5t-186.5 -328h-187q-40 117 -107.5 324.5t-125 379t-111.5 319.5
l-124 -1023h-245z" />
    <glyph glyph-name="uni1E41" unicode="&#x1e41;" horiz-adv-x="1839" 
d="M95 0l86 696q10 78 14 142.5t5 115.5t2 72h261l-16 -134q46 70 130 115t177 45q99 0 175 -47.5t109 -142.5q153 190 356 190q166 0 248 -89t82 -249q0 -35 -5 -85l-78 -629h-248l76 614q4 36 4 56q0 77 -28.5 129t-94.5 52q-110 0 -191 -84t-94 -186l-72 -581h-248
l78 627q3 25 3 53q0 171 -134 171q-104 0 -182.5 -68.5t-89.5 -159.5l-77 -623h-248zM928 1166l27 228h246l-27 -228h-246z" />
    <glyph glyph-name="uni1E56" unicode="&#x1e56;" horiz-adv-x="1299" 
d="M662 1596l27 228h246l-27 -228h-246zM1006 1080q0 26 -5.5 46.5t-13 35.5t-24 27t-29.5 19.5t-40 13t-44.5 8t-52.5 4t-56 1.5h-63h-171l-48 -390h217q78 0 134 10t102.5 35t70 72.5t23.5 117.5zM101 0l178 1456h415q77 0 133 -2.5t120.5 -10.5t109.5 -22t89 -39
t70.5 -60t42.5 -85.5t16 -115.5q0 -44 -5 -80q-12 -94 -46 -164.5t-86 -117.5t-127 -76.5t-161.5 -42t-196.5 -12.5h-221l-77 -628h-254z" />
    <glyph glyph-name="uni1E57" unicode="&#x1e57;" horiz-adv-x="1273" 
d="M937 587q0 119 -55 191.5t-168 72.5q-143 0 -224 -116t-81 -288q0 -121 54 -195.5t169 -74.5q100 0 170.5 59t102.5 149.5t32 201.5zM71 -395l132 1076q9 75 24 345h263l-18 -147q18 56 113.5 114.5t223.5 58.5q122 0 211.5 -61.5t133 -161t43.5 -222.5q0 -35 -5 -82
q-13 -105 -56.5 -202.5t-109.5 -175t-160.5 -124t-201.5 -46.5q-64 0 -119.5 18t-89 44.5t-52.5 53.5t-21 48l-66 -536h-245zM678 1166l27 228h246l-27 -228h-246z" />
    <glyph glyph-name="uni1E60" unicode="&#x1e60;" horiz-adv-x="1256" 
d="M600 1596l27 228h246l-27 -228h-246zM833 439q0 54 -37.5 91t-147.5 79q-26 9 -94.5 32t-102.5 35q-153 61 -224 139.5t-71 204.5q0 114 44 204t120.5 145.5t175.5 84.5t215 29q195 0 298.5 -38t188.5 -130l-152 -168q-106 117 -325 117q-134 0 -213 -49t-79 -158
q0 -58 39 -94.5t152 -77.5q28 -10 103 -35.5t109 -38.5q148 -62 210.5 -137.5t62.5 -197.5q0 -131 -47.5 -230t-129.5 -156.5t-181.5 -85t-215.5 -27.5q-150 0 -284.5 44t-203.5 122l130 182q64 -56 173 -93.5t195 -37.5q147 0 219.5 60t72.5 185z" />
    <glyph glyph-name="uni1E61" unicode="&#x1e61;" horiz-adv-x="988" 
d="M656 323q0 24 -26 45t-102 47l-140 47q-62 21 -100.5 39t-75 46t-53 67t-16.5 92q0 73 23.5 132t63 98t94 65t114 37.5t125.5 11.5q98 0 193 -25t163 -74l-86 -170q-56 32 -133.5 54t-142.5 22q-92 0 -133 -25t-41 -86q0 -34 32.5 -55.5t137.5 -57.5l129 -45
q102 -35 151.5 -88t49.5 -150q0 -80 -25 -145t-66 -106.5t-96 -69.5t-111.5 -40t-116.5 -12q-135 0 -243 38t-169 91l84 178q56 -49 148 -80.5t182 -31.5q92 0 139 35.5t47 115.5zM466 1166l27 228h246l-27 -228h-246z" />
    <glyph glyph-name="uni1E6A" unicode="&#x1e6a;" horiz-adv-x="1181" 
d="M592 1596l27 228h246l-27 -228h-246zM371 0l152 1238h-449l26 218h1159l-26 -218h-456l-152 -1238h-254z" />
    <glyph glyph-name="uni1E6B" unicode="&#x1e6b;" horiz-adv-x="804" 
d="M656 1h-100q-76 0 -128.5 5.5t-104 22.5t-82 47t-49.5 82t-19 125q0 42 6 93l59 484h-214l21 166h224l29 240l246 73l-38 -313h268l-21 -166h-268l-61 -499q-4 -28 -4 -55q0 -75 51 -95t208 -20zM338 1412l27 228h246l-27 -228h-246z" />
    <glyph glyph-name="Wgrave" unicode="&#x1e80;" horiz-adv-x="2096" 
d="M1050 1596l-316 289h318l226 -289h-228zM339 0l-238 1456h270q15 -104 51.5 -354.5t62 -435.5t46.5 -360q69 177 147 361t189 435.5t155 353.5h242q22 -114 71.5 -357.5t85 -431.5t62.5 -366q62 175 131 361.5t163 436.5t134 357h262l-584 -1456h-291l-205 1105
l-467 -1105h-287z" />
    <glyph glyph-name="wgrave" unicode="&#x1e81;" horiz-adv-x="1685" 
d="M323 0l-246 1026h264q10 -48 64 -313.5t81 -407.5q62 137 177 387t154 334h216q13 -64 62.5 -324.5t79.5 -398.5q63 144 185.5 411t142.5 312h231l-515 -1026h-207q-17 80 -47 220t-54.5 257t-45.5 221q-63 -134 -180 -377t-154 -321h-208zM838 1166l-316 289h318
l226 -289h-228z" />
    <glyph glyph-name="Wacute" unicode="&#x1e82;" horiz-adv-x="2096" 
d="M1043 1596l299 290h319l-390 -290h-228zM339 0l-238 1456h270q15 -104 51.5 -354.5t62 -435.5t46.5 -360q69 177 147 361t189 435.5t155 353.5h242q22 -114 71.5 -357.5t85 -431.5t62.5 -366q62 175 131 361.5t163 436.5t134 357h262l-584 -1456h-291l-205 1105
l-467 -1105h-287z" />
    <glyph glyph-name="wacute" unicode="&#x1e83;" horiz-adv-x="1685" 
d="M323 0l-246 1026h264q10 -48 64 -313.5t81 -407.5q62 137 177 387t154 334h216q13 -64 62.5 -324.5t79.5 -398.5q63 144 185.5 411t142.5 312h231l-515 -1026h-207q-17 80 -47 220t-54.5 257t-45.5 221q-63 -134 -180 -377t-154 -321h-208zM830 1166l299 290h319
l-390 -290h-228z" />
    <glyph glyph-name="Wdieresis" unicode="&#x1e84;" horiz-adv-x="2096" 
d="M1250 1581l29 225h246l-29 -225h-246zM792 1581l29 225h247l-29 -225h-247zM339 0l-238 1456h270q15 -104 51.5 -354.5t62 -435.5t46.5 -360q69 177 147 361t189 435.5t155 353.5h242q22 -114 71.5 -357.5t85 -431.5t62.5 -366q62 175 131 361.5t163 436.5t134 357h262
l-584 -1456h-291l-205 1105l-467 -1105h-287z" />
    <glyph glyph-name="wdieresis" unicode="&#x1e85;" horiz-adv-x="1685" 
d="M323 0l-246 1026h264q10 -48 64 -313.5t81 -407.5q62 137 177 387t154 334h216q13 -64 62.5 -324.5t79.5 -398.5q63 144 185.5 411t142.5 312h231l-515 -1026h-207q-17 80 -47 220t-54.5 257t-45.5 221q-63 -134 -180 -377t-154 -321h-208zM1037 1151l29 225h246
l-29 -225h-246zM579 1151l29 225h247l-29 -225h-247z" />
    <glyph glyph-name="uni1EBC" unicode="&#x1ebc;" horiz-adv-x="1249" 
d="M859 1792q30 0 49.5 22.5t26.5 85.5h163q-19 -149 -88.5 -222.5t-175.5 -73.5q-41 0 -97 27t-105 53.5t-73 26.5q-22 0 -45 -25t-34 -77h-160q15 128 86 209.5t168 81.5q55 0 110.5 -27t100.5 -54t74 -27zM101 0l178 1456h919l-26 -218h-665l-48 -389h629l-28 -219h-626
l-50 -412h691l-26 -218h-948z" />
    <glyph glyph-name="uni1EBD" unicode="&#x1ebd;" horiz-adv-x="1195" 
d="M843 1362q30 0 49.5 22.5t26.5 85.5h163q-19 -149 -88.5 -222.5t-175.5 -73.5q-41 0 -97 27t-105 53.5t-73 26.5q-22 0 -45 -25t-34 -77h-160q15 128 86 209.5t168 81.5q55 0 110.5 -27t100.5 -54t74 -27zM388 636h509q-3 108 -58.5 166.5t-147.5 58.5q-107 0 -186.5 -60
t-116.5 -165zM1084 471h-720q-1 -13 -1 -36q0 -131 75.5 -194.5t208.5 -63.5q167 0 338 110l45 -180q-105 -67 -207.5 -98.5t-222.5 -31.5q-236 0 -366.5 123.5t-130.5 329.5q0 47 5 82q13 107 60.5 204.5t122.5 172.5t181 119t228 44q106 0 185.5 -32t126 -91t69 -134.5
t22.5 -168.5q0 -118 -19 -155z" />
    <glyph glyph-name="Ygrave" unicode="&#x1ef2;" horiz-adv-x="1281" 
d="M658 1596l-316 289h318l226 -289h-228zM416 0l68 563l-409 893h289l278 -667l441 667h296l-641 -892l-68 -564h-254z" />
    <glyph glyph-name="ygrave" unicode="&#x1ef3;" horiz-adv-x="1114" 
d="M164 -445l-85 168q147 55 224 112t110 138l20 50l-313 1003h258l207 -736l346 736h253l-549 -1082q-152 -293 -471 -389zM597 1166l-316 289h318l226 -289h-228z" />
    <glyph glyph-name="uni1EF8" unicode="&#x1ef8;" horiz-adv-x="1281" 
d="M845 1792q30 0 49.5 22.5t26.5 85.5h163q-19 -149 -88.5 -222.5t-175.5 -73.5q-41 0 -97 27t-105 53.5t-73 26.5q-22 0 -45 -25t-34 -77h-160q15 128 86 209.5t168 81.5q55 0 110.5 -27t100.5 -54t74 -27zM416 0l68 563l-409 893h289l278 -667l441 667h296l-641 -892
l-68 -564h-254z" />
    <glyph glyph-name="uni1EF9" unicode="&#x1ef9;" horiz-adv-x="1114" 
d="M164 -445l-85 168q147 55 224 112t110 138l20 50l-313 1003h258l207 -736l346 736h253l-549 -1082q-152 -293 -471 -389zM784 1362q30 0 49.5 22.5t26.5 85.5h163q-19 -149 -88.5 -222.5t-175.5 -73.5q-41 0 -97 27t-105 53.5t-73 26.5q-22 0 -45 -25t-34 -77h-160
q15 128 86 209.5t168 81.5q55 0 110.5 -27t100.5 -54t74 -27z" />
    <glyph glyph-name="endash" unicode="&#x2013;" horiz-adv-x="1074" 
d="M-28 449l25 209h1105l-25 -209h-1105z" />
    <glyph glyph-name="emdash" unicode="&#x2014;" horiz-adv-x="2171" 
d="M17 453l25 205h2112l-25 -205h-2112z" />
    <glyph glyph-name="afii00208" unicode="&#x2015;" horiz-adv-x="4095" 
d="M43 453l23 188h3987l-23 -188h-3987z" />
    <glyph glyph-name="quoteleft" unicode="&#x2018;" horiz-adv-x="576" 
d="M272 865l-94 591h284l-34 -591h-156z" />
    <glyph glyph-name="quoteright" unicode="&#x2019;" horiz-adv-x="632" 
d="M76 866l170 590h280l-268 -590h-182z" />
    <glyph glyph-name="quotesinglbase" unicode="&#x201a;" horiz-adv-x="696" 
d="M123 -325l187 587h274l-240 -587h-221z" />
    <glyph glyph-name="quotedblleft" unicode="&#x201c;" horiz-adv-x="1024" 
d="M556 865l251 591h210l-185 -591h-276zM94 865l263 591h209l-186 -591h-286z" />
    <glyph glyph-name="quotedblright" unicode="&#x201d;" horiz-adv-x="1024" 
d="M556 865l186 591h272l-243 -591h-215zM140 865l182 591h276l-241 -591h-217z" />
    <glyph glyph-name="quotedblbase" unicode="&#x201e;" horiz-adv-x="1024" 
d="M457 -220l171 482h274l-229 -482h-216zM57 -220l170 482h273l-221 -482h-222z" />
    <glyph glyph-name="dagger" unicode="&#x2020;" horiz-adv-x="1022" 
d="M302 148l90 724h-326l25 207h326l41 333h198l-41 -333h329l-25 -207h-326l-90 -724h-201z" />
    <glyph glyph-name="daggerdbl" unicode="&#x2021;" horiz-adv-x="1174" 
d="M198 1083h338l45 373h220l-45 -373h325l-23 -188h-325l-46 -363h316l-22 -180h-316l-56 -464h-220l56 464h-341l22 180h341l46 363h-338z" />
    <glyph glyph-name="bullet" unicode="&#x2022;" horiz-adv-x="989" 
d="M529 1010q136 0 220 -83t84 -206q0 -99 -54 -183t-142.5 -132t-187.5 -48q-138 0 -220 81.5t-82 202.5q0 100 54 185.5t141.5 134t186.5 48.5z" />
    <glyph glyph-name="ellipsis" unicode="&#x2026;" horiz-adv-x="1620" 
d="M1141 -11l33 271h298l-32 -271h-299zM619 -11l33 271h302l-32 -271h-303zM98 -11l33 271h301l-31 -271h-303z" />
    <glyph glyph-name="perthousand" unicode="&#x2030;" horiz-adv-x="2755" 
d="M2291 740q150 0 237.5 -93t87.5 -235q0 -26 -3 -53q-21 -166 -135 -272.5t-280 -106.5q-150 0 -237.5 89t-87.5 232q0 186 119.5 312.5t298.5 126.5zM2218 136q79 0 124 52.5t60 170.5q4 31 4 65q0 159 -134 159q-82 0 -126 -55t-58 -168q-5 -42 -5 -67q0 -157 135 -157z
M1434 740q150 0 238 -93t88 -235q0 -26 -3 -53q-21 -166 -135 -272.5t-280 -106.5q-150 0 -237.5 89t-87.5 232q0 186 119 312.5t298 126.5zM1362 136q79 0 124 52.5t60 170.5q4 31 4 65q0 159 -134 159q-81 0 -125.5 -55t-58.5 -168q-5 -42 -5 -67q0 -157 135 -157zM297 0
l1109 1456h203l-1109 -1456h-203zM557 1474q152 0 238 -84.5t86 -230.5q0 -206 -116.5 -325t-300.5 -119q-153 0 -239.5 82t-86.5 230q0 203 117 325t302 122zM482 871q79 0 124.5 52.5t60.5 169.5q4 32 4 65q0 160 -135 160q-81 0 -125.5 -55.5t-58.5 -168.5q-4 -31 -4 -64
q0 -83 33.5 -121t100.5 -38z" />
    <glyph glyph-name="guilsinglleft" unicode="&#x2039;" horiz-adv-x="725" 
d="M368 158l-230 383l331 381h200l-286 -382l183 -382h-198z" />
    <glyph glyph-name="guilsinglright" unicode="&#x203a;" horiz-adv-x="725" 
d="M43 157l286 382l-183 382h199l230 -383l-331 -381h-201z" />
    <glyph glyph-name="fraction" unicode="&#x2044;" horiz-adv-x="1134" 
d="M-101 0l1063 1456h249l-1063 -1456h-249z" />
    <glyph glyph-name="uni2074" unicode="&#x2074;" horiz-adv-x="762" 
d="M227 973h180l31 256zM368 642l24 195h-367l13 115l432 504h184l-60 -483h118l-17 -136h-117l-24 -195h-186z" />
    <glyph glyph-name="Euro" unicode="&#x20ac;" horiz-adv-x="1460" 
d="M111 504l18 112h252l23 208h-255l19 118h914l-21 -118h-622l-24 -208h591l-20 -112h-875zM552 642q0 -205 116 -325t303 -120q220 0 420 147l61 -201q-233 -165 -524 -165q-132 0 -248 42t-205 120t-140.5 200t-51.5 272q0 59 7 115q18 148 74 273.5t135.5 213
t178.5 149.5t203.5 91t210.5 29q286 0 467 -157l-120 -177q-153 115 -352 115q-100 0 -195.5 -44.5t-171 -122.5t-122 -197.5t-46.5 -257.5z" />
    <glyph glyph-name="afii61289" unicode="&#x2113;" horiz-adv-x="572" 
d="M111 0l179 1457h246l-180 -1457h-245z" />
    <glyph glyph-name="trademark" unicode="&#x2122;" horiz-adv-x="1869" 
d="M241 628l75 614h-216l21 170h634l-22 -170h-223l-75 -614h-194zM757 628l96 784h228l167 -490l283 490h229l-96 -784h-198l54 447l-248 -447h-122l-146 436l-54 -436h-193z" />
    <glyph glyph-name="Omega" unicode="&#x2126;" horiz-adv-x="1603" 
d="M887 1479q185 0 328.5 -67t226 -197t82.5 -306q0 -45 -6 -95q-24 -204 -101.5 -347t-242.5 -259l327 3l-51 -211h-626l21 170q159 93 268 248t133 351q5 42 5 88q0 57 -8.5 110t-34.5 110.5t-67.5 99.5t-112.5 69.5t-164 27.5q-82 0 -152 -20.5t-118.5 -53.5t-88 -79
t-64 -91.5t-42 -97t-25.5 -89.5t-13 -75q-6 -46 -6 -91q0 -164 71.5 -294t191.5 -213l-21 -170h-618l4 211l317 -3q-110 94 -159 205.5t-49 256.5q0 184 60.5 337t167 256t252.5 159.5t315 56.5z" />
    <glyph glyph-name="estimated" unicode="&#x212e;" horiz-adv-x="1191" 
d="M364 713h507q8 60 8 123q0 160 -59 232.5t-152 72.5q-51 0 -97 -22t-88.5 -70t-73.5 -133.5t-45 -202.5zM1069 655h-718q-8 -69 -8 -120q0 -177 73.5 -268t206.5 -91q157 0 362 123l21 -52q-220 -133 -446 -133q-133 0 -238 49t-169 153t-64 249q0 42 6 87
q18 143 75.5 252t140.5 171.5t175.5 93t191.5 30.5q66 0 124 -12.5t111 -42.5t90.5 -75.5t59.5 -114.5t22 -156q0 -99 -16 -143z" />
    <glyph glyph-name="partialdiff" unicode="&#x2202;" horiz-adv-x="1162" 
d="M258 369q0 -88 40 -139t111 -51q57 0 106 22t97 73t90.5 144t78.5 226q-23 66 -74 114t-114 48q-84 0 -161.5 -60t-125.5 -161.5t-48 -215.5zM826 886q1 12 6 56.5t5 65.5q0 134 -60 211.5t-163 77.5q-65 0 -138.5 -19.5t-98 -30.5t-75.5 -36l7 179q73 49 165 77t180 28
q208 0 319 -123.5t111 -376.5q0 -87 -11 -171q-16 -128 -53 -249t-98 -230.5t-138.5 -191t-180.5 -129.5t-219 -48q-185 0 -282.5 103t-97.5 272q0 34 5 77q19 157 106 289.5t217 208.5t272 76q86 0 148 -34t74 -82z" />
    <glyph glyph-name="emptyset" unicode="&#x2205;" horiz-adv-x="1678" 
d="M112 733q0 152 60.5 290.5t159.5 236.5t230.5 155.5t269.5 57.5q129 0 251 -49t221 -138l177 199l37 -29l-181 -202q101 -102 158 -236.5t57 -284.5q0 -152 -60.5 -290.5t-159.5 -236.5t-230.5 -155.5t-269.5 -57.5q-126 0 -245.5 47t-217.5 132l-192 -215l-32 29
l192 216q-105 103 -165 240t-60 291zM398 204q92 -80 204 -123.5t230 -43.5q130 0 253.5 54.5t217 146t150 222t56.5 273.5q0 141 -53.5 266.5t-147.5 222.5zM366 234l909 1020q-92 83 -207 129t-236 46q-130 0 -253.5 -54.5t-217 -146t-150 -222t-56.5 -273.5
q0 -145 56 -274t155 -225z" />
    <glyph glyph-name="Delta" unicode="&#x2206;" horiz-adv-x="1502" 
d="M259 217h800l-296 942zM-28 0l27 219l701 1237h271l404 -1222l-28 -234h-1375z" />
    <glyph glyph-name="product" unicode="&#x220f;" horiz-adv-x="1568" 
d="M99 -100l168 1355h-158l25 201h1414l-22 -201h-125l-167 -1355h-285l167 1355h-572l-168 -1355h-277z" />
    <glyph glyph-name="summation" unicode="&#x2211;" horiz-adv-x="1262" 
d="M-24 -267l16 133l610 738l-408 724l16 128h1066l-26 -204h-692l349 -646l-524 -661h748l-25 -212h-1130z" />
    <glyph glyph-name="minus" unicode="&#x2212;" horiz-adv-x="1499" 
d="M188 284l26 202h1096l-26 -202h-1096z" />
    <glyph glyph-name="uni2215" unicode="&#x2215;" horiz-adv-x="417" 
d="M-185 -237l853 1693h220l-858 -1693h-215z" />
    <glyph glyph-name="uni2219" unicode="&#x2219;" horiz-adv-x="636" 
d="M185 521l27 228h246l-27 -228h-246z" />
    <glyph glyph-name="radical" unicode="&#x221a;" horiz-adv-x="1314" 
d="M411 -142l-210 777l-164 -30l-22 180l377 58l147 -580l510 1291h228l-661 -1696h-205z" />
    <glyph glyph-name="infinity" unicode="&#x221e;" horiz-adv-x="1742" 
d="M1254 385q103 0 159 66.5t70 175.5q1 8 1 24q0 73 -48.5 121t-133.5 48q-161 0 -345 -217q79 -113 146 -165.5t151 -52.5zM264 574q0 -79 51.5 -134t142.5 -55q154 0 342 216q-128 219 -299 219q-105 0 -171 -70.5t-66 -175.5zM507 974q228 0 383 -255
q106 126 210.5 190.5t226.5 64.5q149 0 236.5 -86t87.5 -225q0 -124 -61 -225t-155.5 -154t-199.5 -53q-113 0 -202 61t-173 194q-108 -123 -215 -189t-223 -66q-148 0 -237 97.5t-89 243.5q0 84 34.5 159.5t91.5 128t132 83.5t153 31z" />
    <glyph glyph-name="integral" unicode="&#x222b;" horiz-adv-x="820" 
d="M84 -324q-48 0 -90 7t-60 14l-18 7l23 187q73 -16 134 -16q59 0 83 38.5t36 126.5l137 1118q21 174 118 279t262 105q41 0 84.5 -6.5t66.5 -13.5l22 -6l-24 -195q-78 22 -135 22q-64 0 -93.5 -39.5t-40.5 -124.5l-137 -1120q-22 -176 -112.5 -279.5t-255.5 -103.5z" />
    <glyph glyph-name="approxequal" unicode="&#x2248;" horiz-adv-x="1351" 
d="M158 105l-142 87q37 90 74 148t78.5 87.5t80 39.5t90.5 10q111 0 288 -62q143 -53 252 -53q56 0 82 28t57 127l155 -77q-35 -93 -68 -152t-69.5 -91t-72.5 -43.5t-87 -11.5q-97 0 -315 61q-169 54 -229 54q-62 0 -95.5 -28.5t-78.5 -123.5zM230 696l-141 90
q38 90 75.5 148t78.5 87t79 39t90 10q96 0 293 -61q164 -54 248 -54q55 0 81 28t56 127l156 -78q-35 -93 -67.5 -152t-69 -90.5t-73 -43t-87.5 -11.5q-90 0 -312 62q-177 52 -229 52q-64 0 -99 -28.5t-79 -124.5z" />
    <glyph glyph-name="notequal" unicode="&#x2260;" horiz-adv-x="1387" 
d="M437 35l-190 31l139 234h-265l23 188h362l118 185h-458l23 189h549l161 260l196 -30l-143 -230h306l-23 -189h-396l-122 -185h496l-23 -188h-589z" />
    <glyph glyph-name="lessequal" unicode="&#x2264;" horiz-adv-x="1351" 
d="M19 0l24 189h1070l-24 -189h-1070zM1103 262l-991 474l14 114l1113 492l-28 -228l-764 -318l683 -310z" />
    <glyph glyph-name="greaterequal" unicode="&#x2265;" horiz-adv-x="1351" 
d="M14 0l24 189h1070l-24 -189h-1070zM52 261l29 228l763 318l-682 310l27 223l991 -473l-14 -115z" />
    <glyph glyph-name="lozenge" unicode="&#x25ca;" horiz-adv-x="1248" 
d="M534 226l342 471l-220 457l-340 -457zM420 -40l-349 737l536 739h163l352 -738l-540 -738h-162z" />
    <glyph glyph-name="uniFB00" unicode="&#xfb00;" horiz-adv-x="1594" 
d="M1296 855l-104 -855h-253l104 855h-515l-104 -855h-253l104 855h-192l22 171h192l5 36q9 71 17.5 117t24 95t38 79t57.5 58t83.5 42.5t114 23t152.5 8.5h54l-34 -198q-56 0 -89 -2t-63 -11t-44 -22t-27 -41t-19 -60t-13 -88l-4 -37h515l5 36q9 71 17.5 117t24 95t38 79
t57.5 58t83.5 42.5t114 23t152.5 8.5h54l-34 -198q-56 0 -89 -2t-63 -11t-44 -22t-27 -41t-19 -60t-13 -88l-4 -37h251l-22 -171h-251z" />
    <glyph glyph-name="uniFB01" unicode="&#xfb01;" horiz-adv-x="1292" 
d="M171 0l104 855h-192l22 171h192l5 36q9 71 17.5 117t24 95t38 79t57.5 58t83.5 42.5t114 23t152.5 8.5h54l-34 -198q-56 0 -89 -2t-63 -11t-44 -22t-27 -41t-19 -60t-13 -88l-4 -37h687l-126 -1026h-239l105 855h-449l-104 -855h-253zM1023 1238l26 218h240l-26 -218
h-240z" />
    <glyph glyph-name="uniFB02" unicode="&#xfb02;" horiz-adv-x="1337" 
d="M164 0l106 855h-186l20 171h186l1 11q14 116 40.5 191t79 130.5t137 79.5t211.5 24h542l-180 -1462h-252l155 1266h-234q-129 0 -177.5 -37t-60.5 -136l-8 -67h230l-21 -171h-230l-105 -855h-254z" />
    <glyph glyph-name="uniFB03" unicode="&#xfb03;" horiz-adv-x="2131" 
d="M2051 1233h-246l28 223h245zM1899 0h-245l104 855h-466l-104 -855h-253l104 855h-510l-104 -855h-253l104 855h-192l22 171h192l5 36q9 71 17.5 117t24 95t38 79t57.5 58t83.5 42.5t114 23t152.5 8.5h54l-34 -197q-56 0 -89 -2t-63 -11t-44 -22t-27 -41t-19 -60t-13 -88
l-4 -38h510l4 36q8 62 15 103.5t20 86.5t29.5 74t42 58t59.5 45.5t80.5 30.5t106 19.5t135.5 5.5h54l-33 -197q-56 0 -89.5 -2t-63 -11t-44 -22t-27.5 -41t-19 -60.5t-13 -87.5l-4 -38h711z" />
    <glyph glyph-name="uniFB04" unicode="&#xfb04;" horiz-adv-x="2207" 
d="M170 0l104 855h-191l22 171h191l5 40q9 70 17.5 116t24 94.5t38 78t57 57t82.5 42t113.5 23t150.5 8.5h53l-32 -193q-57 0 -91 -2t-63.5 -11.5t-44 -22t-27.5 -40.5t-19 -60t-13 -87l-4 -43h402l-22 -171h-402l-104 -855h-247zM901 0l106 855h-186l20 171h186l1 11
q14 116 40.5 191t79 130.5t137 79.5t211.5 24h542l-180 -1462h-252l155 1266h-234q-129 0 -177.5 -37t-60.5 -136l-8 -67h230l-21 -171h-230l-105 -855h-254z" />
    <glyph glyph-name="NULL" horiz-adv-x="0" 
 />
    <glyph glyph-name="caron.alt" horiz-adv-x="600" 
d="M239 951l176 505h279l-243 -505h-212z" />
    <glyph glyph-name="fj" horiz-adv-x="1420" 
d="M1145 1228l28 228h246l-28 -228h-246zM836 -362q-50 0 -96 6.5t-67.5 12.5t-21.5 8h3l48 170q61 -19 140 -19q48 0 75.5 12.5t49 58t32.5 133.5l124 1006h239l-127 -1035q-11 -92 -32.5 -152.5t-65.5 -108.5t-118 -70t-183 -22zM702 -165v1h-3zM170 0l105 860h-191
l21 166h191l5 40q9 70 17.5 116t24 94.5t38 78t57 57t82.5 42t113.5 23t150.5 8.5h53l-32 -193q-57 0 -91 -2t-63.5 -11.5t-44 -22t-27.5 -40.5t-19 -60t-13 -87l-4 -43h231l-21 -166h-232l-104 -860h-247z" />
    <glyph glyph-name="foundryicon" horiz-adv-x="1347" 
d="M485 405h106v147l170 -147h106v267h-106v-149l-170 149h-106v-267zM280 2l143 459l-389 294h485l150 460l159 -460h485l-391 -294l144 -459l-397 276z" />
    <glyph glyph-name="i.loclTRK" horiz-adv-x="485" 
d="M40 0l126 1026h249l-126 -1026h-249zM193 1166l27 228h246l-27 -228h-246z" />
    <glyph glyph-name="middot" horiz-adv-x="600" 
 />
    <glyph glyph-name="slashbar" horiz-adv-x="600" 
 />
  </font>
</defs>
</svg>
