<?xml version="1.0" standalone="no"?>
<!DOCTYPE svg PUBLIC "-//W3C//DTD SVG 1.1//EN" "http://www.w3.org/Graphics/SVG/1.1/DTD/svg11.dtd" >
<svg xmlns="http://www.w3.org/2000/svg" xmlns:xlink="http://www.w3.org/1999/xlink" version="1.1">
<metadata>
Created by FontForge 20170731 at Wed Feb 26 08:21:12 2014
 By Aleksey,,,
Digitized data Copyright (c) 2011-2014, vernon adams.
</metadata>
<defs>
<font id="Muli-ExtraLight" horiz-adv-x="1572" >
  <font-face 
    font-family="Muli"
    font-weight="200"
    font-stretch="normal"
    units-per-em="2048"
    panose-1="2 0 3 3 0 0 0 0 0 0"
    ascent="1638"
    descent="-410"
    x-height="1026"
    cap-height="1456"
    bbox="-184 -557 4024 2316"
    underline-thickness="0"
    underline-position="0"
    unicode-range="U+000D-FB04"
  />
<missing-glyph horiz-adv-x="748" 
d="M68 0v1365h544v-1365h-544zM136 68h408v1229h-408v-1229z" />
    <glyph glyph-name=".notdef" horiz-adv-x="748" 
d="M68 0v1365h544v-1365h-544zM136 68h408v1229h-408v-1229z" />
    <glyph glyph-name=".null" horiz-adv-x="0" 
 />
    <glyph glyph-name="uni000D" unicode="&#xd;" horiz-adv-x="0" 
 />
    <glyph glyph-name="space" unicode=" " horiz-adv-x="602" 
 />
    <glyph glyph-name="exclam" unicode="!" horiz-adv-x="442" 
d="M196 363l-32 1093h120l-32 -1093h-56zM143 0v160h157v-160h-157z" />
    <glyph glyph-name="quotedbl" unicode="&#x22;" horiz-adv-x="911" 
d="M284 929l-30 527h110l-16 -527h-64zM585 929l-30 527h110l-16 -527h-64z" />
    <glyph glyph-name="numbersign" unicode="#" horiz-adv-x="1397" 
d="M482 603h365l64 335h-363zM313 109l81 436h-263l5 58h270l62 335h-256l8 59h257l75 393h80l-71 -393h361l75 393h73l-75 -393h260l-12 -59h-257l-64 -335h256l-12 -58h-252l-84 -436h-73l79 436h-363l-87 -436h-73z" />
    <glyph glyph-name="dollar" unicode="$" horiz-adv-x="1143" 
d="M558 -193h75v174q187 12 294.5 115t112.5 266q3 89 -11.5 149t-57.5 112.5t-121.5 90.5t-204.5 70l-12 3v606q62 -4 114.5 -18.5t88 -34t55.5 -34t34 -29.5l47 74q-2 2 -11.5 10t-19 15.5t-26.5 19t-35.5 21.5t-45 20.5t-55.5 18.5t-67 14.5t-79 8.5v143h-75v-141
q-202 -5 -316 -102.5t-114 -265.5q0 -112 41 -187.5t113.5 -119t190.5 -74.5l85 -22v-644q-58 2 -111.5 14.5t-88.5 26.5t-71 37t-51 35t-37 32q-4 3 -6 5l-51 -74q2 -2 19.5 -17t33 -26t43 -29t58.5 -31.5t70.5 -27.5t88.5 -22t103 -10v-172zM633 67v623q96 -26 154.5 -53
t94.5 -66t48 -87.5t9 -122.5q-2 -60 -24 -111.5t-61 -90t-95.5 -62.5t-125.5 -30zM558 1395v-589l-61 16q-153 40 -207 100.5t-54 190.5q0 86 38 148t110 96t174 38z" />
    <glyph glyph-name="percent" unicode="%" horiz-adv-x="2123" 
d="M1631 0q-163 0 -248 115.5t-85 337.5q0 228 85 346.5t248 118.5q157 0 238.5 -118.5t81.5 -346.5q0 -222 -81.5 -337.5t-238.5 -115.5zM1631 76q112 0 170 96.5t58 281.5q0 190 -58 289t-170 99q-118 0 -179.5 -98.5t-61.5 -289.5q0 -185 61.5 -281.5t179.5 -96.5zM755 0
l539 1456h82l-541 -1456h-80zM505 538q-163 0 -248 115.5t-85 337.5q0 228 85 346.5t248 118.5q157 0 238.5 -118.5t81.5 -346.5q0 -222 -81.5 -337.5t-238.5 -115.5zM505 614q112 0 170 96.5t58 281.5q0 190 -58 289t-170 99q-118 0 -179.5 -98.5t-61.5 -289.5
q0 -185 61.5 -281.5t179.5 -96.5z" />
    <glyph glyph-name="ampersand" unicode="&#x26;" horiz-adv-x="1470" 
d="M571 870q70 40 128 87.5t102.5 114.5t44.5 132q0 96 -65.5 146t-151.5 50q-93 0 -155 -51t-62 -143q0 -182 159 -336zM623 75q135 0 226 46.5t176 142.5l-472 506q-54 -29 -91 -52.5t-77 -57.5t-63.5 -69.5t-39 -84.5t-15.5 -107q0 -143 97 -233.5t259 -90.5zM630 -18
q-211 0 -343.5 110.5t-132.5 303.5q0 42 7 80t24 71.5t32.5 59.5t46.5 55t50.5 46.5t60.5 44.5t60.5 39.5t65.5 39.5q-82 91 -129 181t-47 196q0 130 85 202.5t216 72.5q80 0 148.5 -28t115.5 -91t47 -151q0 -115 -89.5 -215.5t-222.5 -173.5l440 -478q69 93 118 237.5
t49 265.5l92 -1q-12 -155 -61.5 -307t-131.5 -264q129 -165 291 -208q12 -3 24 -5l-73 -64q-72 11 -270 175l-28 22l1 -1q-86 -105 -192 -160t-254 -55z" />
    <glyph glyph-name="quotesingle" unicode="'" horiz-adv-x="544" 
d="M237 929l-30 527h110l-16 -527h-64z" />
    <glyph glyph-name="parenleft" unicode="(" horiz-adv-x="564" 
d="M420 -176q-256 396 -256 836q0 241 64 446t194 410h94q-126 -204 -190 -410.5t-64 -438.5q0 -220 67 -439t189 -404h-98z" />
    <glyph glyph-name="parenright" unicode=")" horiz-adv-x="564" 
d="M47 -196q126 203 190 409.5t64 439.5q0 220 -67 439t-189 404h98q257 -395 257 -836q0 -241 -64 -446t-194 -410h-95z" />
    <glyph glyph-name="asterisk" unicode="*" horiz-adv-x="1190" 
d="M776 799l-154 284l-144 -269l-79 38l164 247l-260 66l14 95l268 -114l-30 314h84l8 -314l220 114l50 -95l-241 -66l183 -265z" />
    <glyph glyph-name="plus" unicode="+" horiz-adv-x="1116" 
d="M512 137v444h-391v91h390v409h89v-409h395v-91h-392v-444h-91z" />
    <glyph glyph-name="comma" unicode="," horiz-adv-x="410" 
d="M98 -256l103 420h118l-151 -420h-70z" />
    <glyph glyph-name="hyphen" unicode="-" horiz-adv-x="597" 
d="M67 527v73h459v-73h-459z" />
    <glyph glyph-name="period" unicode="." horiz-adv-x="550" 
d="M204 0v167h162v-167h-162z" />
    <glyph glyph-name="slash" unicode="/" horiz-adv-x="732" 
d="M143 0l427 1456h82l-429 -1456h-80z" />
    <glyph glyph-name="zero" unicode="0" horiz-adv-x="1177" 
d="M598 -23q-232 0 -353 190t-121 555q0 373 120.5 567t353.5 194q223 0 339 -193.5t116 -567.5q0 -365 -116 -555t-339 -190zM598 63q169 0 257 168t88 491q0 332 -88 503.5t-257 171.5q-179 0 -271.5 -172t-92.5 -503q0 -323 92.5 -491t271.5 -168z" />
    <glyph glyph-name="one" unicode="1" horiz-adv-x="1177" 
d="M268 0v87h293v1233q-47 -29 -97 -53t-118 -52.5t-90 -38.5v96q76 28 187 84t177 100h49v-1369h270v-87h-671z" />
    <glyph glyph-name="two" unicode="2" horiz-adv-x="1212" 
d="M218 0v90l491 559q127 145 174.5 229.5t47.5 189.5q0 70 -17.5 126t-56 102.5t-107.5 72t-164 25.5q-188 0 -363 -100l-38 79q186 110 400 110q98 0 176 -23.5t128 -61.5t83 -90.5t46.5 -108t13.5 -115.5q0 -68 -16.5 -128.5t-55.5 -123.5t-78.5 -112.5t-109.5 -129.5
l-444 -504h699v-86h-809z" />
    <glyph glyph-name="three" unicode="3" horiz-adv-x="1177" 
d="M538 -23q-95 0 -188 21.5t-155 57.5l21 81q145 -74 322 -74q175 0 279.5 89.5t104.5 239.5q0 152 -91.5 240t-271.5 92l-107 2l-2 94h109q167 0 251 79t84 219q0 127 -92.5 203t-247.5 76q-114 0 -219 -44t-166 -129l-57 59q58 92 178.5 146t263.5 54q200 0 319 -99
t119 -266q0 -118 -75.5 -219t-206.5 -127q146 -23 234 -130t88 -250q0 -190 -134 -302.5t-360 -112.5z" />
    <glyph glyph-name="four" unicode="4" horiz-adv-x="1177" 
d="M221 485h544v902l-156 -261zM767 0v391h-666v84l599 981h181v-971h202v-94h-206v-391h-110z" />
    <glyph glyph-name="five" unicode="5" horiz-adv-x="1177" 
d="M557 -22q-225 0 -405 131l36 78q185 -127 379 -127q107 0 191 41t136 130.5t52 217.5q0 163 -97.5 260.5t-261.5 97.5q-98 0 -181 -41t-126 -110l-82 17l20 783h733v-89h-636l-28 -596q48 56 130 89t170 33q214 0 341.5 -121.5t127.5 -324.5q0 -113 -41 -204t-110.5 -148
t-158.5 -87t-189 -30z" />
    <glyph glyph-name="six" unicode="6" horiz-adv-x="1177" 
d="M616 63q163 0 253.5 109t90.5 280q0 79 -19 145.5t-57 118.5t-101.5 81t-147.5 29q-90 0 -166.5 -29t-123 -72.5t-72.5 -89t-26 -83.5q0 -75 10.5 -142.5t37 -132t67.5 -111t106 -75t148 -28.5zM616 -23q-103 0 -185.5 34t-139.5 95.5t-94.5 150.5t-55 196t-17.5 235
q0 167 32 308.5t95.5 251.5t169 172.5t242.5 62.5q173 0 307 -100l-43 -76q-44 36 -114.5 63t-149.5 27q-76 0 -139 -24t-106 -62.5t-76 -93.5t-52 -109.5t-31.5 -118.5t-17.5 -112.5t-6 -99.5q-1 -27 -1 -68q15 31 48.5 64.5t83 65.5t121 52.5t148.5 20.5q187 0 311 -126
t124 -334q0 -206 -124 -340.5t-330 -134.5z" />
    <glyph glyph-name="seven" unicode="7" horiz-adv-x="1177" 
d="M392 0l546 1356h-748v100h864v-80l-541 -1376h-121z" />
    <glyph glyph-name="eight" unicode="8" horiz-adv-x="1178" 
d="M589 822q327 51 327 294q0 133 -94.5 208.5t-231.5 75.5q-131 0 -227.5 -75.5t-96.5 -200.5q0 -128 81.5 -201.5t241.5 -100.5zM588 71q157 0 255.5 81.5t98.5 221.5q0 141 -91.5 216t-266.5 107q-350 -70 -350 -321q0 -145 99 -225t255 -80zM586 -23q-85 0 -166 25.5
t-146.5 72.5t-105 121.5t-39.5 164.5q0 153 88 256.5t258 144.5q-150 34 -229.5 129t-79.5 234q0 163 123 260.5t302 97.5q108 0 203.5 -40.5t157.5 -122.5t62 -188q0 -137 -80.5 -232.5t-230.5 -134.5q178 -43 262 -142.5t84 -255.5q0 -120 -65 -210.5t-169 -135
t-229 -44.5z" />
    <glyph glyph-name="nine" unicode="9" horiz-adv-x="1182" 
d="M559 634q90 0 166.5 29t123 72.5t72.5 89t26 83.5q0 75 -10.5 142.5t-37 132t-67.5 111t-106 75t-148 28.5q-163 0 -253.5 -109t-90.5 -280q0 -79 19 -145.5t57 -118.5t101.5 -81t147.5 -29zM531 -23q-173 0 -307 100l43 76q44 -36 114.5 -63t149.5 -27q76 0 139 24
t106 62.5t76 93.5t52 109.5t31.5 118.5t17.5 112.5t6 99.5q1 27 1 68q-15 -31 -48.5 -64.5t-83 -65.5t-121 -52.5t-148.5 -20.5q-187 0 -311 126t-124 334q0 206 124 340.5t330 134.5q103 0 185.5 -34t139.5 -95.5t94.5 -150.5t55 -196t17.5 -235q0 -167 -32 -308.5
t-95.5 -251.5t-169 -172.5t-242.5 -62.5z" />
    <glyph glyph-name="colon" unicode=":" horiz-adv-x="476" 
d="M161 857v167h154v-167h-154zM161 7v168h154v-168h-154z" />
    <glyph glyph-name="semicolon" unicode=";" horiz-adv-x="550" 
d="M142 833v168h191v-168h-191zM126 -256l103 420h119l-151 -420h-71z" />
    <glyph glyph-name="less" unicode="&#x3c;" horiz-adv-x="1044" 
d="M824 108l-778 457v71l784 382v-102l-680 -325l674 -382v-101z" />
    <glyph glyph-name="equal" unicode="=" horiz-adv-x="1040" 
d="M110 705v93h820v-93h-820zM112 333v92h818v-92h-818z" />
    <glyph glyph-name="greater" unicode="&#x3e;" horiz-adv-x="1042" 
d="M214 105v99l673 338l-668 371v99l777 -439v-65z" />
    <glyph glyph-name="question" unicode="?" horiz-adv-x="1113" 
d="M353 -20v167h163v-167h-163zM390 338v148q0 54 30.5 109t75.5 100t98.5 98t98.5 101.5t75.5 111t30.5 125.5q0 127 -87.5 190t-226.5 63q-141 0 -272 -81v105q135 65 290 65q193 0 295.5 -84t102.5 -249q0 -60 -24 -119.5t-62 -108t-83.5 -95.5t-91.5 -90t-84 -83
t-62 -82.5t-24 -81.5v-142h-80z" />
    <glyph glyph-name="at" unicode="@" horiz-adv-x="1707" 
d="M771 345q140 0 232 120.5t106 323.5q9 131 -41.5 207.5t-146.5 83.5q-162 12 -261 -119t-99 -347q0 -123 57 -196t153 -73zM899 -66q-363 0 -576 199t-213 548q0 234 95 413t272 278t410 99q323 0 510 -179.5t187 -485.5q0 -123 -31.5 -224.5t-85 -167.5t-123 -102
t-146.5 -36q-75 0 -116 51t-20 143q-36 -86 -115 -138t-180 -52q-130 0 -208 89.5t-78 239.5q0 249 122 400t323 139q99 -6 160 -66.5t66 -158.5l46 185h73l-136 -552q-25 -101 -25 -148q0 -36 25.5 -57t68.5 -21q138 0 222.5 131.5t84.5 344.5q0 269 -171 434t-453 165
q-206 0 -363 -93t-241 -257t-84 -374q0 -316 189.5 -498.5t510.5 -182.5q173 0 316.5 56t209.5 146l57 -36q-60 -107 -218 -169.5t-365 -62.5z" />
    <glyph glyph-name="A" unicode="A" horiz-adv-x="1329" 
d="M359 473h619l-155 447l-156 446l-154 -446zM68 0l530 1456h134l529 -1456h-112l-143 399h-674l-143 -399h-121z" />
    <glyph glyph-name="B" unicode="B" horiz-adv-x="1352" 
d="M334 794h349q193 0 276 75t83 230q0 271 -405 271h-303v-576zM332 86h392q191 0 290 76t99 223q0 164 -99.5 243.5t-330.5 79.5h-351v-622zM224 0v1456h413q513 0 513 -357q0 -312 -283 -342q167 -14 261.5 -109.5t94.5 -262.5q0 -189 -127 -287t-372 -98h-500z" />
    <glyph glyph-name="C" unicode="C" horiz-adv-x="1389" 
d="M810 -22q-320 0 -510 196.5t-190 526.5q0 356 194 568t520 212q256 0 419 -139l-44 -68q-155 121 -375 121q-276 0 -440 -188.5t-164 -505.5q0 -290 160.5 -463t429.5 -173q239 0 428 125l35 -75q-210 -137 -463 -137z" />
    <glyph glyph-name="D" unicode="D" horiz-adv-x="1523" 
d="M224 0v1456h374q387 0 588 -189.5t201 -554.5q0 -350 -195.5 -531t-571.5 -181h-396zM332 86h288q323 0 490 159.5t167 466.5q0 323 -173 490.5t-506 167.5h-266v-1284z" />
    <glyph glyph-name="E" unicode="E" horiz-adv-x="1219" 
d="M224 0v1456h810v-86h-702v-583h663v-86h-665v-615h734v-86h-840z" />
    <glyph glyph-name="F" unicode="F" horiz-adv-x="1090" 
d="M224 0v1456h777v-86h-669v-591h612v-86h-612v-693h-108z" />
    <glyph glyph-name="G" unicode="G" horiz-adv-x="1513" 
d="M833 -21q-334 0 -528.5 197t-194.5 530q0 354 198.5 564.5t532.5 210.5h12q251 3 456 -147l-46 -77q-208 138 -422 138q-283 0 -452 -187.5t-169 -501.5q0 -293 165.5 -467t449.5 -174q112 0 225 17.5t189 52.5v510h-409v86h505v-651q-208 -101 -512 -101z" />
    <glyph glyph-name="H" unicode="H" horiz-adv-x="1558" 
d="M224 0v1456h112v-670h894v670h104v-1456h-108v700h-894v-700h-108z" />
    <glyph glyph-name="I" unicode="I" horiz-adv-x="592" 
d="M242 0v1456h108v-1456h-108z" />
    <glyph glyph-name="J" unicode="J" horiz-adv-x="667" 
d="M93 -312q-27 0 -93 2l2 87q53 -3 95 -3q75 0 117.5 13t71.5 53t39 108t10 184v1324h108v-1324q0 -95 -9 -165.5t-29.5 -119.5t-47.5 -80t-69 -48.5t-87 -24t-108 -6.5z" />
    <glyph glyph-name="K" unicode="K" horiz-adv-x="1232" 
d="M224 0v1456h108v-682l714 682h132l-729 -698l774 -758h-126l-767 745v-745h-106z" />
    <glyph glyph-name="L" unicode="L" horiz-adv-x="1045" 
d="M224 0v1456h108v-1370h681v-86h-789z" />
    <glyph glyph-name="M" unicode="M" horiz-adv-x="1849" 
d="M224 0v1456h138l473 -1097l89 -218l92 218l491 1097h118v-1456h-104v1279l-54 -145l-513 -1134h-63l-495 1134l-68 186v-1320h-104z" />
    <glyph glyph-name="N" unicode="N" horiz-adv-x="1571" 
d="M224 0v1456h106l784 -1121l127 -193v1314h106v-1456h-105l-803 1137l-109 166v-1303h-106z" />
    <glyph glyph-name="O" unicode="O" 
d="M788 -21q-310 0 -494 202t-184 542q0 346 183.5 552t494.5 206q306 0 490 -206.5t184 -551.5q0 -339 -183.5 -541.5t-490.5 -202.5zM788 65q258 0 411 179t153 479q0 307 -153.5 489.5t-410.5 182.5q-259 0 -413.5 -182.5t-154.5 -489.5q0 -300 155 -479t413 -179z" />
    <glyph glyph-name="P" unicode="P" horiz-adv-x="1219" 
d="M332 787h323q215 0 302 68t87 224q0 160 -92.5 229t-296.5 62h-323v-583zM224 0v1456h431q258 0 375 -89.5t117 -287.5q0 -199 -117 -288.5t-375 -89.5h-323v-701h-108z" />
    <glyph glyph-name="Q" unicode="Q" 
d="M1171 -405l62 59q-7 7 -18.5 19t-46 50.5t-65.5 77t-69.5 93.5t-67.5 105q231 56 363.5 247t132.5 477q0 345 -184 551.5t-490 206.5q-311 0 -494.5 -206t-183.5 -552q0 -340 184 -542t494 -202q48 0 94 5q26 -53 67 -114t75.5 -105t73 -88.5t52 -59t21.5 -22.5zM788 65
q-258 0 -413 179t-155 479q0 307 154.5 489.5t413.5 182.5q257 0 410.5 -182.5t153.5 -489.5q0 -300 -153 -479t-411 -179z" />
    <glyph glyph-name="R" unicode="R" horiz-adv-x="1373" 
d="M335 758h354q179 0 264 80t85 239q0 161 -91 231t-288 62h-324v-612zM224 0v1456h435q253 0 367.5 -90t114.5 -289q0 -154 -76 -252.5t-222 -110.5q32 -5 56 -11.5t45 -17.5t35.5 -20.5t29 -29.5t24 -35t22.5 -46.5t21.5 -54.5t24.5 -68l151 -431h-101l-144 408
q-21 60 -35 93.5t-32.5 68t-36.5 50.5t-45.5 30t-60 18t-79.5 4h-386v-672h-108z" />
    <glyph glyph-name="S" unicode="S" horiz-adv-x="1130" 
d="M586 -21q-58 0 -110.5 7t-94.5 20.5t-75.5 27t-63 33t-45.5 30.5t-34.5 27.5t-20.5 17.5l51 74q27 -24 37.5 -33t53 -36.5t79 -41.5t97.5 -27t126 -13q158 0 253 81.5t100 214.5q3 75 -9.5 124t-49.5 88.5t-97.5 66.5t-160.5 53l-149 39q-118 31 -190.5 74.5t-113.5 119
t-41 187.5q0 172 119.5 270t331.5 98q55 0 104.5 -6t87 -17t67.5 -22t54 -26t37.5 -24.5t27.5 -21.5t15 -13l-47 -74q-16 16 -39 32.5t-64.5 38t-105 34.5t-137.5 13q-163 0 -253 -74t-90 -208q0 -130 54 -190.5t207 -100.5l148 -38q126 -32 204.5 -70t121.5 -90.5
t57.5 -112.5t11.5 -149q-5 -174 -126 -278.5t-328 -104.5z" />
    <glyph glyph-name="T" unicode="T" horiz-adv-x="1097" 
d="M494 0v1370h-486v86h1080v-86h-486v-1370h-108z" />
    <glyph glyph-name="U" unicode="U" horiz-adv-x="1480" 
d="M732 -21q-273 0 -414.5 136t-141.5 399v942h108v-950q0 -217 114 -329t334 -112t334 112t114 329v950h108v-942q-2 -263 -143.5 -399t-412.5 -136z" />
    <glyph glyph-name="V" unicode="V" horiz-adv-x="1381" 
d="M628 0l-534 1456h111l366 -1021l122 -345l116 343l366 1023h112l-529 -1456h-130z" />
    <glyph glyph-name="W" unicode="W" horiz-adv-x="2037" 
d="M514 0l-376 1456h114l311 -1242l18 -111l27 111l364 1242h109l364 -1242l25 -97l25 97l294 1242h110l-362 -1456h-129l-379 1320l-387 -1320h-128z" />
    <glyph glyph-name="X" unicode="X" horiz-adv-x="1317" 
d="M120 0l490 740l-478 716h119l417 -642l398 642h114l-451 -712l468 -744h-110l-413 664l-441 -664h-113z" />
    <glyph glyph-name="Y" unicode="Y" horiz-adv-x="1235" 
d="M560 0v591l-480 865h109l427 -773l434 773h105l-487 -862v-594h-108z" />
    <glyph glyph-name="Z" unicode="Z" horiz-adv-x="1182" 
d="M134 0v61l806 1309h-770v86h900v-57l-809 -1313h805v-86h-932z" />
    <glyph glyph-name="bracketleft" unicode="[" horiz-adv-x="715" 
d="M212 -322v1745h396v-74h-299v-1597h300v-74h-397z" />
    <glyph glyph-name="backslash" unicode="\" horiz-adv-x="791" 
d="M574 66l-436 1390h96l436 -1390h-96z" />
    <glyph glyph-name="bracketright" unicode="]" horiz-adv-x="715" 
d="M174 -322v74h304v1597h-306v74h402v-1745h-400z" />
    <glyph glyph-name="asciicircum" unicode="^" horiz-adv-x="1721" 
d="M388 604l439 852h57l449 -852h-83l-395 758l-386 -758h-81z" />
    <glyph glyph-name="underscore" unicode="_" horiz-adv-x="847" 
d="M7 -286v80h833v-80h-833z" />
    <glyph glyph-name="grave" unicode="`" horiz-adv-x="581" 
d="M445 1174l-318 282h135l237 -282h-54z" />
    <glyph glyph-name="a" unicode="a" horiz-adv-x="1253" 
d="M581 61q173 0 269.5 124.5t96.5 338.5q0 203 -99.5 324.5t-266.5 121.5q-175 0 -280 -121.5t-105 -324.5q0 -211 104.5 -337t280.5 -126zM577 -21q-220 0 -350.5 148t-130.5 397q0 241 132 384.5t353 143.5q128 0 225 -62.5t141 -164.5v201h98v-1026h-98v215
q-48 -108 -142.5 -172t-227.5 -64z" />
    <glyph glyph-name="b" unicode="b" horiz-adv-x="1259" 
d="M696 61q173 0 269.5 123.5t96.5 335.5q0 208 -96.5 329t-269.5 121q-184 0 -293 -122t-109 -328q0 -209 109 -334t293 -125zM696 -21q-141 0 -250.5 70.5t-152.5 189.5l-5 -239h-99l1 18q0 18 1 47t2.5 63t2 72t0.5 68v1248h98v-717q47 115 156.5 184t245.5 69
q212 0 338 -144.5t126 -387.5q0 -247 -126 -394t-338 -147z" />
    <glyph glyph-name="c" unicode="c" horiz-adv-x="1022" 
d="M612 -21q-235 0 -375.5 142t-140.5 381q0 251 143 400.5t383 149.5q89 0 174 -27t137 -73l-33 -72q-103 90 -278 90q-194 0 -310 -127t-116 -341q0 -201 113 -321t303 -120q183 0 318 106l34 -67q-56 -55 -151.5 -88t-200.5 -33z" />
    <glyph glyph-name="d" unicode="d" horiz-adv-x="1256" 
d="M560 61q184 0 293 125t109 334q0 206 -109 328t-293 122q-173 0 -269.5 -121t-96.5 -329q0 -212 96.5 -335.5t269.5 -123.5zM560 -21q-212 0 -338 147t-126 394q0 243 126 387.5t338 144.5q136 0 245.5 -69t156.5 -184v717h98v-1248q0 -30 0.5 -68t2 -72t2.5 -63t1 -47
l1 -18h-99l-5 239q-43 -119 -152.5 -189.5t-250.5 -70.5z" />
    <glyph glyph-name="e" unicode="e" horiz-adv-x="1133" 
d="M202 578h761q-10 179 -110.5 285.5t-260.5 106.5q-164 0 -270 -106.5t-120 -285.5zM616 -21q-237 0 -378.5 144t-141.5 385q0 248 135 396t361 148q207 0 330 -132.5t123 -354.5v-58h-849q-2 -203 112 -324.5t308 -121.5q95 0 186 31t160 85l36 -69q-71 -59 -174.5 -94
t-207.5 -35z" />
    <glyph glyph-name="f" unicode="f" horiz-adv-x="604" 
d="M242 0v961h-174v65h174v158q0 89 13 144t49.5 96t103 58t173.5 17h35v-83q-67 0 -113.5 -4t-77.5 -16.5t-47.5 -25t-25 -40.5t-10.5 -52t-2 -69v-183h263v-65h-263v-961h-98z" />
    <glyph glyph-name="g" unicode="g" horiz-adv-x="1268" 
d="M564 66q184 0 293 121.5t109 326.5q0 208 -105 332t-281 124t-280 -124t-104 -332q0 -205 100 -326.5t268 -121.5zM556 -443q-188 0 -349 66l12 86q170 -68 337 -68q190 0 300 113.5t110 359.5v122q-46 -121 -154 -186.5t-248 -65.5q-214 0 -341 144t-127 386
q0 245 131.5 391.5t352.5 146.5q132 0 235.5 -65t150.5 -170l10 209h95l-7 -189v-723q0 -143 -38.5 -251.5t-108.5 -174.5t-160.5 -98.5t-200.5 -32.5z" />
    <glyph glyph-name="h" unicode="h" horiz-adv-x="1255" 
d="M196 0v1516h98v-689q57 102 160.5 163.5t245.5 61.5q52 0 99 -9t97 -34.5t86 -65t59.5 -107t23.5 -154.5v-682h-98v659q0 157 -61 234t-206 77q-161 0 -283.5 -105t-122.5 -237v-628h-98z" />
    <glyph glyph-name="i" unicode="i" horiz-adv-x="491" 
d="M191 1346v110h98v-110h-98zM191 0v1026h98v-1026h-98z" />
    <glyph glyph-name="j" unicode="j" horiz-adv-x="503" 
d="M319 23q0 -76 -7.5 -136.5t-28.5 -118.5t-54.5 -96.5t-88 -62t-127.5 -23.5q-37 0 -78 6l-2 77q38 -5 69 -5q64 0 106.5 20.5t67.5 65t35 106.5t10 154v1016h98v-1003zM207 1238v126h122v-126h-122z" />
    <glyph glyph-name="k" unicode="k" horiz-adv-x="1045" 
d="M196 0v1516h98v-967l548 477h129l-558 -483l600 -543h-128l-591 535v-535h-98z" />
    <glyph glyph-name="l" unicode="l" horiz-adv-x="509" 
d="M205 0v1516h98v-1516h-98z" />
    <glyph glyph-name="m" unicode="m" horiz-adv-x="1946" 
d="M204 0v880l-6 146h89l10 -206q52 114 150 173t234 59q269 0 330 -263q52 131 158.5 197t238.5 66q171 0 259.5 -109.5t88.5 -320.5v-622h-98v622q0 171 -63.5 259.5t-186.5 88.5q-158 0 -253.5 -88.5t-125.5 -259.5v-622h-98v622q0 171 -63.5 259.5t-186.5 88.5
q-147 0 -243.5 -74.5t-135.5 -217.5v-678h-98z" />
    <glyph glyph-name="n" unicode="n" horiz-adv-x="1257" 
d="M202 0v880l-6 146h89l10 -206q52 112 159 172t245 60q368 0 368 -430v-622h-98v622q0 348 -270 348q-149 0 -255 -75.5t-144 -216.5v-678h-98z" />
    <glyph glyph-name="o" unicode="o" horiz-adv-x="1230" 
d="M615 -21q-237 0 -378 144.5t-141 386.5q0 248 141 395t378 147t378 -147t141 -395q0 -242 -141 -386.5t-378 -144.5zM615 61q197 0 308 121t111 328q0 212 -111 336t-308 124t-308 -124t-111 -336q0 -207 111 -328t308 -121z" />
    <glyph glyph-name="p" unicode="p" horiz-adv-x="1263" 
d="M703 56q173 0 269.5 121t96.5 329q0 212 -96.5 335.5t-269.5 123.5q-182 0 -292 -131.5t-110 -342.5q0 -204 108.5 -319.5t293.5 -115.5zM203 -490v1248q0 30 -0.5 68t-1.5 72t-2.5 63t-2.5 47v18h99l5 -247q43 120 153 194t250 74q212 0 338 -147t126 -394
q0 -243 -126 -387.5t-338 -144.5q-139 0 -247.5 62.5t-154.5 175.5v-702h-98z" />
    <glyph glyph-name="q" unicode="q" horiz-adv-x="1256" 
d="M558 66q168 0 268.5 125t100.5 366q0 190 -98.5 299t-249.5 109q-166 0 -271 -122.5t-105 -342.5q0 -209 100 -321.5t255 -112.5zM938 -449v686q-6 -41 -31.5 -83.5t-70.5 -83t-119 -66t-163 -25.5q-92 0 -173 30.5t-146.5 90t-104 160t-38.5 230.5q0 138 36 246
t100.5 176.5t150.5 104t190 35.5q143 0 239 -60t128 -149v183h109q2 26 2 -1l-6 -163v10v-1321h-103z" />
    <glyph glyph-name="r" unicode="r" horiz-adv-x="769" 
d="M205 0v776q0 57 -2.5 119.5t-4.5 96.5l-2 34h100l10 -191q32 112 112.5 162.5t189.5 50.5q50 0 101 -9l-5 -90q-48 9 -94 9q-141 0 -224 -96t-83 -303v-559h-98z" />
    <glyph glyph-name="s" unicode="s" horiz-adv-x="935" 
d="M477 -21q-194 0 -355 117l37 76q1 -1 15.5 -10.5t24 -15.5t30 -17t37.5 -18.5t42.5 -17t49.5 -15t54.5 -9.5t60.5 -4q271 0 271 197q0 82 -41.5 124t-143.5 73l-206 63q-121 37 -178.5 94.5t-57.5 166.5q0 136 100 202.5t275 66.5q183 0 306 -75l-32 -73q-121 66 -274 66
q-276 0 -278 -179q0 -79 35.5 -114.5t140.5 -67.5l201 -63q130 -41 188.5 -100t58.5 -166q0 -77 -28 -135.5t-77.5 -94.5t-114 -53.5t-141.5 -17.5z" />
    <glyph glyph-name="t" unicode="t" horiz-adv-x="687" 
d="M592 -1q-8 0 -23.5 0.5t-22.5 0.5q-48 2 -86.5 8.5t-67 16t-50.5 22.5t-36 29t-24 35t-14.5 40t-7 44.5t-2.5 49v52.5v29v635h-202v65h202v294l98 29v-323h233v-65h-233v-638v-56t2 -46t5 -39t9 -30t14 -25t21.5 -17t30 -13.5t40 -7.5t51 -5t63.5 -1v-84z" />
    <glyph glyph-name="u" unicode="u" horiz-adv-x="1285" 
d="M584 -26q-191 0 -288.5 111t-97.5 327v614h98v-618q0 -173 72.5 -262.5t215.5 -89.5q73 0 138 22t109.5 56t77 75t48 78.5t15.5 67.5v671h98v-801q0 -137 5 -225h-89l-9 191q-137 -217 -393 -217z" />
    <glyph glyph-name="v" unicode="v" horiz-adv-x="949" 
d="M424 0l-423 1026h101l329 -816l48 -132l48 132l329 816h101l-423 -1026h-110z" />
    <glyph glyph-name="w" unicode="w" horiz-adv-x="1553" 
d="M342 0l-298 1026h106l239 -844l22 -80l27 80l289 844h128l283 -844l25 -80l21 80l215 844h109l-278 -1026h-128l-262 800l-45 139l-46 -139l-279 -800h-128z" />
    <glyph glyph-name="x" unicode="x" horiz-adv-x="1114" 
d="M58 0l444 526l-411 504l111 -4l353 -444l364 444h115l-420 -515l438 -511h-107l-386 460l-389 -460h-112z" />
    <glyph glyph-name="y" unicode="y" horiz-adv-x="983" 
d="M157 -417l-33 72q75 19 131.5 50.5t91.5 71.5t54 71.5t36 72.5l24 58l-399 1047h106l342 -929l353 929h96l-412 -1078q-116 -315 -390 -365z" />
    <glyph glyph-name="z" unicode="z" horiz-adv-x="934" 
d="M90 0v59l640 885h-615v82h740v-57l-635 -887h623v-82h-753z" />
    <glyph glyph-name="braceleft" unicode="{" horiz-adv-x="908" 
d="M462 1159v-289q0 -132 -43.5 -210t-134.5 -105q178 -52 178 -314v-289q0 -21 0.5 -30.5t2 -27t5 -25.5t10.5 -21t17.5 -19.5t25.5 -15t36 -12.5t47.5 -8t61 -5.5t76.5 -0.5v-77q-77 0 -137 7.5t-99.5 18t-67.5 30.5t-42 37t-21.5 46t-9 49t-1.5 54v289q0 72 -10 118
t-37.5 84t-80.5 60t-136 32v41q83 10 136 32t80.5 60t37.5 84t10 118v289q0 34 1.5 54t9 49t21.5 46t42 37t67.5 30.5t99.5 18t137 7.5v-77q-42 1 -76.5 -0.5t-61 -5.5t-47.5 -8t-36 -12.5t-25.5 -15t-17.5 -19.5t-10.5 -21t-5 -25.5t-2 -27t-0.5 -30.5z" />
    <glyph glyph-name="bar" unicode="|" horiz-adv-x="1685" 
d="M794 -517v2089h97v-2089h-97z" />
    <glyph glyph-name="braceright" unicode="}" horiz-adv-x="846" 
d="M105 -290v77q42 -1 76.5 0.5t61 5.5t47.5 8t36 12.5t25.5 15t17.5 19.5t10.5 21t5 25.5t2 27t0.5 30.5v289q0 262 178 314q-91 27 -134.5 105t-43.5 210v289q0 21 -0.5 30.5t-2 27t-5 25.5t-10.5 21t-17.5 19.5t-25.5 15t-36 12.5t-47.5 8t-61 5.5t-76.5 0.5v77
q77 0 137 -7.5t99.5 -18t67.5 -30.5t42 -37t21.5 -46t9 -49t1.5 -54v-289q0 -72 10 -118t37.5 -84t80.5 -60t136 -32v-41q-83 -10 -136 -32t-80.5 -60t-37.5 -84t-10 -118v-289q0 -34 -1.5 -54t-9 -49t-21.5 -46t-42 -37t-67.5 -30.5t-99.5 -18t-137 -7.5z" />
    <glyph glyph-name="asciitilde" unicode="~" horiz-adv-x="917" 
d="M30 420l-55 27q22 99 75 142.5t167 43.5q81 0 216 -42q130 -48 170.5 -60t86.5 -12q77 0 125.5 51t67.5 127l59 -20q-58 -245 -256 -245q-16 0 -34.5 2.5t-45.5 10t-40.5 11.5t-51 16t-46.5 15q-108 42 -147 50.5t-104 8.5q-93 0 -132.5 -27.5t-54.5 -98.5z" />
    <glyph glyph-name="uni007F" horiz-adv-x="1521" 
d="M188 0v1456h1145v-1456h-1145zM360 124h801v1206h-801v-1206z" />
    <glyph glyph-name="uni00A0" unicode="&#xa0;" horiz-adv-x="599" 
 />
    <glyph glyph-name="exclamdown" unicode="&#xa1;" horiz-adv-x="391" 
d="M108 1104h157v-160h-157v160zM161 741h56l32 -1093h-120z" />
    <glyph glyph-name="cent" unicode="&#xa2;" horiz-adv-x="969" 
d="M561 -178h75v157q99 4 187 36.5t141 84.5l-34 67q-126 -99 -294 -106v909q166 -4 264 -90l33 72q-50 44 -130.5 71t-166.5 29v202h-75v-205q-214 -19 -339.5 -166t-125.5 -381q0 -225 125.5 -365t339.5 -156v-159zM561 966v-903q-168 17 -266.5 134.5t-98.5 304.5
q0 196 98 320t267 144z" />
    <glyph glyph-name="sterling" unicode="&#xa3;" horiz-adv-x="1136" 
d="M145 0v104q53 31 91 91t55.5 129t25 124.5t7.5 101.5v164h-199v77h200v210q0 107 22 191t68 148.5t123.5 99t182.5 34.5q101 0 167 -25t72 -50l-35 -72q0 7 -28.5 19.5t-81 22.5t-104.5 7q-277 -17 -277 -350v-235h392v-77h-388v-162q0 -99 -19 -187t-46.5 -142t-52 -87
t-41.5 -40h706v-96h-840z" />
    <glyph glyph-name="currency" unicode="&#xa4;" horiz-adv-x="1218" 
d="M609 714q129 0 215.5 92t86.5 224q0 131 -86 218t-216 87t-216 -87t-86 -218q0 -132 86.5 -224t215.5 -92zM171 547l-51 51l187 187q-88 106 -88 243q0 144 95 252l-195 195l51 51l197 -196q105 83 243 83q135 0 243 -82l195 195l51 -51l-193 -193q96 -109 96 -254
q0 -139 -89 -245l186 -185l-51 -51l-186 186q-109 -90 -252 -90t-252 91z" />
    <glyph glyph-name="yen" unicode="&#xa5;" horiz-adv-x="1143" 
d="M514 0h108v349h275v66h-275v118h277v66h-274l484 857h-105l-434 -773l-427 773h-109l476 -857h-278v-66h282v-118h-282v-66h282v-349z" />
    <glyph glyph-name="brokenbar" unicode="&#xa6;" horiz-adv-x="500" 
d="M209 756v816h96v-816h-96zM208 -517v894h95v-894h-95z" />
    <glyph glyph-name="section" unicode="&#xa7;" horiz-adv-x="1024" 
d="M573 476q203 91 203 247q0 60 -46 94t-208 113q-122 -42 -183.5 -91t-61.5 -120q0 -21 4 -39.5t17 -36t23 -30t35.5 -29t40.5 -26t52.5 -27t56.5 -26t67 -29.5zM497 -91q-134 0 -278 50v74q151 -58 278 -58q118 0 188.5 52t70.5 152q1 24 -5.5 46t-15 38.5t-29 35t-35 30
t-47 29.5t-51 27.5t-61.5 30t-64 31.5q-44 22 -64 32.5t-52.5 29.5t-47.5 32t-34.5 33t-27.5 39.5t-14.5 45.5t-6.5 57q0 91 76.5 156t184.5 88q-133 70 -181.5 123.5t-48.5 146.5q0 68 30.5 121.5t81.5 85t112.5 47.5t129.5 16q108 0 198 -38v-71q-92 38 -197 38
q-54 0 -101.5 -11.5t-86 -34.5t-61 -62.5t-22.5 -90.5q0 -49 17 -79.5t62.5 -62t151.5 -86.5q25 -13 64 -33t59 -30t49 -26t43.5 -26.5t34.5 -26t29 -29t18.5 -31.5t13 -37.5t3.5 -42.5q0 -89 -68 -159.5t-164 -113.5q106 -53 158 -112t52 -145q0 -140 -94.5 -210.5
t-247.5 -70.5z" />
    <glyph glyph-name="dieresis" unicode="&#xa8;" horiz-adv-x="743" 
d="M492 1210v108h99v-108h-99zM156 1210v108h98v-108h-98z" />
    <glyph glyph-name="copyright" unicode="&#xa9;" horiz-adv-x="1748" 
d="M873 -38q-154 0 -295.5 60.5t-243.5 162.5t-163 243t-61 296q0 154 61 295.5t163 243.5t243.5 163t295.5 61q155 0 296.5 -61t244 -163t163.5 -243.5t61 -295.5q0 -155 -61 -296t-163.5 -243t-244 -162.5t-296.5 -60.5zM876 46q135 0 258 54t212 145t142 215t53 259
t-53 259.5t-142 215.5t-212 145t-258 54t-259 -54t-213 -145t-142 -215.5t-53 -259.5t53 -259t142 -215t213 -145t259 -54zM896 266q-193 0 -308.5 114.5t-115.5 333.5q0 112 34.5 202.5t94.5 148.5t139 89t169 31q65 0 129.5 -22.5t106.5 -62.5l-27 -62q-40 33 -100 51.5
t-116 18.5q-44 0 -87.5 -10t-90.5 -37.5t-82 -70t-58 -113.5t-23 -161q0 -173 85 -273.5t235 -100.5q166 0 261 72l30 -63q-41 -37 -113 -61t-163 -24z" />
    <glyph glyph-name="ordfeminine" unicode="&#xaa;" horiz-adv-x="691" 
d="M329 880q51 0 90.5 14.5t62 36.5t37 53t19 59.5t4.5 61.5v32h-44h-73.5t-63 -1.5t-58 -4.5t-46 -9t-40 -15t-26 -22t-18.5 -31.5t-5 -41.5q0 -132 161 -132zM313 802q-114 0 -178.5 56.5t-64.5 144.5q0 91 76.5 144t224.5 53h169v16q0 54 -5.5 85.5t-22 57t-48.5 36
t-84 10.5q-61 0 -122.5 -13.5t-92.5 -27.5l-31 -13l-19 62q13 7 36.5 18t91.5 29t131 18q105 0 173.5 -49.5t73.5 -144.5q0 -21 -3 -208l-2 -157l1 -43q1 -27 4 -67h-92l4 91q-67 -98 -220 -98z" />
    <glyph glyph-name="guillemotleft" unicode="&#xab;" horiz-adv-x="1040" 
d="M789 186l-263 360l267 368h114l-261 -367l253 -361h-110zM374 186l-263 360l268 368h113l-260 -367l252 -361h-110z" />
    <glyph glyph-name="logicalnot" unicode="&#xac;" horiz-adv-x="1473" 
d="M1190 250v444h-947v92h1034v-536h-87z" />
    <glyph glyph-name="uni00AD" unicode="&#xad;" horiz-adv-x="593" 
d="M67 527v73h459v-73h-459z" />
    <glyph glyph-name="registered" unicode="&#xae;" horiz-adv-x="1748" 
d="M873 -38q-154 0 -295.5 60.5t-243.5 162.5t-163 243t-61 296q0 154 61 295.5t163 243.5t243.5 163t295.5 61q155 0 296.5 -61t244 -163t163.5 -243.5t61 -295.5q0 -155 -61 -296t-163.5 -243t-244 -162.5t-296.5 -60.5zM876 46q135 0 258 54t212 145t142 215t53 259
t-53 259.5t-142 215.5t-212 145t-258 54t-259 -54t-213 -145t-142 -215.5t-53 -259.5t53 -259t142 -215t213 -145t259 -54zM669 762h152q168 0 235 35t67 140q0 116 -65.5 150t-263.5 34h-125v-359zM575 261v946h241q220 0 318.5 -63.5t98.5 -188.5q0 -112 -52.5 -171.5
t-196.5 -80.5l239 -442h-118l-227 437h-206v-437h-97z" />
    <glyph glyph-name="macron" unicode="&#xaf;" horiz-adv-x="674" 
d="M72 1235v75h530v-75h-530z" />
    <glyph glyph-name="degree" unicode="&#xb0;" horiz-adv-x="812" 
d="M406 859q-127 0 -209 84t-82 202q0 119 81 201t210 82q128 0 209.5 -82t81.5 -201q0 -118 -82.5 -202t-208.5 -84zM406 945q95 0 145 59t50 143q0 83 -51 140.5t-144 57.5t-145 -57.5t-52 -140.5q0 -84 50.5 -143t146.5 -59z" />
    <glyph glyph-name="plusminus" unicode="&#xb1;" horiz-adv-x="1180" 
d="M174 0v92h853v-92h-853zM556 209v388h-358v94h358v388h83v-388h337v-94h-337v-388h-83z" />
    <glyph glyph-name="uni00B2" unicode="&#xb2;" horiz-adv-x="942" 
d="M192 631v70l293 305q85 89 112.5 138t27.5 104q0 60 -39 102t-127 42q-164 0 -171 -170l-75 4q2 108 68 169t178 61q116 0 178.5 -59t62.5 -146q0 -79 -32 -137.5t-133 -161.5l-246 -252h416v-69h-513z" />
    <glyph glyph-name="uni00B3" unicode="&#xb3;" horiz-adv-x="878" 
d="M398 605q-72 0 -140 24.5t-110 65.5l39 62q38 -37 95.5 -60t115.5 -23q77 0 124.5 46t47.5 120q0 77 -50 122t-145 45h-97v71h97q89 0 135 40.5t46 109.5q0 71 -47.5 114.5t-124.5 43.5q-120 0 -181 -84l-47 44q26 50 88 80t139 30q115 0 183 -62t68 -166q0 -64 -37 -113
t-99 -68q68 -20 109 -76t41 -131q0 -107 -68 -171t-182 -64z" />
    <glyph glyph-name="acute" unicode="&#xb4;" horiz-adv-x="607" 
d="M119 1174l196 282h132l-273 -282h-55z" />
    <glyph glyph-name="glyph120" unicode="&#xb5;" horiz-adv-x="1285" 
d="M296 -332l-98 4v1354h98v-618q0 -173 72.5 -262.5t215.5 -89.5q73 0 138 22t109.5 56t77 75t48 78.5t15.5 67.5v671h98v-801q0 -137 5 -225h-89l-9 191q-137 -217 -393 -217q-192 0 -288 110v-416z" />
    <glyph glyph-name="paragraph" unicode="&#xb6;" horiz-adv-x="1191" 
d="M525 -180v1023q-47 -3 -97.5 6.5t-99 33.5t-87 58.5t-62 86t-23.5 111.5q0 89 32 152t94 99t142.5 51.5t188.5 15.5h392v-76h-91v-1561h-73v1561h-243v-1561h-73z" />
    <glyph glyph-name="periodcentered" unicode="&#xb7;" horiz-adv-x="509" 
d="M245 533v160h128v-160h-128z" />
    <glyph glyph-name="cedilla" unicode="&#xb8;" horiz-adv-x="529" 
d="M240 -389q-75 3 -154 39l12 58q19 -9 59 -18.5t74 -10.5q68 -3 93 13t25 54q0 65 -176 65h-6l34 194h59l-24 -144q39 -1 67.5 -5.5t62.5 -16t53 -37t19 -63.5q0 -33 -12.5 -57.5t-32 -38t-47 -21.5t-53 -10t-53.5 -1z" />
    <glyph glyph-name="uni00B9" unicode="&#xb9;" horiz-adv-x="896" 
d="M238 649v61h154v662l-149 -76l2 74l153 86h68v-746h140v-61h-368z" />
    <glyph glyph-name="ordmasculine" unicode="&#xba;" horiz-adv-x="850" 
d="M426 806q-164 0 -254.5 98t-90.5 251q0 150 92 247.5t254 97.5q164 0 252.5 -96.5t88.5 -250.5q0 -149 -91 -248t-251 -99zM430 892q111 0 174.5 68.5t63.5 186.5q0 122 -64 191.5t-180 69.5q-111 0 -173 -68.5t-62 -187.5q0 -124 61.5 -192t179.5 -68z" />
    <glyph glyph-name="guillemotright" unicode="&#xbb;" horiz-adv-x="1040" 
d="M528 180l261 366l-253 362h110l263 -361l-267 -367h-114zM113 180l261 366l-253 362h110l263 -361l-267 -367h-114z" />
    <glyph glyph-name="onequarter" unicode="&#xbc;" horiz-adv-x="1654" 
d="M973 256h307v441zM321 0l930 1456h68l-915 -1456h-83zM1282 0v184h-395v69l374 533h99v-530h83l-1 -72h-86v-184h-74zM130 649v61h154v662l-149 -76l2 74l153 86h68v-746h140v-61h-368z" />
    <glyph glyph-name="onehalf" unicode="&#xbd;" horiz-adv-x="1563" 
d="M124 649v61h154v662l-149 -76l2 74l153 86h68v-746h140v-61h-368zM267 0l930 1456h68l-915 -1456h-83zM917 0v70l293 305q85 89 112.5 138t27.5 104q0 60 -39 102t-127 42q-164 0 -171 -170l-75 4q2 108 68 169t178 61q116 0 178.5 -59t62.5 -146q0 -79 -32 -137.5
t-133 -161.5l-246 -252h416v-69h-513z" />
    <glyph glyph-name="threequarters" unicode="&#xbe;" horiz-adv-x="1601" 
d="M1029 256h307v441zM410 0l930 1456h68l-915 -1456h-83zM1338 0v184h-395v69l374 533h99v-530h83l-1 -72h-86v-184h-74zM398 605q-72 0 -140 24.5t-110 65.5l39 62q38 -37 95.5 -60t115.5 -23q77 0 124.5 46t47.5 120q0 77 -50 122t-145 45h-97v71h97q89 0 135 40.5
t46 109.5q0 71 -47.5 114.5t-124.5 43.5q-120 0 -181 -84l-47 44q26 50 88 80t139 30q115 0 183 -62t68 -166q0 -64 -37 -113t-99 -68q68 -20 109 -76t41 -131q0 -107 -68 -171t-182 -64z" />
    <glyph glyph-name="questiondown" unicode="&#xbf;" horiz-adv-x="1032" 
d="M680 1113v-167h-163v167h163zM643 755v-148q0 -54 -30.5 -109t-75.5 -100t-98.5 -98t-98.5 -101.5t-75.5 -111t-30.5 -125.5q0 -127 87.5 -190t226.5 -63q141 0 272 81v-105q-135 -65 -290 -65q-193 0 -295.5 84t-102.5 249q0 60 24 119.5t62 108t83.5 95.5t91.5 90
t84 83t62 82.5t24 81.5v142h80z" />
    <glyph glyph-name="Agrave" unicode="&#xc0;" horiz-adv-x="1329" 
d="M636 1604l-318 282h135l237 -282h-54zM359 473h619l-155 447l-156 446l-154 -446zM68 0l530 1456h134l529 -1456h-112l-143 399h-674l-143 -399h-121z" />
    <glyph glyph-name="Aacute" unicode="&#xc1;" horiz-adv-x="1329" 
d="M640 1604l196 282h132l-273 -282h-55zM359 473h619l-155 447l-156 446l-154 -446zM68 0l530 1456h134l529 -1456h-112l-143 399h-674l-143 -399h-121z" />
    <glyph glyph-name="Acircumflex" unicode="&#xc2;" horiz-adv-x="1329" 
d="M437 1645l206 272h57l201 -272h-56l-180 185l-178 -185h-50zM359 473h619l-155 447l-156 446l-154 -446zM68 0l530 1456h134l529 -1456h-112l-143 399h-674l-143 -399h-121z" />
    <glyph glyph-name="Atilde" unicode="&#xc3;" horiz-adv-x="1329" 
d="M821 1663q-48 0 -161.5 48.5t-147.5 48.5q-62 0 -62 -80h-62q0 71 31 107.5t88 36.5q50 0 161.5 -48.5t145.5 -48.5q27 0 34.5 19.5t7.5 66.5h66q0 -150 -101 -150zM359 473h619l-155 447l-156 446l-154 -446zM68 0l530 1456h134l529 -1456h-112l-143 399h-674l-143 -399
h-121z" />
    <glyph glyph-name="Adieresis" unicode="&#xc4;" horiz-adv-x="1329" 
d="M783 1640v108h99v-108h-99zM447 1640v108h98v-108h-98zM359 473h619l-155 447l-156 446l-154 -446zM68 0l530 1456h134l529 -1456h-112l-143 399h-674l-143 -399h-121z" />
    <glyph glyph-name="Aring" unicode="&#xc5;" horiz-adv-x="1329" 
d="M665 1576q-76 0 -125.5 47.5t-49.5 120.5t49.5 120.5t125.5 47.5t125.5 -47.5t49.5 -120.5t-49.5 -120.5t-125.5 -47.5zM665 1632q46 0 75.5 31.5t29.5 80.5t-29.5 80.5t-75.5 31.5t-75.5 -31.5t-29.5 -80.5t29.5 -80.5t75.5 -31.5zM359 473h619l-155 447l-156 446
l-154 -446zM68 0l530 1456h134l529 -1456h-112l-143 399h-674l-143 -399h-121z" />
    <glyph glyph-name="AE" unicode="&#xc6;" horiz-adv-x="1860" 
d="M422 536h605l-66 833h-66zM35 0l834 1456h908v-87h-733l48 -573h615v-77h-617l57 -636h654v-83h-721l-43 459h-650l-263 -459h-89z" />
    <glyph glyph-name="Ccedilla" unicode="&#xc7;" horiz-adv-x="1389" 
d="M819 -389q-75 3 -154 39l12 58q19 -9 59 -18.5t74 -10.5q68 -3 93 13t25 54q0 65 -176 65h-6l34 194h59l-24 -144q39 -1 67.5 -5.5t62.5 -16t53 -37t19 -63.5q0 -33 -12.5 -57.5t-32 -38t-47 -21.5t-53 -10t-53.5 -1zM810 -22q-320 0 -510 196.5t-190 526.5
q0 356 194 568t520 212q256 0 419 -139l-44 -68q-155 121 -375 121q-276 0 -440 -188.5t-164 -505.5q0 -290 160.5 -463t429.5 -173q239 0 428 125l35 -75q-210 -137 -463 -137z" />
    <glyph glyph-name="Egrave" unicode="&#xc8;" horiz-adv-x="1219" 
d="M609 1604l-318 282h135l237 -282h-54zM224 0v1456h810v-86h-702v-583h663v-86h-665v-615h734v-86h-840z" />
    <glyph glyph-name="Eacute" unicode="&#xc9;" horiz-adv-x="1219" 
d="M613 1604l196 282h132l-273 -282h-55zM224 0v1456h810v-86h-702v-583h663v-86h-665v-615h734v-86h-840z" />
    <glyph glyph-name="Ecircumflex" unicode="&#xca;" horiz-adv-x="1219" 
d="M410 1645l206 272h57l201 -272h-56l-180 185l-178 -185h-50zM224 0v1456h810v-86h-702v-583h663v-86h-665v-615h734v-86h-840z" />
    <glyph glyph-name="Edieresis" unicode="&#xcb;" horiz-adv-x="1219" 
d="M756 1640v108h99v-108h-99zM420 1640v108h98v-108h-98zM224 0v1456h810v-86h-702v-583h663v-86h-665v-615h734v-86h-840z" />
    <glyph glyph-name="Igrave" unicode="&#xcc;" horiz-adv-x="592" 
d="M268 1604l-318 282h135l237 -282h-54zM242 0v1456h108v-1456h-108z" />
    <glyph glyph-name="Iacute" unicode="&#xcd;" horiz-adv-x="592" 
d="M272 1604l196 282h132l-273 -282h-55zM242 0v1456h108v-1456h-108z" />
    <glyph glyph-name="Icircumflex" unicode="&#xce;" horiz-adv-x="592" 
d="M69 1645l206 272h57l201 -272h-56l-180 185l-178 -185h-50zM242 0v1456h108v-1456h-108z" />
    <glyph glyph-name="Idieresis" unicode="&#xcf;" horiz-adv-x="592" 
d="M415 1640v108h99v-108h-99zM79 1640v108h98v-108h-98zM242 0v1456h108v-1456h-108z" />
    <glyph glyph-name="Eth" unicode="&#xd0;" horiz-adv-x="1523" 
d="M64 717v73h459v-73h-459zM224 0v1456h374q387 0 588 -189.5t201 -554.5q0 -350 -195.5 -531t-571.5 -181h-396zM332 86h288q323 0 490 159.5t167 466.5q0 323 -173 490.5t-506 167.5h-266v-1284z" />
    <glyph glyph-name="Ntilde" unicode="&#xd1;" horiz-adv-x="1571" 
d="M974 1663q-48 0 -161.5 48.5t-147.5 48.5q-62 0 -62 -80h-62q0 71 31 107.5t88 36.5q50 0 161.5 -48.5t145.5 -48.5q27 0 34.5 19.5t7.5 66.5h66q0 -150 -101 -150zM224 0v1456h106l784 -1121l127 -193v1314h106v-1456h-105l-803 1137l-109 166v-1303h-106z" />
    <glyph glyph-name="Ograve" unicode="&#xd2;" 
d="M757 1604l-318 282h135l237 -282h-54zM788 -21q-310 0 -494 202t-184 542q0 346 183.5 552t494.5 206q306 0 490 -206.5t184 -551.5q0 -339 -183.5 -541.5t-490.5 -202.5zM788 65q258 0 411 179t153 479q0 307 -153.5 489.5t-410.5 182.5q-259 0 -413.5 -182.5
t-154.5 -489.5q0 -300 155 -479t413 -179z" />
    <glyph glyph-name="Oacute" unicode="&#xd3;" 
d="M761 1604l196 282h132l-273 -282h-55zM788 -21q-310 0 -494 202t-184 542q0 346 183.5 552t494.5 206q306 0 490 -206.5t184 -551.5q0 -339 -183.5 -541.5t-490.5 -202.5zM788 65q258 0 411 179t153 479q0 307 -153.5 489.5t-410.5 182.5q-259 0 -413.5 -182.5
t-154.5 -489.5q0 -300 155 -479t413 -179z" />
    <glyph glyph-name="Ocircumflex" unicode="&#xd4;" 
d="M558 1645l206 272h57l201 -272h-56l-180 185l-178 -185h-50zM788 -21q-310 0 -494 202t-184 542q0 346 183.5 552t494.5 206q306 0 490 -206.5t184 -551.5q0 -339 -183.5 -541.5t-490.5 -202.5zM788 65q258 0 411 179t153 479q0 307 -153.5 489.5t-410.5 182.5
q-259 0 -413.5 -182.5t-154.5 -489.5q0 -300 155 -479t413 -179z" />
    <glyph glyph-name="Otilde" unicode="&#xd5;" 
d="M942 1663q-48 0 -161.5 48.5t-147.5 48.5q-62 0 -62 -80h-62q0 71 31 107.5t88 36.5q50 0 161.5 -48.5t145.5 -48.5q27 0 34.5 19.5t7.5 66.5h66q0 -150 -101 -150zM788 -21q-310 0 -494 202t-184 542q0 346 183.5 552t494.5 206q306 0 490 -206.5t184 -551.5
q0 -339 -183.5 -541.5t-490.5 -202.5zM788 65q258 0 411 179t153 479q0 307 -153.5 489.5t-410.5 182.5q-259 0 -413.5 -182.5t-154.5 -489.5q0 -300 155 -479t413 -179z" />
    <glyph glyph-name="Odieresis" unicode="&#xd6;" 
d="M904 1640v108h99v-108h-99zM568 1640v108h98v-108h-98zM788 -21q-310 0 -494 202t-184 542q0 346 183.5 552t494.5 206q306 0 490 -206.5t184 -551.5q0 -339 -183.5 -541.5t-490.5 -202.5zM788 65q258 0 411 179t153 479q0 307 -153.5 489.5t-410.5 182.5
q-259 0 -413.5 -182.5t-154.5 -489.5q0 -300 155 -479t413 -179z" />
    <glyph glyph-name="multiply" unicode="&#xd7;" horiz-adv-x="1177" 
d="M271 180l-59 62l316 317l-316 317l59 62l318 -317l315 317l62 -65l-318 -314l318 -314l-62 -65l-315 315z" />
    <glyph glyph-name="Oslash" unicode="&#xd8;" 
d="M788 -21q307 0 490.5 202.5t183.5 541.5q0 106 -18.5 201t-53.5 175t-86 145t-116 114l117 214l-60 33l-115 -210q-149 86 -342 86q-311 0 -494.5 -206t-183.5 -552q0 -217 78 -382t221 -258l-112 -204l63 -34l111 203q141 -69 317 -69zM1140 1271q102 -87 157 -227.5
t55 -320.5q0 -300 -153 -479t-411 -179q-76 0 -144.5 16.5t-127.5 48.5zM1085 1313l-629 -1144q-113 84 -174.5 226.5t-61.5 327.5q0 307 154.5 489.5t413.5 182.5q24 0 47.5 -1.5t46 -5t44.5 -9t42.5 -12t40.5 -15t39 -18.5t37 -21z" />
    <glyph glyph-name="Ugrave" unicode="&#xd9;" horiz-adv-x="1480" 
d="M717 1604l-318 282h135l237 -282h-54zM732 -21q-273 0 -414.5 136t-141.5 399v942h108v-950q0 -217 114 -329t334 -112t334 112t114 329v950h108v-942q-2 -263 -143.5 -399t-412.5 -136z" />
    <glyph glyph-name="Uacute" unicode="&#xda;" horiz-adv-x="1480" 
d="M721 1604l196 282h132l-273 -282h-55zM732 -21q-273 0 -414.5 136t-141.5 399v942h108v-950q0 -217 114 -329t334 -112t334 112t114 329v950h108v-942q-2 -263 -143.5 -399t-412.5 -136z" />
    <glyph glyph-name="Ucircumflex" unicode="&#xdb;" horiz-adv-x="1480" 
d="M518 1645l206 272h57l201 -272h-56l-180 185l-178 -185h-50zM732 -21q-273 0 -414.5 136t-141.5 399v942h108v-950q0 -217 114 -329t334 -112t334 112t114 329v950h108v-942q-2 -263 -143.5 -399t-412.5 -136z" />
    <glyph glyph-name="Udieresis" unicode="&#xdc;" horiz-adv-x="1480" 
d="M864 1640v108h99v-108h-99zM528 1640v108h98v-108h-98zM732 -21q-273 0 -414.5 136t-141.5 399v942h108v-950q0 -217 114 -329t334 -112t334 112t114 329v950h108v-942q-2 -263 -143.5 -399t-412.5 -136z" />
    <glyph glyph-name="Yacute" unicode="&#xdd;" horiz-adv-x="1235" 
d="M587 1604l196 282h132l-273 -282h-55zM560 0v591l-480 865h109l427 -773l434 773h105l-487 -862v-594h-108z" />
    <glyph glyph-name="Thorn" unicode="&#xde;" horiz-adv-x="1255" 
d="M325 460h306q199 0 317.5 80t118.5 239q0 78 -23.5 136t-64.5 95t-103.5 59.5t-133.5 31.5t-162 9h-255v-650zM213 0v1456h111v-245h240q108 0 195 -10.5t168.5 -39.5t136 -76t87.5 -123.5t33 -178.5q0 -214 -145.5 -319.5t-395.5 -105.5h-318v-358h-112z" />
    <glyph glyph-name="germandbls" unicode="&#xdf;" horiz-adv-x="1240" 
d="M745 -28q-145 0 -304 65l9 83q168 -66 295 -66q139 0 222 75t83 200q0 174 -117 281.5t-396 194.5v84q82 18 141.5 38t98.5 44.5t63 48t35.5 56.5t15 61t3.5 71q0 110 -81.5 175t-217.5 65q-148 0 -224.5 -98t-76.5 -288v-1062h-98l3 1062q1 232 102.5 352t295.5 120
q178 0 283.5 -88.5t105.5 -237.5q0 -153 -74 -229t-251 -122l-39 -10l38 -10q75 -20 142 -47.5t132 -71.5t112 -98t75.5 -129t28.5 -162q0 -163 -110 -260t-295 -97z" />
    <glyph glyph-name="agrave" unicode="&#xe0;" horiz-adv-x="1253" 
d="M558 1174l-318 282h135l237 -282h-54zM581 61q173 0 269.5 124.5t96.5 338.5q0 203 -99.5 324.5t-266.5 121.5q-175 0 -280 -121.5t-105 -324.5q0 -211 104.5 -337t280.5 -126zM577 -21q-220 0 -350.5 148t-130.5 397q0 241 132 384.5t353 143.5q128 0 225 -62.5
t141 -164.5v201h98v-1026h-98v215q-48 -108 -142.5 -172t-227.5 -64z" />
    <glyph glyph-name="aacute" unicode="&#xe1;" horiz-adv-x="1253" 
d="M562 1174l196 282h132l-273 -282h-55zM581 61q173 0 269.5 124.5t96.5 338.5q0 203 -99.5 324.5t-266.5 121.5q-175 0 -280 -121.5t-105 -324.5q0 -211 104.5 -337t280.5 -126zM577 -21q-220 0 -350.5 148t-130.5 397q0 241 132 384.5t353 143.5q128 0 225 -62.5
t141 -164.5v201h98v-1026h-98v215q-48 -108 -142.5 -172t-227.5 -64z" />
    <glyph glyph-name="acircumflex" unicode="&#xe2;" horiz-adv-x="1253" 
d="M359 1215l206 272h57l201 -272h-56l-180 185l-178 -185h-50zM581 61q173 0 269.5 124.5t96.5 338.5q0 203 -99.5 324.5t-266.5 121.5q-175 0 -280 -121.5t-105 -324.5q0 -211 104.5 -337t280.5 -126zM577 -21q-220 0 -350.5 148t-130.5 397q0 241 132 384.5t353 143.5
q128 0 225 -62.5t141 -164.5v201h98v-1026h-98v215q-48 -108 -142.5 -172t-227.5 -64z" />
    <glyph glyph-name="atilde" unicode="&#xe3;" horiz-adv-x="1253" 
d="M743 1233q-48 0 -161.5 48.5t-147.5 48.5q-62 0 -62 -80h-62q0 71 31 107.5t88 36.5q50 0 161.5 -48.5t145.5 -48.5q27 0 34.5 19.5t7.5 66.5h66q0 -150 -101 -150zM581 61q173 0 269.5 124.5t96.5 338.5q0 203 -99.5 324.5t-266.5 121.5q-175 0 -280 -121.5t-105 -324.5
q0 -211 104.5 -337t280.5 -126zM577 -21q-220 0 -350.5 148t-130.5 397q0 241 132 384.5t353 143.5q128 0 225 -62.5t141 -164.5v201h98v-1026h-98v215q-48 -108 -142.5 -172t-227.5 -64z" />
    <glyph glyph-name="adieresis" unicode="&#xe4;" horiz-adv-x="1253" 
d="M705 1210v108h99v-108h-99zM369 1210v108h98v-108h-98zM581 61q173 0 269.5 124.5t96.5 338.5q0 203 -99.5 324.5t-266.5 121.5q-175 0 -280 -121.5t-105 -324.5q0 -211 104.5 -337t280.5 -126zM577 -21q-220 0 -350.5 148t-130.5 397q0 241 132 384.5t353 143.5
q128 0 225 -62.5t141 -164.5v201h98v-1026h-98v215q-48 -108 -142.5 -172t-227.5 -64z" />
    <glyph glyph-name="aring" unicode="&#xe5;" horiz-adv-x="1253" 
d="M587 1146q-76 0 -125.5 47.5t-49.5 120.5t49.5 120.5t125.5 47.5t125.5 -47.5t49.5 -120.5t-49.5 -120.5t-125.5 -47.5zM587 1202q46 0 75.5 31.5t29.5 80.5t-29.5 80.5t-75.5 31.5t-75.5 -31.5t-29.5 -80.5t29.5 -80.5t75.5 -31.5zM581 61q173 0 269.5 124.5t96.5 338.5
q0 203 -99.5 324.5t-266.5 121.5q-175 0 -280 -121.5t-105 -324.5q0 -211 104.5 -337t280.5 -126zM577 -21q-220 0 -350.5 148t-130.5 397q0 241 132 384.5t353 143.5q128 0 225 -62.5t141 -164.5v201h98v-1026h-98v215q-48 -108 -142.5 -172t-227.5 -64z" />
    <glyph glyph-name="ae" unicode="&#xe6;" horiz-adv-x="1811" 
d="M963 578h677l-1 30q-2 62 -21.5 122.5t-57 115.5t-103.5 89.5t-150 34.5q-77 0 -143.5 -35.5t-109.5 -92.5t-67 -126t-24 -138zM471 61q187 0 283.5 122.5t94.5 323.5h-222q-102 0 -169 -5.5t-120.5 -19.5t-82.5 -40t-44 -65t-15 -97q0 -111 77.5 -165t197.5 -54z
M471 -20q-166 0 -268.5 79t-102.5 215q0 65 15 114t48 82.5t75.5 54.5t108 33t133.5 16t163 4h202q1 172 -83 282t-232 110q-189 0 -352 -85l-34 79q1 1 13 6.5t19 9t23.5 11t30 12t35.5 11.5t41.5 12t46.5 10t53.5 8.5t58.5 5.5t65 2q149 0 250 -77t127 -208
q48 128 155 206.5t245 78.5q190 0 305 -136.5t115 -388.5v-18h-764v-35q0 -80 20 -151t60 -131t109.5 -95.5t160.5 -35.5q57 0 111.5 12t92 29t67 34t44.5 29l14 12l36 -69q-6 -5 -16 -14t-46 -31t-75.5 -39t-101.5 -31t-126 -14q-150 0 -259 83t-151 217
q-15 -56 -47.5 -107t-83.5 -95.5t-129 -70.5t-172 -26z" />
    <glyph glyph-name="ccedilla" unicode="&#xe7;" horiz-adv-x="1022" 
d="M596 -389q-75 3 -154 39l12 58q19 -9 59 -18.5t74 -10.5q68 -3 93 13t25 54q0 65 -176 65h-6l34 194h59l-24 -144q39 -1 67.5 -5.5t62.5 -16t53 -37t19 -63.5q0 -33 -12.5 -57.5t-32 -38t-47 -21.5t-53 -10t-53.5 -1zM612 -21q-235 0 -375.5 142t-140.5 381
q0 251 143 400.5t383 149.5q89 0 174 -27t137 -73l-33 -72q-103 90 -278 90q-194 0 -310 -127t-116 -341q0 -201 113 -321t303 -120q183 0 318 106l34 -67q-56 -55 -151.5 -88t-200.5 -33z" />
    <glyph glyph-name="egrave" unicode="&#xe8;" horiz-adv-x="1133" 
d="M556 1174l-318 282h135l237 -282h-54zM202 578h761q-10 179 -110.5 285.5t-260.5 106.5q-164 0 -270 -106.5t-120 -285.5zM616 -21q-237 0 -378.5 144t-141.5 385q0 248 135 396t361 148q207 0 330 -132.5t123 -354.5v-58h-849q-2 -203 112 -324.5t308 -121.5
q95 0 186 31t160 85l36 -69q-71 -59 -174.5 -94t-207.5 -35z" />
    <glyph glyph-name="eacute" unicode="&#xe9;" horiz-adv-x="1133" 
d="M202 578h761q-10 179 -110.5 285.5t-260.5 106.5q-164 0 -270 -106.5t-120 -285.5zM616 -21q-237 0 -378.5 144t-141.5 385q0 248 135 396t361 148q207 0 330 -132.5t123 -354.5v-58h-849q-2 -203 112 -324.5t308 -121.5q95 0 186 31t160 85l36 -69q-71 -59 -174.5 -94
t-207.5 -35zM560 1174l196 282h132l-273 -282h-55z" />
    <glyph glyph-name="ecircumflex" unicode="&#xea;" horiz-adv-x="1133" 
d="M202 578h761q-10 179 -110.5 285.5t-260.5 106.5q-164 0 -270 -106.5t-120 -285.5zM616 -21q-237 0 -378.5 144t-141.5 385q0 248 135 396t361 148q207 0 330 -132.5t123 -354.5v-58h-849q-2 -203 112 -324.5t308 -121.5q95 0 186 31t160 85l36 -69q-71 -59 -174.5 -94
t-207.5 -35zM357 1215l206 272h57l201 -272h-56l-180 185l-178 -185h-50z" />
    <glyph glyph-name="edieresis" unicode="&#xeb;" horiz-adv-x="1133" 
d="M202 578h761q-10 179 -110.5 285.5t-260.5 106.5q-164 0 -270 -106.5t-120 -285.5zM616 -21q-237 0 -378.5 144t-141.5 385q0 248 135 396t361 148q207 0 330 -132.5t123 -354.5v-58h-849q-2 -203 112 -324.5t308 -121.5q95 0 186 31t160 85l36 -69q-71 -59 -174.5 -94
t-207.5 -35zM703 1210v108h99v-108h-99zM367 1210v108h98v-108h-98z" />
    <glyph glyph-name="igrave" unicode="&#xec;" horiz-adv-x="473" 
d="M208 1174l-318 282h135l237 -282h-54zM187 0l-2 1026h101l2 -1026h-101z" />
    <glyph glyph-name="iacute" unicode="&#xed;" horiz-adv-x="473" 
d="M187 0l-2 1026h101l2 -1026h-101zM212 1174l196 282h132l-273 -282h-55z" />
    <glyph glyph-name="icircumflex" unicode="&#xee;" horiz-adv-x="473" 
d="M187 0l-2 1026h101l2 -1026h-101zM9 1215l206 272h57l201 -272h-56l-180 185l-178 -185h-50z" />
    <glyph glyph-name="idieresis" unicode="&#xef;" horiz-adv-x="473" 
d="M187 0l-2 1026h101l2 -1026h-101zM355 1210v108h99v-108h-99zM19 1210v108h98v-108h-98z" />
    <glyph glyph-name="eth" unicode="&#xf0;" horiz-adv-x="1231" 
d="M619 60q179 0 276.5 114t97.5 311q0 143 -109 233.5t-282 90.5q-178 0 -277.5 -102t-99.5 -276q0 -171 105 -271t289 -100zM619 -22q-230 0 -362 122.5t-132 330.5q0 212 126.5 336t350.5 124q151 0 256 -63t156 -152q-11 201 -87.5 350.5t-238.5 260.5l-161 -124l-50 67
l135 104q-130 75 -326 138l43 77q207 -62 360 -156l165 127l52 -65l-144 -111q337 -251 337 -741q0 -298 -123 -461.5t-357 -163.5z" />
    <glyph glyph-name="ntilde" unicode="&#xf1;" horiz-adv-x="1257" 
d="M819 1233q-48 0 -161.5 48.5t-147.5 48.5q-62 0 -62 -80h-62q0 71 31 107.5t88 36.5q50 0 161.5 -48.5t145.5 -48.5q27 0 34.5 19.5t7.5 66.5h66q0 -150 -101 -150zM202 0v880l-6 146h89l10 -206q52 112 159 172t245 60q368 0 368 -430v-622h-98v622q0 348 -270 348
q-149 0 -255 -75.5t-144 -216.5v-678h-98z" />
    <glyph glyph-name="ograve" unicode="&#xf2;" horiz-adv-x="1230" 
d="M615 -21q-237 0 -378 144.5t-141 386.5q0 248 141 395t378 147t378 -147t141 -395q0 -242 -141 -386.5t-378 -144.5zM615 61q197 0 308 121t111 328q0 212 -111 336t-308 124t-308 -124t-111 -336q0 -207 111 -328t308 -121zM587 1174l-318 282h135l237 -282h-54z" />
    <glyph glyph-name="oacute" unicode="&#xf3;" horiz-adv-x="1230" 
d="M615 -21q-237 0 -378 144.5t-141 386.5q0 248 141 395t378 147t378 -147t141 -395q0 -242 -141 -386.5t-378 -144.5zM615 61q197 0 308 121t111 328q0 212 -111 336t-308 124t-308 -124t-111 -336q0 -207 111 -328t308 -121zM591 1174l196 282h132l-273 -282h-55z" />
    <glyph glyph-name="ocircumflex" unicode="&#xf4;" horiz-adv-x="1230" 
d="M615 -21q-237 0 -378 144.5t-141 386.5q0 248 141 395t378 147t378 -147t141 -395q0 -242 -141 -386.5t-378 -144.5zM615 61q197 0 308 121t111 328q0 212 -111 336t-308 124t-308 -124t-111 -336q0 -207 111 -328t308 -121zM388 1215l206 272h57l201 -272h-56l-180 185
l-178 -185h-50z" />
    <glyph glyph-name="otilde" unicode="&#xf5;" horiz-adv-x="1230" 
d="M772 1233q-48 0 -161.5 48.5t-147.5 48.5q-62 0 -62 -80h-62q0 71 31 107.5t88 36.5q50 0 161.5 -48.5t145.5 -48.5q27 0 34.5 19.5t7.5 66.5h66q0 -150 -101 -150zM615 -21q-237 0 -378 144.5t-141 386.5q0 248 141 395t378 147t378 -147t141 -395q0 -242 -141 -386.5
t-378 -144.5zM615 61q197 0 308 121t111 328q0 212 -111 336t-308 124t-308 -124t-111 -336q0 -207 111 -328t308 -121z" />
    <glyph glyph-name="odieresis" unicode="&#xf6;" horiz-adv-x="1230" 
d="M615 -21q-237 0 -378 144.5t-141 386.5q0 248 141 395t378 147t378 -147t141 -395q0 -242 -141 -386.5t-378 -144.5zM615 61q197 0 308 121t111 328q0 212 -111 336t-308 124t-308 -124t-111 -336q0 -207 111 -328t308 -121zM734 1210v108h99v-108h-99zM398 1210v108h98
v-108h-98z" />
    <glyph glyph-name="divide" unicode="&#xf7;" horiz-adv-x="1006" 
d="M461 896v167h155v-167h-155zM128 511v91h805v-91h-805zM458 49v166h155l-1 -166h-154z" />
    <glyph glyph-name="oslash" unicode="&#xf8;" horiz-adv-x="1230" 
d="M615 -21q237 0 378 144.5t141 386.5q0 173 -71 299.5t-199 189.5l100 229l-48 21l-100 -230q-92 33 -201 33q-237 0 -378 -147t-141 -395q0 -116 34.5 -213t99 -166t154.5 -108l-101 -233l43 -18l103 235q86 -28 186 -28zM829 920q99 -54 152 -160t53 -250
q0 -207 -111 -328t-308 -121q-83 0 -152 23zM783 941l-365 -840q-71 34 -121 92.5t-75.5 138.5t-25.5 178q0 212 111 336t308 124q92 0 168 -29z" />
    <glyph glyph-name="ugrave" unicode="&#xf9;" horiz-adv-x="1285" 
d="M584 -26q-191 0 -288.5 111t-97.5 327v614h98v-618q0 -173 72.5 -262.5t215.5 -89.5q73 0 138 22t109.5 56t77 75t48 78.5t15.5 67.5v671h98v-801q0 -137 5 -225h-89l-9 191q-137 -217 -393 -217zM622 1174l-318 282h135l237 -282h-54z" />
    <glyph glyph-name="uacute" unicode="&#xfa;" horiz-adv-x="1285" 
d="M584 -26q-191 0 -288.5 111t-97.5 327v614h98v-618q0 -173 72.5 -262.5t215.5 -89.5q73 0 138 22t109.5 56t77 75t48 78.5t15.5 67.5v671h98v-801q0 -137 5 -225h-89l-9 191q-137 -217 -393 -217zM626 1174l196 282h132l-273 -282h-55z" />
    <glyph glyph-name="ucircumflex" unicode="&#xfb;" horiz-adv-x="1285" 
d="M584 -26q-191 0 -288.5 111t-97.5 327v614h98v-618q0 -173 72.5 -262.5t215.5 -89.5q73 0 138 22t109.5 56t77 75t48 78.5t15.5 67.5v671h98v-801q0 -137 5 -225h-89l-9 191q-137 -217 -393 -217zM423 1215l206 272h57l201 -272h-56l-180 185l-178 -185h-50z" />
    <glyph glyph-name="udieresis" unicode="&#xfc;" horiz-adv-x="1285" 
d="M584 -26q-191 0 -288.5 111t-97.5 327v614h98v-618q0 -173 72.5 -262.5t215.5 -89.5q73 0 138 22t109.5 56t77 75t48 78.5t15.5 67.5v671h98v-801q0 -137 5 -225h-89l-9 191q-137 -217 -393 -217zM769 1210v108h99v-108h-99zM433 1210v108h98v-108h-98z" />
    <glyph glyph-name="yacute" unicode="&#xfd;" horiz-adv-x="983" 
d="M157 -417l-33 72q75 19 131.5 50.5t91.5 71.5t54 71.5t36 72.5l24 58l-399 1047h106l342 -929l353 929h96l-412 -1078q-116 -315 -390 -365zM494 1174l196 282h132l-273 -282h-55z" />
    <glyph glyph-name="thorn" unicode="&#xfe;" horiz-adv-x="1247" 
d="M669 61q168 0 267 120.5t99 330.5q0 214 -98.5 333.5t-267.5 119.5q-104 0 -181 -38t-120 -104t-63 -143.5t-20 -167.5q0 -205 100.5 -328t283.5 -123zM171 -449v1899h114l2 -619q56 106 154 163t228 57q221 0 349.5 -141.5t128.5 -397.5q0 -246 -129.5 -390.5
t-348.5 -144.5q-128 0 -229.5 59.5t-154.5 164.5l1 -650h-115z" />
    <glyph glyph-name="ydieresis" unicode="&#xff;" horiz-adv-x="983" 
d="M157 -417l-33 72q75 19 131.5 50.5t91.5 71.5t54 71.5t36 72.5l24 58l-399 1047h106l342 -929l353 929h96l-412 -1078q-116 -315 -390 -365zM637 1210v108h99v-108h-99zM301 1210v108h98v-108h-98z" />
    <glyph glyph-name="Amacron" unicode="&#x100;" horiz-adv-x="1329" 
d="M393 1665v75h530v-75h-530zM359 473h619l-155 447l-156 446l-154 -446zM68 0l530 1456h134l529 -1456h-112l-143 399h-674l-143 -399h-121z" />
    <glyph glyph-name="amacron" unicode="&#x101;" horiz-adv-x="1253" 
d="M315 1235v75h530v-75h-530zM581 61q173 0 269.5 124.5t96.5 338.5q0 203 -99.5 324.5t-266.5 121.5q-175 0 -280 -121.5t-105 -324.5q0 -211 104.5 -337t280.5 -126zM577 -21q-220 0 -350.5 148t-130.5 397q0 241 132 384.5t353 143.5q128 0 225 -62.5t141 -164.5v201h98
v-1026h-98v215q-48 -108 -142.5 -172t-227.5 -64z" />
    <glyph glyph-name="Abreve" unicode="&#x102;" horiz-adv-x="1329" 
d="M664 1592q-107 0 -158.5 52t-60.5 162h75q3 -69 36.5 -103.5t107.5 -34.5q71 0 101 35t42 103h73q-8 -103 -63 -158.5t-153 -55.5zM359 473h619l-155 447l-156 446l-154 -446zM68 0l530 1456h134l529 -1456h-112l-143 399h-674l-143 -399h-121z" />
    <glyph glyph-name="abreve" unicode="&#x103;" horiz-adv-x="1253" 
d="M586 1162q-107 0 -158.5 52t-60.5 162h75q3 -69 36.5 -103.5t107.5 -34.5q71 0 101 35t42 103h73q-8 -103 -63 -158.5t-153 -55.5zM581 61q173 0 269.5 124.5t96.5 338.5q0 203 -99.5 324.5t-266.5 121.5q-175 0 -280 -121.5t-105 -324.5q0 -211 104.5 -337t280.5 -126z
M577 -21q-220 0 -350.5 148t-130.5 397q0 241 132 384.5t353 143.5q128 0 225 -62.5t141 -164.5v201h98v-1026h-98v215q-48 -108 -142.5 -172t-227.5 -64z" />
    <glyph glyph-name="Aogonek" unicode="&#x104;" horiz-adv-x="1329" 
d="M1228 -448q-97 0 -165 62.5t-68 150.5q0 62 40 124.5t123 115.5l82 -1q-75 -55 -109.5 -117.5t-34.5 -113.5q0 -57 35.5 -92.5t97.5 -35.5q37 0 77 13v-95q-35 -11 -78 -11zM359 473h619l-155 447l-156 446l-154 -446zM68 0l530 1456h134l529 -1456h-112l-143 399h-674
l-143 -399h-121z" />
    <glyph glyph-name="aogonek" unicode="&#x105;" horiz-adv-x="1253" 
d="M1028 -448q-97 0 -165 62.5t-68 150.5q0 62 40 124.5t123 115.5l82 -1q-75 -55 -109.5 -117.5t-34.5 -113.5q0 -57 35.5 -92.5t97.5 -35.5q37 0 77 13v-95q-35 -11 -78 -11zM581 61q173 0 269.5 124.5t96.5 338.5q0 203 -99.5 324.5t-266.5 121.5q-175 0 -280 -121.5
t-105 -324.5q0 -211 104.5 -337t280.5 -126zM577 -21q-220 0 -350.5 148t-130.5 397q0 241 132 384.5t353 143.5q128 0 225 -62.5t141 -164.5v201h98v-1026h-98v215q-48 -108 -142.5 -172t-227.5 -64z" />
    <glyph glyph-name="Cacute" unicode="&#x106;" horiz-adv-x="1389" 
d="M781 1604l196 282h132l-273 -282h-55zM810 -22q-320 0 -510 196.5t-190 526.5q0 356 194 568t520 212q256 0 419 -139l-44 -68q-155 121 -375 121q-276 0 -440 -188.5t-164 -505.5q0 -290 160.5 -463t429.5 -173q239 0 428 125l35 -75q-210 -137 -463 -137z" />
    <glyph glyph-name="cacute" unicode="&#x107;" horiz-adv-x="1022" 
d="M612 -21q-235 0 -375.5 142t-140.5 381q0 251 143 400.5t383 149.5q89 0 174 -27t137 -73l-33 -72q-103 90 -278 90q-194 0 -310 -127t-116 -341q0 -201 113 -321t303 -120q183 0 318 106l34 -67q-56 -55 -151.5 -88t-200.5 -33zM554 1174l196 282h132l-273 -282h-55z
" />
    <glyph glyph-name="Ccircumflex" unicode="&#x108;" horiz-adv-x="1389" 
d="M578 1645l206 272h57l201 -272h-56l-180 185l-178 -185h-50zM810 -22q-320 0 -510 196.5t-190 526.5q0 356 194 568t520 212q256 0 419 -139l-44 -68q-155 121 -375 121q-276 0 -440 -188.5t-164 -505.5q0 -290 160.5 -463t429.5 -173q239 0 428 125l35 -75
q-210 -137 -463 -137z" />
    <glyph glyph-name="ccircumflex" unicode="&#x109;" horiz-adv-x="1022" 
d="M351 1215l206 272h57l201 -272h-56l-180 185l-178 -185h-50zM612 -21q-235 0 -375.5 142t-140.5 381q0 251 143 400.5t383 149.5q89 0 174 -27t137 -73l-33 -72q-103 90 -278 90q-194 0 -310 -127t-116 -341q0 -201 113 -321t303 -120q183 0 318 106l34 -67
q-56 -55 -151.5 -88t-200.5 -33z" />
    <glyph glyph-name="Cdotaccent" unicode="&#x10a;" horiz-adv-x="1389" 
d="M745 1668v126h122v-126h-122zM810 -22q-320 0 -510 196.5t-190 526.5q0 356 194 568t520 212q256 0 419 -139l-44 -68q-155 121 -375 121q-276 0 -440 -188.5t-164 -505.5q0 -290 160.5 -463t429.5 -173q239 0 428 125l35 -75q-210 -137 -463 -137z" />
    <glyph glyph-name="cdotaccent" unicode="&#x10b;" horiz-adv-x="1022" 
d="M518 1238v126h122v-126h-122zM612 -21q-235 0 -375.5 142t-140.5 381q0 251 143 400.5t383 149.5q89 0 174 -27t137 -73l-33 -72q-103 90 -278 90q-194 0 -310 -127t-116 -341q0 -201 113 -321t303 -120q183 0 318 106l34 -67q-56 -55 -151.5 -88t-200.5 -33z" />
    <glyph glyph-name="Ccaron" unicode="&#x10c;" horiz-adv-x="1389" 
d="M749 1645l-210 268h78l186 -221l194 221h87l-210 -268h-125zM810 -22q-320 0 -510 196.5t-190 526.5q0 356 194 568t520 212q256 0 419 -139l-44 -68q-155 121 -375 121q-276 0 -440 -188.5t-164 -505.5q0 -290 160.5 -463t429.5 -173q239 0 428 125l35 -75
q-210 -137 -463 -137z" />
    <glyph glyph-name="ccaron" unicode="&#x10d;" horiz-adv-x="1022" 
d="M522 1215l-210 268h78l186 -221l194 221h87l-210 -268h-125zM612 -21q-235 0 -375.5 142t-140.5 381q0 251 143 400.5t383 149.5q89 0 174 -27t137 -73l-33 -72q-103 90 -278 90q-194 0 -310 -127t-116 -341q0 -201 113 -321t303 -120q183 0 318 106l34 -67
q-56 -55 -151.5 -88t-200.5 -33z" />
    <glyph glyph-name="Dcaron" unicode="&#x10e;" horiz-adv-x="1523" 
d="M681 1645l-210 268h78l186 -221l194 221h87l-210 -268h-125zM224 0v1456h374q387 0 588 -189.5t201 -554.5q0 -350 -195.5 -531t-571.5 -181h-396zM332 86h288q323 0 490 159.5t167 466.5q0 323 -173 490.5t-506 167.5h-266v-1284z" />
    <glyph glyph-name="dcaron" unicode="&#x10f;" horiz-adv-x="1256" 
d="M560 61q184 0 293 125t109 334q0 206 -109 328t-293 122q-173 0 -269.5 -121t-96.5 -329q0 -212 96.5 -335.5t269.5 -123.5zM560 -21q-212 0 -338 147t-126 394q0 243 126 387.5t338 144.5q136 0 245.5 -69t156.5 -184v717h98v-1248q0 -30 0.5 -68t2 -72t2.5 -63t1 -47
l1 -18h-99l-5 239q-43 -119 -152.5 -189.5t-250.5 -70.5zM1159 1082l103 433h117l-150 -433h-70z" />
    <glyph glyph-name="Dcroat" unicode="&#x110;" horiz-adv-x="1523" 
d="M64 717v73h459v-73h-459zM224 0v1456h374q387 0 588 -189.5t201 -554.5q0 -350 -195.5 -531t-571.5 -181h-396zM332 86h288q323 0 490 159.5t167 466.5q0 323 -173 490.5t-506 167.5h-266v-1284z" />
    <glyph glyph-name="dcroat" unicode="&#x111;" horiz-adv-x="1256" 
d="M738 1222v75h530v-75h-530zM560 61q184 0 293 125t109 334q0 206 -109 328t-293 122q-173 0 -269.5 -121t-96.5 -329q0 -212 96.5 -335.5t269.5 -123.5zM560 -21q-212 0 -338 147t-126 394q0 243 126 387.5t338 144.5q136 0 245.5 -69t156.5 -184v717h98v-1248
q0 -30 0.5 -68t2 -72t2.5 -63t1 -47l1 -18h-99l-5 239q-43 -119 -152.5 -189.5t-250.5 -70.5z" />
    <glyph glyph-name="Emacron" unicode="&#x112;" horiz-adv-x="1219" 
d="M366 1665v75h530v-75h-530zM224 0v1456h810v-86h-702v-583h663v-86h-665v-615h734v-86h-840z" />
    <glyph glyph-name="emacron" unicode="&#x113;" horiz-adv-x="1133" 
d="M313 1235v75h530v-75h-530zM202 578h761q-10 179 -110.5 285.5t-260.5 106.5q-164 0 -270 -106.5t-120 -285.5zM616 -21q-237 0 -378.5 144t-141.5 385q0 248 135 396t361 148q207 0 330 -132.5t123 -354.5v-58h-849q-2 -203 112 -324.5t308 -121.5q95 0 186 31t160 85
l36 -69q-71 -59 -174.5 -94t-207.5 -35z" />
    <glyph glyph-name="Ebreve" unicode="&#x114;" horiz-adv-x="1219" 
d="M637 1592q-107 0 -158.5 52t-60.5 162h75q3 -69 36.5 -103.5t107.5 -34.5q71 0 101 35t42 103h73q-8 -103 -63 -158.5t-153 -55.5zM224 0v1456h810v-86h-702v-583h663v-86h-665v-615h734v-86h-840z" />
    <glyph glyph-name="ebreve" unicode="&#x115;" horiz-adv-x="1133" 
d="M202 578h761q-10 179 -110.5 285.5t-260.5 106.5q-164 0 -270 -106.5t-120 -285.5zM616 -21q-237 0 -378.5 144t-141.5 385q0 248 135 396t361 148q207 0 330 -132.5t123 -354.5v-58h-849q-2 -203 112 -324.5t308 -121.5q95 0 186 31t160 85l36 -69q-71 -59 -174.5 -94
t-207.5 -35zM584 1162q-107 0 -158.5 52t-60.5 162h75q3 -69 36.5 -103.5t107.5 -34.5q71 0 101 35t42 103h73q-8 -103 -63 -158.5t-153 -55.5z" />
    <glyph glyph-name="Edotaccent" unicode="&#x116;" horiz-adv-x="1219" 
d="M577 1668v126h122v-126h-122zM224 0v1456h810v-86h-702v-583h663v-86h-665v-615h734v-86h-840z" />
    <glyph glyph-name="edotaccent" unicode="&#x117;" horiz-adv-x="1133" 
d="M202 578h761q-10 179 -110.5 285.5t-260.5 106.5q-164 0 -270 -106.5t-120 -285.5zM616 -21q-237 0 -378.5 144t-141.5 385q0 248 135 396t361 148q207 0 330 -132.5t123 -354.5v-58h-849q-2 -203 112 -324.5t308 -121.5q95 0 186 31t160 85l36 -69q-71 -59 -174.5 -94
t-207.5 -35zM524 1238v126h122v-126h-122z" />
    <glyph glyph-name="Eogonek" unicode="&#x118;" horiz-adv-x="1219" 
d="M871 -448q-97 0 -165 62.5t-68 150.5q0 62 40 124.5t123 115.5l82 -1q-75 -55 -109.5 -117.5t-34.5 -113.5q0 -57 35.5 -92.5t97.5 -35.5q37 0 77 13v-95q-35 -11 -78 -11zM224 0v1456h810v-86h-702v-583h663v-86h-665v-615h734v-86h-840z" />
    <glyph glyph-name="eogonek" unicode="&#x119;" horiz-adv-x="1133" 
d="M708 -448q-97 0 -165 62.5t-68 150.5q0 62 40 124.5t123 115.5l82 -1q-75 -55 -109.5 -117.5t-34.5 -113.5q0 -57 35.5 -92.5t97.5 -35.5q37 0 77 13v-95q-35 -11 -78 -11zM202 578h761q-10 179 -110.5 285.5t-260.5 106.5q-164 0 -270 -106.5t-120 -285.5zM616 -21
q-237 0 -378.5 144t-141.5 385q0 248 135 396t361 148q207 0 330 -132.5t123 -354.5v-58h-849q-2 -203 112 -324.5t308 -121.5q95 0 186 31t160 85l36 -69q-71 -59 -174.5 -94t-207.5 -35z" />
    <glyph glyph-name="Ecaron" unicode="&#x11a;" horiz-adv-x="1219" 
d="M581 1645l-210 268h78l186 -221l194 221h87l-210 -268h-125zM224 0v1456h810v-86h-702v-583h663v-86h-665v-615h734v-86h-840z" />
    <glyph glyph-name="ecaron" unicode="&#x11b;" horiz-adv-x="1133" 
d="M202 578h761q-10 179 -110.5 285.5t-260.5 106.5q-164 0 -270 -106.5t-120 -285.5zM616 -21q-237 0 -378.5 144t-141.5 385q0 248 135 396t361 148q207 0 330 -132.5t123 -354.5v-58h-849q-2 -203 112 -324.5t308 -121.5q95 0 186 31t160 85l36 -69q-71 -59 -174.5 -94
t-207.5 -35zM528 1215l-210 268h78l186 -221l194 221h87l-210 -268h-125z" />
    <glyph glyph-name="Gcircumflex" unicode="&#x11c;" horiz-adv-x="1513" 
d="M628 1645l206 272h57l201 -272h-56l-180 185l-178 -185h-50zM833 -21q-334 0 -528.5 197t-194.5 530q0 354 198.5 564.5t532.5 210.5h12q251 3 456 -147l-46 -77q-208 138 -422 138q-283 0 -452 -187.5t-169 -501.5q0 -293 165.5 -467t449.5 -174q112 0 225 17.5
t189 52.5v510h-409v86h505v-651q-208 -101 -512 -101z" />
    <glyph glyph-name="gcircumflex" unicode="&#x11d;" horiz-adv-x="1268" 
d="M564 66q184 0 293 121.5t109 326.5q0 208 -105 332t-281 124t-280 -124t-104 -332q0 -205 100 -326.5t268 -121.5zM556 -443q-188 0 -349 66l12 86q170 -68 337 -68q190 0 300 113.5t110 359.5v122q-46 -121 -154 -186.5t-248 -65.5q-214 0 -341 144t-127 386
q0 245 131.5 391.5t352.5 146.5q132 0 235.5 -65t150.5 -170l10 209h95l-7 -189v-723q0 -143 -38.5 -251.5t-108.5 -174.5t-160.5 -98.5t-200.5 -32.5zM351 1215l206 272h57l201 -272h-56l-180 185l-178 -185h-50z" />
    <glyph glyph-name="Gbreve" unicode="&#x11e;" horiz-adv-x="1513" 
d="M855 1592q-107 0 -158.5 52t-60.5 162h75q3 -69 36.5 -103.5t107.5 -34.5q71 0 101 35t42 103h73q-8 -103 -63 -158.5t-153 -55.5zM833 -21q-334 0 -528.5 197t-194.5 530q0 354 198.5 564.5t532.5 210.5h12q251 3 456 -147l-46 -77q-208 138 -422 138
q-283 0 -452 -187.5t-169 -501.5q0 -293 165.5 -467t449.5 -174q112 0 225 17.5t189 52.5v510h-409v86h505v-651q-208 -101 -512 -101z" />
    <glyph glyph-name="gbreve" unicode="&#x11f;" horiz-adv-x="1268" 
d="M564 66q184 0 293 121.5t109 326.5q0 208 -105 332t-281 124t-280 -124t-104 -332q0 -205 100 -326.5t268 -121.5zM556 -443q-188 0 -349 66l12 86q170 -68 337 -68q190 0 300 113.5t110 359.5v122q-46 -121 -154 -186.5t-248 -65.5q-214 0 -341 144t-127 386
q0 245 131.5 391.5t352.5 146.5q132 0 235.5 -65t150.5 -170l10 209h95l-7 -189v-723q0 -143 -38.5 -251.5t-108.5 -174.5t-160.5 -98.5t-200.5 -32.5zM578 1162q-107 0 -158.5 52t-60.5 162h75q3 -69 36.5 -103.5t107.5 -34.5q71 0 101 35t42 103h73q-8 -103 -63 -158.5
t-153 -55.5z" />
    <glyph glyph-name="Gdotaccent" unicode="&#x120;" horiz-adv-x="1513" 
d="M795 1668v126h122v-126h-122zM833 -21q-334 0 -528.5 197t-194.5 530q0 354 198.5 564.5t532.5 210.5h12q251 3 456 -147l-46 -77q-208 138 -422 138q-283 0 -452 -187.5t-169 -501.5q0 -293 165.5 -467t449.5 -174q112 0 225 17.5t189 52.5v510h-409v86h505v-651
q-208 -101 -512 -101z" />
    <glyph glyph-name="gdotaccent" unicode="&#x121;" horiz-adv-x="1268" 
d="M564 66q184 0 293 121.5t109 326.5q0 208 -105 332t-281 124t-280 -124t-104 -332q0 -205 100 -326.5t268 -121.5zM556 -443q-188 0 -349 66l12 86q170 -68 337 -68q190 0 300 113.5t110 359.5v122q-46 -121 -154 -186.5t-248 -65.5q-214 0 -341 144t-127 386
q0 245 131.5 391.5t352.5 146.5q132 0 235.5 -65t150.5 -170l10 209h95l-7 -189v-723q0 -143 -38.5 -251.5t-108.5 -174.5t-160.5 -98.5t-200.5 -32.5zM518 1238v126h122v-126h-122z" />
    <glyph glyph-name="uni0122" unicode="&#x122;" horiz-adv-x="1513" 
d="M699 -557l103 433h117l-150 -433h-70zM833 -21q-334 0 -528.5 197t-194.5 530q0 354 198.5 564.5t532.5 210.5h12q251 3 456 -147l-46 -77q-208 138 -422 138q-283 0 -452 -187.5t-169 -501.5q0 -293 165.5 -467t449.5 -174q112 0 225 17.5t189 52.5v510h-409v86h505
v-651q-208 -101 -512 -101z" />
    <glyph glyph-name="uni0123" unicode="&#x123;" horiz-adv-x="1268" 
d="M746 1683l-103 -433h-117l150 433h70zM564 66q184 0 293 121.5t109 326.5q0 208 -105 332t-281 124t-280 -124t-104 -332q0 -205 100 -326.5t268 -121.5zM556 -443q-188 0 -349 66l12 86q170 -68 337 -68q190 0 300 113.5t110 359.5v122q-46 -121 -154 -186.5t-248 -65.5
q-214 0 -341 144t-127 386q0 245 131.5 391.5t352.5 146.5q132 0 235.5 -65t150.5 -170l10 209h95l-7 -189v-723q0 -143 -38.5 -251.5t-108.5 -174.5t-160.5 -98.5t-200.5 -32.5z" />
    <glyph glyph-name="Hcircumflex" unicode="&#x124;" horiz-adv-x="1558" 
d="M561 1645l206 272h57l201 -272h-56l-180 185l-178 -185h-50zM224 0v1456h112v-670h894v670h104v-1456h-108v700h-894v-700h-108z" />
    <glyph glyph-name="hcircumflex" unicode="&#x125;" horiz-adv-x="1255" 
d="M196 0v1516h98v-689q57 102 160.5 163.5t245.5 61.5q52 0 99 -9t97 -34.5t86 -65t59.5 -107t23.5 -154.5v-682h-98v659q0 157 -61 234t-206 77q-161 0 -283.5 -105t-122.5 -237v-628h-98zM475 1215l206 272h57l201 -272h-56l-180 185l-178 -185h-50z" />
    <glyph glyph-name="Hbar" unicode="&#x126;" horiz-adv-x="1594" 
d="M137 1223l-2 57h1317v-57h-1315zM224 0v1456h112v-670h894v670h104v-1456h-108v700h-894v-700h-108z" />
    <glyph glyph-name="hbar" unicode="&#x127;" horiz-adv-x="1255" 
d="M-10 1219v75h530v-75h-530zM196 0v1516h98v-689q57 102 160.5 163.5t245.5 61.5q52 0 99 -9t97 -34.5t86 -65t59.5 -107t23.5 -154.5v-682h-98v659q0 157 -61 234t-206 77q-161 0 -283.5 -105t-122.5 -237v-628h-98z" />
    <glyph glyph-name="Itilde" unicode="&#x128;" horiz-adv-x="592" 
d="M453 1663q-48 0 -161.5 48.5t-147.5 48.5q-62 0 -62 -80h-62q0 71 31 107.5t88 36.5q50 0 161.5 -48.5t145.5 -48.5q27 0 34.5 19.5t7.5 66.5h66q0 -150 -101 -150zM242 0v1456h108v-1456h-108z" />
    <glyph glyph-name="itilde" unicode="&#x129;" horiz-adv-x="473" 
d="M393 1233q-48 0 -161.5 48.5t-147.5 48.5q-62 0 -62 -80h-62q0 71 31 107.5t88 36.5q50 0 161.5 -48.5t145.5 -48.5q27 0 34.5 19.5t7.5 66.5h66q0 -150 -101 -150zM187 0l-2 1026h101l2 -1026h-101z" />
    <glyph glyph-name="Imacron" unicode="&#x12a;" horiz-adv-x="592" 
d="M25 1665v75h530v-75h-530zM242 0v1456h108v-1456h-108z" />
    <glyph glyph-name="imacron" unicode="&#x12b;" horiz-adv-x="473" 
d="M-35 1235v75h530v-75h-530zM187 0l-2 1026h101l2 -1026h-101z" />
    <glyph glyph-name="Ibreve" unicode="&#x12c;" horiz-adv-x="592" 
d="M296 1592q-107 0 -158.5 52t-60.5 162h75q3 -69 36.5 -103.5t107.5 -34.5q71 0 101 35t42 103h73q-8 -103 -63 -158.5t-153 -55.5zM242 0v1456h108v-1456h-108z" />
    <glyph glyph-name="ibreve" unicode="&#x12d;" horiz-adv-x="473" 
d="M187 0l-2 1026h101l2 -1026h-101zM236 1162q-107 0 -158.5 52t-60.5 162h75q3 -69 36.5 -103.5t107.5 -34.5q71 0 101 35t42 103h73q-8 -103 -63 -158.5t-153 -55.5z" />
    <glyph glyph-name="Iogonek" unicode="&#x12e;" horiz-adv-x="592" 
d="M330 -448q-97 0 -165 62.5t-68 150.5q0 62 40 124.5t123 115.5l82 -1q-75 -55 -109.5 -117.5t-34.5 -113.5q0 -57 35.5 -92.5t97.5 -35.5q37 0 77 13v-95q-35 -11 -78 -11zM242 0v1456h108v-1456h-108z" />
    <glyph glyph-name="iogonek" unicode="&#x12f;" horiz-adv-x="473" 
d="M269 -448q-97 0 -165 62.5t-68 150.5q0 62 40 124.5t123 115.5l82 -1q-75 -55 -109.5 -117.5t-34.5 -113.5q0 -57 35.5 -92.5t97.5 -35.5q37 0 77 13v-95q-35 -11 -78 -11zM187 0l-2 1026h101l2 -1026h-101zM176 1238v126h122v-126h-122z" />
    <glyph glyph-name="Idotaccent" unicode="&#x130;" horiz-adv-x="592" 
d="M236 1668v126h122v-126h-122zM242 0v1456h108v-1456h-108z" />
    <glyph glyph-name="dotlessi" unicode="&#x131;" horiz-adv-x="473" 
d="M187 0l-2 1026h101l2 -1026h-101z" />
    <glyph glyph-name="IJ" unicode="&#x132;" horiz-adv-x="1259" 
d="M685 -312q-27 0 -93 2l2 87q53 -3 95 -3q75 0 117.5 13t71.5 53t39 108t10 184v1324h108v-1324q0 -95 -9 -165.5t-29.5 -119.5t-47.5 -80t-69 -48.5t-87 -24t-108 -6.5zM242 0v1456h108v-1456h-108z" />
    <glyph glyph-name="ij" unicode="&#x133;" horiz-adv-x="994" 
d="M810 23q0 -76 -7.5 -136.5t-28.5 -118.5t-54.5 -96.5t-88 -62t-127.5 -23.5q-37 0 -78 6l-2 77q38 -5 69 -5q64 0 106.5 20.5t67.5 65t35 106.5t10 154v1016h98v-1003zM698 1238v126h122v-126h-122zM191 1346v110h98v-110h-98zM191 0v1026h98v-1026h-98z" />
    <glyph glyph-name="Jcircumflex" unicode="&#x134;" horiz-adv-x="667" 
d="M105 1645l206 272h57l201 -272h-56l-180 185l-178 -185h-50zM93 -312q-27 0 -93 2l2 87q53 -3 95 -3q75 0 117.5 13t71.5 53t39 108t10 184v1324h108v-1324q0 -95 -9 -165.5t-29.5 -119.5t-47.5 -80t-69 -48.5t-87 -24t-108 -6.5z" />
    <glyph glyph-name="jcircumflex" unicode="&#x135;" horiz-adv-x="503" 
d="M307 23q0 -76 -7.5 -136.5t-28.5 -118.5t-54.5 -96.5t-88 -62t-127.5 -23.5q-37 0 -78 6l-2 77q38 -5 69 -5q64 0 106.5 20.5t67.5 65t35 106.5t10 154v1016h98v-1003zM40 1215l206 272h57l201 -272h-56l-180 185l-178 -185h-50z" />
    <glyph glyph-name="uni0136" unicode="&#x136;" horiz-adv-x="1232" 
d="M557 -557l103 433h117l-150 -433h-70zM224 0v1456h108v-682l714 682h132l-729 -698l774 -758h-126l-767 745v-745h-106z" />
    <glyph glyph-name="uni0137" unicode="&#x137;" horiz-adv-x="1045" 
d="M426 -557l103 433h117l-150 -433h-70zM196 0v1516h98v-967l548 477h129l-558 -483l600 -543h-128l-591 535v-535h-98z" />
    <glyph glyph-name="kgreenlandic" unicode="&#x138;" horiz-adv-x="1082" 
d="M203 0v1026h103v-501l550 501h140l-564 -512l605 -514h-136l-595 513v-513h-103z" />
    <glyph glyph-name="Lacute" unicode="&#x139;" horiz-adv-x="1045" 
d="M263 1604l196 282h132l-273 -282h-55zM224 0v1456h108v-1370h681v-86h-789z" />
    <glyph glyph-name="lacute" unicode="&#x13a;" horiz-adv-x="509" 
d="M205 0v1516h98v-1516h-98zM224 1604l196 282h132l-273 -282h-55z" />
    <glyph glyph-name="uni013B" unicode="&#x13b;" horiz-adv-x="1045" 
d="M501 -557l103 433h117l-150 -433h-70zM224 0v1456h108v-1370h681v-86h-789z" />
    <glyph glyph-name="uni013C" unicode="&#x13c;" horiz-adv-x="509" 
d="M160 -557l103 433h117l-150 -433h-70zM205 0v1516h98v-1516h-98z" />
    <glyph glyph-name="Lcaron" unicode="&#x13d;" horiz-adv-x="1045" 
d="M549 1082l103 433h117l-150 -433h-70zM224 0v1456h108v-1370h681v-86h-789z" />
    <glyph glyph-name="lcaron" unicode="&#x13e;" horiz-adv-x="509" 
d="M205 0v1516h98v-1516h-98zM428 1082l103 433h117l-150 -433h-70z" />
    <glyph glyph-name="Ldot" unicode="&#x13f;" horiz-adv-x="1045" 
d="M526 693v160h128v-160h-128zM224 0v1456h108v-1370h681v-86h-789z" />
    <glyph glyph-name="ldot" unicode="&#x140;" horiz-adv-x="509" 
d="M477 713v160h128v-160h-128zM205 0v1516h98v-1516h-98z" />
    <glyph glyph-name="Lslash" unicode="&#x141;" horiz-adv-x="1086" 
d="M64 537v75l553 335v-74zM224 0v1456h108v-1370h681v-86h-789z" />
    <glyph glyph-name="lslash" unicode="&#x142;" horiz-adv-x="503" 
d="M206 0v663l-211 -100v79l212 100v774h101v-735l223 104v-75l-224 -104v-706h-101z" />
    <glyph glyph-name="Nacute" unicode="&#x143;" horiz-adv-x="1571" 
d="M793 1604l196 282h132l-273 -282h-55zM224 0v1456h106l784 -1121l127 -193v1314h106v-1456h-105l-803 1137l-109 166v-1303h-106z" />
    <glyph glyph-name="nacute" unicode="&#x144;" horiz-adv-x="1257" 
d="M202 0v880l-6 146h89l10 -206q52 112 159 172t245 60q368 0 368 -430v-622h-98v622q0 348 -270 348q-149 0 -255 -75.5t-144 -216.5v-678h-98zM638 1174l196 282h132l-273 -282h-55z" />
    <glyph glyph-name="uni0145" unicode="&#x145;" horiz-adv-x="1571" 
d="M661 -557l103 433h117l-150 -433h-70zM224 0v1456h106l784 -1121l127 -193v1314h106v-1456h-105l-803 1137l-109 166v-1303h-106z" />
    <glyph glyph-name="uni0146" unicode="&#x146;" horiz-adv-x="1257" 
d="M498 -557l103 433h117l-150 -433h-70zM202 0v880l-6 146h89l10 -206q52 112 159 172t245 60q368 0 368 -430v-622h-98v622q0 348 -270 348q-149 0 -255 -75.5t-144 -216.5v-678h-98z" />
    <glyph glyph-name="Ncaron" unicode="&#x147;" horiz-adv-x="1571" 
d="M761 1645l-210 268h78l186 -221l194 221h87l-210 -268h-125zM224 0v1456h106l784 -1121l127 -193v1314h106v-1456h-105l-803 1137l-109 166v-1303h-106z" />
    <glyph glyph-name="ncaron" unicode="&#x148;" horiz-adv-x="1257" 
d="M202 0v880l-6 146h89l10 -206q52 112 159 172t245 60q368 0 368 -430v-622h-98v622q0 348 -270 348q-149 0 -255 -75.5t-144 -216.5v-678h-98zM606 1215l-210 268h78l186 -221l194 221h87l-210 -268h-125z" />
    <glyph glyph-name="napostrophe" unicode="&#x149;" horiz-adv-x="1250" 
d="M120 1210l28 552h119l-80 -552h-67zM202 0v880l-6 146h89l10 -206q52 112 159 172t245 60q368 0 368 -430v-622h-98v622q0 348 -270 348q-149 0 -255 -75.5t-144 -216.5v-678h-98z" />
    <glyph glyph-name="Eng" unicode="&#x14a;" horiz-adv-x="1503" 
d="M1365 1456v-1456q0 -58 -3 -97.5t-12 -88t-25 -80.5t-45 -65.5t-70 -53t-101.5 -31.5t-137.5 -12v82q148 0 218 64.5t70 197.5v85l-802 1136l-109 166v-1303h-106v1456h106l784 -1121l127 -193v1314h106z" />
    <glyph glyph-name="eng" unicode="&#x14b;" horiz-adv-x="1295" 
d="M698 -390v84q64 0 112 12.5t80 29t53.5 54t33 65t16.5 86t6 93.5t1 110v20v317q0 57 -1.5 98.5t-6.5 90t-14.5 83t-24.5 70t-38 59.5t-53.5 43.5t-72.5 28.5t-94 9q-79 0 -147.5 -25.5t-111.5 -61.5t-74 -77.5t-44.5 -73t-13.5 -47.5v-678h-102v880l4 146h94l8 -138
q75 84 168 123t233 39q74 0 133 -16.5t100 -43.5t70.5 -68.5t47 -84.5t27.5 -99t13 -104.5t3 -108.5v-369q0 -116 -5 -183.5t-26.5 -146.5t-63.5 -119.5t-119.5 -68.5t-190.5 -28z" />
    <glyph glyph-name="Omacron" unicode="&#x14c;" 
d="M514 1665v75h530v-75h-530zM788 -21q-310 0 -494 202t-184 542q0 346 183.5 552t494.5 206q306 0 490 -206.5t184 -551.5q0 -339 -183.5 -541.5t-490.5 -202.5zM788 65q258 0 411 179t153 479q0 307 -153.5 489.5t-410.5 182.5q-259 0 -413.5 -182.5t-154.5 -489.5
q0 -300 155 -479t413 -179z" />
    <glyph glyph-name="omacron" unicode="&#x14d;" horiz-adv-x="1230" 
d="M615 -21q-237 0 -378 144.5t-141 386.5q0 248 141 395t378 147t378 -147t141 -395q0 -242 -141 -386.5t-378 -144.5zM615 61q197 0 308 121t111 328q0 212 -111 336t-308 124t-308 -124t-111 -336q0 -207 111 -328t308 -121zM344 1235v75h530v-75h-530z" />
    <glyph glyph-name="Obreve" unicode="&#x14e;" 
d="M785 1592q-107 0 -158.5 52t-60.5 162h75q3 -69 36.5 -103.5t107.5 -34.5q71 0 101 35t42 103h73q-8 -103 -63 -158.5t-153 -55.5zM788 -21q-310 0 -494 202t-184 542q0 346 183.5 552t494.5 206q306 0 490 -206.5t184 -551.5q0 -339 -183.5 -541.5t-490.5 -202.5z
M788 65q258 0 411 179t153 479q0 307 -153.5 489.5t-410.5 182.5q-259 0 -413.5 -182.5t-154.5 -489.5q0 -300 155 -479t413 -179z" />
    <glyph glyph-name="obreve" unicode="&#x14f;" horiz-adv-x="1230" 
d="M615 -21q-237 0 -378 144.5t-141 386.5q0 248 141 395t378 147t378 -147t141 -395q0 -242 -141 -386.5t-378 -144.5zM615 61q197 0 308 121t111 328q0 212 -111 336t-308 124t-308 -124t-111 -336q0 -207 111 -328t308 -121zM615 1162q-107 0 -158.5 52t-60.5 162h75
q3 -69 36.5 -103.5t107.5 -34.5q71 0 101 35t42 103h73q-8 -103 -63 -158.5t-153 -55.5z" />
    <glyph glyph-name="Ohungarumlaut" unicode="&#x150;" 
d="M839 1604l190 282h114l-234 -282h-70zM576 1604l195 282h99l-222 -282h-72zM788 -21q-310 0 -494 202t-184 542q0 346 183.5 552t494.5 206q306 0 490 -206.5t184 -551.5q0 -339 -183.5 -541.5t-490.5 -202.5zM788 65q258 0 411 179t153 479q0 307 -153.5 489.5
t-410.5 182.5q-259 0 -413.5 -182.5t-154.5 -489.5q0 -300 155 -479t413 -179z" />
    <glyph glyph-name="ohungarumlaut" unicode="&#x151;" horiz-adv-x="1230" 
d="M615 -21q-237 0 -378 144.5t-141 386.5q0 248 141 395t378 147t378 -147t141 -395q0 -242 -141 -386.5t-378 -144.5zM615 61q197 0 308 121t111 328q0 212 -111 336t-308 124t-308 -124t-111 -336q0 -207 111 -328t308 -121zM669 1174l190 282h114l-234 -282h-70z
M406 1174l195 282h99l-222 -282h-72z" />
    <glyph glyph-name="OE" unicode="&#x152;" horiz-adv-x="2038" 
d="M826 66q116 0 211 45t156 127v1001q-59 67 -154 111.5t-213 44.5q-129 0 -234.5 -43t-173 -111.5t-113.5 -158.5t-65.5 -179t-19.5 -177q0 -100 18 -190.5t62 -178t111 -150.5t173.5 -102t241.5 -39zM826 -20q-147 -2 -267 36.5t-202.5 107t-138.5 163.5t-82 205t-26 234
q0 158 47 294.5t135.5 239.5t226 162t307.5 59q88 0 188.5 -31.5t178.5 -105.5v112h778v-99h-668v-561h629v-98h-631v-599h701v-99h-809v135q-57 -68 -154.5 -111t-212.5 -44z" />
    <glyph glyph-name="oe" unicode="&#x153;" horiz-adv-x="1946" 
d="M1069 578h719q0 32 -2 62q-15 151 -108 240.5t-238 89.5q-166 0 -270 -107.5t-101 -284.5zM598 61q173 0 276.5 122.5t103.5 327.5q0 209 -102 334t-273 125q-186 0 -297 -127t-111 -340q0 -202 109.5 -322t293.5 -120zM598 -21q-234 0 -373.5 143.5t-139.5 384.5
q0 249 141 397t377 148q147 0 257.5 -76.5t156.5 -211.5q34 133 150 210.5t273 77.5q196 0 313 -134.5t117 -360.5v-50h-801v-29q0 -190 105 -303t282 -113q78 0 168 31.5t163 83.5l36 -69q-77 -59 -179.5 -94t-196.5 -35q-145 0 -263 75t-167 200q-46 -126 -159 -200.5
t-260 -74.5z" />
    <glyph glyph-name="Racute" unicode="&#x154;" horiz-adv-x="1373" 
d="M566 1604l196 282h132l-273 -282h-55zM335 758h354q179 0 264 80t85 239q0 161 -91 231t-288 62h-324v-612zM224 0v1456h435q253 0 367.5 -90t114.5 -289q0 -154 -76 -252.5t-222 -110.5q32 -5 56 -11.5t45 -17.5t35.5 -20.5t29 -29.5t24 -35t22.5 -46.5t21.5 -54.5
t24.5 -68l151 -431h-101l-144 408q-21 60 -35 93.5t-32.5 68t-36.5 50.5t-45.5 30t-60 18t-79.5 4h-386v-672h-108z" />
    <glyph glyph-name="racute" unicode="&#x155;" horiz-adv-x="769" 
d="M205 0v776q0 57 -2.5 119.5t-4.5 96.5l-2 34h100l10 -191q32 112 112.5 162.5t189.5 50.5q50 0 101 -9l-5 -90q-48 9 -94 9q-141 0 -224 -96t-83 -303v-559h-98zM454 1174l196 282h132l-273 -282h-55z" />
    <glyph glyph-name="uni0156" unicode="&#x156;" horiz-adv-x="1373" 
d="M544 -557l103 433h117l-150 -433h-70zM335 758h354q179 0 264 80t85 239q0 161 -91 231t-288 62h-324v-612zM224 0v1456h435q253 0 367.5 -90t114.5 -289q0 -154 -76 -252.5t-222 -110.5q32 -5 56 -11.5t45 -17.5t35.5 -20.5t29 -29.5t24 -35t22.5 -46.5t21.5 -54.5
t24.5 -68l151 -431h-101l-144 408q-21 60 -35 93.5t-32.5 68t-36.5 50.5t-45.5 30t-60 18t-79.5 4h-386v-672h-108z" />
    <glyph glyph-name="uni0157" unicode="&#x157;" horiz-adv-x="769" 
d="M167 -557l103 433h117l-150 -433h-70zM205 0v776q0 57 -2.5 119.5t-4.5 96.5l-2 34h100l10 -191q32 112 112.5 162.5t189.5 50.5q50 0 101 -9l-5 -90q-48 9 -94 9q-141 0 -224 -96t-83 -303v-559h-98z" />
    <glyph glyph-name="Rcaron" unicode="&#x158;" horiz-adv-x="1373" 
d="M534 1645l-210 268h78l186 -221l194 221h87l-210 -268h-125zM335 758h354q179 0 264 80t85 239q0 161 -91 231t-288 62h-324v-612zM224 0v1456h435q253 0 367.5 -90t114.5 -289q0 -154 -76 -252.5t-222 -110.5q32 -5 56 -11.5t45 -17.5t35.5 -20.5t29 -29.5t24 -35
t22.5 -46.5t21.5 -54.5t24.5 -68l151 -431h-101l-144 408q-21 60 -35 93.5t-32.5 68t-36.5 50.5t-45.5 30t-60 18t-79.5 4h-386v-672h-108z" />
    <glyph glyph-name="rcaron" unicode="&#x159;" horiz-adv-x="769" 
d="M205 0v776q0 57 -2.5 119.5t-4.5 96.5l-2 34h100l10 -191q32 112 112.5 162.5t189.5 50.5q50 0 101 -9l-5 -90q-48 9 -94 9q-141 0 -224 -96t-83 -303v-559h-98zM422 1215l-210 268h78l186 -221l194 221h87l-210 -268h-125z" />
    <glyph glyph-name="Sacute" unicode="&#x15a;" horiz-adv-x="1130" 
d="M581 1604l196 282h132l-273 -282h-55zM586 -21q-58 0 -110.5 7t-94.5 20.5t-75.5 27t-63 33t-45.5 30.5t-34.5 27.5t-20.5 17.5l51 74q27 -24 37.5 -33t53 -36.5t79 -41.5t97.5 -27t126 -13q158 0 253 81.5t100 214.5q3 75 -9.5 124t-49.5 88.5t-97.5 66.5t-160.5 53
l-149 39q-118 31 -190.5 74.5t-113.5 119t-41 187.5q0 172 119.5 270t331.5 98q55 0 104.5 -6t87 -17t67.5 -22t54 -26t37.5 -24.5t27.5 -21.5t15 -13l-47 -74q-16 16 -39 32.5t-64.5 38t-105 34.5t-137.5 13q-163 0 -253 -74t-90 -208q0 -130 54 -190.5t207 -100.5l148 -38
q126 -32 204.5 -70t121.5 -90.5t57.5 -112.5t11.5 -149q-5 -174 -126 -278.5t-328 -104.5z" />
    <glyph glyph-name="sacute" unicode="&#x15b;" horiz-adv-x="935" 
d="M477 -21q-194 0 -355 117l37 76q1 -1 15.5 -10.5t24 -15.5t30 -17t37.5 -18.5t42.5 -17t49.5 -15t54.5 -9.5t60.5 -4q271 0 271 197q0 82 -41.5 124t-143.5 73l-206 63q-121 37 -178.5 94.5t-57.5 166.5q0 136 100 202.5t275 66.5q183 0 306 -75l-32 -73q-121 66 -274 66
q-276 0 -278 -179q0 -79 35.5 -114.5t140.5 -67.5l201 -63q130 -41 188.5 -100t58.5 -166q0 -77 -28 -135.5t-77.5 -94.5t-114 -53.5t-141.5 -17.5zM440 1174l196 282h132l-273 -282h-55z" />
    <glyph glyph-name="Scircumflex" unicode="&#x15c;" horiz-adv-x="1130" 
d="M378 1645l206 272h57l201 -272h-56l-180 185l-178 -185h-50zM586 -21q-58 0 -110.5 7t-94.5 20.5t-75.5 27t-63 33t-45.5 30.5t-34.5 27.5t-20.5 17.5l51 74q27 -24 37.5 -33t53 -36.5t79 -41.5t97.5 -27t126 -13q158 0 253 81.5t100 214.5q3 75 -9.5 124t-49.5 88.5
t-97.5 66.5t-160.5 53l-149 39q-118 31 -190.5 74.5t-113.5 119t-41 187.5q0 172 119.5 270t331.5 98q55 0 104.5 -6t87 -17t67.5 -22t54 -26t37.5 -24.5t27.5 -21.5t15 -13l-47 -74q-16 16 -39 32.5t-64.5 38t-105 34.5t-137.5 13q-163 0 -253 -74t-90 -208
q0 -130 54 -190.5t207 -100.5l148 -38q126 -32 204.5 -70t121.5 -90.5t57.5 -112.5t11.5 -149q-5 -174 -126 -278.5t-328 -104.5z" />
    <glyph glyph-name="scircumflex" unicode="&#x15d;" horiz-adv-x="935" 
d="M477 -21q-194 0 -355 117l37 76q1 -1 15.5 -10.5t24 -15.5t30 -17t37.5 -18.5t42.5 -17t49.5 -15t54.5 -9.5t60.5 -4q271 0 271 197q0 82 -41.5 124t-143.5 73l-206 63q-121 37 -178.5 94.5t-57.5 166.5q0 136 100 202.5t275 66.5q183 0 306 -75l-32 -73q-121 66 -274 66
q-276 0 -278 -179q0 -79 35.5 -114.5t140.5 -67.5l201 -63q130 -41 188.5 -100t58.5 -166q0 -77 -28 -135.5t-77.5 -94.5t-114 -53.5t-141.5 -17.5zM237 1215l206 272h57l201 -272h-56l-180 185l-178 -185h-50z" />
    <glyph glyph-name="Scedilla" unicode="&#x15e;" horiz-adv-x="1130" 
d="M609 -389q-75 3 -154 39l12 58q19 -9 59 -18.5t74 -10.5q68 -3 93 13t25 54q0 65 -176 65h-6l34 194h59l-24 -144q39 -1 67.5 -5.5t62.5 -16t53 -37t19 -63.5q0 -33 -12.5 -57.5t-32 -38t-47 -21.5t-53 -10t-53.5 -1zM586 -21q-58 0 -110.5 7t-94.5 20.5t-75.5 27t-63 33
t-45.5 30.5t-34.5 27.5t-20.5 17.5l51 74q27 -24 37.5 -33t53 -36.5t79 -41.5t97.5 -27t126 -13q158 0 253 81.5t100 214.5q3 75 -9.5 124t-49.5 88.5t-97.5 66.5t-160.5 53l-149 39q-118 31 -190.5 74.5t-113.5 119t-41 187.5q0 172 119.5 270t331.5 98q55 0 104.5 -6
t87 -17t67.5 -22t54 -26t37.5 -24.5t27.5 -21.5t15 -13l-47 -74q-16 16 -39 32.5t-64.5 38t-105 34.5t-137.5 13q-163 0 -253 -74t-90 -208q0 -130 54 -190.5t207 -100.5l148 -38q126 -32 204.5 -70t121.5 -90.5t57.5 -112.5t11.5 -149q-5 -174 -126 -278.5t-328 -104.5z
" />
    <glyph glyph-name="scedilla" unicode="&#x15f;" horiz-adv-x="935" 
d="M477 -21q-194 0 -355 117l37 76q1 -1 15.5 -10.5t24 -15.5t30 -17t37.5 -18.5t42.5 -17t49.5 -15t54.5 -9.5t60.5 -4q271 0 271 197q0 82 -41.5 124t-143.5 73l-206 63q-121 37 -178.5 94.5t-57.5 166.5q0 136 100 202.5t275 66.5q183 0 306 -75l-32 -73q-121 66 -274 66
q-276 0 -278 -179q0 -79 35.5 -114.5t140.5 -67.5l201 -63q130 -41 188.5 -100t58.5 -166q0 -77 -28 -135.5t-77.5 -94.5t-114 -53.5t-141.5 -17.5zM512 -389q-75 3 -154 39l12 58q19 -9 59 -18.5t74 -10.5q68 -3 93 13t25 54q0 65 -176 65h-6l34 194h59l-24 -144
q39 -1 67.5 -5.5t62.5 -16t53 -37t19 -63.5q0 -33 -12.5 -57.5t-32 -38t-47 -21.5t-53 -10t-53.5 -1z" />
    <glyph glyph-name="Scaron" unicode="&#x160;" horiz-adv-x="1130" 
d="M549 1645l-210 268h78l186 -221l194 221h87l-210 -268h-125zM586 -21q-58 0 -110.5 7t-94.5 20.5t-75.5 27t-63 33t-45.5 30.5t-34.5 27.5t-20.5 17.5l51 74q27 -24 37.5 -33t53 -36.5t79 -41.5t97.5 -27t126 -13q158 0 253 81.5t100 214.5q3 75 -9.5 124t-49.5 88.5
t-97.5 66.5t-160.5 53l-149 39q-118 31 -190.5 74.5t-113.5 119t-41 187.5q0 172 119.5 270t331.5 98q55 0 104.5 -6t87 -17t67.5 -22t54 -26t37.5 -24.5t27.5 -21.5t15 -13l-47 -74q-16 16 -39 32.5t-64.5 38t-105 34.5t-137.5 13q-163 0 -253 -74t-90 -208
q0 -130 54 -190.5t207 -100.5l148 -38q126 -32 204.5 -70t121.5 -90.5t57.5 -112.5t11.5 -149q-5 -174 -126 -278.5t-328 -104.5z" />
    <glyph glyph-name="scaron" unicode="&#x161;" horiz-adv-x="935" 
d="M477 -21q-194 0 -355 117l37 76q1 -1 15.5 -10.5t24 -15.5t30 -17t37.5 -18.5t42.5 -17t49.5 -15t54.5 -9.5t60.5 -4q271 0 271 197q0 82 -41.5 124t-143.5 73l-206 63q-121 37 -178.5 94.5t-57.5 166.5q0 136 100 202.5t275 66.5q183 0 306 -75l-32 -73q-121 66 -274 66
q-276 0 -278 -179q0 -79 35.5 -114.5t140.5 -67.5l201 -63q130 -41 188.5 -100t58.5 -166q0 -77 -28 -135.5t-77.5 -94.5t-114 -53.5t-141.5 -17.5zM408 1215l-210 268h78l186 -221l194 221h87l-210 -268h-125z" />
    <glyph glyph-name="uni0162" unicode="&#x162;" horiz-adv-x="1097" 
d="M559 -389q-75 3 -154 39l12 58q19 -9 59 -18.5t74 -10.5q68 -3 93 13t25 54q0 65 -176 65h-6l34 194h59l-24 -144q39 -1 67.5 -5.5t62.5 -16t53 -37t19 -63.5q0 -33 -12.5 -57.5t-32 -38t-47 -21.5t-53 -10t-53.5 -1zM494 0v1370h-486v86h1080v-86h-486v-1370h-108z" />
    <glyph glyph-name="uni0163" unicode="&#x163;" horiz-adv-x="687" 
d="M592 -1q-8 0 -23.5 0.5t-22.5 0.5q-48 2 -86.5 8.5t-67 16t-50.5 22.5t-36 29t-24 35t-14.5 40t-7 44.5t-2.5 49v52.5v29v635h-202v65h202v294l98 29v-323h233v-65h-233v-638v-56t2 -46t5 -39t9 -30t14 -25t21.5 -17t30 -13.5t40 -7.5t51 -5t63.5 -1v-84zM442 -358
q-75 3 -154 39l12 58q19 -9 59 -18.5t74 -10.5q68 -3 93 13t25 54q0 65 -176 65h-6l34 194h59l-24 -144q39 -1 67.5 -5.5t62.5 -16t53 -37t19 -63.5q0 -33 -12.5 -57.5t-32 -38t-47 -21.5t-53 -10t-53.5 -1z" />
    <glyph glyph-name="Tcaron" unicode="&#x164;" horiz-adv-x="1097" 
d="M491 1645l-210 268h78l186 -221l194 221h87l-210 -268h-125zM494 0v1370h-486v86h1080v-86h-486v-1370h-108z" />
    <glyph glyph-name="tcaron" unicode="&#x165;" horiz-adv-x="687" 
d="M592 -1q-8 0 -23.5 0.5t-22.5 0.5q-48 2 -86.5 8.5t-67 16t-50.5 22.5t-36 29t-24 35t-14.5 40t-7 44.5t-2.5 49v52.5v29v635h-202v65h202v294l98 29v-323h233v-65h-233v-638v-56t2 -46t5 -39t9 -30t14 -25t21.5 -17t30 -13.5t40 -7.5t51 -5t63.5 -1v-84zM547 1320
l103 433h117l-150 -433h-70z" />
    <glyph glyph-name="Tbar" unicode="&#x166;" horiz-adv-x="1097" 
d="M294 733v75h530v-75h-530zM494 0v1370h-486v86h1080v-86h-486v-1370h-108z" />
    <glyph glyph-name="tbar" unicode="&#x167;" horiz-adv-x="687" 
d="M592 -1q-8 0 -23.5 0.5t-22.5 0.5q-48 2 -86.5 8.5t-67 16t-50.5 22.5t-36 29t-24 35t-14.5 40t-7 44.5t-2.5 49v52.5v29v635h-202v65h202v294l98 29v-323h233v-65h-233v-638v-56t2 -46t5 -39t9 -30t14 -25t21.5 -17t30 -13.5t40 -7.5t51 -5t63.5 -1v-84zM46 560v75h530
v-75h-530z" />
    <glyph glyph-name="Utilde" unicode="&#x168;" horiz-adv-x="1480" 
d="M902 1663q-48 0 -161.5 48.5t-147.5 48.5q-62 0 -62 -80h-62q0 71 31 107.5t88 36.5q50 0 161.5 -48.5t145.5 -48.5q27 0 34.5 19.5t7.5 66.5h66q0 -150 -101 -150zM732 -21q-273 0 -414.5 136t-141.5 399v942h108v-950q0 -217 114 -329t334 -112t334 112t114 329v950
h108v-942q-2 -263 -143.5 -399t-412.5 -136z" />
    <glyph glyph-name="utilde" unicode="&#x169;" horiz-adv-x="1285" 
d="M584 -26q-191 0 -288.5 111t-97.5 327v614h98v-618q0 -173 72.5 -262.5t215.5 -89.5q73 0 138 22t109.5 56t77 75t48 78.5t15.5 67.5v671h98v-801q0 -137 5 -225h-89l-9 191q-137 -217 -393 -217zM807 1233q-48 0 -161.5 48.5t-147.5 48.5q-62 0 -62 -80h-62
q0 71 31 107.5t88 36.5q50 0 161.5 -48.5t145.5 -48.5q27 0 34.5 19.5t7.5 66.5h66q0 -150 -101 -150z" />
    <glyph glyph-name="Umacron" unicode="&#x16a;" horiz-adv-x="1480" 
d="M474 1665v75h530v-75h-530zM732 -21q-273 0 -414.5 136t-141.5 399v942h108v-950q0 -217 114 -329t334 -112t334 112t114 329v950h108v-942q-2 -263 -143.5 -399t-412.5 -136z" />
    <glyph glyph-name="umacron" unicode="&#x16b;" horiz-adv-x="1285" 
d="M584 -26q-191 0 -288.5 111t-97.5 327v614h98v-618q0 -173 72.5 -262.5t215.5 -89.5q73 0 138 22t109.5 56t77 75t48 78.5t15.5 67.5v671h98v-801q0 -137 5 -225h-89l-9 191q-137 -217 -393 -217zM379 1235v75h530v-75h-530z" />
    <glyph glyph-name="Ubreve" unicode="&#x16c;" horiz-adv-x="1480" 
d="M745 1592q-107 0 -158.5 52t-60.5 162h75q3 -69 36.5 -103.5t107.5 -34.5q71 0 101 35t42 103h73q-8 -103 -63 -158.5t-153 -55.5zM732 -21q-273 0 -414.5 136t-141.5 399v942h108v-950q0 -217 114 -329t334 -112t334 112t114 329v950h108v-942q-2 -263 -143.5 -399
t-412.5 -136z" />
    <glyph glyph-name="ubreve" unicode="&#x16d;" horiz-adv-x="1285" 
d="M584 -26q-191 0 -288.5 111t-97.5 327v614h98v-618q0 -173 72.5 -262.5t215.5 -89.5q73 0 138 22t109.5 56t77 75t48 78.5t15.5 67.5v671h98v-801q0 -137 5 -225h-89l-9 191q-137 -217 -393 -217zM650 1162q-107 0 -158.5 52t-60.5 162h75q3 -69 36.5 -103.5t107.5 -34.5
q71 0 101 35t42 103h73q-8 -103 -63 -158.5t-153 -55.5z" />
    <glyph glyph-name="Uring" unicode="&#x16e;" horiz-adv-x="1480" 
d="M746 1576q-76 0 -125.5 47.5t-49.5 120.5t49.5 120.5t125.5 47.5t125.5 -47.5t49.5 -120.5t-49.5 -120.5t-125.5 -47.5zM746 1632q46 0 75.5 31.5t29.5 80.5t-29.5 80.5t-75.5 31.5t-75.5 -31.5t-29.5 -80.5t29.5 -80.5t75.5 -31.5zM732 -21q-273 0 -414.5 136
t-141.5 399v942h108v-950q0 -217 114 -329t334 -112t334 112t114 329v950h108v-942q-2 -263 -143.5 -399t-412.5 -136z" />
    <glyph glyph-name="uring" unicode="&#x16f;" horiz-adv-x="1285" 
d="M584 -26q-191 0 -288.5 111t-97.5 327v614h98v-618q0 -173 72.5 -262.5t215.5 -89.5q73 0 138 22t109.5 56t77 75t48 78.5t15.5 67.5v671h98v-801q0 -137 5 -225h-89l-9 191q-137 -217 -393 -217zM651 1146q-76 0 -125.5 47.5t-49.5 120.5t49.5 120.5t125.5 47.5
t125.5 -47.5t49.5 -120.5t-49.5 -120.5t-125.5 -47.5zM651 1202q46 0 75.5 31.5t29.5 80.5t-29.5 80.5t-75.5 31.5t-75.5 -31.5t-29.5 -80.5t29.5 -80.5t75.5 -31.5z" />
    <glyph glyph-name="Uhungarumlaut" unicode="&#x170;" horiz-adv-x="1480" 
d="M799 1604l190 282h114l-234 -282h-70zM536 1604l195 282h99l-222 -282h-72zM732 -21q-273 0 -414.5 136t-141.5 399v942h108v-950q0 -217 114 -329t334 -112t334 112t114 329v950h108v-942q-2 -263 -143.5 -399t-412.5 -136z" />
    <glyph glyph-name="uhungarumlaut" unicode="&#x171;" horiz-adv-x="1285" 
d="M584 -26q-191 0 -288.5 111t-97.5 327v614h98v-618q0 -173 72.5 -262.5t215.5 -89.5q73 0 138 22t109.5 56t77 75t48 78.5t15.5 67.5v671h98v-801q0 -137 5 -225h-89l-9 191q-137 -217 -393 -217zM704 1174l190 282h114l-234 -282h-70zM441 1174l195 282h99l-222 -282
h-72z" />
    <glyph glyph-name="Uogonek" unicode="&#x172;" horiz-adv-x="1480" 
d="M829 -448q-97 0 -165 62.5t-68 150.5q0 62 40 124.5t123 115.5l82 -1q-75 -55 -109.5 -117.5t-34.5 -113.5q0 -57 35.5 -92.5t97.5 -35.5q37 0 77 13v-95q-35 -11 -78 -11zM732 -21q-273 0 -414.5 136t-141.5 399v942h108v-950q0 -217 114 -329t334 -112t334 112t114 329
v950h108v-942q-2 -263 -143.5 -399t-412.5 -136z" />
    <glyph glyph-name="uogonek" unicode="&#x173;" horiz-adv-x="1285" 
d="M584 -26q-191 0 -288.5 111t-97.5 327v614h98v-618q0 -173 72.5 -262.5t215.5 -89.5q73 0 138 22t109.5 56t77 75t48 78.5t15.5 67.5v671h98v-801q0 -137 5 -225h-89l-9 191q-137 -217 -393 -217zM1049 -448q-97 0 -165 62.5t-68 150.5q0 62 40 124.5t123 115.5l82 -1
q-75 -55 -109.5 -117.5t-34.5 -113.5q0 -57 35.5 -92.5t97.5 -35.5q37 0 77 13v-95q-35 -11 -78 -11z" />
    <glyph glyph-name="Wcircumflex" unicode="&#x174;" horiz-adv-x="2037" 
d="M803 1645l206 272h57l201 -272h-56l-180 185l-178 -185h-50zM514 0l-376 1456h114l311 -1242l18 -111l27 111l364 1242h109l364 -1242l25 -97l25 97l294 1242h110l-362 -1456h-129l-379 1320l-387 -1320h-128z" />
    <glyph glyph-name="wcircumflex" unicode="&#x175;" horiz-adv-x="1553" 
d="M342 0l-298 1026h106l239 -844l22 -80l27 80l289 844h128l283 -844l25 -80l21 80l215 844h109l-278 -1026h-128l-262 800l-45 139l-46 -139l-279 -800h-128zM564 1215l206 272h57l201 -272h-56l-180 185l-178 -185h-50z" />
    <glyph glyph-name="Ycircumflex" unicode="&#x176;" horiz-adv-x="1235" 
d="M384 1645l206 272h57l201 -272h-56l-180 185l-178 -185h-50zM560 0v591l-480 865h109l427 -773l434 773h105l-487 -862v-594h-108z" />
    <glyph glyph-name="ycircumflex" unicode="&#x177;" horiz-adv-x="983" 
d="M157 -417l-33 72q75 19 131.5 50.5t91.5 71.5t54 71.5t36 72.5l24 58l-399 1047h106l342 -929l353 929h96l-412 -1078q-116 -315 -390 -365zM291 1215l206 272h57l201 -272h-56l-180 185l-178 -185h-50z" />
    <glyph glyph-name="Ydieresis" unicode="&#x178;" horiz-adv-x="1235" 
d="M730 1640v108h99v-108h-99zM394 1640v108h98v-108h-98zM560 0v591l-480 865h109l427 -773l434 773h105l-487 -862v-594h-108z" />
    <glyph glyph-name="Zacute" unicode="&#x179;" horiz-adv-x="1182" 
d="M597 1604l196 282h132l-273 -282h-55zM134 0v61l806 1309h-770v86h900v-57l-809 -1313h805v-86h-932z" />
    <glyph glyph-name="zacute" unicode="&#x17a;" horiz-adv-x="934" 
d="M90 0v59l640 885h-615v82h740v-57l-635 -887h623v-82h-753zM434 1174l196 282h132l-273 -282h-55z" />
    <glyph glyph-name="Zdotaccent" unicode="&#x17b;" horiz-adv-x="1182" 
d="M561 1668v126h122v-126h-122zM134 0v61l806 1309h-770v86h900v-57l-809 -1313h805v-86h-932z" />
    <glyph glyph-name="zdotaccent" unicode="&#x17c;" horiz-adv-x="934" 
d="M90 0v59l640 885h-615v82h740v-57l-635 -887h623v-82h-753zM398 1238v126h122v-126h-122z" />
    <glyph glyph-name="Zcaron" unicode="&#x17d;" horiz-adv-x="1182" 
d="M565 1645l-210 268h78l186 -221l194 221h87l-210 -268h-125zM134 0v61l806 1309h-770v86h900v-57l-809 -1313h805v-86h-932z" />
    <glyph glyph-name="zcaron" unicode="&#x17e;" horiz-adv-x="934" 
d="M90 0v59l640 885h-615v82h740v-57l-635 -887h623v-82h-753zM402 1215l-210 268h78l186 -221l194 221h87l-210 -268h-125z" />
    <glyph glyph-name="longs" unicode="&#x17f;" horiz-adv-x="935" 
d="M477 -21q-194 0 -355 117l37 76q1 -1 15.5 -10.5t24 -15.5t30 -17t37.5 -18.5t42.5 -17t49.5 -15t54.5 -9.5t60.5 -4q271 0 271 197q0 82 -41.5 124t-143.5 73l-206 63q-121 37 -178.5 94.5t-57.5 166.5q0 136 100 202.5t275 66.5q183 0 306 -75l-32 -73q-121 66 -274 66
q-276 0 -278 -179q0 -79 35.5 -114.5t140.5 -67.5l201 -63q130 -41 188.5 -100t58.5 -166q0 -77 -28 -135.5t-77.5 -94.5t-114 -53.5t-141.5 -17.5z" />
    <glyph glyph-name="florin" unicode="&#x192;" horiz-adv-x="1016" 
d="M197 -277q-40 0 -100 14l9 91q43 -13 65 -13q47 0 84 15t58.5 39.5t33 48t16.5 48.5l192 1068h-173l3 79h182l5 38q22 168 91.5 254.5t214.5 86.5q14 0 43.5 -5t52.5 -9l22 -5l-15 -91q-48 19 -99 19q-48 0 -83 -10t-54.5 -24t-33 -39t-18 -43t-9.5 -48l-29 -124h244
l-16 -79h-233l-158 -897q-4 -25 -9.5 -62.5t-9 -62t-10 -57.5t-13 -55t-18 -48.5t-25.5 -43.5t-34 -35t-45 -27.5t-58 -16t-73 -6.5z" />
    <glyph glyph-name="uni01C4" unicode="&#x1c4;" horiz-adv-x="2705" 
d="M2088 1645l-210 268h78l186 -221l194 221h87l-210 -268h-125zM1657 0v61l806 1309h-770v86h900v-57l-809 -1313h805v-86h-932zM224 0v1456h374q387 0 588 -189.5t201 -554.5q0 -350 -195.5 -531t-571.5 -181h-396zM332 86h288q323 0 490 159.5t167 466.5
q0 323 -173 490.5t-506 167.5h-266v-1284z" />
    <glyph glyph-name="uni01C5" unicode="&#x1c5;" horiz-adv-x="2457" 
d="M1613 0v59l640 885h-615v82h740v-57l-635 -887h623v-82h-753zM1925 1215l-210 268h78l186 -221l194 221h87l-210 -268h-125zM224 0v1456h374q387 0 588 -189.5t201 -554.5q0 -350 -195.5 -531t-571.5 -181h-396zM332 86h288q323 0 490 159.5t167 466.5q0 323 -173 490.5
t-506 167.5h-266v-1284z" />
    <glyph glyph-name="uni01C6" unicode="&#x1c6;" horiz-adv-x="2190" 
d="M1346 0v59l640 885h-615v82h740v-57l-635 -887h623v-82h-753zM560 61q184 0 293 125t109 334q0 206 -109 328t-293 122q-173 0 -269.5 -121t-96.5 -329q0 -212 96.5 -335.5t269.5 -123.5zM560 -21q-212 0 -338 147t-126 394q0 243 126 387.5t338 144.5q136 0 245.5 -69
t156.5 -184v717h98v-1248q0 -30 0.5 -68t2 -72t2.5 -63t1 -47l1 -18h-99l-5 239q-43 -119 -152.5 -189.5t-250.5 -70.5zM1658 1215l-210 268h78l186 -221l194 221h87l-210 -268h-125z" />
    <glyph glyph-name="uni01C7" unicode="&#x1c7;" horiz-adv-x="1712" 
d="M224 0v1456h108v-1370h681v-86h-789zM1138 -312q-27 0 -93 2l2 87q53 -3 95 -3q75 0 117.5 13t71.5 53t39 108t10 184v1324h108v-1324q0 -95 -9 -165.5t-29.5 -119.5t-47.5 -80t-69 -48.5t-87 -24t-108 -6.5z" />
    <glyph glyph-name="uni01C8" unicode="&#x1c8;" horiz-adv-x="1548" 
d="M1364 23q0 -76 -7.5 -136.5t-28.5 -118.5t-54.5 -96.5t-88 -62t-127.5 -23.5q-37 0 -78 6l-2 77q38 -5 69 -5q64 0 106.5 20.5t67.5 65t35 106.5t10 154v1016h98v-1003zM1252 1238v126h122v-126h-122zM224 0v1456h108v-1370h681v-86h-789z" />
    <glyph glyph-name="uni01C9" unicode="&#x1c9;" horiz-adv-x="1012" 
d="M205 0v1516h98v-1516h-98zM828 23q0 -76 -7.5 -136.5t-28.5 -118.5t-54.5 -96.5t-88 -62t-127.5 -23.5q-37 0 -78 6l-2 77q38 -5 69 -5q64 0 106.5 20.5t67.5 65t35 106.5t10 154v1016h98v-1003zM716 1238v126h122v-126h-122z" />
    <glyph glyph-name="uni01CA" unicode="&#x1ca;" horiz-adv-x="2238" 
d="M224 0v1456h106l784 -1121l127 -193v1314h106v-1456h-105l-803 1137l-109 166v-1303h-106zM1664 -312q-27 0 -93 2l2 87q53 -3 95 -3q75 0 117.5 13t71.5 53t39 108t10 184v1324h108v-1324q0 -95 -9 -165.5t-29.5 -119.5t-47.5 -80t-69 -48.5t-87 -24t-108 -6.5z" />
    <glyph glyph-name="uni01CB" unicode="&#x1cb;" horiz-adv-x="2074" 
d="M1890 23q0 -76 -7.5 -136.5t-28.5 -118.5t-54.5 -96.5t-88 -62t-127.5 -23.5q-37 0 -78 6l-2 77q38 -5 69 -5q64 0 106.5 20.5t67.5 65t35 106.5t10 154v1016h98v-1003zM1778 1238v126h122v-126h-122zM224 0v1456h106l784 -1121l127 -193v1314h106v-1456h-105l-803 1137
l-109 166v-1303h-106z" />
    <glyph glyph-name="uni01CC" unicode="&#x1cc;" horiz-adv-x="1760" 
d="M202 0v880l-6 146h89l10 -206q52 112 159 172t245 60q368 0 368 -430v-622h-98v622q0 348 -270 348q-149 0 -255 -75.5t-144 -216.5v-678h-98zM1576 23q0 -76 -7.5 -136.5t-28.5 -118.5t-54.5 -96.5t-88 -62t-127.5 -23.5q-37 0 -78 6l-2 77q38 -5 69 -5q64 0 106.5 20.5
t67.5 65t35 106.5t10 154v1016h98v-1003zM1464 1238v126h122v-126h-122z" />
    <glyph glyph-name="uni01CD" unicode="&#x1cd;" horiz-adv-x="1329" 
d="M608 1645l-210 268h78l186 -221l194 221h87l-210 -268h-125zM359 473h619l-155 447l-156 446l-154 -446zM68 0l530 1456h134l529 -1456h-112l-143 399h-674l-143 -399h-121z" />
    <glyph glyph-name="uni01CE" unicode="&#x1ce;" horiz-adv-x="1253" 
d="M530 1215l-210 268h78l186 -221l194 221h87l-210 -268h-125zM581 61q173 0 269.5 124.5t96.5 338.5q0 203 -99.5 324.5t-266.5 121.5q-175 0 -280 -121.5t-105 -324.5q0 -211 104.5 -337t280.5 -126zM577 -21q-220 0 -350.5 148t-130.5 397q0 241 132 384.5t353 143.5
q128 0 225 -62.5t141 -164.5v201h98v-1026h-98v215q-48 -108 -142.5 -172t-227.5 -64z" />
    <glyph glyph-name="uni01CF" unicode="&#x1cf;" horiz-adv-x="592" 
d="M240 1645l-210 268h78l186 -221l194 221h87l-210 -268h-125zM242 0v1456h108v-1456h-108z" />
    <glyph glyph-name="uni01D0" unicode="&#x1d0;" horiz-adv-x="473" 
d="M187 0l-2 1026h101l2 -1026h-101zM180 1215l-210 268h78l186 -221l194 221h87l-210 -268h-125z" />
    <glyph glyph-name="uni01D1" unicode="&#x1d1;" 
d="M729 1645l-210 268h78l186 -221l194 221h87l-210 -268h-125zM788 -21q-310 0 -494 202t-184 542q0 346 183.5 552t494.5 206q306 0 490 -206.5t184 -551.5q0 -339 -183.5 -541.5t-490.5 -202.5zM788 65q258 0 411 179t153 479q0 307 -153.5 489.5t-410.5 182.5
q-259 0 -413.5 -182.5t-154.5 -489.5q0 -300 155 -479t413 -179z" />
    <glyph glyph-name="uni01D2" unicode="&#x1d2;" horiz-adv-x="1230" 
d="M615 -21q-237 0 -378 144.5t-141 386.5q0 248 141 395t378 147t378 -147t141 -395q0 -242 -141 -386.5t-378 -144.5zM615 61q197 0 308 121t111 328q0 212 -111 336t-308 124t-308 -124t-111 -336q0 -207 111 -328t308 -121zM559 1215l-210 268h78l186 -221l194 221h87
l-210 -268h-125z" />
    <glyph glyph-name="uni01D3" unicode="&#x1d3;" horiz-adv-x="1480" 
d="M689 1645l-210 268h78l186 -221l194 221h87l-210 -268h-125zM732 -21q-273 0 -414.5 136t-141.5 399v942h108v-950q0 -217 114 -329t334 -112t334 112t114 329v950h108v-942q-2 -263 -143.5 -399t-412.5 -136z" />
    <glyph glyph-name="uni01D4" unicode="&#x1d4;" horiz-adv-x="1285" 
d="M584 -26q-191 0 -288.5 111t-97.5 327v614h98v-618q0 -173 72.5 -262.5t215.5 -89.5q73 0 138 22t109.5 56t77 75t48 78.5t15.5 67.5v671h98v-801q0 -137 5 -225h-89l-9 191q-137 -217 -393 -217zM594 1215l-210 268h78l186 -221l194 221h87l-210 -268h-125z" />
    <glyph glyph-name="uni01E2" unicode="&#x1e2;" horiz-adv-x="1860" 
d="M992 1665v75h530v-75h-530zM422 536h605l-66 833h-66zM35 0l834 1456h908v-87h-733l48 -573h615v-77h-617l57 -636h654v-83h-721l-43 459h-650l-263 -459h-89z" />
    <glyph glyph-name="uni01E3" unicode="&#x1e3;" horiz-adv-x="1811" 
d="M647 1235v75h530v-75h-530zM963 578h677l-1 30q-2 62 -21.5 122.5t-57 115.5t-103.5 89.5t-150 34.5q-77 0 -143.5 -35.5t-109.5 -92.5t-67 -126t-24 -138zM471 61q187 0 283.5 122.5t94.5 323.5h-222q-102 0 -169 -5.5t-120.5 -19.5t-82.5 -40t-44 -65t-15 -97
q0 -111 77.5 -165t197.5 -54zM471 -20q-166 0 -268.5 79t-102.5 215q0 65 15 114t48 82.5t75.5 54.5t108 33t133.5 16t163 4h202q1 172 -83 282t-232 110q-189 0 -352 -85l-34 79q1 1 13 6.5t19 9t23.5 11t30 12t35.5 11.5t41.5 12t46.5 10t53.5 8.5t58.5 5.5t65 2
q149 0 250 -77t127 -208q48 128 155 206.5t245 78.5q190 0 305 -136.5t115 -388.5v-18h-764v-35q0 -80 20 -151t60 -131t109.5 -95.5t160.5 -35.5q57 0 111.5 12t92 29t67 34t44.5 29l14 12l36 -69q-6 -5 -16 -14t-46 -31t-75.5 -39t-101.5 -31t-126 -14q-150 0 -259 83
t-151 217q-15 -56 -47.5 -107t-83.5 -95.5t-129 -70.5t-172 -26z" />
    <glyph glyph-name="Gcaron" unicode="&#x1e6;" horiz-adv-x="1513" 
d="M799 1645l-210 268h78l186 -221l194 221h87l-210 -268h-125zM833 -21q-334 0 -528.5 197t-194.5 530q0 354 198.5 564.5t532.5 210.5h12q251 3 456 -147l-46 -77q-208 138 -422 138q-283 0 -452 -187.5t-169 -501.5q0 -293 165.5 -467t449.5 -174q112 0 225 17.5
t189 52.5v510h-409v86h505v-651q-208 -101 -512 -101z" />
    <glyph glyph-name="gcaron" unicode="&#x1e7;" horiz-adv-x="1268" 
d="M564 66q184 0 293 121.5t109 326.5q0 208 -105 332t-281 124t-280 -124t-104 -332q0 -205 100 -326.5t268 -121.5zM556 -443q-188 0 -349 66l12 86q170 -68 337 -68q190 0 300 113.5t110 359.5v122q-46 -121 -154 -186.5t-248 -65.5q-214 0 -341 144t-127 386
q0 245 131.5 391.5t352.5 146.5q132 0 235.5 -65t150.5 -170l10 209h95l-7 -189v-723q0 -143 -38.5 -251.5t-108.5 -174.5t-160.5 -98.5t-200.5 -32.5zM522 1215l-210 268h78l186 -221l194 221h87l-210 -268h-125z" />
    <glyph glyph-name="uni01E8" unicode="&#x1e8;" horiz-adv-x="1232" 
d="M589 1645l-210 268h78l186 -221l194 221h87l-210 -268h-125zM224 0v1456h108v-682l714 682h132l-729 -698l774 -758h-126l-767 745v-745h-106z" />
    <glyph glyph-name="uni01E9" unicode="&#x1e9;" horiz-adv-x="1045" 
d="M196 0v1516h98v-967l548 477h129l-558 -483l600 -543h-128l-591 535v-535h-98zM602 1215l-210 268h78l186 -221l194 221h87l-210 -268h-125z" />
    <glyph glyph-name="uni01EA" unicode="&#x1ea;" 
d="M889 -448q-97 0 -165 62.5t-68 150.5q0 62 40 124.5t123 115.5l82 -1q-75 -55 -109.5 -117.5t-34.5 -113.5q0 -57 35.5 -92.5t97.5 -35.5q37 0 77 13v-95q-35 -11 -78 -11zM788 -21q-310 0 -494 202t-184 542q0 346 183.5 552t494.5 206q306 0 490 -206.5t184 -551.5
q0 -339 -183.5 -541.5t-490.5 -202.5zM788 65q258 0 411 179t153 479q0 307 -153.5 489.5t-410.5 182.5q-259 0 -413.5 -182.5t-154.5 -489.5q0 -300 155 -479t413 -179z" />
    <glyph glyph-name="uni01EB" unicode="&#x1eb;" horiz-adv-x="1230" 
d="M659 -448q-97 0 -165 62.5t-68 150.5q0 62 40 124.5t123 115.5l82 -1q-75 -55 -109.5 -117.5t-34.5 -113.5q0 -57 35.5 -92.5t97.5 -35.5q37 0 77 13v-95q-35 -11 -78 -11zM615 -21q-237 0 -378 144.5t-141 386.5q0 248 141 395t378 147t378 -147t141 -395
q0 -242 -141 -386.5t-378 -144.5zM615 61q197 0 308 121t111 328q0 212 -111 336t-308 124t-308 -124t-111 -336q0 -207 111 -328t308 -121z" />
    <glyph glyph-name="uni01F0" unicode="&#x1f0;" horiz-adv-x="503" 
d="M307 23q0 -76 -7.5 -136.5t-28.5 -118.5t-54.5 -96.5t-88 -62t-127.5 -23.5q-37 0 -78 6l-2 77q38 -5 69 -5q64 0 106.5 20.5t67.5 65t35 106.5t10 154v1016h98v-1003zM211 1215l-210 268h78l186 -221l194 221h87l-210 -268h-125z" />
    <glyph glyph-name="uni01F1" unicode="&#x1f1;" horiz-adv-x="2705" 
d="M1657 0v61l806 1309h-770v86h900v-57l-809 -1313h805v-86h-932zM224 0v1456h374q387 0 588 -189.5t201 -554.5q0 -350 -195.5 -531t-571.5 -181h-396zM332 86h288q323 0 490 159.5t167 466.5q0 323 -173 490.5t-506 167.5h-266v-1284z" />
    <glyph glyph-name="uni01F2" unicode="&#x1f2;" horiz-adv-x="2457" 
d="M1613 0v59l640 885h-615v82h740v-57l-635 -887h623v-82h-753zM224 0v1456h374q387 0 588 -189.5t201 -554.5q0 -350 -195.5 -531t-571.5 -181h-396zM332 86h288q323 0 490 159.5t167 466.5q0 323 -173 490.5t-506 167.5h-266v-1284z" />
    <glyph glyph-name="uni01F3" unicode="&#x1f3;" horiz-adv-x="2190" 
d="M1346 0v59l640 885h-615v82h740v-57l-635 -887h623v-82h-753zM560 61q184 0 293 125t109 334q0 206 -109 328t-293 122q-173 0 -269.5 -121t-96.5 -329q0 -212 96.5 -335.5t269.5 -123.5zM560 -21q-212 0 -338 147t-126 394q0 243 126 387.5t338 144.5q136 0 245.5 -69
t156.5 -184v717h98v-1248q0 -30 0.5 -68t2 -72t2.5 -63t1 -47l1 -18h-99l-5 239q-43 -119 -152.5 -189.5t-250.5 -70.5z" />
    <glyph glyph-name="uni01F4" unicode="&#x1f4;" horiz-adv-x="1513" 
d="M831 1604l196 282h132l-273 -282h-55zM833 -21q-334 0 -528.5 197t-194.5 530q0 354 198.5 564.5t532.5 210.5h12q251 3 456 -147l-46 -77q-208 138 -422 138q-283 0 -452 -187.5t-169 -501.5q0 -293 165.5 -467t449.5 -174q112 0 225 17.5t189 52.5v510h-409v86h505
v-651q-208 -101 -512 -101z" />
    <glyph glyph-name="uni01F5" unicode="&#x1f5;" horiz-adv-x="1268" 
d="M564 66q184 0 293 121.5t109 326.5q0 208 -105 332t-281 124t-280 -124t-104 -332q0 -205 100 -326.5t268 -121.5zM556 -443q-188 0 -349 66l12 86q170 -68 337 -68q190 0 300 113.5t110 359.5v122q-46 -121 -154 -186.5t-248 -65.5q-214 0 -341 144t-127 386
q0 245 131.5 391.5t352.5 146.5q132 0 235.5 -65t150.5 -170l10 209h95l-7 -189v-723q0 -143 -38.5 -251.5t-108.5 -174.5t-160.5 -98.5t-200.5 -32.5zM554 1174l196 282h132l-273 -282h-55z" />
    <glyph glyph-name="uni01F8" unicode="&#x1f8;" horiz-adv-x="1571" 
d="M789 1604l-318 282h135l237 -282h-54zM224 0v1456h106l784 -1121l127 -193v1314h106v-1456h-105l-803 1137l-109 166v-1303h-106z" />
    <glyph glyph-name="uni01F9" unicode="&#x1f9;" horiz-adv-x="1257" 
d="M202 0v880l-6 146h89l10 -206q52 112 159 172t245 60q368 0 368 -430v-622h-98v622q0 348 -270 348q-149 0 -255 -75.5t-144 -216.5v-678h-98zM634 1174l-318 282h135l237 -282h-54z" />
    <glyph glyph-name="Aringacute" unicode="&#x1fa;" horiz-adv-x="1329" 
d="M665 1576q-76 0 -125.5 47.5t-49.5 120.5t49.5 120.5t125.5 47.5t125.5 -47.5t49.5 -120.5t-49.5 -120.5t-125.5 -47.5zM665 1632q46 0 75.5 31.5t29.5 80.5t-29.5 80.5t-75.5 31.5t-75.5 -31.5t-29.5 -80.5t29.5 -80.5t75.5 -31.5zM638 2034l196 282h132l-273 -282h-55z
M359 473h619l-155 447l-156 446l-154 -446zM68 0l530 1456h134l529 -1456h-112l-143 399h-674l-143 -399h-121z" />
    <glyph glyph-name="aringacute" unicode="&#x1fb;" horiz-adv-x="1253" 
d="M587 1146q-76 0 -125.5 47.5t-49.5 120.5t49.5 120.5t125.5 47.5t125.5 -47.5t49.5 -120.5t-49.5 -120.5t-125.5 -47.5zM587 1202q46 0 75.5 31.5t29.5 80.5t-29.5 80.5t-75.5 31.5t-75.5 -31.5t-29.5 -80.5t29.5 -80.5t75.5 -31.5zM560 1604l196 282h132l-273 -282h-55z
M581 61q173 0 269.5 124.5t96.5 338.5q0 203 -99.5 324.5t-266.5 121.5q-175 0 -280 -121.5t-105 -324.5q0 -211 104.5 -337t280.5 -126zM577 -21q-220 0 -350.5 148t-130.5 397q0 241 132 384.5t353 143.5q128 0 225 -62.5t141 -164.5v201h98v-1026h-98v215
q-48 -108 -142.5 -172t-227.5 -64z" />
    <glyph glyph-name="AEacute" unicode="&#x1fc;" horiz-adv-x="1860" 
d="M1239 1604l196 282h132l-273 -282h-55zM422 536h605l-66 833h-66zM35 0l834 1456h908v-87h-733l48 -573h615v-77h-617l57 -636h654v-83h-721l-43 459h-650l-263 -459h-89z" />
    <glyph glyph-name="aeacute" unicode="&#x1fd;" horiz-adv-x="1811" 
d="M963 578h677l-1 30q-2 62 -21.5 122.5t-57 115.5t-103.5 89.5t-150 34.5q-77 0 -143.5 -35.5t-109.5 -92.5t-67 -126t-24 -138zM471 61q187 0 283.5 122.5t94.5 323.5h-222q-102 0 -169 -5.5t-120.5 -19.5t-82.5 -40t-44 -65t-15 -97q0 -111 77.5 -165t197.5 -54z
M471 -20q-166 0 -268.5 79t-102.5 215q0 65 15 114t48 82.5t75.5 54.5t108 33t133.5 16t163 4h202q1 172 -83 282t-232 110q-189 0 -352 -85l-34 79q1 1 13 6.5t19 9t23.5 11t30 12t35.5 11.5t41.5 12t46.5 10t53.5 8.5t58.5 5.5t65 2q149 0 250 -77t127 -208
q48 128 155 206.5t245 78.5q190 0 305 -136.5t115 -388.5v-18h-764v-35q0 -80 20 -151t60 -131t109.5 -95.5t160.5 -35.5q57 0 111.5 12t92 29t67 34t44.5 29l14 12l36 -69q-6 -5 -16 -14t-46 -31t-75.5 -39t-101.5 -31t-126 -14q-150 0 -259 83t-151 217
q-15 -56 -47.5 -107t-83.5 -95.5t-129 -70.5t-172 -26zM894 1174l196 282h132l-273 -282h-55z" />
    <glyph glyph-name="Oslashacute" unicode="&#x1fe;" 
d="M761 1604l196 282h132l-273 -282h-55zM788 -21q307 0 490.5 202.5t183.5 541.5q0 106 -18.5 201t-53.5 175t-86 145t-116 114l117 214l-60 33l-115 -210q-149 86 -342 86q-311 0 -494.5 -206t-183.5 -552q0 -217 78 -382t221 -258l-112 -204l63 -34l111 203
q141 -69 317 -69zM1140 1271q102 -87 157 -227.5t55 -320.5q0 -300 -153 -479t-411 -179q-76 0 -144.5 16.5t-127.5 48.5zM1085 1313l-629 -1144q-113 84 -174.5 226.5t-61.5 327.5q0 307 154.5 489.5t413.5 182.5q24 0 47.5 -1.5t46 -5t44.5 -9t42.5 -12t40.5 -15t39 -18.5
t37 -21z" />
    <glyph glyph-name="oslashacute" unicode="&#x1ff;" horiz-adv-x="1230" 
d="M615 -21q237 0 378 144.5t141 386.5q0 173 -71 299.5t-199 189.5l100 229l-48 21l-100 -230q-92 33 -201 33q-237 0 -378 -147t-141 -395q0 -116 34.5 -213t99 -166t154.5 -108l-101 -233l43 -18l103 235q86 -28 186 -28zM829 920q99 -54 152 -160t53 -250
q0 -207 -111 -328t-308 -121q-83 0 -152 23zM783 941l-365 -840q-71 34 -121 92.5t-75.5 138.5t-25.5 178q0 212 111 336t308 124q92 0 168 -29zM591 1174l196 282h132l-273 -282h-55z" />
    <glyph glyph-name="uni0200" unicode="&#x200;" horiz-adv-x="1329" 
d="M789 1604l-275 313h116l217 -313h-58zM520 1604l-276 313h116l220 -313h-60zM359 473h619l-155 447l-156 446l-154 -446zM68 0l530 1456h134l529 -1456h-112l-143 399h-674l-143 -399h-121z" />
    <glyph glyph-name="uni0201" unicode="&#x201;" horiz-adv-x="1253" 
d="M711 1174l-275 313h116l217 -313h-58zM442 1174l-276 313h116l220 -313h-60zM581 61q173 0 269.5 124.5t96.5 338.5q0 203 -99.5 324.5t-266.5 121.5q-175 0 -280 -121.5t-105 -324.5q0 -211 104.5 -337t280.5 -126zM577 -21q-220 0 -350.5 148t-130.5 397
q0 241 132 384.5t353 143.5q128 0 225 -62.5t141 -164.5v201h98v-1026h-98v215q-48 -108 -142.5 -172t-227.5 -64z" />
    <glyph glyph-name="uni0202" unicode="&#x202;" horiz-adv-x="1329" 
d="M402 1655q4 103 80.5 160t180.5 57q105 0 183.5 -57.5t84.5 -159.5h-71q-9 65 -66.5 102t-131.5 37q-73 0 -127 -36t-60 -103h-73zM359 473h619l-155 447l-156 446l-154 -446zM68 0l530 1456h134l529 -1456h-112l-143 399h-674l-143 -399h-121z" />
    <glyph glyph-name="uni0203" unicode="&#x203;" horiz-adv-x="1253" 
d="M324 1225q4 103 80.5 160t180.5 57q105 0 183.5 -57.5t84.5 -159.5h-71q-9 65 -66.5 102t-131.5 37q-73 0 -127 -36t-60 -103h-73zM581 61q173 0 269.5 124.5t96.5 338.5q0 203 -99.5 324.5t-266.5 121.5q-175 0 -280 -121.5t-105 -324.5q0 -211 104.5 -337t280.5 -126z
M577 -21q-220 0 -350.5 148t-130.5 397q0 241 132 384.5t353 143.5q128 0 225 -62.5t141 -164.5v201h98v-1026h-98v215q-48 -108 -142.5 -172t-227.5 -64z" />
    <glyph glyph-name="uni0204" unicode="&#x204;" horiz-adv-x="1219" 
d="M762 1604l-275 313h116l217 -313h-58zM493 1604l-276 313h116l220 -313h-60zM224 0v1456h810v-86h-702v-583h663v-86h-665v-615h734v-86h-840z" />
    <glyph glyph-name="uni0205" unicode="&#x205;" horiz-adv-x="1133" 
d="M709 1174l-275 313h116l217 -313h-58zM440 1174l-276 313h116l220 -313h-60zM202 578h761q-10 179 -110.5 285.5t-260.5 106.5q-164 0 -270 -106.5t-120 -285.5zM616 -21q-237 0 -378.5 144t-141.5 385q0 248 135 396t361 148q207 0 330 -132.5t123 -354.5v-58h-849
q-2 -203 112 -324.5t308 -121.5q95 0 186 31t160 85l36 -69q-71 -59 -174.5 -94t-207.5 -35z" />
    <glyph glyph-name="uni0206" unicode="&#x206;" horiz-adv-x="1219" 
d="M375 1655q4 103 80.5 160t180.5 57q105 0 183.5 -57.5t84.5 -159.5h-71q-9 65 -66.5 102t-131.5 37q-73 0 -127 -36t-60 -103h-73zM224 0v1456h810v-86h-702v-583h663v-86h-665v-615h734v-86h-840z" />
    <glyph glyph-name="uni0207" unicode="&#x207;" horiz-adv-x="1133" 
d="M322 1225q4 103 80.5 160t180.5 57q105 0 183.5 -57.5t84.5 -159.5h-71q-9 65 -66.5 102t-131.5 37q-73 0 -127 -36t-60 -103h-73zM202 578h761q-10 179 -110.5 285.5t-260.5 106.5q-164 0 -270 -106.5t-120 -285.5zM616 -21q-237 0 -378.5 144t-141.5 385q0 248 135 396
t361 148q207 0 330 -132.5t123 -354.5v-58h-849q-2 -203 112 -324.5t308 -121.5q95 0 186 31t160 85l36 -69q-71 -59 -174.5 -94t-207.5 -35z" />
    <glyph glyph-name="uni0208" unicode="&#x208;" horiz-adv-x="592" 
d="M421 1604l-275 313h116l217 -313h-58zM152 1604l-276 313h116l220 -313h-60zM242 0v1456h108v-1456h-108z" />
    <glyph glyph-name="uni0209" unicode="&#x209;" horiz-adv-x="473" 
d="M361 1174l-275 313h116l217 -313h-58zM92 1174l-276 313h116l220 -313h-60zM187 0l-2 1026h101l2 -1026h-101z" />
    <glyph glyph-name="uni020A" unicode="&#x20a;" horiz-adv-x="592" 
d="M34 1655q4 103 80.5 160t180.5 57q105 0 183.5 -57.5t84.5 -159.5h-71q-9 65 -66.5 102t-131.5 37q-73 0 -127 -36t-60 -103h-73zM242 0v1456h108v-1456h-108z" />
    <glyph glyph-name="uni020B" unicode="&#x20b;" horiz-adv-x="473" 
d="M-26 1225q4 103 80.5 160t180.5 57q105 0 183.5 -57.5t84.5 -159.5h-71q-9 65 -66.5 102t-131.5 37q-73 0 -127 -36t-60 -103h-73zM187 0l-2 1026h101l2 -1026h-101z" />
    <glyph glyph-name="uni020C" unicode="&#x20c;" 
d="M910 1604l-275 313h116l217 -313h-58zM641 1604l-276 313h116l220 -313h-60zM788 -21q-310 0 -494 202t-184 542q0 346 183.5 552t494.5 206q306 0 490 -206.5t184 -551.5q0 -339 -183.5 -541.5t-490.5 -202.5zM788 65q258 0 411 179t153 479q0 307 -153.5 489.5
t-410.5 182.5q-259 0 -413.5 -182.5t-154.5 -489.5q0 -300 155 -479t413 -179z" />
    <glyph glyph-name="uni020D" unicode="&#x20d;" horiz-adv-x="1230" 
d="M740 1174l-275 313h116l217 -313h-58zM471 1174l-276 313h116l220 -313h-60zM615 -21q-237 0 -378 144.5t-141 386.5q0 248 141 395t378 147t378 -147t141 -395q0 -242 -141 -386.5t-378 -144.5zM615 61q197 0 308 121t111 328q0 212 -111 336t-308 124t-308 -124
t-111 -336q0 -207 111 -328t308 -121z" />
    <glyph glyph-name="uni020E" unicode="&#x20e;" 
d="M523 1655q4 103 80.5 160t180.5 57q105 0 183.5 -57.5t84.5 -159.5h-71q-9 65 -66.5 102t-131.5 37q-73 0 -127 -36t-60 -103h-73zM788 -21q-310 0 -494 202t-184 542q0 346 183.5 552t494.5 206q306 0 490 -206.5t184 -551.5q0 -339 -183.5 -541.5t-490.5 -202.5z
M788 65q258 0 411 179t153 479q0 307 -153.5 489.5t-410.5 182.5q-259 0 -413.5 -182.5t-154.5 -489.5q0 -300 155 -479t413 -179z" />
    <glyph glyph-name="uni020F" unicode="&#x20f;" horiz-adv-x="1230" 
d="M353 1225q4 103 80.5 160t180.5 57q105 0 183.5 -57.5t84.5 -159.5h-71q-9 65 -66.5 102t-131.5 37q-73 0 -127 -36t-60 -103h-73zM615 -21q-237 0 -378 144.5t-141 386.5q0 248 141 395t378 147t378 -147t141 -395q0 -242 -141 -386.5t-378 -144.5zM615 61
q197 0 308 121t111 328q0 212 -111 336t-308 124t-308 -124t-111 -336q0 -207 111 -328t308 -121z" />
    <glyph glyph-name="uni0210" unicode="&#x210;" horiz-adv-x="1373" 
d="M715 1604l-275 313h116l217 -313h-58zM446 1604l-276 313h116l220 -313h-60zM335 758h354q179 0 264 80t85 239q0 161 -91 231t-288 62h-324v-612zM224 0v1456h435q253 0 367.5 -90t114.5 -289q0 -154 -76 -252.5t-222 -110.5q32 -5 56 -11.5t45 -17.5t35.5 -20.5
t29 -29.5t24 -35t22.5 -46.5t21.5 -54.5t24.5 -68l151 -431h-101l-144 408q-21 60 -35 93.5t-32.5 68t-36.5 50.5t-45.5 30t-60 18t-79.5 4h-386v-672h-108z" />
    <glyph glyph-name="uni0211" unicode="&#x211;" horiz-adv-x="769" 
d="M603 1174l-275 313h116l217 -313h-58zM334 1174l-276 313h116l220 -313h-60zM205 0v776q0 57 -2.5 119.5t-4.5 96.5l-2 34h100l10 -191q32 112 112.5 162.5t189.5 50.5q50 0 101 -9l-5 -90q-48 9 -94 9q-141 0 -224 -96t-83 -303v-559h-98z" />
    <glyph glyph-name="uni0212" unicode="&#x212;" horiz-adv-x="1373" 
d="M328 1655q4 103 80.5 160t180.5 57q105 0 183.5 -57.5t84.5 -159.5h-71q-9 65 -66.5 102t-131.5 37q-73 0 -127 -36t-60 -103h-73zM335 758h354q179 0 264 80t85 239q0 161 -91 231t-288 62h-324v-612zM224 0v1456h435q253 0 367.5 -90t114.5 -289q0 -154 -76 -252.5
t-222 -110.5q32 -5 56 -11.5t45 -17.5t35.5 -20.5t29 -29.5t24 -35t22.5 -46.5t21.5 -54.5t24.5 -68l151 -431h-101l-144 408q-21 60 -35 93.5t-32.5 68t-36.5 50.5t-45.5 30t-60 18t-79.5 4h-386v-672h-108z" />
    <glyph glyph-name="uni0213" unicode="&#x213;" horiz-adv-x="769" 
d="M216 1225q4 103 80.5 160t180.5 57q105 0 183.5 -57.5t84.5 -159.5h-71q-9 65 -66.5 102t-131.5 37q-73 0 -127 -36t-60 -103h-73zM205 0v776q0 57 -2.5 119.5t-4.5 96.5l-2 34h100l10 -191q32 112 112.5 162.5t189.5 50.5q50 0 101 -9l-5 -90q-48 9 -94 9
q-141 0 -224 -96t-83 -303v-559h-98z" />
    <glyph glyph-name="uni0214" unicode="&#x214;" horiz-adv-x="1480" 
d="M870 1604l-275 313h116l217 -313h-58zM601 1604l-276 313h116l220 -313h-60zM732 -21q-273 0 -414.5 136t-141.5 399v942h108v-950q0 -217 114 -329t334 -112t334 112t114 329v950h108v-942q-2 -263 -143.5 -399t-412.5 -136z" />
    <glyph glyph-name="uni0215" unicode="&#x215;" horiz-adv-x="1285" 
d="M775 1174l-275 313h116l217 -313h-58zM506 1174l-276 313h116l220 -313h-60zM584 -26q-191 0 -288.5 111t-97.5 327v614h98v-618q0 -173 72.5 -262.5t215.5 -89.5q73 0 138 22t109.5 56t77 75t48 78.5t15.5 67.5v671h98v-801q0 -137 5 -225h-89l-9 191
q-137 -217 -393 -217z" />
    <glyph glyph-name="uni0216" unicode="&#x216;" horiz-adv-x="1480" 
d="M483 1655q4 103 80.5 160t180.5 57q105 0 183.5 -57.5t84.5 -159.5h-71q-9 65 -66.5 102t-131.5 37q-73 0 -127 -36t-60 -103h-73zM732 -21q-273 0 -414.5 136t-141.5 399v942h108v-950q0 -217 114 -329t334 -112t334 112t114 329v950h108v-942q-2 -263 -143.5 -399
t-412.5 -136z" />
    <glyph glyph-name="uni0217" unicode="&#x217;" horiz-adv-x="1285" 
d="M388 1225q4 103 80.5 160t180.5 57q105 0 183.5 -57.5t84.5 -159.5h-71q-9 65 -66.5 102t-131.5 37q-73 0 -127 -36t-60 -103h-73zM584 -26q-191 0 -288.5 111t-97.5 327v614h98v-618q0 -173 72.5 -262.5t215.5 -89.5q73 0 138 22t109.5 56t77 75t48 78.5t15.5 67.5v671
h98v-801q0 -137 5 -225h-89l-9 191q-137 -217 -393 -217z" />
    <glyph glyph-name="uni0218" unicode="&#x218;" horiz-adv-x="1130" 
d="M449 -557l103 433h117l-150 -433h-70zM586 -21q-58 0 -110.5 7t-94.5 20.5t-75.5 27t-63 33t-45.5 30.5t-34.5 27.5t-20.5 17.5l51 74q27 -24 37.5 -33t53 -36.5t79 -41.5t97.5 -27t126 -13q158 0 253 81.5t100 214.5q3 75 -9.5 124t-49.5 88.5t-97.5 66.5t-160.5 53
l-149 39q-118 31 -190.5 74.5t-113.5 119t-41 187.5q0 172 119.5 270t331.5 98q55 0 104.5 -6t87 -17t67.5 -22t54 -26t37.5 -24.5t27.5 -21.5t15 -13l-47 -74q-16 16 -39 32.5t-64.5 38t-105 34.5t-137.5 13q-163 0 -253 -74t-90 -208q0 -130 54 -190.5t207 -100.5l148 -38
q126 -32 204.5 -70t121.5 -90.5t57.5 -112.5t11.5 -149q-5 -174 -126 -278.5t-328 -104.5z" />
    <glyph glyph-name="uni0219" unicode="&#x219;" horiz-adv-x="935" 
d="M352 -557l103 433h117l-150 -433h-70zM477 -21q-194 0 -355 117l37 76q1 -1 15.5 -10.5t24 -15.5t30 -17t37.5 -18.5t42.5 -17t49.5 -15t54.5 -9.5t60.5 -4q271 0 271 197q0 82 -41.5 124t-143.5 73l-206 63q-121 37 -178.5 94.5t-57.5 166.5q0 136 100 202.5t275 66.5
q183 0 306 -75l-32 -73q-121 66 -274 66q-276 0 -278 -179q0 -79 35.5 -114.5t140.5 -67.5l201 -63q130 -41 188.5 -100t58.5 -166q0 -77 -28 -135.5t-77.5 -94.5t-114 -53.5t-141.5 -17.5z" />
    <glyph glyph-name="uni021A" unicode="&#x21a;" horiz-adv-x="1097" 
d="M399 -557l103 433h117l-150 -433h-70zM494 0v1370h-486v86h1080v-86h-486v-1370h-108z" />
    <glyph glyph-name="uni021B" unicode="&#x21b;" horiz-adv-x="687" 
d="M282 -526l103 433h117l-150 -433h-70zM592 -1q-8 0 -23.5 0.5t-22.5 0.5q-48 2 -86.5 8.5t-67 16t-50.5 22.5t-36 29t-24 35t-14.5 40t-7 44.5t-2.5 49v52.5v29v635h-202v65h202v294l98 29v-323h233v-65h-233v-638v-56t2 -46t5 -39t9 -30t14 -25t21.5 -17t30 -13.5
t40 -7.5t51 -5t63.5 -1v-84z" />
    <glyph glyph-name="uni021E" unicode="&#x21e;" horiz-adv-x="1558" 
d="M732 1645l-210 268h78l186 -221l194 221h87l-210 -268h-125zM224 0v1456h112v-670h894v670h104v-1456h-108v700h-894v-700h-108z" />
    <glyph glyph-name="uni021F" unicode="&#x21f;" horiz-adv-x="1255" 
d="M196 0v1516h98v-689q57 102 160.5 163.5t245.5 61.5q52 0 99 -9t97 -34.5t86 -65t59.5 -107t23.5 -154.5v-682h-98v659q0 157 -61 234t-206 77q-161 0 -283.5 -105t-122.5 -237v-628h-98zM646 1215l-210 268h78l186 -221l194 221h87l-210 -268h-125z" />
    <glyph glyph-name="uni0226" unicode="&#x226;" horiz-adv-x="1329" 
d="M604 1668v126h122v-126h-122zM359 473h619l-155 447l-156 446l-154 -446zM68 0l530 1456h134l529 -1456h-112l-143 399h-674l-143 -399h-121z" />
    <glyph glyph-name="uni0227" unicode="&#x227;" horiz-adv-x="1253" 
d="M526 1238v126h122v-126h-122zM581 61q173 0 269.5 124.5t96.5 338.5q0 203 -99.5 324.5t-266.5 121.5q-175 0 -280 -121.5t-105 -324.5q0 -211 104.5 -337t280.5 -126zM577 -21q-220 0 -350.5 148t-130.5 397q0 241 132 384.5t353 143.5q128 0 225 -62.5t141 -164.5v201
h98v-1026h-98v215q-48 -108 -142.5 -172t-227.5 -64z" />
    <glyph glyph-name="uni0228" unicode="&#x228;" horiz-adv-x="1219" 
d="M691 -389q-75 3 -154 39l12 58q19 -9 59 -18.5t74 -10.5q68 -3 93 13t25 54q0 65 -176 65h-6l34 194h59l-24 -144q39 -1 67.5 -5.5t62.5 -16t53 -37t19 -63.5q0 -33 -12.5 -57.5t-32 -38t-47 -21.5t-53 -10t-53.5 -1zM224 0v1456h810v-86h-702v-583h663v-86h-665v-615
h734v-86h-840z" />
    <glyph glyph-name="uni0229" unicode="&#x229;" horiz-adv-x="1133" 
d="M202 578h761q-10 179 -110.5 285.5t-260.5 106.5q-164 0 -270 -106.5t-120 -285.5zM616 -21q-237 0 -378.5 144t-141.5 385q0 248 135 396t361 148q207 0 330 -132.5t123 -354.5v-58h-849q-2 -203 112 -324.5t308 -121.5q95 0 186 31t160 85l36 -69q-71 -59 -174.5 -94
t-207.5 -35zM605 -389q-75 3 -154 39l12 58q19 -9 59 -18.5t74 -10.5q68 -3 93 13t25 54q0 65 -176 65h-6l34 194h59l-24 -144q39 -1 67.5 -5.5t62.5 -16t53 -37t19 -63.5q0 -33 -12.5 -57.5t-32 -38t-47 -21.5t-53 -10t-53.5 -1z" />
    <glyph glyph-name="uni022E" unicode="&#x22e;" 
d="M725 1668v126h122v-126h-122zM788 -21q-310 0 -494 202t-184 542q0 346 183.5 552t494.5 206q306 0 490 -206.5t184 -551.5q0 -339 -183.5 -541.5t-490.5 -202.5zM788 65q258 0 411 179t153 479q0 307 -153.5 489.5t-410.5 182.5q-259 0 -413.5 -182.5t-154.5 -489.5
q0 -300 155 -479t413 -179z" />
    <glyph glyph-name="uni022F" unicode="&#x22f;" horiz-adv-x="1230" 
d="M615 -21q-237 0 -378 144.5t-141 386.5q0 248 141 395t378 147t378 -147t141 -395q0 -242 -141 -386.5t-378 -144.5zM615 61q197 0 308 121t111 328q0 212 -111 336t-308 124t-308 -124t-111 -336q0 -207 111 -328t308 -121zM555 1238v126h122v-126h-122z" />
    <glyph glyph-name="uni0232" unicode="&#x232;" horiz-adv-x="1235" 
d="M340 1665v75h530v-75h-530zM560 0v591l-480 865h109l427 -773l434 773h105l-487 -862v-594h-108z" />
    <glyph glyph-name="uni0233" unicode="&#x233;" horiz-adv-x="983" 
d="M157 -417l-33 72q75 19 131.5 50.5t91.5 71.5t54 71.5t36 72.5l24 58l-399 1047h106l342 -929l353 929h96l-412 -1078q-116 -315 -390 -365zM247 1235v75h530v-75h-530z" />
    <glyph glyph-name="uni0237" unicode="&#x237;" horiz-adv-x="503" 
d="M307 23q0 -76 -7.5 -136.5t-28.5 -118.5t-54.5 -96.5t-88 -62t-127.5 -23.5q-37 0 -78 6l-2 77q38 -5 69 -5q64 0 106.5 20.5t67.5 65t35 106.5t10 154v1016h98v-1003z" />
    <glyph glyph-name="uni02BC" unicode="&#x2bc;" horiz-adv-x="600" 
d="M120 1210l28 552h119l-80 -552h-67z" />
    <glyph glyph-name="circumflex" unicode="&#x2c6;" horiz-adv-x="699" 
d="M116 1215l206 272h57l201 -272h-56l-180 185l-178 -185h-50z" />
    <glyph glyph-name="caron" unicode="&#x2c7;" horiz-adv-x="699" 
d="M287 1215l-210 268h78l186 -221l194 221h87l-210 -268h-125z" />
    <glyph glyph-name="uni02C9" unicode="&#x2c9;" horiz-adv-x="600" 
d="M24 1296h550v102h-550v-102z" />
    <glyph glyph-name="breve" unicode="&#x2d8;" horiz-adv-x="503" 
d="M253 1162q-107 0 -158.5 52t-60.5 162h75q3 -69 36.5 -103.5t107.5 -34.5q71 0 101 35t42 103h73q-8 -103 -63 -158.5t-153 -55.5z" />
    <glyph glyph-name="dotaccent" unicode="&#x2d9;" horiz-adv-x="524" 
d="M201 1238v126h122v-126h-122z" />
    <glyph glyph-name="ring" unicode="&#x2da;" horiz-adv-x="534" 
d="M268 1146q-76 0 -125.5 47.5t-49.5 120.5t49.5 120.5t125.5 47.5t125.5 -47.5t49.5 -120.5t-49.5 -120.5t-125.5 -47.5zM268 1202q46 0 75.5 31.5t29.5 80.5t-29.5 80.5t-75.5 31.5t-75.5 -31.5t-29.5 -80.5t29.5 -80.5t75.5 -31.5z" />
    <glyph glyph-name="ogonek" unicode="&#x2db;" horiz-adv-x="508" 
d="M330 -448q-97 0 -165 62.5t-68 150.5q0 62 40 124.5t123 115.5l82 -1q-75 -55 -109.5 -117.5t-34.5 -113.5q0 -57 35.5 -92.5t97.5 -35.5q37 0 77 13v-95q-35 -11 -78 -11z" />
    <glyph glyph-name="tilde" unicode="&#x2dc;" horiz-adv-x="573" 
d="M452 1233q-48 0 -161.5 48.5t-147.5 48.5q-62 0 -62 -80h-62q0 71 31 107.5t88 36.5q50 0 161.5 -48.5t145.5 -48.5q27 0 34.5 19.5t7.5 66.5h66q0 -150 -101 -150z" />
    <glyph glyph-name="hungarumlaut" unicode="&#x2dd;" horiz-adv-x="969" 
d="M417 1174l190 282h114l-234 -282h-70zM154 1174l195 282h99l-222 -282h-72z" />
    <glyph glyph-name="uni0307" unicode="&#x307;" horiz-adv-x="524" 
d="M184 1246l-2 163h157l3 -163h-158z" />
    <glyph glyph-name="uni030F" unicode="&#x30f;" horiz-adv-x="969" 
d="M758 1174l-275 313h116l217 -313h-58zM489 1174l-276 313h116l220 -313h-60z" />
    <glyph glyph-name="uni0311" unicode="&#x311;" horiz-adv-x="629" 
d="M50 1225q4 103 80.5 160t180.5 57q105 0 183.5 -57.5t84.5 -159.5h-71q-9 65 -66.5 102t-131.5 37q-73 0 -127 -36t-60 -103h-73z" />
    <glyph glyph-name="uni0312" unicode="&#x312;" horiz-adv-x="600" 
d="M443 1683l-103 -433h-117l150 433h70z" />
    <glyph glyph-name="uni0326" unicode="&#x326;" horiz-adv-x="540" 
d="M160 -557l103 433h117l-150 -433h-70z" />
    <glyph glyph-name="uni0358" unicode="&#x358;" horiz-adv-x="524" 
d="M184 1246l-2 163h157l3 -163h-158z" />
    <glyph glyph-name="uni0394" unicode="&#x394;" horiz-adv-x="1298" 
d="M138 77h1017l-509 1218zM41 0v48l593 1403h31l592 -1403v-48h-1216z" />
    <glyph glyph-name="Sigma" unicode="&#x3a3;" horiz-adv-x="1102" 
d="M102 -99v49l512 744l-494 698v60h899v-74h-768l465 -672l-505 -733h850v-72h-959z" />
    <glyph glyph-name="uni03A9" unicode="&#x3a9;" horiz-adv-x="1603" 
d="M144 0l-10 90h391q-179 110 -282.5 274t-103.5 383q0 202 90.5 357t247 237t353.5 82q200 0 353 -89t233 -242t80 -344q0 -380 -390 -658h399l-10 -90h-480l-2 86q371 246 371 639q0 123 -36 231.5t-104.5 192.5t-177 133t-244.5 49q-254 0 -412 -166t-158 -433
q0 -211 97 -372.5t270 -273.5l1 -86h-476z" />
    <glyph glyph-name="uni03BC" unicode="&#x3bc;" horiz-adv-x="1176" 
d="M168 -329h120v391q93 -82 258 -82q123 0 204 39.5t137 122.5l11 -142h103v1082h-121v-842q-110 -169 -328 -169q-264 0 -264 312v699h-121z" />
    <glyph glyph-name="pi" unicode="&#x3c0;" horiz-adv-x="1348" 
d="M1080 -9q94 0 162 53v83q-71 -28 -117 -28q-75 0 -109.5 70t-34.5 222q0 201 56 581h240v110h-861q-167 0 -228 -66t-61 -234h71q9 100 43 145t104 45h125l-85 -608q-9 -63 -30.5 -113t-48.5 -81t-61 -51t-66 -28t-66 -8v-79q75 0 131.5 8.5t96 28t66 44.5t43 65t25 82
t14.5 102l62 638h398q-30 -208 -40.5 -286t-23.5 -204t-13 -201q0 -150 47.5 -220t160.5 -70z" />
    <glyph glyph-name="uni1E02" unicode="&#x1e02;" horiz-adv-x="1352" 
d="M587 1668v126h122v-126h-122zM334 794h349q193 0 276 75t83 230q0 271 -405 271h-303v-576zM332 86h392q191 0 290 76t99 223q0 164 -99.5 243.5t-330.5 79.5h-351v-622zM224 0v1456h413q513 0 513 -357q0 -312 -283 -342q167 -14 261.5 -109.5t94.5 -262.5
q0 -189 -127 -287t-372 -98h-500z" />
    <glyph glyph-name="uni1E03" unicode="&#x1e03;" horiz-adv-x="1259" 
d="M613 1238v126h122v-126h-122zM696 61q173 0 269.5 123.5t96.5 335.5q0 208 -96.5 329t-269.5 121q-184 0 -293 -122t-109 -328q0 -209 109 -334t293 -125zM696 -21q-141 0 -250.5 70.5t-152.5 189.5l-5 -239h-99l1 18q0 18 1 47t2.5 63t2 72t0.5 68v1248h98v-717
q47 115 156.5 184t245.5 69q212 0 338 -144.5t126 -387.5q0 -247 -126 -394t-338 -147z" />
    <glyph glyph-name="uni1E0A" unicode="&#x1e0a;" horiz-adv-x="1523" 
d="M677 1668v126h122v-126h-122zM224 0v1456h374q387 0 588 -189.5t201 -554.5q0 -350 -195.5 -531t-571.5 -181h-396zM332 86h288q323 0 490 159.5t167 466.5q0 323 -173 490.5t-506 167.5h-266v-1284z" />
    <glyph glyph-name="uni1E0B" unicode="&#x1e0b;" horiz-adv-x="1256" 
d="M519 1238v126h122v-126h-122zM560 61q184 0 293 125t109 334q0 206 -109 328t-293 122q-173 0 -269.5 -121t-96.5 -329q0 -212 96.5 -335.5t269.5 -123.5zM560 -21q-212 0 -338 147t-126 394q0 243 126 387.5t338 144.5q136 0 245.5 -69t156.5 -184v717h98v-1248
q0 -30 0.5 -68t2 -72t2.5 -63t1 -47l1 -18h-99l-5 239q-43 -119 -152.5 -189.5t-250.5 -70.5z" />
    <glyph glyph-name="uni1E1E" unicode="&#x1e1e;" horiz-adv-x="1090" 
d="M567 1668v126h122v-126h-122zM224 0v1456h777v-86h-669v-591h612v-86h-612v-693h-108z" />
    <glyph glyph-name="uni1E1F" unicode="&#x1e1f;" horiz-adv-x="604" 
d="M242 0v961h-174v65h174v158q0 89 13 144t49.5 96t103 58t173.5 17h35v-83q-67 0 -113.5 -4t-77.5 -16.5t-47.5 -25t-25 -40.5t-10.5 -52t-2 -69v-183h263v-65h-263v-961h-98zM220 1668v126h122v-126h-122z" />
    <glyph glyph-name="uni1E40" unicode="&#x1e40;" horiz-adv-x="1849" 
d="M872 1668v126h122v-126h-122zM224 0v1456h138l473 -1097l89 -218l92 218l491 1097h118v-1456h-104v1279l-54 -145l-513 -1134h-63l-495 1134l-68 186v-1320h-104z" />
    <glyph glyph-name="uni1E41" unicode="&#x1e41;" horiz-adv-x="1946" 
d="M204 0v880l-6 146h89l10 -206q52 114 150 173t234 59q269 0 330 -263q52 131 158.5 197t238.5 66q171 0 259.5 -109.5t88.5 -320.5v-622h-98v622q0 171 -63.5 259.5t-186.5 88.5q-158 0 -253.5 -88.5t-125.5 -259.5v-622h-98v622q0 171 -63.5 259.5t-186.5 88.5
q-147 0 -243.5 -74.5t-135.5 -217.5v-678h-98zM937 1238v126h122v-126h-122z" />
    <glyph glyph-name="uni1E56" unicode="&#x1e56;" horiz-adv-x="1219" 
d="M587 1668v126h122v-126h-122zM332 787h323q215 0 302 68t87 224q0 160 -92.5 229t-296.5 62h-323v-583zM224 0v1456h431q258 0 375 -89.5t117 -287.5q0 -199 -117 -288.5t-375 -89.5h-323v-701h-108z" />
    <glyph glyph-name="uni1E57" unicode="&#x1e57;" horiz-adv-x="1263" 
d="M703 56q173 0 269.5 121t96.5 329q0 212 -96.5 335.5t-269.5 123.5q-182 0 -292 -131.5t-110 -342.5q0 -204 108.5 -319.5t293.5 -115.5zM203 -490v1248q0 30 -0.5 68t-1.5 72t-2.5 63t-2.5 47v18h99l5 -247q43 120 153 194t250 74q212 0 338 -147t126 -394
q0 -243 -126 -387.5t-338 -144.5q-139 0 -247.5 62.5t-154.5 175.5v-702h-98zM643 1238v126h122v-126h-122z" />
    <glyph glyph-name="uni1E60" unicode="&#x1e60;" horiz-adv-x="1130" 
d="M545 1668v126h122v-126h-122zM586 -21q-58 0 -110.5 7t-94.5 20.5t-75.5 27t-63 33t-45.5 30.5t-34.5 27.5t-20.5 17.5l51 74q27 -24 37.5 -33t53 -36.5t79 -41.5t97.5 -27t126 -13q158 0 253 81.5t100 214.5q3 75 -9.5 124t-49.5 88.5t-97.5 66.5t-160.5 53l-149 39
q-118 31 -190.5 74.5t-113.5 119t-41 187.5q0 172 119.5 270t331.5 98q55 0 104.5 -6t87 -17t67.5 -22t54 -26t37.5 -24.5t27.5 -21.5t15 -13l-47 -74q-16 16 -39 32.5t-64.5 38t-105 34.5t-137.5 13q-163 0 -253 -74t-90 -208q0 -130 54 -190.5t207 -100.5l148 -38
q126 -32 204.5 -70t121.5 -90.5t57.5 -112.5t11.5 -149q-5 -174 -126 -278.5t-328 -104.5z" />
    <glyph glyph-name="uni1E61" unicode="&#x1e61;" horiz-adv-x="935" 
d="M477 -21q-194 0 -355 117l37 76q1 -1 15.5 -10.5t24 -15.5t30 -17t37.5 -18.5t42.5 -17t49.5 -15t54.5 -9.5t60.5 -4q271 0 271 197q0 82 -41.5 124t-143.5 73l-206 63q-121 37 -178.5 94.5t-57.5 166.5q0 136 100 202.5t275 66.5q183 0 306 -75l-32 -73q-121 66 -274 66
q-276 0 -278 -179q0 -79 35.5 -114.5t140.5 -67.5l201 -63q130 -41 188.5 -100t58.5 -166q0 -77 -28 -135.5t-77.5 -94.5t-114 -53.5t-141.5 -17.5zM404 1238v126h122v-126h-122z" />
    <glyph glyph-name="uni1E6A" unicode="&#x1e6a;" horiz-adv-x="1097" 
d="M487 1668v126h122v-126h-122zM494 0v1370h-486v86h1080v-86h-486v-1370h-108z" />
    <glyph glyph-name="uni1E6B" unicode="&#x1e6b;" horiz-adv-x="687" 
d="M592 -1q-8 0 -23.5 0.5t-22.5 0.5q-48 2 -86.5 8.5t-67 16t-50.5 22.5t-36 29t-24 35t-14.5 40t-7 44.5t-2.5 49v52.5v29v635h-202v65h202v294l98 29v-323h233v-65h-233v-638v-56t2 -46t5 -39t9 -30t14 -25t21.5 -17t30 -13.5t40 -7.5t51 -5t63.5 -1v-84zM232 1523v126
h122v-126h-122z" />
    <glyph glyph-name="Wgrave" unicode="&#x1e80;" horiz-adv-x="2037" 
d="M1002 1604l-318 282h135l237 -282h-54zM514 0l-376 1456h114l311 -1242l18 -111l27 111l364 1242h109l364 -1242l25 -97l25 97l294 1242h110l-362 -1456h-129l-379 1320l-387 -1320h-128z" />
    <glyph glyph-name="wgrave" unicode="&#x1e81;" horiz-adv-x="1553" 
d="M342 0l-298 1026h106l239 -844l22 -80l27 80l289 844h128l283 -844l25 -80l21 80l215 844h109l-278 -1026h-128l-262 800l-45 139l-46 -139l-279 -800h-128zM763 1174l-318 282h135l237 -282h-54z" />
    <glyph glyph-name="Wacute" unicode="&#x1e82;" horiz-adv-x="2037" 
d="M1006 1604l196 282h132l-273 -282h-55zM514 0l-376 1456h114l311 -1242l18 -111l27 111l364 1242h109l364 -1242l25 -97l25 97l294 1242h110l-362 -1456h-129l-379 1320l-387 -1320h-128z" />
    <glyph glyph-name="wacute" unicode="&#x1e83;" horiz-adv-x="1553" 
d="M342 0l-298 1026h106l239 -844l22 -80l27 80l289 844h128l283 -844l25 -80l21 80l215 844h109l-278 -1026h-128l-262 800l-45 139l-46 -139l-279 -800h-128zM767 1174l196 282h132l-273 -282h-55z" />
    <glyph glyph-name="Wdieresis" unicode="&#x1e84;" horiz-adv-x="2037" 
d="M1149 1640v108h99v-108h-99zM813 1640v108h98v-108h-98zM514 0l-376 1456h114l311 -1242l18 -111l27 111l364 1242h109l364 -1242l25 -97l25 97l294 1242h110l-362 -1456h-129l-379 1320l-387 -1320h-128z" />
    <glyph glyph-name="wdieresis" unicode="&#x1e85;" horiz-adv-x="1553" 
d="M342 0l-298 1026h106l239 -844l22 -80l27 80l289 844h128l283 -844l25 -80l21 80l215 844h109l-278 -1026h-128l-262 800l-45 139l-46 -139l-279 -800h-128zM910 1210v108h99v-108h-99zM574 1210v108h98v-108h-98z" />
    <glyph glyph-name="uni1EBC" unicode="&#x1ebc;" horiz-adv-x="1219" 
d="M794 1663q-48 0 -161.5 48.5t-147.5 48.5q-62 0 -62 -80h-62q0 71 31 107.5t88 36.5q50 0 161.5 -48.5t145.5 -48.5q27 0 34.5 19.5t7.5 66.5h66q0 -150 -101 -150zM224 0v1456h810v-86h-702v-583h663v-86h-665v-615h734v-86h-840z" />
    <glyph glyph-name="uni1EBD" unicode="&#x1ebd;" horiz-adv-x="1133" 
d="M741 1233q-48 0 -161.5 48.5t-147.5 48.5q-62 0 -62 -80h-62q0 71 31 107.5t88 36.5q50 0 161.5 -48.5t145.5 -48.5q27 0 34.5 19.5t7.5 66.5h66q0 -150 -101 -150zM202 578h761q-10 179 -110.5 285.5t-260.5 106.5q-164 0 -270 -106.5t-120 -285.5zM616 -21
q-237 0 -378.5 144t-141.5 385q0 248 135 396t361 148q207 0 330 -132.5t123 -354.5v-58h-849q-2 -203 112 -324.5t308 -121.5q95 0 186 31t160 85l36 -69q-71 -59 -174.5 -94t-207.5 -35z" />
    <glyph glyph-name="Ygrave" unicode="&#x1ef2;" horiz-adv-x="1235" 
d="M583 1604l-318 282h135l237 -282h-54zM560 0v591l-480 865h109l427 -773l434 773h105l-487 -862v-594h-108z" />
    <glyph glyph-name="ygrave" unicode="&#x1ef3;" horiz-adv-x="983" 
d="M157 -417l-33 72q75 19 131.5 50.5t91.5 71.5t54 71.5t36 72.5l24 58l-399 1047h106l342 -929l353 929h96l-412 -1078q-116 -315 -390 -365zM490 1174l-318 282h135l237 -282h-54z" />
    <glyph glyph-name="uni1EF8" unicode="&#x1ef8;" horiz-adv-x="1235" 
d="M768 1663q-48 0 -161.5 48.5t-147.5 48.5q-62 0 -62 -80h-62q0 71 31 107.5t88 36.5q50 0 161.5 -48.5t145.5 -48.5q27 0 34.5 19.5t7.5 66.5h66q0 -150 -101 -150zM560 0v591l-480 865h109l427 -773l434 773h105l-487 -862v-594h-108z" />
    <glyph glyph-name="uni1EF9" unicode="&#x1ef9;" horiz-adv-x="983" 
d="M157 -417l-33 72q75 19 131.5 50.5t91.5 71.5t54 71.5t36 72.5l24 58l-399 1047h106l342 -929l353 929h96l-412 -1078q-116 -315 -390 -365zM675 1233q-48 0 -161.5 48.5t-147.5 48.5q-62 0 -62 -80h-62q0 71 31 107.5t88 36.5q50 0 161.5 -48.5t145.5 -48.5
q27 0 34.5 19.5t7.5 66.5h66q0 -150 -101 -150z" />
    <glyph glyph-name="endash" unicode="&#x2013;" horiz-adv-x="1067" 
d="M-13 515v89h1078v-89h-1078z" />
    <glyph glyph-name="emdash" unicode="&#x2014;" horiz-adv-x="2171" 
d="M-42 515v89h2225v-89h-2225z" />
    <glyph glyph-name="uni2015" unicode="&#x2015;" horiz-adv-x="4095" 
d="M71 515v100h3953v-100h-3953z" />
    <glyph glyph-name="quoteleft" unicode="&#x2018;" horiz-adv-x="432" 
d="M222 904h-119l80 552h67z" />
    <glyph glyph-name="quoteright" unicode="&#x2019;" horiz-adv-x="395" 
d="M143 904l28 552h119l-80 -552h-67z" />
    <glyph glyph-name="quotesinglbase" unicode="&#x201a;" horiz-adv-x="445" 
d="M207 -369l-30 527h110l-16 -527h-64z" />
    <glyph glyph-name="quotedblleft" unicode="&#x201c;" horiz-adv-x="1024" 
d="M551 904l80 552h67l-28 -552h-119zM212 904l80 552h67l-28 -552h-119z" />
    <glyph glyph-name="quotedblright" unicode="&#x201d;" horiz-adv-x="1024" 
d="M551 904l28 552h119l-80 -552h-67zM212 904l28 552h119l-80 -552h-67z" />
    <glyph glyph-name="quotedblbase" unicode="&#x201e;" horiz-adv-x="1024" 
d="M314 -369l-30 527h110l-16 -527h-64zM615 -369l-30 527h110l-16 -527h-64z" />
    <glyph glyph-name="dagger" unicode="&#x2020;" horiz-adv-x="1022" 
d="M453 0v989h-335v79h335v405h108v-405h335v-79h-335v-989h-108z" />
    <glyph glyph-name="daggerdbl" unicode="&#x2021;" horiz-adv-x="971" 
d="M89 1068h335v405h108v-405h335v-79h-335v-505h335v-79h-335v-405h-108v405h-335v79h335v505h-335v79z" />
    <glyph glyph-name="bullet" unicode="&#x2022;" horiz-adv-x="991" 
d="M493 404q-129 0 -218 87t-89 211q0 128 88 218t219 90q128 0 220 -91.5t92 -216.5q0 -127 -89.5 -212.5t-222.5 -85.5z" />
    <glyph glyph-name="ellipsis" unicode="&#x2026;" horiz-adv-x="1620" 
d="M1301 -11v167h155v-167h-155zM747 -11v167h153l-1 -167h-152zM192 -11v167h154l-1 -167h-153z" />
    <glyph glyph-name="perthousand" unicode="&#x2030;" horiz-adv-x="2988" 
d="M2496 0q-163 0 -248 115.5t-85 337.5q0 228 85 346.5t248 118.5q157 0 238.5 -118.5t81.5 -346.5q0 -222 -81.5 -337.5t-238.5 -115.5zM2496 76q112 0 170 96.5t58 281.5q0 190 -58 289t-170 99q-118 0 -179.5 -98.5t-61.5 -289.5q0 -185 61.5 -281.5t179.5 -96.5z
M1631 0q-163 0 -248 115.5t-85 337.5q0 228 85 346.5t248 118.5q157 0 238.5 -118.5t81.5 -346.5q0 -222 -81.5 -337.5t-238.5 -115.5zM1631 76q112 0 170 96.5t58 281.5q0 190 -58 289t-170 99q-118 0 -179.5 -98.5t-61.5 -289.5q0 -185 61.5 -281.5t179.5 -96.5zM755 0
l539 1456h82l-541 -1456h-80zM505 538q-163 0 -248 115.5t-85 337.5q0 228 85 346.5t248 118.5q157 0 238.5 -118.5t81.5 -346.5q0 -222 -81.5 -337.5t-238.5 -115.5zM505 614q112 0 170 96.5t58 281.5q0 190 -58 289t-170 99q-118 0 -179.5 -98.5t-61.5 -289.5
q0 -185 61.5 -281.5t179.5 -96.5z" />
    <glyph glyph-name="guilsinglleft" unicode="&#x2039;" horiz-adv-x="634" 
d="M401 180l-263 361l267 367h114l-261 -366l253 -362h-110z" />
    <glyph glyph-name="guilsinglright" unicode="&#x203a;" horiz-adv-x="634" 
d="M115 181l261 366l-253 362h110l263 -361l-267 -367h-114z" />
    <glyph glyph-name="fraction" unicode="&#x2044;" horiz-adv-x="994" 
d="M0 0l920 1456h74l-917 -1456h-77z" />
    <glyph glyph-name="uni2074" unicode="&#x2074;" horiz-adv-x="897" 
d="M223 926h307v441zM532 670v184h-395v69l374 533h99v-530h83l-1 -72h-86v-184h-74z" />
    <glyph glyph-name="Euro" unicode="&#x20ac;" horiz-adv-x="1334" 
d="M810 -22q253 0 463 137l-35 75q-189 -125 -428 -125q-229 0 -381.5 127.5t-194.5 349.5h579l7 72h-596q-4 42 -4 87q0 71 9 137h620l7 78h-613q51 224 204 351.5t377 127.5q220 0 375 -121l44 68q-163 139 -419 139q-181 0 -325 -68t-238 -195t-130 -302h-189l-5 -78h181
q-8 -66 -8 -137q0 -44 4 -87h-171l-5 -72h185q44 -262 226.5 -413t460.5 -151z" />
    <glyph glyph-name="uni2113" unicode="&#x2113;" horiz-adv-x="509" 
d="M205 0v1516h98v-1516h-98z" />
    <glyph glyph-name="trademark" unicode="&#x2122;" horiz-adv-x="1869" 
d="M347 731v699h-280v52h642v-52h-291v-699h-71zM825 731v751h108l300 -657l330 657h88v-751h-60v688l-339 -688h-43l-322 694v-694h-62z" />
    <glyph glyph-name="Omega" unicode="&#x2126;" horiz-adv-x="1603" 
d="M144 0l-10 90h391q-179 110 -282.5 274t-103.5 383q0 202 90.5 357t247 237t353.5 82q200 0 353 -89t233 -242t80 -344q0 -380 -390 -658h399l-10 -90h-480l-2 86q371 246 371 639q0 123 -36 231.5t-104.5 192.5t-177 133t-244.5 49q-254 0 -412 -166t-158 -433
q0 -211 97 -372.5t270 -273.5l1 -86h-476z" />
    <glyph glyph-name="estimated" unicode="&#x212e;" horiz-adv-x="1184" 
d="M276 713h642q0 230 -81.5 329t-227.5 99q-64 0 -120 -22.5t-105 -69.5t-78 -133.5t-30 -202.5zM627 114q-220 0 -350.5 138t-130.5 400q0 116 26 209.5t70 155.5t104.5 103.5t126.5 60t138 18.5q413 0 413 -499q0 -25 -5 -45h-743q-1 -108 19 -192t54.5 -137.5
t83.5 -87.5t102.5 -48t116.5 -14q80 0 183.5 32.5t193.5 90.5l27 -52q-203 -133 -429 -133z" />
    <glyph glyph-name="partialdiff" unicode="&#x2202;" horiz-adv-x="1168" 
d="M506 63q87 0 160 38.5t122 99.5t85.5 141.5t55 160t25.5 159.5q-33 109 -118.5 180.5t-209.5 71.5q-113 0 -208.5 -69t-149.5 -184.5t-54 -248.5q0 -159 79.5 -254t212.5 -95zM501 -24q-188 0 -290.5 123t-102.5 315q0 164 64.5 299t176 212t246.5 77q65 0 122.5 -17.5
t95 -40.5t72 -59t51.5 -61t36 -57q0 18 1.5 51t1.5 50q7 284 -98 443t-299 159q-137 0 -253 -86l-8 94q133 81 290 81q225 0 349.5 -171.5t124.5 -515.5q0 -135 -23 -263.5t-71 -243.5t-116 -201.5t-163.5 -137t-206.5 -50.5z" />
    <glyph glyph-name="emptyset" unicode="&#x2205;" horiz-adv-x="1678" 
d="M112 733q0 152 60.5 290.5t159.5 236.5t230.5 155.5t269.5 57.5q129 0 251 -49t221 -138l177 199l37 -29l-181 -202q101 -102 158 -236.5t57 -284.5q0 -152 -60.5 -290.5t-159.5 -236.5t-230.5 -155.5t-269.5 -57.5q-126 0 -245.5 47t-217.5 132l-192 -215l-32 29
l192 216q-105 103 -165 240t-60 291zM398 204q92 -80 204 -123.5t230 -43.5q130 0 253.5 54.5t217 146t150 222t56.5 273.5q0 141 -53.5 266.5t-147.5 222.5zM366 234l909 1020q-92 83 -207 129t-236 46q-130 0 -253.5 -54.5t-217 -146t-150 -222t-56.5 -273.5
q0 -145 56 -274t155 -225z" />
    <glyph glyph-name="Delta" unicode="&#x2206;" horiz-adv-x="1319" 
d="M138 77h1017l-509 1218zM41 0v48l593 1403h31l592 -1403v-48h-1216z" />
    <glyph glyph-name="product" unicode="&#x220f;" horiz-adv-x="1521" 
d="M294 -43v1413h-184v86h1301v-86h-184v-1413h-100v1413h-733v-1413h-100z" />
    <glyph glyph-name="summation" unicode="&#x2211;" horiz-adv-x="1102" 
d="M102 -99v49l512 744l-494 698v60h899v-74h-768l465 -672l-505 -733h850v-72h-959z" />
    <glyph glyph-name="minus" unicode="&#x2212;" horiz-adv-x="1008" 
d="M138 645v92h732v-92h-732z" />
    <glyph glyph-name="uni2215" unicode="&#x2215;" horiz-adv-x="600" 
d="M143 0l427 1456h82l-429 -1456h-80z" />
    <glyph glyph-name="uni2219" unicode="&#x2219;" horiz-adv-x="600" 
d="M256 474v126h122v-126h-122z" />
    <glyph glyph-name="radical" unicode="&#x221a;" horiz-adv-x="1314" 
d="M655 -160l-352 889l-181 -27l-2 65l239 45l338 -928l461 1742h56l-477 -1786h-82z" />
    <glyph glyph-name="infinity" unicode="&#x221e;" horiz-adv-x="1711" 
d="M1250 334q111 0 172.5 77.5t61.5 199.5q0 92 -69.5 158.5t-169.5 66.5q-170 0 -337 -251q98 -132 174.5 -191.5t167.5 -59.5zM447 334q92 0 174 65.5t163 181.5q-81 121 -164 188t-183 67q-107 0 -174 -73.5t-67 -177.5q0 -100 72 -175.5t179 -75.5zM455 239
q-156 0 -257.5 106.5t-101.5 256.5q0 133 106 227t248 94q114 0 211 -65t190 -185q94 120 187.5 185t208.5 65q160 0 257 -93.5t97 -242.5q0 -151 -105 -249.5t-251 -98.5q-106 0 -200 62t-196 189q-94 -119 -189 -185t-205 -66z" />
    <glyph glyph-name="integral" unicode="&#x222b;" horiz-adv-x="655" 
d="M107 -282q-30 0 -57.5 4t-39.5 8l-12 5v88q36 -14 81 -14q64 0 105.5 15.5t63.5 50t30 77.5t8 110v1168q0 69 6.5 121t24 100.5t47 80t78 50t114.5 18.5q16 0 30 -1t23 -2.5t16.5 -3.5t11.5 -4t6.5 -3.5t3.5 -2.5l1 -1v-82q-17 10 -72 10q-51 0 -86 -11.5t-55.5 -30
t-31.5 -52.5t-14.5 -69.5t-3.5 -90.5v-1167q0 -85 -12.5 -148.5t-42.5 -116t-86 -79.5t-137 -27z" />
    <glyph glyph-name="approxequal" unicode="&#x2248;" horiz-adv-x="1351" 
d="M237 285l-47 9q23 107 93.5 166.5t178.5 59.5q60 0 117 -22t127 -63q140 -90 231 -90q77 0 126.5 42t80.5 125l46 -12q-19 -104 -86 -164.5t-174 -60.5q-56 0 -113 22t-151 75q-64 40 -111.5 58t-99.5 18q-163 0 -218 -163zM234 673l-47 15q25 105 96 164t176 59
q56 0 112.5 -21.5t133.5 -65.5q76 -46 128 -65.5t102 -19.5q79 0 128.5 41.5t77.5 125.5l47 -16q-19 -103 -86 -164t-175 -61q-53 0 -112.5 24t-152.5 77q-126 73 -208 73q-175 0 -220 -166z" />
    <glyph glyph-name="notequal" unicode="&#x2260;" horiz-adv-x="1326" 
d="M427 53l-67 9l141 280h-331v73h365l185 352h-550v73h581l144 284l67 -10l-136 -274h330v-73h-365l-184 -352h549v-73h-582z" />
    <glyph glyph-name="lessequal" unicode="&#x2264;" horiz-adv-x="1349" 
d="M257 0v77h849v-77h-849zM1081 153l-778 457v71l784 382v-102l-680 -325l674 -382v-101z" />
    <glyph glyph-name="greaterequal" unicode="&#x2265;" horiz-adv-x="1349" 
d="M310 0v77h849v-77h-849zM325 153v103l679 324l-674 382v101l779 -457v-71z" />
    <glyph glyph-name="lozenge" unicode="&#x25ca;" horiz-adv-x="1248" 
d="M632 8l425 712l-412 724l-425 -720zM601 -49l-458 769l468 773h64l461 -772l-471 -770h-64z" />
    <glyph glyph-name="uniFB00" unicode="&#xfb00;" horiz-adv-x="1205" 
d="M940 961v-961h-98v961h-504v-961h-98v961h-174v65h174v146q0 89 13 145.5t49 100t103.5 62.5t173.5 19h41l7 -83q-80 0 -134 -9.5t-85 -24.5t-46.5 -43.5t-19.5 -56t-4 -73.5v-183h504v146q0 89 13 145.5t49 100t103.5 62.5t173.5 19h41l7 -83q-80 0 -134 -9.5t-85 -24.5
t-46.5 -43.5t-19.5 -56t-4 -73.5v-183h263v-65h-263z" />
    <glyph glyph-name="uniFB01" unicode="&#xfb01;" horiz-adv-x="1174" 
d="M242 0h112v954h499v-954h98v1026h-597v172q0 40 2.5 64t11.5 51t28 42t50 28t78.5 18.5t113.5 5.5l-6 90h-42q-109 0 -178 -19t-106.5 -63.5t-50.5 -102t-13 -148.5v-138h-175v-72h175v-954zM853 1346v110h98v-110h-98z" />
    <glyph glyph-name="uniFB02" unicode="&#xfb02;" horiz-adv-x="1229" 
d="M276 0v961h-209v65h209v129q0 91 21.5 148t79.5 95.5t155.5 54t252.5 15.5h242v-1468h-113v1380h-161q-98 0 -161 -7t-105 -20.5t-63 -41t-28.5 -61.5t-7.5 -89v-135h260v-65h-260v-961h-112z" />
    <glyph glyph-name="uniFB03" unicode="&#xfb03;" horiz-adv-x="1696" 
d="M1494 1346h-98v110h98v-110zM1494 0h-98v961h-456v-961h-98v961h-504v-961h-98v961h-174v65h174v146q0 89 13 145.5t49 100t103.5 62.5t173.5 19h41l7 -83q-80 0 -134 -9.5t-85 -24.5t-46.5 -43.5t-19.5 -56t-4 -73.5v-183h504v146q0 89 13 145.5t49 100t103.5 62.5
t173.5 19h41l7 -83q-80 0 -134 -9.5t-85 -24.5t-46.5 -43.5t-19.5 -56t-4 -73.5v-183h554v-1026z" />
    <glyph glyph-name="uniFB04" unicode="&#xfb04;" horiz-adv-x="1714" 
d="M240 0v961h-174v65h174v146q0 89 13 145.5t49 100t103.5 62.5t173.5 19h41l7 -83q-80 0 -134 -9.5t-85 -24.5t-46.5 -43.5t-19.5 -56t-4 -73.5v-183h263v-65h-263v-961h-98zM781 0v961h-209v65h209v129q0 91 21.5 148t79.5 95.5t155.5 54t252.5 15.5h242v-1468h-113v1380
h-161q-98 0 -161 -7t-105 -20.5t-63 -41t-28.5 -61.5t-7.5 -89v-135h260v-65h-260v-961h-112z" />
    <glyph glyph-name="NULL" horiz-adv-x="600" 
 />
    <glyph glyph-name="caron.alt" horiz-adv-x="600" 
d="M327 1082l103 433h117l-150 -433h-70z" />
    <glyph glyph-name="fj" horiz-adv-x="1107" 
d="M923 23q0 -76 -7.5 -136.5t-28.5 -118.5t-54.5 -96.5t-88 -62t-127.5 -23.5q-37 0 -78 6l-2 77q38 -5 69 -5q64 0 106.5 20.5t67.5 65t35 106.5t10 154v1016h98v-1003zM811 1238v126h122v-126h-122zM242 0v961h-174v65h174v158q0 89 13 144t49.5 96t103 58t173.5 17h35
v-83q-67 0 -113.5 -4t-77.5 -16.5t-47.5 -25t-25 -40.5t-10.5 -52t-2 -69v-183h263v-65h-263v-961h-98z" />
    <glyph glyph-name="foundryicon" horiz-adv-x="1347" 
d="M485 405h106v147l170 -147h106v267h-106v-149l-170 149h-106v-267zM280 2l143 459l-389 294h485l150 460l159 -460h485l-391 -294l144 -459l-397 276z" />
    <glyph glyph-name="i.loclTRK" horiz-adv-x="473" 
d="M187 0l-2 1026h101l2 -1026h-101zM176 1238v126h122v-126h-122z" />
    <glyph glyph-name="middot" horiz-adv-x="600" 
 />
    <glyph glyph-name="slashbar" horiz-adv-x="600" 
 />
    <glyph glyph-name="mu" horiz-adv-x="1285" 
d="M296 -332l-98 4v1354h98v-618q0 -173 72.5 -262.5t215.5 -89.5q73 0 138 22t109.5 56t77 75t48 78.5t15.5 67.5v671h98v-801q0 -137 5 -225h-89l-9 191q-137 -217 -393 -217q-192 0 -288 110v-416z" />
    </font>
</defs>
</svg>
