<?xml version="1.0" standalone="no"?>
<!DOCTYPE svg PUBLIC "-//W3C//DTD SVG 1.1//EN" "http://www.w3.org/Graphics/SVG/1.1/DTD/svg11.dtd" >
<svg xmlns="http://www.w3.org/2000/svg" xmlns:xlink="http://www.w3.org/1999/xlink" version="1.1">
<metadata>
Created by FontForge 20170731 at Wed Feb 26 18:22:10 2014
 By Aleksey,,,
Digitized data Copyright (c) 2011-2014, vernon adams.
</metadata>
<defs>
<font id="Muli-ExtraLightItalic" horiz-adv-x="1572" >
  <font-face 
    font-family="Muli"
    font-weight="200"
    font-style="italic"
    font-stretch="normal"
    units-per-em="2048"
    panose-1="2 0 3 3 0 0 0 0 0 0"
    ascent="1638"
    descent="-410"
    x-height="1026"
    cap-height="1456"
    bbox="-167 -557 4030 2316"
    underline-thickness="0"
    underline-position="0"
    slope="-7"
    unicode-range="U+000D-FB04"
  />
<missing-glyph horiz-adv-x="748" 
d="M68 0v1365h544v-1365h-544zM136 68h408v1229h-408v-1229z" />
    <glyph glyph-name=".notdef" horiz-adv-x="748" 
d="M68 0v1365h544v-1365h-544zM136 68h408v1229h-408v-1229z" />
    <glyph glyph-name=".null" horiz-adv-x="0" 
 />
    <glyph glyph-name="uni000D" unicode="&#xd;" horiz-adv-x="0" 
 />
    <glyph glyph-name="space" unicode=" " horiz-adv-x="586" 
 />
    <glyph glyph-name="exclam" unicode="!" horiz-adv-x="442" 
d="M151 363l102 1093h120l-166 -1093h-56zM54 0l19 160h157l-19 -160h-157z" />
    <glyph glyph-name="quotedbl" unicode="&#x22;" horiz-adv-x="911" 
d="M252 929l34 527h110l-80 -527h-64zM553 929l34 527h110l-80 -527h-64z" />
    <glyph glyph-name="numbersign" unicode="#" horiz-adv-x="1397" 
d="M464 603h365l105 335h-363zM234 109l135 436h-263l12 58h270l103 335h-256l15 59h257l124 393h80l-120 -393h361l124 393h73l-124 -393h260l-19 -59h-257l-105 -335h256l-19 -58h-252l-138 -436h-73l133 436h-363l-141 -436h-73z" />
    <glyph glyph-name="dollar" unicode="$" horiz-adv-x="1143" 
d="M630 689l-76 -622q161 14 254 114.5t93 262.5q0 97 -59.5 150t-211.5 95zM642 787l10 -3q198 -53 275 -125.5t77 -193.5q0 -212 -123 -341t-338 -143l-21 -174h-75l21 172q-54 2 -102.5 10t-86.5 21.5t-67.5 27t-55 32t-39.5 29.5t-30 26.5t-17 16.5l60 74
q60 -59 109 -87q103 -59 240 -64l78 644l-84 23q-155 42 -228.5 113t-73.5 201q0 202 129 316t352 119l17 141h75l-17 -143q41 -3 78 -9t64.5 -14t53 -19t42 -20.5t33 -21t24 -18.5t16.5 -16l10 -10l-56 -74q-88 102 -276 116zM569 806l72 589q-174 -5 -268.5 -95
t-94.5 -254q0 -92 50.5 -140.5t179.5 -83.5z" />
    <glyph glyph-name="percent" unicode="%" horiz-adv-x="2123" 
d="M1542 0q-141 0 -213 86t-72 253q0 57 7 114q29 228 128 346.5t262 118.5q133 0 202 -86.5t69 -253.5q0 -65 -8 -125q-27 -222 -122.5 -337.5t-252.5 -115.5zM1551 76q112 0 182 96.5t92 281.5q8 69 8 119q0 269 -188 269q-118 0 -191.5 -98.5t-97.5 -289.5
q-7 -53 -7 -107q0 -134 51 -202.5t151 -68.5zM666 0l717 1456h82l-719 -1456h-80zM482 538q-141 0 -213 86t-72 253q0 57 7 114q29 228 128 346.5t262 118.5q133 0 202 -86.5t69 -253.5q0 -65 -8 -125q-27 -222 -122.5 -337.5t-252.5 -115.5zM491 614q112 0 182 96.5
t92 281.5q8 69 8 119q0 269 -188 269q-118 0 -191.5 -98.5t-97.5 -289.5q-7 -53 -7 -107q0 -134 51 -202.5t151 -68.5z" />
    <glyph glyph-name="ampersand" unicode="&#x26;" horiz-adv-x="1470" 
d="M711 1400q-106 0 -175 -63t-69 -177q0 -156 121 -290q121 64 212.5 152t103.5 182q2 20 2 28q0 83 -58 125.5t-137 42.5zM542 75q136 0 232 46.5t193 142.5l-409 506q-63 -32 -104 -56t-90.5 -62.5t-78.5 -78.5t-49 -97.5t-20 -124.5q0 -124 88 -200t238 -76zM380 1159
q0 154 97 239.5t241 85.5q116 0 198 -60.5t82 -172.5q0 -24 -2 -37q-14 -115 -121 -221t-249 -179l397 -490q77 90 142.5 245.5t80.5 280.5l92 -1q-32 -163 -98.5 -324t-159.5 -270q29 -35 115 -98.5t169 -91.5l-81 -64q-68 22 -150 87.5t-123 109.5q-1 0 0 -1
q-99 -105 -211.5 -160t-260.5 -55q-193 0 -311 94t-118 261q0 96 28.5 170.5t97.5 136.5t114 91.5t147 86.5q11 7 17 10q-133 170 -133 327z" />
    <glyph glyph-name="quotesingle" unicode="'" horiz-adv-x="544" 
d="M205 929l34 527h110l-80 -527h-64z" />
    <glyph glyph-name="parenleft" unicode="(" horiz-adv-x="564" 
d="M316 -176q-164 315 -164 659q0 95 11 177q29 241 118 446t245 410h94q-151 -204 -240.5 -410.5t-117.5 -438.5q-11 -93 -11 -177q0 -362 163 -666h-98z" />
    <glyph glyph-name="parenright" unicode=")" horiz-adv-x="564" 
d="M-57 -196q151 203 240.5 410t117.5 439q11 93 11 177q0 362 -163 666h98q165 -315 165 -661q0 -81 -11 -175q-29 -241 -118 -446t-245 -410h-95z" />
    <glyph glyph-name="asterisk" unicode="*" horiz-adv-x="1190" 
d="M735 799l-119 284l-177 -269l-74 38l194 247l-252 66l26 95l254 -114l9 314h84l-31 -314l234 114l38 -95l-249 -66l151 -265z" />
    <glyph glyph-name="plus" unicode="+" horiz-adv-x="1116" 
d="M454 137l55 444h-391l11 91h390l50 409h89l-50 -409h395l-11 -91h-392l-55 -444h-91z" />
    <glyph glyph-name="comma" unicode="," horiz-adv-x="410" 
d="M72 -256l155 420h118l-203 -420h-70z" />
    <glyph glyph-name="hyphen" unicode="-" horiz-adv-x="597" 
d="M63 527l8 73h459l-8 -73h-459z" />
    <glyph glyph-name="period" unicode="." horiz-adv-x="550" 
d="M194 0l20 167h162l-20 -167h-162z" />
    <glyph glyph-name="slash" unicode="/" horiz-adv-x="732" 
d="M54 0l605 1456h82l-607 -1456h-80z" />
    <glyph glyph-name="zero" unicode="0" horiz-adv-x="1177" 
d="M506 -23q-196 0 -296.5 135t-100.5 398q0 94 14 212q46 373 190 567t377 194q186 0 281.5 -135.5t95.5 -398.5q0 -104 -15 -227q-45 -366 -184 -555.5t-362 -189.5zM516 63q169 0 277.5 168t148.5 491q15 124 15 227q0 221 -70 334.5t-207 113.5q-179 0 -293 -172
t-154 -503q-14 -118 -14 -209q0 -222 75 -336t222 -114z" />
    <glyph glyph-name="one" unicode="1" horiz-adv-x="1177" 
d="M179 0l10 87h293l152 1233q-50 -29 -104 -53t-124.5 -52.5t-94.5 -38.5l12 96q79 28 197 84.5t189 99.5h49l-168 -1369h270l-10 -87h-671z" />
    <glyph glyph-name="two" unicode="2" horiz-adv-x="1212" 
d="M127 0l11 90l560 559q145 145 202.5 229.5t70.5 189.5q4 28 4 61q0 121 -72.5 193t-236.5 72q-188 0 -375 -100l-28 79q199 110 413 110q88 0 158 -19t115 -50.5t74.5 -75.5t42 -92t12.5 -102q0 -20 -4 -60q-8 -69 -32 -129t-70.5 -123t-92.5 -113t-126 -129l-505 -504
h699l-11 -86h-809z" />
    <glyph glyph-name="three" unicode="3" horiz-adv-x="1177" 
d="M456 63q191 0 309.5 103.5t118.5 281.5q0 128 -82 200t-244 76l-106 2l9 94h109q167 0 260.5 79t111.5 219q2 13 2 37q0 111 -82.5 176.5t-225.5 65.5q-114 0 -224.5 -44t-181.5 -129l-50 59q69 92 196 146t270 54q185 0 291 -85t106 -231q0 -23 -3 -49
q-14 -118 -102.5 -219t-222.5 -127q129 -21 203.5 -112t74.5 -217q0 -25 -3 -51q-23 -190 -170.5 -302.5t-373.5 -112.5q-95 0 -186 21.5t-148 57.5l31 81q136 -74 313 -74z" />
    <glyph glyph-name="four" unicode="4" horiz-adv-x="1177" 
d="M191 485h544l111 902q-217 -302 -655 -902zM678 0l48 391h-666l10 84l719 981h181l-119 -971h202l-11 -94h-206l-48 -391h-110z" />
    <glyph glyph-name="five" unicode="5" horiz-adv-x="1177" 
d="M1027 515q0 -129 -48.5 -233.5t-129 -169.5t-179 -99.5t-204.5 -34.5q-224 0 -389 131l46 78q170 -127 363 -127q107 0 196 41t152.5 130.5t78.5 217.5q4 40 4 58q0 139 -85.5 219.5t-233.5 80.5q-98 0 -186 -41t-139 -110l-80 17l116 783h733l-11 -89h-636l-101 -596
q55 55 140.5 88.5t174.5 33.5q194 0 306 -101.5t112 -276.5z" />
    <glyph glyph-name="six" unicode="6" horiz-adv-x="1177" 
d="M534 63q179 0 288 130.5t109 331.5q0 137 -70 219t-214 82q-90 0 -170.5 -29t-132 -72.5t-83 -89t-36.5 -83.5q-7 -52 -7 -111q0 -79 16 -144t51 -119t98.5 -84.5t150.5 -30.5zM524 -23q-213 0 -315 138t-102 386q0 88 12 187q20 167 69.5 308.5t126.5 251.5t190 172.5
t250 62.5q95 0 170.5 -29.5t124.5 -70.5l-52 -76q-40 36 -107 63t-146 27q-76 0 -142 -24t-113.5 -62.5t-87.5 -93.5t-65.5 -109.5t-46 -118.5t-31 -112.5t-18.5 -99.5q-1 -7 -4.5 -32t-5.5 -36q44 71 161 137t265 66q169 0 276.5 -105t107.5 -283q0 -30 -5 -72
q-25 -206 -165.5 -340.5t-346.5 -134.5z" />
    <glyph glyph-name="seven" unicode="7" horiz-adv-x="1177" 
d="M303 0l712 1356h-748l12 100h864l-9 -80l-710 -1376h-121z" />
    <glyph glyph-name="eight" unicode="8" horiz-adv-x="1178" 
d="M672 1400q-67 0 -131 -21.5t-115.5 -60.5t-83 -101t-31.5 -136q0 -210 289 -259q334 51 363 294q2 13 2 39q0 116 -83 180.5t-210 64.5zM580 697q-392 -76 -392 -366q0 -124 88 -192t231 -68q170 0 282 93.5t112 256.5q0 118 -82 182t-239 94zM1008 432
q0 -107 -42.5 -195t-115 -144t-164 -86t-192.5 -30q-108 0 -200.5 37.5t-152.5 116t-60 183.5q0 23 3 47q18 153 118.5 256.5t276.5 144.5q-131 31 -199.5 111.5t-68.5 199.5q0 96 39.5 175t106 129.5t150.5 78t176 27.5q101 0 187 -35.5t141 -107.5t55 -166q0 -21 -3 -42
q-17 -137 -109 -232.5t-247 -134.5q301 -76 301 -333z" />
    <glyph glyph-name="nine" unicode="9" horiz-adv-x="1182" 
d="M660 1397q-179 0 -288 -130.5t-109 -331.5q0 -137 70 -219t214 -82q90 0 170.5 29t132 72.5t83 89t36.5 83.5q7 52 7 111q0 79 -16 144t-51 119t-98.5 84.5t-150.5 30.5zM439 -23q-95 0 -170.5 29.5t-124.5 70.5l52 76q40 -36 107 -63t146 -27q76 0 142 24t113.5 62.5
t87.5 93.5t65.5 109.5t46 118.5t31 112.5t18.5 99.5q3 15 6 38.5t4 29.5q-44 -71 -161 -137t-265 -66q-169 0 -276.5 105t-107.5 283q0 30 5 72q25 206 165.5 340.5t346.5 134.5q213 0 315 -138t102 -386q0 -88 -12 -187q-20 -167 -69.5 -308.5t-126.5 -251.5t-190 -172.5
t-250 -62.5z" />
    <glyph glyph-name="colon" unicode=":" horiz-adv-x="476" 
d="M203 857l20 167h154l-20 -167h-154zM99 7l20 168h154l-20 -168h-154z" />
    <glyph glyph-name="semicolon" unicode=";" horiz-adv-x="550" 
d="M199 833l20 168h191l-20 -168h-191zM49 -256l154 420h119l-202 -420h-71z" />
    <glyph glyph-name="less" unicode="&#x3c;" horiz-adv-x="1044" 
d="M768 108l-722 457l9 71l831 382l-13 -102l-720 -325l628 -382z" />
    <glyph glyph-name="equal" unicode="=" horiz-adv-x="1040" 
d="M127 705l12 93h820l-12 -93h-820zM83 333l12 92h818l-12 -92h-818z" />
    <glyph glyph-name="greater" unicode="&#x3e;" horiz-adv-x="1042" 
d="M158 105l12 99l715 338l-622 371l12 99l723 -439l-8 -65z" />
    <glyph glyph-name="question" unicode="?" horiz-adv-x="1113" 
d="M261 -20l21 167h163l-21 -167h-163zM342 338l18 148q7 54 44 109t88 100t110.5 98t111 101.5t89.5 111t46 125.5q2 13 2 38q0 109 -78.5 162t-206.5 53q-142 0 -282 -81l13 105q143 65 280 65h18q176 0 268.5 -69.5t92.5 -207.5q0 -71 -27 -138t-71 -120.5t-97 -103.5
t-107.5 -94.5t-100 -86t-77 -86.5t-36.5 -87l-18 -142h-80z" />
    <glyph glyph-name="at" unicode="@" horiz-adv-x="1707" 
d="M1129 878q0 99 -48 151t-138 52q-152 0 -259.5 -130t-133.5 -337q-3 -28 -3 -54q0 -95 55 -155t125 -60q140 0 246.5 120.5t146.5 323.5q9 48 9 89zM954 1149q106 0 166 -55t60 -151q0 -3 -0.5 -10t-0.5 -10l69 185h73l-204 -552q-39 -108 -43 -141q-1 -9 -1 -18
q0 -31 22.5 -49t62.5 -18q138 0 239 131.5t127 344.5q6 46 6 89q0 232 -150 371t-407 139q-206 0 -374.5 -93t-272.5 -257t-130 -374q-7 -53 -7 -110q0 -267 166.5 -419t457.5 -152q173 0 323.5 56t227.5 146l52 -36q-73 -107 -238.5 -169.5t-372.5 -62.5q-330 0 -517.5 166
t-187.5 463q0 61 7 118q29 234 146 413t306 278t422 99q293 0 458 -149.5t165 -410.5q0 -42 -7 -105q-15 -123 -59 -224.5t-105.5 -167.5t-135.5 -102t-151 -36q-57 0 -92.5 30t-35.5 87q0 33 15 77q-46 -86 -131.5 -138t-186.5 -52q-117 0 -183 72t-66 196q0 33 4 61
q30 240 162 390t322 150z" />
    <glyph glyph-name="A" unicode="A" horiz-adv-x="1329" 
d="M328 473h619q-66 299 -202 893q-278 -596 -417 -893zM-21 0l708 1456h134l351 -1456h-112l-94 399h-674l-192 -399h-121z" />
    <glyph glyph-name="B" unicode="B" horiz-adv-x="1352" 
d="M342 794h349q193 0 285.5 75t111.5 230q2 13 2 38q0 233 -374 233h-303zM645 86q209 0 319.5 90.5t110.5 269.5q0 132 -92.5 197t-301.5 65h-351l-77 -622h392zM135 0l178 1456h413q473 0 473 -305q0 -25 -3 -52q-40 -312 -325 -342q149 -12 231.5 -91.5t82.5 -218.5
q0 -33 -4 -62q-23 -189 -162 -287t-384 -98h-500z" />
    <glyph glyph-name="C" unicode="C" horiz-adv-x="1389" 
d="M718 -22q-288 0 -453.5 162t-165.5 440q0 54 8 121q44 356 263.5 568t545.5 212q255 0 402 -139l-52 -68q-139 121 -360 121q-276 0 -463.5 -188.5t-225.5 -505.5q-7 -53 -7 -110q0 -243 138 -384.5t380 -141.5q240 0 444 125l26 -75q-228 -137 -480 -137z" />
    <glyph glyph-name="D" unicode="D" horiz-adv-x="1523" 
d="M135 0l178 1456h374q349 0 528 -153.5t179 -451.5q0 -65 -9 -139q-43 -350 -260.5 -531t-593.5 -181h-396zM253 86h288q323 0 510 159.5t224 466.5q8 70 8 126q0 262 -153.5 397t-452.5 135h-266z" />
    <glyph glyph-name="E" unicode="E" horiz-adv-x="1219" 
d="M135 0l178 1456h810l-10 -86h-702l-72 -583h663l-10 -86h-665l-76 -615h734l-10 -86h-840z" />
    <glyph glyph-name="F" unicode="F" horiz-adv-x="1090" 
d="M135 0l178 1456h777l-10 -86h-669l-73 -591h612l-10 -86h-612l-85 -693h-108z" />
    <glyph glyph-name="G" unicode="G" horiz-adv-x="1513" 
d="M741 -21q-302 0 -472 163t-170 445q0 53 8 119q29 234 140 409.5t288 270.5t398 95h32q236 0 418 -147l-55 -77q-191 138 -405 138q-283 0 -475.5 -187.5t-230.5 -501.5q-7 -53 -7 -109q0 -247 143.5 -389.5t399.5 -142.5q112 0 227.5 17.5t195.5 52.5l63 510h-409l10 86
h505l-80 -651q-219 -101 -524 -101z" />
    <glyph glyph-name="H" unicode="H" horiz-adv-x="1558" 
d="M135 0l178 1456h112l-82 -670h894l82 670h104l-178 -1456h-108l86 700h-894l-86 -700h-108z" />
    <glyph glyph-name="I" unicode="I" horiz-adv-x="592" 
d="M153 0l178 1456h108l-178 -1456h-108z" />
    <glyph glyph-name="J" unicode="J" horiz-adv-x="667" 
d="M-16 -312q-26 0 -92 2l12 87q52 -3 95 -3q99 0 150.5 27t82 102t49.5 229l163 1324h108l-163 -1324q-12 -95 -29.5 -165.5t-44 -119.5t-57.5 -80t-75 -48.5t-90 -24t-109 -6.5z" />
    <glyph glyph-name="K" unicode="K" horiz-adv-x="1232" 
d="M135 0l178 1456h108l-83 -682l797 682h132l-814 -698l681 -758h-126l-676 745l-91 -745h-106z" />
    <glyph glyph-name="L" unicode="L" horiz-adv-x="1045" 
d="M135 0l178 1456h108l-168 -1370h681l-10 -86h-789z" />
    <glyph glyph-name="M" unicode="M" horiz-adv-x="1849" 
d="M135 0l178 1456h138l339 -1097l62 -218q107 197 232 417.5t275.5 483t236.5 414.5h118l-178 -1456h-104l157 1279l-72 -145l-652 -1134h-63l-356 1134l-45 186l-162 -1320h-104z" />
    <glyph glyph-name="N" unicode="N" horiz-adv-x="1571" 
d="M135 0l178 1456h106l647 -1121l103 -193l161 1314h106l-178 -1456h-105l-664 1137l-88 166l-160 -1303h-106z" />
    <glyph glyph-name="O" unicode="O" 
d="M696 -21q-278 0 -436.5 165t-158.5 450q0 57 8 129q43 346 251.5 552t519.5 206q274 0 432 -167.5t158 -455.5q0 -64 -9 -135q-41 -339 -249.5 -541.5t-515.5 -202.5zM706 65q186 0 334.5 97.5t233.5 277t85 409.5q0 253 -130 399.5t-359 146.5q-260 0 -437 -182.5
t-214 -489.5q-8 -66 -8 -120q0 -249 132.5 -393.5t362.5 -144.5z" />
    <glyph glyph-name="P" unicode="P" horiz-adv-x="1219" 
d="M339 787h323q215 0 310.5 68t114.5 224q4 28 4 59q0 121 -76.5 177t-240.5 56q-26 0 -40 -1h-323zM135 0l178 1456h431q234 0 342.5 -72.5t108.5 -231.5q0 -30 -5 -73q-24 -199 -152 -288.5t-386 -89.5h-323l-86 -701h-108z" />
    <glyph glyph-name="Q" unicode="Q" 
d="M706 65q186 0 334.5 97.5t233.5 277t85 409.5q0 253 -130 399.5t-359 146.5q-260 0 -437 -182.5t-214 -489.5q-8 -66 -8 -120q0 -249 132.5 -393.5t362.5 -144.5zM696 -21q-278 0 -436.5 165t-158.5 450q0 57 8 129q43 346 251.5 552t519.5 206q274 0 432 -167.5
t158 -455.5q0 -64 -9 -135q-34 -279 -183.5 -468.5t-379.5 -249.5q34 -80 90.5 -168t95.5 -135l40 -48l-69 -59q-19 22 -49.5 60.5t-96 142.5t-97.5 189q-61 -8 -116 -8z" />
    <glyph glyph-name="R" unicode="R" horiz-adv-x="1373" 
d="M339 758h354q179 0 273.5 80t114.5 239q4 28 4 59q0 121 -74.5 178t-233.5 57q-26 0 -39 -1h-324zM1189 1150q0 -184 -92 -303t-256 -133q31 -5 54.5 -11.5t43 -17.5t33 -20.5t26 -29.5t20 -35t16.5 -46.5t15 -54.5t16 -68l98 -431h-101l-94 408q-14 59 -23.5 93.5
t-24 68.5t-30.5 50t-42 30t-58 18t-79 4h-386l-82 -672h-108l178 1456h435q229 0 335 -73.5t106 -232.5z" />
    <glyph glyph-name="S" unicode="S" horiz-adv-x="1130" 
d="M1004 465q0 -225 -136.5 -355.5t-373.5 -130.5q-58 0 -109.5 7t-92.5 21t-72 27t-58.5 32.5t-41.5 30.5t-31.5 28t-18.5 17l60 74q60 -58 108 -86q112 -65 266 -65q182 0 289.5 102.5t107.5 276.5q0 98 -62 152t-222 97l-144 39q-155 42 -228.5 113t-73.5 201
q0 207 134.5 321t365.5 114q55 0 104 -6t85.5 -17t64.5 -22t50.5 -26.5t34.5 -24t25 -21.5l13 -13l-56 -74q-14 16 -35 32.5t-59.5 38t-100.5 34.5t-136 13q-183 0 -283 -90.5t-100 -258.5q0 -92 50.5 -140.5t179.5 -83.5l144 -38q198 -53 275 -125.5t77 -193.5z" />
    <glyph glyph-name="T" unicode="T" horiz-adv-x="1097" 
d="M405 0l168 1370h-486l10 86h1080l-10 -86h-486l-168 -1370h-108z" />
    <glyph glyph-name="U" unicode="U" horiz-adv-x="1480" 
d="M641 -21q-245 0 -371 110t-126 323q0 39 7 102l116 942h108l-117 -950q-5 -38 -5 -85q0 -176 101 -266t298 -90q220 0 348 112t154 329l117 950h108l-116 -942q-35 -263 -193 -399t-429 -136z" />
    <glyph glyph-name="V" unicode="V" horiz-adv-x="1381" 
d="M539 0l-356 1456h111q311 -1322 321 -1366q94 207 199.5 429t245.5 512.5t204 424.5h112l-707 -1456h-130z" />
    <glyph glyph-name="W" unicode="W" horiz-adv-x="2037" 
d="M425 0l-198 1456h114l159 -1242l4 -111l41 111l516 1242h109l212 -1242l13 -97q93 252 260 719t223 620h110l-540 -1456h-129l-217 1320l-549 -1320h-128z" />
    <glyph glyph-name="X" unicode="X" horiz-adv-x="1317" 
d="M31 0l580 740l-390 716h119l339 -642l476 642h114l-538 -712l377 -744h-110l-332 664l-522 -664h-113z" />
    <glyph glyph-name="Y" unicode="Y" horiz-adv-x="1235" 
d="M471 0l72 591l-374 865h109l332 -773l529 773h105l-592 -862l-73 -594h-108z" />
    <glyph glyph-name="Z" unicode="Z" horiz-adv-x="1182" 
d="M45 0l7 61l967 1309h-770l10 86h900l-7 -57l-970 -1313h805l-10 -86h-932z" />
    <glyph glyph-name="bracketleft" unicode="[" horiz-adv-x="715" 
d="M105 -322l214 1745h396l-9 -74h-299l-196 -1597h300l-9 -74h-397z" />
    <glyph glyph-name="backslash" unicode="\" horiz-adv-x="791" 
d="M489 66l-266 1390h96l266 -1390h-96z" />
    <glyph glyph-name="bracketright" unicode="]" horiz-adv-x="715" 
d="M67 -322l9 74h304l196 1597h-306l9 74h402l-214 -1745h-400z" />
    <glyph glyph-name="asciicircum" unicode="^" horiz-adv-x="1721" 
d="M336 604l543 852h57l345 -852h-83l-302 758l-479 -758h-81z" />
    <glyph glyph-name="underscore" unicode="_" horiz-adv-x="847" 
d="M2 -286l10 80h833l-10 -80h-833z" />
    <glyph glyph-name="grave" unicode="`" horiz-adv-x="581" 
d="M428 1174l-284 282h135l203 -282h-54z" />
    <glyph glyph-name="a" unicode="a" horiz-adv-x="1253" 
d="M637 970q-194 0 -320 -148.5t-126 -385.5q0 -174 89 -274.5t245 -100.5q173 0 284.5 124.5t138.5 338.5q5 38 5 85q0 164 -88.5 262.5t-227.5 98.5zM91 425q0 281 156.5 454t399.5 173q128 0 217 -62.5t121 -164.5l25 201h98l-126 -1026h-98l26 215q-61 -108 -163.5 -172
t-235.5 -64q-197 0 -308.5 119.5t-111.5 326.5z" />
    <glyph glyph-name="b" unicode="b" horiz-adv-x="1259" 
d="M723 970q-201 0 -331.5 -147.5t-130.5 -385.5q0 -174 93.5 -275t257.5 -101q191 0 309.5 153.5t118.5 398.5q0 167 -82 262t-235 95zM1138 617q0 -283 -152.5 -460.5t-383.5 -177.5q-141 0 -242 71t-129 189l-35 -239h-99l7 44q7 44 17 110.5t16 113.5l153 1248h98
l-88 -717q61 115 179 184t254 69q189 0 297 -116.5t108 -318.5z" />
    <glyph glyph-name="c" unicode="c" horiz-adv-x="1022" 
d="M546 -21q-213 0 -335 117.5t-122 320.5q0 49 5 85q31 251 192.5 400.5t401.5 149.5q89 0 170.5 -27t128.5 -73l-42 -72q-92 90 -267 90q-194 0 -326 -127t-158 -341q-5 -43 -5 -74q0 -169 98 -268t269 -99q183 0 331 106l26 -67q-63 -55 -162.5 -88t-204.5 -33z" />
    <glyph glyph-name="d" unicode="d" horiz-adv-x="1256" 
d="M587 970q-192 0 -309.5 -151t-117.5 -394q0 -170 82 -267t234 -97q200 0 331.5 150t131.5 390q0 171 -94 270t-258 99zM62 421q0 281 151.5 456t383.5 175q136 0 237 -69t134 -184l88 717h98l-153 -1248q-6 -47 -12.5 -114t-10 -109.5t-3.5 -44.5h-99l25 239
q-58 -119 -176 -189.5t-259 -70.5q-189 0 -296.5 118.5t-107.5 323.5z" />
    <glyph glyph-name="e" unicode="e" horiz-adv-x="1133" 
d="M210 578h761q1 14 1 40q0 162 -87 257t-237 95q-164 0 -283 -106.5t-155 -285.5zM550 -21q-214 0 -337 119.5t-123 324.5q0 49 5 85q31 248 184 396t379 148q186 0 292 -108.5t106 -295.5q0 -35 -5 -83l-7 -58h-849q-6 -42 -6 -81q0 -169 99 -267t272 -98q95 0 190 31
t170 85l28 -69q-79 -59 -186.5 -94t-211.5 -35z" />
    <glyph glyph-name="f" unicode="f" horiz-adv-x="604" 
d="M150 0l118 961h-174l8 65h174l19 158q11 89 30.5 144t61.5 96t110.5 58t175.5 17h35l-10 -83q-51 0 -89.5 -2t-68.5 -9t-50.5 -14t-36 -21.5t-24.5 -27t-15.5 -37t-10 -43.5t-7.5 -53l-22 -183h263l-8 -65h-263l-118 -961h-98z" />
    <glyph glyph-name="g" unicode="g" horiz-adv-x="1268" 
d="M662 970q-193 0 -319.5 -151t-126.5 -392q0 -168 85 -264.5t234 -96.5q202 0 332 147t130 386q0 172 -89 271.5t-246 99.5zM116 418q0 187 72.5 332.5t199 223.5t284.5 78q132 0 227.5 -65t129.5 -170l36 209h95l-31 -189l-88 -723q-18 -143 -70 -251.5t-130 -174.5
t-172.5 -98.5t-204.5 -32.5q-187 0 -341 66l23 86q161 -68 329 -68q190 0 313.5 113.5t154.5 359.5l15 122q-61 -121 -177 -186.5t-256 -65.5q-191 0 -300 116.5t-109 317.5z" />
    <glyph glyph-name="h" unicode="h" horiz-adv-x="1255" 
d="M103 0l186 1516h98l-85 -689q70 102 181 163.5t253 61.5q60 0 112.5 -13.5t102.5 -44.5t79.5 -93t29.5 -149q0 -37 -4 -70l-84 -682h-98l81 659q6 45 6 84q0 114 -55.5 170.5t-179.5 56.5q-105 0 -205.5 -48.5t-166 -128t-76.5 -165.5l-77 -628h-98z" />
    <glyph glyph-name="i" unicode="i" horiz-adv-x="526" 
d="M317 1346l13 110h98l-13 -110h-98zM152 0l126 1026h98l-126 -1026h-98z" />
    <glyph glyph-name="j" unicode="j" horiz-adv-x="503" 
d="M315 1346l14 110h98l-14 -110h-98zM-167 -438l11 76q29 -4 62 -4q130 0 187.5 88.5t81.5 287.5l124 1016h98l-127 -1026q-9 -76 -23 -135.5t-41 -119.5t-65 -99.5t-97 -64.5t-134 -25q-36 0 -77 6z" />
    <glyph glyph-name="k" unicode="k" horiz-adv-x="1045" 
d="M103 0l186 1516h98l-119 -967l607 477h129l-617 -483l533 -543h-128l-525 535l-66 -535h-98z" />
    <glyph glyph-name="l" unicode="l" horiz-adv-x="509" 
d="M112 0l186 1516h98l-186 -1516h-98z" />
    <glyph glyph-name="m" unicode="m" horiz-adv-x="1946" 
d="M139 0l108 880l12 146h89l-15 -206q136 232 413 232q133 0 208 -66.5t89 -196.5q69 131 183.5 197t246.5 66q149 0 225 -84t76 -246q0 -46 -6 -100l-77 -622h-98l77 622q6 48 6 91q0 257 -213 257q-158 0 -264.5 -88.5t-157.5 -259.5l-77 -622h-98l77 622q6 48 6 91
q0 257 -213 257q-147 0 -253 -74.5t-162 -217.5l-84 -678h-98z" />
    <glyph glyph-name="n" unicode="n" horiz-adv-x="1257" 
d="M137 0l108 880l12 146h89l-15 -206q66 112 180.5 172t252.5 60q321 0 321 -331q0 -47 -6 -99l-77 -622h-98l77 622q6 48 6 89q0 259 -233 259q-150 0 -265 -75.5t-170 -216.5l-84 -678h-98z" />
    <glyph glyph-name="o" unicode="o" horiz-adv-x="1230" 
d="M1139 601q0 -186 -77 -328.5t-210.5 -218t-302.5 -75.5q-214 0 -336.5 119.5t-122.5 325.5q0 48 5 86q31 248 190 395t396 147q214 0 336 -121t122 -330zM559 61q216 0 348 146.5t132 388.5q0 175 -96 274.5t-272 99.5q-197 0 -323 -124t-153 -336q-5 -47 -5 -80
q0 -172 96 -270.5t273 -98.5z" />
    <glyph glyph-name="p" unicode="p" horiz-adv-x="1263" 
d="M787 965q-198 0 -331.5 -156.5t-133.5 -396.5q0 -168 94 -262t260 -94q192 0 309.5 151t117.5 394q0 170 -82 267t-234 97zM1201 605q0 -281 -151.5 -456t-383.5 -175q-139 0 -240 62.5t-133 175.5l-86 -702h-98l153 1248q6 47 12.5 114t10 109.5t3.5 44.5h99l-26 -247
q58 120 177 194t259 74q189 0 296.5 -118.5t107.5 -323.5z" />
    <glyph glyph-name="q" unicode="q" horiz-adv-x="1255" 
d="M969 583q0 173 -95 277.5t-254 104.5q-152 0 -258 -97t-149 -267q-25 -100 -25 -191q0 -165 83 -259.5t234 -94.5q205 0 334.5 145.5t129.5 381.5zM116 605q51 205 188.5 323.5t326.5 118.5q140 0 240 -74t129 -194l35 247h99l-7 -44q-7 -44 -17 -110.5t-16 -113.5
l-159 -1248h-98l89 702q-60 -113 -176.5 -175.5t-255.5 -62.5q-186 0 -295 116t-109 315q0 96 26 200z" />
    <glyph glyph-name="r" unicode="r" horiz-adv-x="769" 
d="M141 0l95 776q7 57 12.5 119.5t7.5 96.5l2 34h100l-14 -191q47 112 133 162.5t195 50.5q50 0 100 -9l-16 -90q-47 9 -93 9q-141 0 -235.5 -96t-120.5 -303l-68 -559h-98z" />
    <glyph glyph-name="s" unicode="s" horiz-adv-x="935" 
d="M548 970q-154 0 -228 -53.5t-74 -162.5q0 -57 33 -86.5t122 -58.5l194 -63q112 -37 164.5 -88t52.5 -137q0 -19 -3 -41q-19 -151 -128 -226t-270 -75q-190 0 -341 117l47 76q1 -1 12 -9t19 -13t23 -15t29 -16.5t33 -15.5t39 -15t43 -11.5t49.5 -8.5t53.5 -3q43 0 81 5.5
t79 21t70 40.5t48 67t19 98q0 64 -37.5 99t-125.5 63l-198 63q-105 33 -156 82t-51 136q0 159 111.5 235.5t299.5 76.5q181 0 297 -75l-41 -73q-114 66 -266 66z" />
    <glyph glyph-name="t" unicode="t" horiz-adv-x="687" 
d="M509 -1q-8 0 -23.5 0.5t-22.5 0.5q-79 4 -132 18.5t-80.5 40t-38 55t-10.5 71.5q0 31 13 141l78 635h-202l8 65h202l36 294l102 29l-40 -323h233l-8 -65h-233l-78 -638q-11 -93 -11 -124q0 -71 42.5 -93.5t174.5 -22.5z" />
    <glyph glyph-name="u" unicode="u" horiz-adv-x="1285" 
d="M519 -26q-168 0 -253 86t-85 255q0 46 6 97l76 614h98l-76 -618q-6 -45 -6 -85q0 -267 250 -267q90 0 171.5 33t133.5 81.5t84 97.5t36 87l83 671h98l-99 -801q-17 -135 -22 -225h-89l14 191q-164 -217 -420 -217z" />
    <glyph glyph-name="v" unicode="v" horiz-adv-x="949" 
d="M361 0l-297 1026h101l229 -816l32 -132q93 190 277.5 539.5t215.5 408.5h101l-549 -1026h-110z" />
    <glyph glyph-name="w" unicode="w" horiz-adv-x="1553" 
d="M279 0l-172 1026h106q98 -616 148 -924l429 924h128l179 -844l16 -80q58 154 174.5 462t174.5 462h109l-404 -1026h-128q-21 104 -60.5 295t-71.5 347.5t-60 296.5q-84 -184 -242.5 -519.5t-197.5 -419.5h-128z" />
    <glyph glyph-name="x" unicode="x" horiz-adv-x="1114" 
d="M-5 0l508 526l-349 504l111 -4l298 -444l419 444h115l-483 -515l375 -511h-107l-330 460l-445 -460h-112z" />
    <glyph glyph-name="y" unicode="y" horiz-adv-x="983" 
d="M68 -417l-24 72q77 19 137.5 50.5t100.5 71.5t62.5 71.5t45.5 72.5l31 58l-270 1047h106l228 -929l467 929h96l-545 -1078q-154 -315 -435 -365z" />
    <glyph glyph-name="z" unicode="z" horiz-adv-x="934" 
d="M27 0l7 59l749 885h-615l10 82h740l-7 -57l-744 -887h623l-10 -82h-753z" />
    <glyph glyph-name="braceleft" unicode="{" horiz-adv-x="908" 
d="M536 1159l-35 -289q-33 -261 -217 -315q145 -44 145 -232q0 -39 -6 -82l-35 -289q-5 -35 -5 -57q0 -37 17 -59t71.5 -35.5t154.5 -13.5h24l-10 -77q-88 0 -152.5 9t-103 24t-61 38t-30 47t-7.5 56q0 22 6 68l35 289q6 47 6 85q0 95 -51 143.5t-183 65.5l6 41
q85 10 140 32t87.5 60t48 84t24.5 118l35 289q4 34 8 54t15 49t27.5 46t46.5 37t71 30.5t102 18t138 7.5l-10 -77h-24q-48 0 -85.5 -2.5t-65 -9.5t-47 -13t-33 -19.5t-21.5 -23t-13.5 -29t-7.5 -31.5t-5 -37z" />
    <glyph glyph-name="bar" unicode="|" horiz-adv-x="1685" 
d="M666 -517l256 2089h97l-256 -2089h-97z" />
    <glyph glyph-name="braceright" unicode="}" horiz-adv-x="846" 
d="M1 -290l10 77h24q48 0 85.5 2.5t65 9.5t47 13t33 19.5t21.5 23t13.5 29t7.5 31.5t5 37l35 289q33 262 217 314q-145 45 -145 233q0 38 6 82l35 289q5 35 5 57q0 37 -17 59t-71.5 35.5t-154.5 13.5h-24l10 77q88 0 152.5 -9t103 -24t61 -38t30 -47t7.5 -56q0 -22 -6 -68
l-35 -289q-6 -46 -6 -85q0 -95 51 -143.5t183 -65.5l-6 -41q-85 -10 -140 -32t-87.5 -60t-48 -84t-24.5 -118l-35 -289q-4 -34 -8 -54t-15 -49t-27.5 -46t-46.5 -37t-71 -30.5t-102 -18t-138 -7.5z" />
    <glyph glyph-name="asciitilde" unicode="~" horiz-adv-x="917" 
d="M13 420l-52 27q34 99 92.5 142.5t172.5 43.5q82 0 211 -42q125 -48 163.5 -60t84.5 -12q77 0 131.5 51t83.5 127l57 -20q-88 -245 -287 -245q-16 0 -34.5 2.5t-43.5 10t-39 11.5t-49 16t-45 15q-100 41 -139 50t-98 9h-7q-93 0 -135.5 -27.5t-66.5 -98.5z" />
    <glyph glyph-name="uni007F" horiz-adv-x="1521" 
d="M169 0l178 1456h984l-178 -1456h-984zM259 68h821l162 1322h-821z" />
    <glyph glyph-name="uni00A0" unicode="&#xa0;" horiz-adv-x="586" 
 />
    <glyph glyph-name="exclamdown" unicode="&#xa1;" horiz-adv-x="391" 
d="M207 741h56l-107 -1093h-120zM201 1104h157l-21 -160h-157z" />
    <glyph glyph-name="cent" unicode="&#xa2;" horiz-adv-x="969" 
d="M567 -21l-19 -157h-75l20 159q-190 15 -297 131t-107 305q0 49 5 85q28 233 171 380t359 167l25 205h75l-25 -202q86 -1 164 -28.5t124 -71.5l-42 -72q-89 87 -256 90l-112 -909q168 6 310 106l26 -67q-60 -53 -153.5 -85.5t-192.5 -35.5zM503 64l111 902
q-170 -21 -283 -145t-137 -319q-5 -43 -5 -74q0 -155 83 -251.5t231 -112.5z" />
    <glyph glyph-name="sterling" unicode="&#xa3;" horiz-adv-x="1136" 
d="M55 0l12 90q57 31 104.5 93.5t75.5 133.5t44.5 130t21.5 103l20 164h-211l10 77h212l25 210q58 473 442 473q81 0 141 -23t89 -52l-44 -72q-72 63 -187 63q-84 0 -148 -30t-102.5 -83t-60 -114.5t-30.5 -136.5l-28 -235h392l-10 -77h-388l-20 -162q-12 -99 -43.5 -189
t-68 -147t-67 -92t-48.5 -42h718l-11 -82h-840z" />
    <glyph glyph-name="currency" unicode="&#xa4;" horiz-adv-x="1218" 
d="M646 1335q-140 0 -241.5 -99t-101.5 -248q0 -117 74 -195.5t192 -78.5q139 0 241.5 104.5t102.5 254.5q0 115 -74 188.5t-193 73.5zM1004 1076q0 -164 -122 -293l163 -185l-57 -51l-163 186q-121 -90 -263 -90q-144 0 -241 91l-210 -187l-45 51l210 187q-61 86 -61 196
q0 170 129 299l-171 195l57 51l173 -196q115 83 253 83q135 0 233 -82l219 195l45 -51l-217 -193q68 -90 68 -206z" />
    <glyph glyph-name="yen" unicode="&#xa5;" horiz-adv-x="1143" 
d="M235 349l9 66h278l14 118h-278l8 66h274l-371 857h109l332 -773l529 773h105l-589 -857h278l-8 -66h-280l-15 -118h279l-9 -66h-278l-43 -349h-108l43 349h-279z" />
    <glyph glyph-name="brokenbar" unicode="&#xa6;" horiz-adv-x="500" 
d="M237 756l100 816h96l-100 -816h-96zM80 -517l110 894h95l-110 -894h-95z" />
    <glyph glyph-name="section" unicode="&#xa7;" horiz-adv-x="1024" 
d="M545 476q214 91 233 247q1 6 1 18q0 48 -41.5 80.5t-172.5 100.5q-3 2 -5 3l-5 2.5l-5 2.5q-127 -42 -194.5 -91t-76.5 -120q-1 -7 -1 -20q0 -21 7 -40.5t16 -34t31 -32t37.5 -28t51.5 -29t56.5 -28t67.5 -31.5zM865 748q0 -54 -24 -103t-65.5 -86t-85 -64t-93.5 -48
q91 -48 136 -101t45 -125q0 -9 -2 -31q-17 -140 -120.5 -210.5t-256.5 -70.5q-134 0 -272 50l10 74q143 -58 270 -58q125 0 205.5 59.5t80.5 172.5q0 23 -6 43t-23 39.5t-29.5 32t-45 32t-48.5 28.5t-61.5 32t-63.5 33q-43 23 -63.5 34.5t-51 31.5t-44.5 34.5t-30 36
t-21.5 45t-5.5 52.5q0 110 85.5 182t207.5 97q-112 63 -155.5 110t-43.5 119q0 79 34.5 141t91.5 98t124.5 54t139.5 18q108 0 193 -38l-9 -71q-87 38 -192 38q-59 0 -110.5 -13t-94 -40t-67.5 -73t-25 -107q0 -51 39.5 -87.5t165.5 -106.5q23 -13 62.5 -34t57.5 -31
t46.5 -27.5t41.5 -28t30.5 -27t24.5 -31.5t12.5 -34t5.5 -41z" />
    <glyph glyph-name="dieresis" unicode="&#xa8;" horiz-adv-x="743" 
d="M485 1210l14 108h99l-14 -108h-99zM149 1210l14 108h98l-14 -108h-98z" />
    <glyph glyph-name="copyright" unicode="&#xa9;" horiz-adv-x="1748" 
d="M779 -38q-190 0 -345 88.5t-242.5 241.5t-87.5 339q0 45 6 93q25 206 149.5 382t313 278.5t394.5 102.5q191 0 346.5 -89t243 -242.5t87.5 -339.5q0 -46 -6 -92q-26 -206 -150.5 -382t-313 -278t-395.5 -102zM793 46q180 0 344.5 91.5t272.5 246.5t130 335q5 47 5 82
q0 163 -75.5 298.5t-210.5 214.5t-301 79q-181 0 -346 -91.5t-273.5 -246.5t-130.5 -336q-5 -45 -5 -80q0 -163 75.5 -298.5t211.5 -215t303 -79.5zM466 631q0 129 41.5 235.5t111.5 175t159.5 106t187.5 37.5q65 0 126.5 -22.5t98.5 -62.5l-35 -62q-36 33 -93.5 51.5
t-113.5 18.5q-44 0 -88.5 -10t-95 -37.5t-91 -70t-72 -113.5t-42.5 -161q-5 -42 -5 -73q0 -143 70 -222t209 -79q167 0 270 72l22 -63q-45 -37 -120 -61t-166 -24q-173 0 -273.5 93t-100.5 272z" />
    <glyph glyph-name="ordfeminine" unicode="&#xaa;" horiz-adv-x="691" 
d="M458 1137q-55 0 -88.5 -1t-74 -6t-63 -14.5t-43.5 -25.5t-30 -41.5t-9 -60.5q0 -108 147 -108q64 0 111 20.5t73 56t39 71t18 77.5l4 32h-84zM547 1200q7 51 7 88q0 62 -30.5 89.5t-110.5 27.5q-61 0 -124.5 -13.5t-96.5 -27.5l-32 -13l-11 62q14 7 38.5 18t95 29
t133.5 18q100 0 162 -45.5t62 -132.5q0 -2 -0.5 -7.5t-0.5 -8.5q-13 -80 -50 -364q-3 0 -9 -111h-92l16 91q-80 -98 -233 -98q-105 0 -162.5 48.5t-57.5 126.5q0 8 2 26q12 91 94.5 144t230.5 53h169z" />
    <glyph glyph-name="guillemotleft" unicode="&#xab;" horiz-adv-x="1040" 
d="M744 186l-218 360l312 368h114l-306 -367l208 -361h-110zM329 186l-218 360l313 368h113l-305 -367l207 -361h-110z" />
    <glyph glyph-name="logicalnot" unicode="&#xac;" horiz-adv-x="1473" 
d="M1157 250l55 444h-947l11 92h1034l-66 -536h-87z" />
    <glyph glyph-name="uni00AD" unicode="&#xad;" horiz-adv-x="593" 
d="M63 527l8 73h459l-8 -73h-459z" />
    <glyph glyph-name="registered" unicode="&#xae;" horiz-adv-x="1748" 
d="M779 -38q-190 0 -345 88.5t-242.5 241.5t-87.5 339q0 45 6 93q25 206 149.5 382t313 278.5t394.5 102.5q191 0 346.5 -89t243 -242.5t87.5 -339.5q0 -46 -6 -92q-26 -206 -150.5 -382t-313 -278t-395.5 -102zM793 46q180 0 344.5 91.5t272.5 246.5t130 335q5 47 5 82
q0 163 -75.5 298.5t-210.5 214.5t-301 79q-181 0 -346 -91.5t-273.5 -246.5t-130.5 -336q-5 -45 -5 -80q0 -163 75.5 -298.5t211.5 -215t303 -79.5zM826 762q91 0 148.5 8.5t99.5 32.5t60 67t18 112q0 86 -64.5 112.5t-244.5 26.5h-125l-44 -359h152zM518 261l116 946h241
q203 0 295.5 -54.5t92.5 -160.5q0 -24 -2 -37q-7 -56 -22.5 -95t-46.5 -71.5t-83 -53.5t-128 -32l185 -442h-118l-173 437h-206l-54 -437h-97z" />
    <glyph glyph-name="macron" unicode="&#xaf;" horiz-adv-x="674" 
d="M67 1235l10 75h530l-10 -75h-530z" />
    <glyph glyph-name="degree" unicode="&#xb0;" horiz-adv-x="812" 
d="M699 1182q0 -134 -96.5 -228.5t-231.5 -94.5q-116 0 -187 72t-71 178q0 135 95 227t233 92q117 0 187.5 -70t70.5 -176zM431 1345q-101 0 -162.5 -66.5t-61.5 -161.5q0 -75 44 -123.5t131 -48.5q103 0 162 67.5t59 164.5q0 73 -44 120.5t-128 47.5z" />
    <glyph glyph-name="plusminus" unicode="&#xb1;" horiz-adv-x="1180" 
d="M108 0l11 92h853l-11 -92h-853zM515 209l48 388h-358l12 94h358l47 388h83l-47 -388h337l-12 -94h-337l-48 -388h-83z" />
    <glyph glyph-name="uni00B2" unicode="&#xb2;" horiz-adv-x="942" 
d="M141 631l9 70l330 305q97 89 130.5 138.5t39.5 103.5q2 16 2 23q0 53 -35.5 87t-114.5 34q-74 0 -125.5 -39.5t-66.5 -130.5l-75 4q16 108 89.5 169t185.5 61q106 0 161.5 -50.5t55.5 -127.5q0 -9 -2 -27q-9 -79 -48 -137.5t-153 -161.5l-277 -252h416l-9 -69h-513z" />
    <glyph glyph-name="uni00B3" unicode="&#xb3;" horiz-adv-x="878" 
d="M627 869q0 -119 -80.5 -191.5t-200.5 -72.5q-72 0 -137 24.5t-102 65.5l46 62q33 -37 88 -60t113 -23q82 0 138.5 53t56.5 138q0 66 -45 104t-132 38h-97l9 71h97q95 0 147.5 46.5t52.5 126.5q0 61 -41.5 98t-111.5 37q-120 0 -192 -84l-41 44q32 50 97.5 80t142.5 30
q105 0 165 -52t60 -142q0 -80 -43.5 -137t-116.5 -78q59 -17 93 -65t34 -113z" />
    <glyph glyph-name="acute" unicode="&#xb4;" horiz-adv-x="607" 
d="M102 1174l230 282h132l-307 -282h-55z" />
    <glyph glyph-name="paragraph" unicode="&#xb6;" horiz-adv-x="1191" 
d="M425 -180l125 1023q-8 -1 -24 -1q-55 0 -109 17t-99.5 48.5t-74 83t-28.5 114.5q0 10 2 34q11 89 50.5 152t106 99t149 51.5t190.5 15.5h392l-9 -76h-91l-191 -1561h-73l191 1561h-243l-191 -1561h-73z" />
    <glyph glyph-name="periodcentered" unicode="&#xb7;" horiz-adv-x="509" 
d="M235 533l20 160h128l-20 -160h-128z" />
    <glyph glyph-name="cedilla" unicode="&#xb8;" horiz-adv-x="529" 
d="M431 -245q0 -42 -18.5 -72t-50 -45t-63 -21t-66.5 -6q-88 0 -166 39l19 58q20 -10 65 -19.5t83 -9.5q58 0 82.5 17.5t24.5 55.5q0 59 -168 59h-6l58 194h59l-41 -144q37 -1 63 -5t58 -14t49.5 -32t17.5 -55z" />
    <glyph glyph-name="uni00B9" unicode="&#xb9;" horiz-adv-x="896" 
d="M188 649l8 61h154l81 662l-158 -76l11 74l164 86h68l-92 -746h140l-8 -61h-368z" />
    <glyph glyph-name="ordmasculine" unicode="&#xba;" horiz-adv-x="850" 
d="M772 1210q0 -175 -107 -289.5t-282 -114.5q-149 0 -227.5 81t-78.5 212q0 175 108.5 288t284.5 113q147 0 224.5 -79.5t77.5 -210.5zM455 1408q-122 0 -195.5 -83.5t-73.5 -224.5q0 -100 54 -154t158 -54q122 0 197 83t75 221q0 100 -56 156t-159 56z" />
    <glyph glyph-name="guillemotright" unicode="&#xbb;" horiz-adv-x="1040" 
d="M483 180l306 366l-208 362h110l218 -361l-312 -367h-114zM68 180l306 366l-208 362h110l218 -361l-312 -367h-114z" />
    <glyph glyph-name="onequarter" unicode="&#xbc;" horiz-adv-x="1654" 
d="M915 256h307l54 441zM232 0l1108 1456h68l-1093 -1456h-83zM1193 0l22 184h-395l9 69l439 533h99l-65 -530h83l-10 -72h-86l-22 -184h-74zM120 649l8 61h154l81 662l-158 -76l11 74l163 86h68l-91 -746h140l-8 -61h-368z" />
    <glyph glyph-name="onehalf" unicode="&#xbd;" horiz-adv-x="1563" 
d="M114 649l8 61h154l81 662l-158 -76l11 74l163 86h68l-91 -746h140l-8 -61h-368zM178 0l1108 1456h68l-1093 -1456h-83zM828 0l8 70l331 305q96 89 129.5 138t39.5 104q2 16 2 23q0 53 -35.5 87t-114.5 34q-74 0 -125.5 -39.5t-66.5 -130.5l-74 4q15 108 88.5 169
t185.5 61q106 0 162 -50.5t56 -128.5q0 -8 -2 -26q-10 -79 -49 -137.5t-153 -161.5l-277 -252h416l-8 -69h-513z" />
    <glyph glyph-name="threequarters" unicode="&#xbe;" horiz-adv-x="1601" 
d="M971 256h307l54 441zM321 0l1108 1456h68l-1093 -1456h-83zM1249 0l22 184h-395l9 69l439 533h99l-65 -530h83l-10 -72h-86l-22 -184h-74zM664 869q0 -119 -80.5 -191.5t-200.5 -72.5q-72 0 -137 24.5t-102 65.5l47 62q34 -37 88 -60t112 -23q83 0 139 53t56 138
q0 66 -45 104t-132 38h-97l9 71h97q95 0 147.5 46.5t52.5 126.5q0 61 -41.5 98t-111.5 37q-120 0 -192 -84l-41 44q32 50 97.5 80t142.5 30q105 0 165 -52t60 -142q0 -80 -43.5 -137t-116.5 -78q59 -17 93 -65t34 -113z" />
    <glyph glyph-name="questiondown" unicode="&#xbf;" horiz-adv-x="1032" 
d="M772 1113l-21 -167h-163l21 167h163zM691 755l-18 -148q-7 -54 -44 -109t-88 -100t-110.5 -98t-111 -101.5t-89.5 -111t-46 -125.5q-2 -13 -2 -38q0 -109 78.5 -162t206.5 -53q142 0 282 81l-13 -105q-143 -65 -280 -65h-18q-176 0 -268.5 69.5t-92.5 207.5q0 71 27 138
t71 120.5t97 103.5t107.5 94.5t100 86t77 86.5t36.5 87l18 142h80z" />
    <glyph glyph-name="Agrave" unicode="&#xc0;" horiz-adv-x="1329" 
d="M743 1604l-284 282h135l203 -282h-54zM328 473h619q-66 299 -202 893q-278 -596 -417 -893zM-21 0l708 1456h134l351 -1456h-112l-94 399h-674l-192 -399h-121z" />
    <glyph glyph-name="Aacute" unicode="&#xc1;" horiz-adv-x="1329" 
d="M747 1604l230 282h132l-307 -282h-55zM328 473h619q-66 299 -202 893q-278 -596 -417 -893zM-21 0l708 1456h134l351 -1456h-112l-94 399h-674l-192 -399h-121z" />
    <glyph glyph-name="Acircumflex" unicode="&#xc2;" horiz-adv-x="1329" 
d="M549 1645l240 272h57l167 -272h-56l-157 185l-201 -185h-50zM328 473h619q-66 299 -202 893q-278 -596 -417 -893zM-21 0l708 1456h134l351 -1456h-112l-94 399h-674l-192 -399h-121z" />
    <glyph glyph-name="Atilde" unicode="&#xc3;" horiz-adv-x="1329" 
d="M935 1663q-48 0 -155.5 48.5t-141.5 48.5q-62 0 -72 -80h-62q9 71 44.5 107.5t92.5 36.5q50 0 155.5 -48.5t139.5 -48.5q27 0 37 19.5t16 66.5h66q-20 -150 -120 -150zM328 473h619q-66 299 -202 893q-278 -596 -417 -893zM-21 0l708 1456h134l351 -1456h-112l-94 399
h-674l-192 -399h-121z" />
    <glyph glyph-name="Adieresis" unicode="&#xc4;" horiz-adv-x="1329" 
d="M894 1640l14 108h99l-14 -108h-99zM558 1640l14 108h98l-14 -108h-98zM328 473h619q-66 299 -202 893q-278 -596 -417 -893zM-21 0l708 1456h134l351 -1456h-112l-94 399h-674l-192 -399h-121z" />
    <glyph glyph-name="Aring" unicode="&#xc5;" horiz-adv-x="1329" 
d="M965 1767q0 -82 -58 -136.5t-139 -54.5q-69 0 -112 40.5t-43 104.5q0 82 58 136.5t139 54.5q69 0 112 -40.5t43 -104.5zM803 1856q-50 0 -85 -37t-35 -92q0 -25 16 -41.5t41.5 -30.5t34.5 -23q50 0 85 37t35 92q0 25 -16 41.5t-41.5 30.5t-34.5 23zM328 473h619
q-66 299 -202 893q-278 -596 -417 -893zM-21 0l708 1456h134l351 -1456h-112l-94 399h-674l-192 -399h-121z" />
    <glyph glyph-name="AE" unicode="&#xc6;" horiz-adv-x="1860" 
d="M398 536h605l37 833h-66zM-54 0l1012 1456h908l-10 -87h-733l-23 -573h615l-9 -77h-617l-21 -636h654l-10 -83h-721l13 459h-650l-319 -459h-89z" />
    <glyph glyph-name="Ccedilla" unicode="&#xc7;" horiz-adv-x="1389" 
d="M896 -245q0 -42 -18.5 -72t-50 -45t-63 -21t-66.5 -6q-88 0 -166 39l19 58q20 -10 65 -19.5t83 -9.5q58 0 82.5 17.5t24.5 55.5q0 59 -168 59h-6l58 194h59l-41 -144q37 -1 63 -5t58 -14t49.5 -32t17.5 -55zM718 -22q-288 0 -453.5 162t-165.5 440q0 54 8 121
q44 356 263.5 568t545.5 212q255 0 402 -139l-52 -68q-139 121 -360 121q-276 0 -463.5 -188.5t-225.5 -505.5q-7 -53 -7 -110q0 -243 138 -384.5t380 -141.5q240 0 444 125l26 -75q-228 -137 -480 -137z" />
    <glyph glyph-name="Egrave" unicode="&#xc8;" horiz-adv-x="1219" 
d="M716 1604l-284 282h135l203 -282h-54zM135 0l178 1456h810l-10 -86h-702l-72 -583h663l-10 -86h-665l-76 -615h734l-10 -86h-840z" />
    <glyph glyph-name="Eacute" unicode="&#xc9;" horiz-adv-x="1219" 
d="M720 1604l230 282h132l-307 -282h-55zM135 0l178 1456h810l-10 -86h-702l-72 -583h663l-10 -86h-665l-76 -615h734l-10 -86h-840z" />
    <glyph glyph-name="Ecircumflex" unicode="&#xca;" horiz-adv-x="1219" 
d="M522 1645l240 272h57l167 -272h-56l-157 185l-201 -185h-50zM135 0l178 1456h810l-10 -86h-702l-72 -583h663l-10 -86h-665l-76 -615h734l-10 -86h-840z" />
    <glyph glyph-name="Edieresis" unicode="&#xcb;" horiz-adv-x="1219" 
d="M867 1640l14 108h99l-14 -108h-99zM531 1640l14 108h98l-14 -108h-98zM135 0l178 1456h810l-10 -86h-702l-72 -583h663l-10 -86h-665l-76 -615h734l-10 -86h-840z" />
    <glyph glyph-name="Igrave" unicode="&#xcc;" horiz-adv-x="592" 
d="M375 1604l-284 282h135l203 -282h-54zM153 0l178 1456h108l-178 -1456h-108z" />
    <glyph glyph-name="Iacute" unicode="&#xcd;" horiz-adv-x="592" 
d="M379 1604l230 282h132l-307 -282h-55zM153 0l178 1456h108l-178 -1456h-108z" />
    <glyph glyph-name="Icircumflex" unicode="&#xce;" horiz-adv-x="592" 
d="M181 1645l240 272h57l167 -272h-56l-157 185l-201 -185h-50zM153 0l178 1456h108l-178 -1456h-108z" />
    <glyph glyph-name="Idieresis" unicode="&#xcf;" horiz-adv-x="592" 
d="M526 1640l14 108h99l-14 -108h-99zM190 1640l14 108h98l-14 -108h-98zM153 0l178 1456h108l-178 -1456h-108z" />
    <glyph glyph-name="Eth" unicode="&#xd0;" horiz-adv-x="1523" 
d="M63 717l8 73h459l-8 -73h-459zM135 0l178 1456h374q349 0 528 -153.5t179 -451.5q0 -65 -9 -139q-43 -350 -260.5 -531t-593.5 -181h-396zM253 86h288q323 0 510 159.5t224 466.5q8 70 8 126q0 262 -153.5 397t-452.5 135h-266z" />
    <glyph glyph-name="Ntilde" unicode="&#xd1;" horiz-adv-x="1571" 
d="M1088 1663q-48 0 -155.5 48.5t-141.5 48.5q-62 0 -72 -80h-62q9 71 44.5 107.5t92.5 36.5q50 0 155.5 -48.5t139.5 -48.5q27 0 37 19.5t16 66.5h66q-20 -150 -120 -150zM135 0l178 1456h106l647 -1121l103 -193l161 1314h106l-178 -1456h-105l-664 1137l-88 166
l-160 -1303h-106z" />
    <glyph glyph-name="Ograve" unicode="&#xd2;" 
d="M864 1604l-284 282h135l203 -282h-54zM696 -21q-278 0 -436.5 165t-158.5 450q0 57 8 129q43 346 251.5 552t519.5 206q274 0 432 -167.5t158 -455.5q0 -64 -9 -135q-41 -339 -249.5 -541.5t-515.5 -202.5zM706 65q186 0 334.5 97.5t233.5 277t85 409.5q0 253 -130 399.5
t-359 146.5q-260 0 -437 -182.5t-214 -489.5q-8 -66 -8 -120q0 -249 132.5 -393.5t362.5 -144.5z" />
    <glyph glyph-name="Oacute" unicode="&#xd3;" 
d="M868 1604l230 282h132l-307 -282h-55zM696 -21q-278 0 -436.5 165t-158.5 450q0 57 8 129q43 346 251.5 552t519.5 206q274 0 432 -167.5t158 -455.5q0 -64 -9 -135q-41 -339 -249.5 -541.5t-515.5 -202.5zM706 65q186 0 334.5 97.5t233.5 277t85 409.5q0 253 -130 399.5
t-359 146.5q-260 0 -437 -182.5t-214 -489.5q-8 -66 -8 -120q0 -249 132.5 -393.5t362.5 -144.5z" />
    <glyph glyph-name="Ocircumflex" unicode="&#xd4;" 
d="M670 1645l240 272h57l167 -272h-56l-157 185l-201 -185h-50zM696 -21q-278 0 -436.5 165t-158.5 450q0 57 8 129q43 346 251.5 552t519.5 206q274 0 432 -167.5t158 -455.5q0 -64 -9 -135q-41 -339 -249.5 -541.5t-515.5 -202.5zM706 65q186 0 334.5 97.5t233.5 277
t85 409.5q0 253 -130 399.5t-359 146.5q-260 0 -437 -182.5t-214 -489.5q-8 -66 -8 -120q0 -249 132.5 -393.5t362.5 -144.5z" />
    <glyph glyph-name="Otilde" unicode="&#xd5;" 
d="M1056 1663q-48 0 -155.5 48.5t-141.5 48.5q-62 0 -72 -80h-62q9 71 44.5 107.5t92.5 36.5q50 0 155.5 -48.5t139.5 -48.5q27 0 37 19.5t16 66.5h66q-20 -150 -120 -150zM696 -21q-278 0 -436.5 165t-158.5 450q0 57 8 129q43 346 251.5 552t519.5 206q274 0 432 -167.5
t158 -455.5q0 -64 -9 -135q-41 -339 -249.5 -541.5t-515.5 -202.5zM706 65q186 0 334.5 97.5t233.5 277t85 409.5q0 253 -130 399.5t-359 146.5q-260 0 -437 -182.5t-214 -489.5q-8 -66 -8 -120q0 -249 132.5 -393.5t362.5 -144.5z" />
    <glyph glyph-name="Odieresis" unicode="&#xd6;" 
d="M1015 1640l14 108h99l-14 -108h-99zM679 1640l14 108h98l-14 -108h-98zM696 -21q-278 0 -436.5 165t-158.5 450q0 57 8 129q43 346 251.5 552t519.5 206q274 0 432 -167.5t158 -455.5q0 -64 -9 -135q-41 -339 -249.5 -541.5t-515.5 -202.5zM706 65q186 0 334.5 97.5
t233.5 277t85 409.5q0 253 -130 399.5t-359 146.5q-260 0 -437 -182.5t-214 -489.5q-8 -66 -8 -120q0 -249 132.5 -393.5t362.5 -144.5z" />
    <glyph glyph-name="multiply" unicode="&#xd7;" horiz-adv-x="1177" 
d="M224 180l-51 62l355 317l-277 317l67 62l279 -317l354 317l54 -65l-357 -314l279 -314l-70 -65l-276 315z" />
    <glyph glyph-name="Oslash" unicode="&#xd8;" 
d="M252 -155l-59 34l1160 1726l56 -33zM696 -21q-278 0 -436.5 165t-158.5 450q0 57 8 129q43 346 251.5 552t519.5 206q274 0 432 -167.5t158 -455.5q0 -64 -9 -135q-41 -339 -249.5 -541.5t-515.5 -202.5zM706 65q186 0 334.5 97.5t233.5 277t85 409.5q0 253 -130 399.5
t-359 146.5q-260 0 -437 -182.5t-214 -489.5q-8 -66 -8 -120q0 -249 132.5 -393.5t362.5 -144.5z" />
    <glyph glyph-name="Ugrave" unicode="&#xd9;" horiz-adv-x="1480" 
d="M826 1604l-284 282h135l203 -282h-54zM641 -21q-245 0 -371 110t-126 323q0 39 7 102l116 942h108l-117 -950q-5 -38 -5 -85q0 -176 101 -266t298 -90q220 0 348 112t154 329l117 950h108l-116 -942q-35 -263 -193 -399t-429 -136z" />
    <glyph glyph-name="Uacute" unicode="&#xda;" horiz-adv-x="1480" 
d="M830 1604l230 282h132l-307 -282h-55zM641 -21q-245 0 -371 110t-126 323q0 39 7 102l116 942h108l-117 -950q-5 -38 -5 -85q0 -176 101 -266t298 -90q220 0 348 112t154 329l117 950h108l-116 -942q-35 -263 -193 -399t-429 -136z" />
    <glyph glyph-name="Ucircumflex" unicode="&#xdb;" horiz-adv-x="1480" 
d="M632 1645l240 272h57l167 -272h-56l-157 185l-201 -185h-50zM641 -21q-245 0 -371 110t-126 323q0 39 7 102l116 942h108l-117 -950q-5 -38 -5 -85q0 -176 101 -266t298 -90q220 0 348 112t154 329l117 950h108l-116 -942q-35 -263 -193 -399t-429 -136z" />
    <glyph glyph-name="Udieresis" unicode="&#xdc;" horiz-adv-x="1480" 
d="M977 1640l14 108h99l-14 -108h-99zM641 1640l14 108h98l-14 -108h-98zM641 -21q-245 0 -371 110t-126 323q0 39 7 102l116 942h108l-117 -950q-5 -38 -5 -85q0 -176 101 -266t298 -90q220 0 348 112t154 329l117 950h108l-116 -942q-35 -263 -193 -399t-429 -136z" />
    <glyph glyph-name="Yacute" unicode="&#xdd;" horiz-adv-x="1235" 
d="M694 1604l230 282h132l-307 -282h-55zM471 0l72 591l-374 865h109l332 -773l529 773h105l-592 -862l-73 -594h-108z" />
    <glyph glyph-name="Thorn" unicode="&#xde;" horiz-adv-x="1255" 
d="M598 460q104 0 189.5 22t151 66t102 117t36.5 170q0 79 -32 134t-94 85t-140.5 43t-183.5 13h-255l-80 -650h306zM124 0l178 1456h111l-30 -245h240q100 0 180.5 -9.5t155.5 -34t125.5 -64t80.5 -103t30 -148.5q0 -37 -4 -69q-27 -214 -185 -319.5t-408 -105.5h-318
l-44 -358h-112z" />
    <glyph glyph-name="germandbls" unicode="&#xdf;" horiz-adv-x="1240" 
d="M1102 390q0 -192 -126 -305t-327 -113q-145 0 -296 65l19 83q160 -66 287 -66q156 0 249.5 90.5t93.5 245.5q0 145 -107 240t-352 175l11 84q84 18 146.5 38t104 44.5t68.5 48t42.5 56.5t22.5 61.5t12 70.5q2 22 2 31q0 96 -73 152.5t-199 56.5q-148 0 -236.5 -98
t-111.5 -288l-130 -1062h-98l133 1062q29 232 145.5 352t310.5 120q164 0 258 -76t94 -206q0 -22 -3 -44q-19 -153 -102.5 -229t-265.5 -122l-40 -10l36 -10q68 -18 127 -43.5t116.5 -64.5t98 -86.5t65.5 -112.5t25 -140z" />
    <glyph glyph-name="agrave" unicode="&#xe0;" horiz-adv-x="1253" 
d="M639 1174l-284 282h135l203 -282h-54zM637 970q-194 0 -320 -148.5t-126 -385.5q0 -174 89 -274.5t245 -100.5q173 0 284.5 124.5t138.5 338.5q5 38 5 85q0 164 -88.5 262.5t-227.5 98.5zM91 425q0 281 156.5 454t399.5 173q128 0 217 -62.5t121 -164.5l25 201h98
l-126 -1026h-98l26 215q-61 -108 -163.5 -172t-235.5 -64q-197 0 -308.5 119.5t-111.5 326.5z" />
    <glyph glyph-name="aacute" unicode="&#xe1;" horiz-adv-x="1253" 
d="M643 1174l230 282h132l-307 -282h-55zM637 970q-194 0 -320 -148.5t-126 -385.5q0 -174 89 -274.5t245 -100.5q173 0 284.5 124.5t138.5 338.5q5 38 5 85q0 164 -88.5 262.5t-227.5 98.5zM91 425q0 281 156.5 454t399.5 173q128 0 217 -62.5t121 -164.5l25 201h98
l-126 -1026h-98l26 215q-61 -108 -163.5 -172t-235.5 -64q-197 0 -308.5 119.5t-111.5 326.5z" />
    <glyph glyph-name="acircumflex" unicode="&#xe2;" horiz-adv-x="1253" 
d="M445 1215l240 272h57l167 -272h-56l-157 185l-201 -185h-50zM637 970q-194 0 -320 -148.5t-126 -385.5q0 -174 89 -274.5t245 -100.5q173 0 284.5 124.5t138.5 338.5q5 38 5 85q0 164 -88.5 262.5t-227.5 98.5zM91 425q0 281 156.5 454t399.5 173q128 0 217 -62.5
t121 -164.5l25 201h98l-126 -1026h-98l26 215q-61 -108 -163.5 -172t-235.5 -64q-197 0 -308.5 119.5t-111.5 326.5z" />
    <glyph glyph-name="atilde" unicode="&#xe3;" horiz-adv-x="1253" 
d="M831 1233q-48 0 -155.5 48.5t-141.5 48.5q-62 0 -72 -80h-62q9 71 44.5 107.5t92.5 36.5q50 0 155.5 -48.5t139.5 -48.5q27 0 37 19.5t16 66.5h66q-20 -150 -120 -150zM637 970q-194 0 -320 -148.5t-126 -385.5q0 -174 89 -274.5t245 -100.5q173 0 284.5 124.5
t138.5 338.5q5 38 5 85q0 164 -88.5 262.5t-227.5 98.5zM91 425q0 281 156.5 454t399.5 173q128 0 217 -62.5t121 -164.5l25 201h98l-126 -1026h-98l26 215q-61 -108 -163.5 -172t-235.5 -64q-197 0 -308.5 119.5t-111.5 326.5z" />
    <glyph glyph-name="adieresis" unicode="&#xe4;" horiz-adv-x="1253" 
d="M790 1210l14 108h99l-14 -108h-99zM454 1210l14 108h98l-14 -108h-98zM637 970q-194 0 -320 -148.5t-126 -385.5q0 -174 89 -274.5t245 -100.5q173 0 284.5 124.5t138.5 338.5q5 38 5 85q0 164 -88.5 262.5t-227.5 98.5zM91 425q0 281 156.5 454t399.5 173
q128 0 217 -62.5t121 -164.5l25 201h98l-126 -1026h-98l26 215q-61 -108 -163.5 -172t-235.5 -64q-197 0 -308.5 119.5t-111.5 326.5z" />
    <glyph glyph-name="aring" unicode="&#xe5;" horiz-adv-x="1253" 
d="M861 1337q0 -82 -58 -136.5t-139 -54.5q-69 0 -112 40.5t-43 104.5q0 82 58 136.5t139 54.5q69 0 112 -40.5t43 -104.5zM699 1426q-50 0 -85 -37t-35 -92q0 -25 16 -41.5t41.5 -30.5t34.5 -23q50 0 85 37t35 92q0 25 -16 41.5t-41.5 30.5t-34.5 23zM637 970
q-194 0 -320 -148.5t-126 -385.5q0 -174 89 -274.5t245 -100.5q173 0 284.5 124.5t138.5 338.5q5 38 5 85q0 164 -88.5 262.5t-227.5 98.5zM91 425q0 281 156.5 454t399.5 173q128 0 217 -62.5t121 -164.5l25 201h98l-126 -1026h-98l26 215q-61 -108 -163.5 -172t-235.5 -64
q-197 0 -308.5 119.5t-111.5 326.5z" />
    <glyph glyph-name="ae" unicode="&#xe6;" horiz-adv-x="1811" 
d="M971 578h677l2 30q2 26 2 40q0 59 -15.5 113.5t-47.5 102.5t-90.5 77t-135.5 29t-148 -35.5t-121 -92.5t-82.5 -126t-40.5 -138zM415 61q187 0 298.5 122.5t134.5 323.5h-222q-102 0 -169.5 -5.5t-123 -19.5t-87.5 -40t-52 -65t-27 -97q-2 -22 -2 -32q0 -96 69.5 -141.5
t180.5 -45.5zM1735 638q0 -53 -9 -129h-764l-4 -35q-5 -42 -5 -75q0 -69 17 -128t51.5 -107t95 -75.5t140.5 -27.5q57 0 113 12t95.5 29t71.5 34t47 29l16 12l28 -69q-6 -5 -17.5 -14t-50 -31t-80 -39t-105.5 -31t-128 -14q-150 0 -249 83t-124 217q-22 -56 -60.5 -107
t-95.5 -95.5t-138 -70.5t-175 -26q-154 0 -245.5 68.5t-91.5 188.5q0 24 2 37q10 78 40.5 133t75.5 88t119 52t152.5 25t193.5 6h202q5 43 5 76q0 142 -70.5 229t-201.5 87q-186 0 -363 -85l-24 79q1 0 14 6.5t20 9.5t25 10.5t31.5 12t36.5 11.5t43 12t48 10t54.5 8.5
t59 5.5t65.5 2q148 0 239.5 -77t102.5 -208q63 127 180 206t255 79q167 0 264.5 -107t97.5 -307z" />
    <glyph glyph-name="ccedilla" unicode="&#xe7;" horiz-adv-x="1022" 
d="M700 -245q0 -42 -18.5 -72t-50 -45t-63 -21t-66.5 -6q-88 0 -166 39l19 58q20 -10 65 -19.5t83 -9.5q58 0 82.5 17.5t24.5 55.5q0 59 -168 59h-6l58 194h59l-41 -144q37 -1 63 -5t58 -14t49.5 -32t17.5 -55zM546 -21q-213 0 -335 117.5t-122 320.5q0 49 5 85
q31 251 192.5 400.5t401.5 149.5q89 0 170.5 -27t128.5 -73l-42 -72q-92 90 -267 90q-194 0 -326 -127t-158 -341q-5 -43 -5 -74q0 -169 98 -268t269 -99q183 0 331 106l26 -67q-63 -55 -162.5 -88t-204.5 -33z" />
    <glyph glyph-name="egrave" unicode="&#xe8;" horiz-adv-x="1133" 
d="M637 1174l-284 282h135l203 -282h-54zM210 578h761q1 14 1 40q0 162 -87 257t-237 95q-164 0 -283 -106.5t-155 -285.5zM550 -21q-214 0 -337 119.5t-123 324.5q0 49 5 85q31 248 184 396t379 148q186 0 292 -108.5t106 -295.5q0 -35 -5 -83l-7 -58h-849q-6 -42 -6 -81
q0 -169 99 -267t272 -98q95 0 190 31t170 85l28 -69q-79 -59 -186.5 -94t-211.5 -35z" />
    <glyph glyph-name="eacute" unicode="&#xe9;" horiz-adv-x="1133" 
d="M210 578h761q1 14 1 40q0 162 -87 257t-237 95q-164 0 -283 -106.5t-155 -285.5zM550 -21q-214 0 -337 119.5t-123 324.5q0 49 5 85q31 248 184 396t379 148q186 0 292 -108.5t106 -295.5q0 -35 -5 -83l-7 -58h-849q-6 -42 -6 -81q0 -169 99 -267t272 -98q95 0 190 31
t170 85l28 -69q-79 -59 -186.5 -94t-211.5 -35zM641 1174l230 282h132l-307 -282h-55z" />
    <glyph glyph-name="ecircumflex" unicode="&#xea;" horiz-adv-x="1133" 
d="M210 578h761q1 14 1 40q0 162 -87 257t-237 95q-164 0 -283 -106.5t-155 -285.5zM550 -21q-214 0 -337 119.5t-123 324.5q0 49 5 85q31 248 184 396t379 148q186 0 292 -108.5t106 -295.5q0 -35 -5 -83l-7 -58h-849q-6 -42 -6 -81q0 -169 99 -267t272 -98q95 0 190 31
t170 85l28 -69q-79 -59 -186.5 -94t-211.5 -35zM443 1215l240 272h57l167 -272h-56l-157 185l-201 -185h-50z" />
    <glyph glyph-name="edieresis" unicode="&#xeb;" horiz-adv-x="1133" 
d="M210 578h761q1 14 1 40q0 162 -87 257t-237 95q-164 0 -283 -106.5t-155 -285.5zM550 -21q-214 0 -337 119.5t-123 324.5q0 49 5 85q31 248 184 396t379 148q186 0 292 -108.5t106 -295.5q0 -35 -5 -83l-7 -58h-849q-6 -42 -6 -81q0 -169 99 -267t272 -98q95 0 190 31
t170 85l28 -69q-79 -59 -186.5 -94t-211.5 -35zM788 1210l14 108h99l-14 -108h-99zM452 1210l14 108h98l-14 -108h-98z" />
    <glyph glyph-name="igrave" unicode="&#xec;" horiz-adv-x="473" 
d="M289 1174l-284 282h135l203 -282h-54zM124 0l124 1026h101l-124 -1026h-101z" />
    <glyph glyph-name="iacute" unicode="&#xed;" horiz-adv-x="473" 
d="M124 0l124 1026h101l-124 -1026h-101zM293 1174l230 282h132l-307 -282h-55z" />
    <glyph glyph-name="icircumflex" unicode="&#xee;" horiz-adv-x="473" 
d="M124 0l124 1026h101l-124 -1026h-101zM95 1215l240 272h57l167 -272h-56l-157 185l-201 -185h-50z" />
    <glyph glyph-name="idieresis" unicode="&#xef;" horiz-adv-x="473" 
d="M124 0l124 1026h101l-124 -1026h-101zM440 1210l14 108h99l-14 -108h-99zM104 1210l14 108h98l-14 -108h-98z" />
    <glyph glyph-name="eth" unicode="&#xf0;" horiz-adv-x="1231" 
d="M533 60q179 0 290.5 114t135.5 311q2 13 2 39q0 128 -96.5 206.5t-256.5 78.5q-178 0 -290.5 -102t-133.5 -276q-4 -27 -4 -59q0 -145 93 -228.5t260 -83.5zM523 -22q-209 0 -326 103t-117 281q0 37 4 69q26 212 168 336t366 124q151 0 248 -63t137 -152q3 40 3 79
q0 170 -60.5 301t-193.5 231l-176 -124l-42 67l148 104q-123 76 -309 138l52 77q199 -62 341 -156l181 127l44 -65l-158 -111q256 -211 256 -583q0 -78 -10 -158q-36 -298 -179 -461.5t-377 -163.5z" />
    <glyph glyph-name="ntilde" unicode="&#xf1;" horiz-adv-x="1257" 
d="M905 1233q-48 0 -155.5 48.5t-141.5 48.5q-62 0 -72 -80h-62q9 71 44.5 107.5t92.5 36.5q50 0 155.5 -48.5t139.5 -48.5q27 0 37 19.5t16 66.5h66q-20 -150 -120 -150zM137 0l108 880l12 146h89l-15 -206q66 112 180.5 172t252.5 60q321 0 321 -331q0 -47 -6 -99
l-77 -622h-98l77 622q6 48 6 89q0 259 -233 259q-150 0 -265 -75.5t-170 -216.5l-84 -678h-98z" />
    <glyph glyph-name="ograve" unicode="&#xf2;" horiz-adv-x="1230" 
d="M1139 601q0 -186 -77 -328.5t-210.5 -218t-302.5 -75.5q-214 0 -336.5 119.5t-122.5 325.5q0 48 5 86q31 248 190 395t396 147q214 0 336 -121t122 -330zM559 61q216 0 348 146.5t132 388.5q0 175 -96 274.5t-272 99.5q-197 0 -323 -124t-153 -336q-5 -47 -5 -80
q0 -172 96 -270.5t273 -98.5zM668 1174l-284 282h135l203 -282h-54z" />
    <glyph glyph-name="oacute" unicode="&#xf3;" horiz-adv-x="1230" 
d="M1139 601q0 -186 -77 -328.5t-210.5 -218t-302.5 -75.5q-214 0 -336.5 119.5t-122.5 325.5q0 48 5 86q31 248 190 395t396 147q214 0 336 -121t122 -330zM559 61q216 0 348 146.5t132 388.5q0 175 -96 274.5t-272 99.5q-197 0 -323 -124t-153 -336q-5 -47 -5 -80
q0 -172 96 -270.5t273 -98.5zM672 1174l230 282h132l-307 -282h-55z" />
    <glyph glyph-name="ocircumflex" unicode="&#xf4;" horiz-adv-x="1230" 
d="M1139 601q0 -186 -77 -328.5t-210.5 -218t-302.5 -75.5q-214 0 -336.5 119.5t-122.5 325.5q0 48 5 86q31 248 190 395t396 147q214 0 336 -121t122 -330zM559 61q216 0 348 146.5t132 388.5q0 175 -96 274.5t-272 99.5q-197 0 -323 -124t-153 -336q-5 -47 -5 -80
q0 -172 96 -270.5t273 -98.5zM474 1215l240 272h57l167 -272h-56l-157 185l-201 -185h-50z" />
    <glyph glyph-name="otilde" unicode="&#xf5;" horiz-adv-x="1230" 
d="M860 1233q-48 0 -155.5 48.5t-141.5 48.5q-62 0 -72 -80h-62q9 71 44.5 107.5t92.5 36.5q50 0 155.5 -48.5t139.5 -48.5q27 0 37 19.5t16 66.5h66q-20 -150 -120 -150zM1139 601q0 -186 -77 -328.5t-210.5 -218t-302.5 -75.5q-214 0 -336.5 119.5t-122.5 325.5q0 48 5 86
q31 248 190 395t396 147q214 0 336 -121t122 -330zM559 61q216 0 348 146.5t132 388.5q0 175 -96 274.5t-272 99.5q-197 0 -323 -124t-153 -336q-5 -47 -5 -80q0 -172 96 -270.5t273 -98.5z" />
    <glyph glyph-name="odieresis" unicode="&#xf6;" horiz-adv-x="1230" 
d="M1139 601q0 -186 -77 -328.5t-210.5 -218t-302.5 -75.5q-214 0 -336.5 119.5t-122.5 325.5q0 48 5 86q31 248 190 395t396 147q214 0 336 -121t122 -330zM559 61q216 0 348 146.5t132 388.5q0 175 -96 274.5t-272 99.5q-197 0 -323 -124t-153 -336q-5 -47 -5 -80
q0 -172 96 -270.5t273 -98.5zM819 1210l14 108h99l-14 -108h-99zM483 1210l14 108h98l-14 -108h-98z" />
    <glyph glyph-name="divide" unicode="&#xf7;" horiz-adv-x="1006" 
d="M503 896l20 167h155l-20 -167h-155zM122 511l12 91h805l-12 -91h-805zM396 49l20 166h155l-21 -166h-154z" />
    <glyph glyph-name="oslash" unicode="&#xf8;" horiz-adv-x="1230" 
d="M235 -228l-40 18l812 1459l45 -21zM1139 601q0 -186 -77 -328.5t-210.5 -218t-302.5 -75.5q-214 0 -336.5 119.5t-122.5 325.5q0 48 5 86q31 248 190 395t396 147q214 0 336 -121t122 -330zM559 61q216 0 348 146.5t132 388.5q0 175 -96 274.5t-272 99.5
q-197 0 -323 -124t-153 -336q-5 -47 -5 -80q0 -172 96 -270.5t273 -98.5z" />
    <glyph glyph-name="ugrave" unicode="&#xf9;" horiz-adv-x="1285" 
d="M519 -26q-168 0 -253 86t-85 255q0 46 6 97l76 614h98l-76 -618q-6 -45 -6 -85q0 -267 250 -267q90 0 171.5 33t133.5 81.5t84 97.5t36 87l83 671h98l-99 -801q-17 -135 -22 -225h-89l14 191q-164 -217 -420 -217zM705 1174l-284 282h135l203 -282h-54z" />
    <glyph glyph-name="uacute" unicode="&#xfa;" horiz-adv-x="1285" 
d="M519 -26q-168 0 -253 86t-85 255q0 46 6 97l76 614h98l-76 -618q-6 -45 -6 -85q0 -267 250 -267q90 0 171.5 33t133.5 81.5t84 97.5t36 87l83 671h98l-99 -801q-17 -135 -22 -225h-89l14 191q-164 -217 -420 -217zM709 1174l230 282h132l-307 -282h-55z" />
    <glyph glyph-name="ucircumflex" unicode="&#xfb;" horiz-adv-x="1285" 
d="M519 -26q-168 0 -253 86t-85 255q0 46 6 97l76 614h98l-76 -618q-6 -45 -6 -85q0 -267 250 -267q90 0 171.5 33t133.5 81.5t84 97.5t36 87l83 671h98l-99 -801q-17 -135 -22 -225h-89l14 191q-164 -217 -420 -217zM511 1215l240 272h57l167 -272h-56l-157 185l-201 -185
h-50z" />
    <glyph glyph-name="udieresis" unicode="&#xfc;" horiz-adv-x="1285" 
d="M519 -26q-168 0 -253 86t-85 255q0 46 6 97l76 614h98l-76 -618q-6 -45 -6 -85q0 -267 250 -267q90 0 171.5 33t133.5 81.5t84 97.5t36 87l83 671h98l-99 -801q-17 -135 -22 -225h-89l14 191q-164 -217 -420 -217zM856 1210l14 108h99l-14 -108h-99zM520 1210l14 108h98
l-14 -108h-98z" />
    <glyph glyph-name="yacute" unicode="&#xfd;" horiz-adv-x="983" 
d="M68 -417l-24 72q77 19 137.5 50.5t100.5 71.5t62.5 71.5t45.5 72.5l31 58l-270 1047h106l228 -929l467 929h96l-545 -1078q-154 -315 -435 -365zM601 1174l230 282h132l-307 -282h-55z" />
    <glyph glyph-name="thorn" unicode="&#xfe;" horiz-adv-x="1247" 
d="M615 61q187 0 307 151t120 395q0 171 -84 264.5t-232 93.5q-84 0 -154 -25.5t-118 -68t-84 -101.5t-55.5 -123t-28.5 -135q-5 -38 -5 -86q0 -169 85.5 -267t248.5 -98zM1155 617q0 -288 -154.5 -464t-395.5 -176q-128 0 -222.5 59.5t-134.5 164.5l-79 -650h-115l234 1899
h114l-74 -619q69 106 173.5 163t235.5 57q197 0 307.5 -113t110.5 -321z" />
    <glyph glyph-name="ydieresis" unicode="&#xff;" horiz-adv-x="983" 
d="M68 -417l-24 72q77 19 137.5 50.5t100.5 71.5t62.5 71.5t45.5 72.5l31 58l-270 1047h106l228 -929l467 929h96l-545 -1078q-154 -315 -435 -365zM748 1210l14 108h99l-14 -108h-99zM412 1210l14 108h98l-14 -108h-98z" />
    <glyph glyph-name="Amacron" unicode="&#x100;" horiz-adv-x="1329" 
d="M507 1665l10 75h530l-10 -75h-530zM328 473h619q-66 299 -202 893q-278 -596 -417 -893zM-21 0l708 1456h134l351 -1456h-112l-94 399h-674l-192 -399h-121z" />
    <glyph glyph-name="amacron" unicode="&#x101;" horiz-adv-x="1253" 
d="M403 1235l10 75h530l-10 -75h-530zM637 970q-194 0 -320 -148.5t-126 -385.5q0 -174 89 -274.5t245 -100.5q173 0 284.5 124.5t138.5 338.5q5 38 5 85q0 164 -88.5 262.5t-227.5 98.5zM91 425q0 281 156.5 454t399.5 173q128 0 217 -62.5t121 -164.5l25 201h98
l-126 -1026h-98l26 215q-61 -108 -163.5 -172t-235.5 -64q-197 0 -308.5 119.5t-111.5 326.5z" />
    <glyph glyph-name="Abreve" unicode="&#x102;" horiz-adv-x="1329" 
d="M770 1592q-103 0 -148 48t-45 148v18h75q-1 -8 -1 -22q0 -58 30 -87t98 -29q71 0 105 35t55 103h73q-20 -104 -82 -159t-160 -55zM328 473h619q-66 299 -202 893q-278 -596 -417 -893zM-21 0l708 1456h134l351 -1456h-112l-94 399h-674l-192 -399h-121z" />
    <glyph glyph-name="abreve" unicode="&#x103;" horiz-adv-x="1253" 
d="M666 1162q-103 0 -148 48t-45 148v18h75q-1 -8 -1 -22q0 -58 30 -87t98 -29q71 0 105 35t55 103h73q-20 -104 -82 -159t-160 -55zM637 970q-194 0 -320 -148.5t-126 -385.5q0 -174 89 -274.5t245 -100.5q173 0 284.5 124.5t138.5 338.5q5 38 5 85q0 164 -88.5 262.5
t-227.5 98.5zM91 425q0 281 156.5 454t399.5 173q128 0 217 -62.5t121 -164.5l25 201h98l-126 -1026h-98l26 215q-61 -108 -163.5 -172t-235.5 -64q-197 0 -308.5 119.5t-111.5 326.5z" />
    <glyph glyph-name="Aogonek" unicode="&#x104;" horiz-adv-x="1329" 
d="M1084 -448q-89 0 -148.5 55t-59.5 135q0 15 1 23q8 62 56 124.5t137 115.5l82 -1q-82 -56 -124.5 -118.5t-48.5 -112.5q-1 -6 -1 -19q0 -49 31.5 -79t87.5 -30q36 0 78 13l-11 -95q-38 -11 -80 -11zM328 473h619q-66 299 -202 893q-278 -596 -417 -893zM-21 0l708 1456
h134l351 -1456h-112l-94 399h-674l-192 -399h-121z" />
    <glyph glyph-name="aogonek" unicode="&#x105;" horiz-adv-x="1253" 
d="M910 -448q-89 0 -148.5 55t-59.5 135q0 15 1 23q8 62 56 124.5t137 115.5l82 -1q-82 -56 -124.5 -118.5t-48.5 -112.5q-1 -6 -1 -19q0 -49 31.5 -79t87.5 -30q36 0 78 13l-11 -95q-38 -11 -80 -11zM637 970q-194 0 -320 -148.5t-126 -385.5q0 -174 89 -274.5t245 -100.5
q173 0 284.5 124.5t138.5 338.5q5 38 5 85q0 164 -88.5 262.5t-227.5 98.5zM91 425q0 281 156.5 454t399.5 173q128 0 217 -62.5t121 -164.5l25 201h98l-126 -1026h-98l26 215q-61 -108 -163.5 -172t-235.5 -64q-197 0 -308.5 119.5t-111.5 326.5z" />
    <glyph glyph-name="Cacute" unicode="&#x106;" horiz-adv-x="1389" 
d="M888 1604l230 282h132l-307 -282h-55zM718 -22q-288 0 -453.5 162t-165.5 440q0 54 8 121q44 356 263.5 568t545.5 212q255 0 402 -139l-52 -68q-139 121 -360 121q-276 0 -463.5 -188.5t-225.5 -505.5q-7 -53 -7 -110q0 -243 138 -384.5t380 -141.5q240 0 444 125
l26 -75q-228 -137 -480 -137z" />
    <glyph glyph-name="cacute" unicode="&#x107;" horiz-adv-x="1022" 
d="M546 -21q-213 0 -335 117.5t-122 320.5q0 49 5 85q31 251 192.5 400.5t401.5 149.5q89 0 170.5 -27t128.5 -73l-42 -72q-92 90 -267 90q-194 0 -326 -127t-158 -341q-5 -43 -5 -74q0 -169 98 -268t269 -99q183 0 331 106l26 -67q-63 -55 -162.5 -88t-204.5 -33zM635 1174
l230 282h132l-307 -282h-55z" />
    <glyph glyph-name="Ccircumflex" unicode="&#x108;" horiz-adv-x="1389" 
d="M690 1645l240 272h57l167 -272h-56l-157 185l-201 -185h-50zM718 -22q-288 0 -453.5 162t-165.5 440q0 54 8 121q44 356 263.5 568t545.5 212q255 0 402 -139l-52 -68q-139 121 -360 121q-276 0 -463.5 -188.5t-225.5 -505.5q-7 -53 -7 -110q0 -243 138 -384.5
t380 -141.5q240 0 444 125l26 -75q-228 -137 -480 -137z" />
    <glyph glyph-name="ccircumflex" unicode="&#x109;" horiz-adv-x="1022" 
d="M437 1215l240 272h57l167 -272h-56l-157 185l-201 -185h-50zM546 -21q-213 0 -335 117.5t-122 320.5q0 49 5 85q31 251 192.5 400.5t401.5 149.5q89 0 170.5 -27t128.5 -73l-42 -72q-92 90 -267 90q-194 0 -326 -127t-158 -341q-5 -43 -5 -74q0 -169 98 -268t269 -99
q183 0 331 106l26 -67q-63 -55 -162.5 -88t-204.5 -33z" />
    <glyph glyph-name="Cdotaccent" unicode="&#x10a;" horiz-adv-x="1389" 
d="M860 1668l16 126h122l-16 -126h-122zM718 -22q-288 0 -453.5 162t-165.5 440q0 54 8 121q44 356 263.5 568t545.5 212q255 0 402 -139l-52 -68q-139 121 -360 121q-276 0 -463.5 -188.5t-225.5 -505.5q-7 -53 -7 -110q0 -243 138 -384.5t380 -141.5q240 0 444 125l26 -75
q-228 -137 -480 -137z" />
    <glyph glyph-name="cdotaccent" unicode="&#x10b;" horiz-adv-x="1022" 
d="M607 1238l16 126h122l-16 -126h-122zM546 -21q-213 0 -335 117.5t-122 320.5q0 49 5 85q31 251 192.5 400.5t401.5 149.5q89 0 170.5 -27t128.5 -73l-42 -72q-92 90 -267 90q-194 0 -326 -127t-158 -341q-5 -43 -5 -74q0 -169 98 -268t269 -99q183 0 331 106l26 -67
q-63 -55 -162.5 -88t-204.5 -33z" />
    <glyph glyph-name="Ccaron" unicode="&#x10c;" horiz-adv-x="1389" 
d="M862 1645l-178 268h78l159 -221l221 221h87l-242 -268h-125zM718 -22q-288 0 -453.5 162t-165.5 440q0 54 8 121q44 356 263.5 568t545.5 212q255 0 402 -139l-52 -68q-139 121 -360 121q-276 0 -463.5 -188.5t-225.5 -505.5q-7 -53 -7 -110q0 -243 138 -384.5
t380 -141.5q240 0 444 125l26 -75q-228 -137 -480 -137z" />
    <glyph glyph-name="ccaron" unicode="&#x10d;" horiz-adv-x="1022" 
d="M609 1215l-178 268h78l159 -221l221 221h87l-242 -268h-125zM546 -21q-213 0 -335 117.5t-122 320.5q0 49 5 85q31 251 192.5 400.5t401.5 149.5q89 0 170.5 -27t128.5 -73l-42 -72q-92 90 -267 90q-194 0 -326 -127t-158 -341q-5 -43 -5 -74q0 -169 98 -268t269 -99
q183 0 331 106l26 -67q-63 -55 -162.5 -88t-204.5 -33z" />
    <glyph glyph-name="Dcaron" unicode="&#x10e;" horiz-adv-x="1523" 
d="M794 1645l-178 268h78l159 -221l221 221h87l-242 -268h-125zM135 0l178 1456h374q349 0 528 -153.5t179 -451.5q0 -65 -9 -139q-43 -350 -260.5 -531t-593.5 -181h-396zM253 86h288q323 0 510 159.5t224 466.5q8 70 8 126q0 262 -153.5 397t-452.5 135h-266z" />
    <glyph glyph-name="dcaron" unicode="&#x10f;" horiz-adv-x="1256" 
d="M587 970q-192 0 -309.5 -151t-117.5 -394q0 -170 82 -267t234 -97q200 0 331.5 150t131.5 390q0 171 -94 270t-258 99zM62 421q0 281 151.5 456t383.5 175q136 0 237 -69t134 -184l88 717h98l-153 -1248q-6 -47 -12.5 -114t-10 -109.5t-3.5 -44.5h-99l25 239
q-58 -119 -176 -189.5t-259 -70.5q-189 0 -296.5 118.5t-107.5 323.5zM1199 1082l157 433h117l-204 -433h-70z" />
    <glyph glyph-name="Dcroat" unicode="&#x110;" horiz-adv-x="1523" 
d="M63 717l8 73h459l-8 -73h-459zM135 0l178 1456h374q349 0 528 -153.5t179 -451.5q0 -65 -9 -139q-43 -350 -260.5 -531t-593.5 -181h-396zM253 86h288q323 0 510 159.5t224 466.5q8 70 8 126q0 262 -153.5 397t-452.5 135h-266z" />
    <glyph glyph-name="dcroat" unicode="&#x111;" horiz-adv-x="1256" 
d="M795 1222l10 75h530l-10 -75h-530zM587 970q-192 0 -309.5 -151t-117.5 -394q0 -170 82 -267t234 -97q200 0 331.5 150t131.5 390q0 171 -94 270t-258 99zM62 421q0 281 151.5 456t383.5 175q136 0 237 -69t134 -184l88 717h98l-153 -1248q-6 -47 -12.5 -114t-10 -109.5
t-3.5 -44.5h-99l25 239q-58 -119 -176 -189.5t-259 -70.5q-189 0 -296.5 118.5t-107.5 323.5z" />
    <glyph glyph-name="Emacron" unicode="&#x112;" horiz-adv-x="1219" 
d="M480 1665l10 75h530l-10 -75h-530zM135 0l178 1456h810l-10 -86h-702l-72 -583h663l-10 -86h-665l-76 -615h734l-10 -86h-840z" />
    <glyph glyph-name="emacron" unicode="&#x113;" horiz-adv-x="1133" 
d="M401 1235l10 75h530l-10 -75h-530zM210 578h761q1 14 1 40q0 162 -87 257t-237 95q-164 0 -283 -106.5t-155 -285.5zM550 -21q-214 0 -337 119.5t-123 324.5q0 49 5 85q31 248 184 396t379 148q186 0 292 -108.5t106 -295.5q0 -35 -5 -83l-7 -58h-849q-6 -42 -6 -81
q0 -169 99 -267t272 -98q95 0 190 31t170 85l28 -69q-79 -59 -186.5 -94t-211.5 -35z" />
    <glyph glyph-name="Ebreve" unicode="&#x114;" horiz-adv-x="1219" 
d="M743 1592q-103 0 -148 48t-45 148v18h75q-1 -8 -1 -22q0 -58 30 -87t98 -29q71 0 105 35t55 103h73q-20 -104 -82 -159t-160 -55zM135 0l178 1456h810l-10 -86h-702l-72 -583h663l-10 -86h-665l-76 -615h734l-10 -86h-840z" />
    <glyph glyph-name="ebreve" unicode="&#x115;" horiz-adv-x="1133" 
d="M210 578h761q1 14 1 40q0 162 -87 257t-237 95q-164 0 -283 -106.5t-155 -285.5zM550 -21q-214 0 -337 119.5t-123 324.5q0 49 5 85q31 248 184 396t379 148q186 0 292 -108.5t106 -295.5q0 -35 -5 -83l-7 -58h-849q-6 -42 -6 -81q0 -169 99 -267t272 -98q95 0 190 31
t170 85l28 -69q-79 -59 -186.5 -94t-211.5 -35zM664 1162q-103 0 -148 48t-45 148v18h75q-1 -8 -1 -22q0 -58 30 -87t98 -29q71 0 105 35t55 103h73q-20 -104 -82 -159t-160 -55z" />
    <glyph glyph-name="Edotaccent" unicode="&#x116;" horiz-adv-x="1219" 
d="M692 1668l16 126h122l-16 -126h-122zM135 0l178 1456h810l-10 -86h-702l-72 -583h663l-10 -86h-665l-76 -615h734l-10 -86h-840z" />
    <glyph glyph-name="edotaccent" unicode="&#x117;" horiz-adv-x="1133" 
d="M210 578h761q1 14 1 40q0 162 -87 257t-237 95q-164 0 -283 -106.5t-155 -285.5zM550 -21q-214 0 -337 119.5t-123 324.5q0 49 5 85q31 248 184 396t379 148q186 0 292 -108.5t106 -295.5q0 -35 -5 -83l-7 -58h-849q-6 -42 -6 -81q0 -169 99 -267t272 -98q95 0 190 31
t170 85l28 -69q-79 -59 -186.5 -94t-211.5 -35zM613 1238l16 126h122l-16 -126h-122z" />
    <glyph glyph-name="Eogonek" unicode="&#x118;" horiz-adv-x="1219" 
d="M727 -448q-89 0 -148.5 55t-59.5 135q0 15 1 23q8 62 56 124.5t137 115.5l82 -1q-82 -56 -124.5 -118.5t-48.5 -112.5q-1 -6 -1 -19q0 -49 31.5 -79t87.5 -30q36 0 78 13l-11 -95q-38 -11 -80 -11zM135 0l178 1456h810l-10 -86h-702l-72 -583h663l-10 -86h-665l-76 -615
h734l-10 -86h-840z" />
    <glyph glyph-name="eogonek" unicode="&#x119;" horiz-adv-x="1133" 
d="M590 -448q-89 0 -148.5 55t-59.5 135q0 15 1 23q8 62 56 124.5t137 115.5l82 -1q-82 -56 -124.5 -118.5t-48.5 -112.5q-1 -6 -1 -19q0 -49 31.5 -79t87.5 -30q36 0 78 13l-11 -95q-38 -11 -80 -11zM210 578h761q1 14 1 40q0 162 -87 257t-237 95q-164 0 -283 -106.5
t-155 -285.5zM550 -21q-214 0 -337 119.5t-123 324.5q0 49 5 85q31 248 184 396t379 148q186 0 292 -108.5t106 -295.5q0 -35 -5 -83l-7 -58h-849q-6 -42 -6 -81q0 -169 99 -267t272 -98q95 0 190 31t170 85l28 -69q-79 -59 -186.5 -94t-211.5 -35z" />
    <glyph glyph-name="Ecaron" unicode="&#x11a;" horiz-adv-x="1219" 
d="M694 1645l-178 268h78l159 -221l221 221h87l-242 -268h-125zM135 0l178 1456h810l-10 -86h-702l-72 -583h663l-10 -86h-665l-76 -615h734l-10 -86h-840z" />
    <glyph glyph-name="ecaron" unicode="&#x11b;" horiz-adv-x="1133" 
d="M210 578h761q1 14 1 40q0 162 -87 257t-237 95q-164 0 -283 -106.5t-155 -285.5zM550 -21q-214 0 -337 119.5t-123 324.5q0 49 5 85q31 248 184 396t379 148q186 0 292 -108.5t106 -295.5q0 -35 -5 -83l-7 -58h-849q-6 -42 -6 -81q0 -169 99 -267t272 -98q95 0 190 31
t170 85l28 -69q-79 -59 -186.5 -94t-211.5 -35zM615 1215l-178 268h78l159 -221l221 221h87l-242 -268h-125z" />
    <glyph glyph-name="Gcircumflex" unicode="&#x11c;" horiz-adv-x="1513" 
d="M740 1645l240 272h57l167 -272h-56l-157 185l-201 -185h-50zM741 -21q-302 0 -472 163t-170 445q0 53 8 119q29 234 140 409.5t288 270.5t398 95h32q236 0 418 -147l-55 -77q-191 138 -405 138q-283 0 -475.5 -187.5t-230.5 -501.5q-7 -53 -7 -109q0 -247 143.5 -389.5
t399.5 -142.5q112 0 227.5 17.5t195.5 52.5l63 510h-409l10 86h505l-80 -651q-219 -101 -524 -101z" />
    <glyph glyph-name="gcircumflex" unicode="&#x11d;" horiz-adv-x="1268" 
d="M662 970q-193 0 -319.5 -151t-126.5 -392q0 -168 85 -264.5t234 -96.5q202 0 332 147t130 386q0 172 -89 271.5t-246 99.5zM116 418q0 187 72.5 332.5t199 223.5t284.5 78q132 0 227.5 -65t129.5 -170l36 209h95l-31 -189l-88 -723q-18 -143 -70 -251.5t-130 -174.5
t-172.5 -98.5t-204.5 -32.5q-187 0 -341 66l23 86q161 -68 329 -68q190 0 313.5 113.5t154.5 359.5l15 122q-61 -121 -177 -186.5t-256 -65.5q-191 0 -300 116.5t-109 317.5zM463 1215l240 272h57l167 -272h-56l-157 185l-201 -185h-50z" />
    <glyph glyph-name="Gbreve" unicode="&#x11e;" horiz-adv-x="1513" 
d="M961 1592q-103 0 -148 48t-45 148v18h75q-1 -8 -1 -22q0 -58 30 -87t98 -29q71 0 105 35t55 103h73q-20 -104 -82 -159t-160 -55zM741 -21q-302 0 -472 163t-170 445q0 53 8 119q29 234 140 409.5t288 270.5t398 95h32q236 0 418 -147l-55 -77q-191 138 -405 138
q-283 0 -475.5 -187.5t-230.5 -501.5q-7 -53 -7 -109q0 -247 143.5 -389.5t399.5 -142.5q112 0 227.5 17.5t195.5 52.5l63 510h-409l10 86h505l-80 -651q-219 -101 -524 -101z" />
    <glyph glyph-name="gbreve" unicode="&#x11f;" horiz-adv-x="1268" 
d="M662 970q-193 0 -319.5 -151t-126.5 -392q0 -168 85 -264.5t234 -96.5q202 0 332 147t130 386q0 172 -89 271.5t-246 99.5zM116 418q0 187 72.5 332.5t199 223.5t284.5 78q132 0 227.5 -65t129.5 -170l36 209h95l-31 -189l-88 -723q-18 -143 -70 -251.5t-130 -174.5
t-172.5 -98.5t-204.5 -32.5q-187 0 -341 66l23 86q161 -68 329 -68q190 0 313.5 113.5t154.5 359.5l15 122q-61 -121 -177 -186.5t-256 -65.5q-191 0 -300 116.5t-109 317.5zM684 1162q-103 0 -148 48t-45 148v18h75q-1 -8 -1 -22q0 -58 30 -87t98 -29q71 0 105 35t55 103
h73q-20 -104 -82 -159t-160 -55z" />
    <glyph glyph-name="Gdotaccent" unicode="&#x120;" horiz-adv-x="1513" 
d="M910 1668l16 126h122l-16 -126h-122zM741 -21q-302 0 -472 163t-170 445q0 53 8 119q29 234 140 409.5t288 270.5t398 95h32q236 0 418 -147l-55 -77q-191 138 -405 138q-283 0 -475.5 -187.5t-230.5 -501.5q-7 -53 -7 -109q0 -247 143.5 -389.5t399.5 -142.5
q112 0 227.5 17.5t195.5 52.5l63 510h-409l10 86h505l-80 -651q-219 -101 -524 -101z" />
    <glyph glyph-name="gdotaccent" unicode="&#x121;" horiz-adv-x="1268" 
d="M662 970q-193 0 -319.5 -151t-126.5 -392q0 -168 85 -264.5t234 -96.5q202 0 332 147t130 386q0 172 -89 271.5t-246 99.5zM116 418q0 187 72.5 332.5t199 223.5t284.5 78q132 0 227.5 -65t129.5 -170l36 209h95l-31 -189l-88 -723q-18 -143 -70 -251.5t-130 -174.5
t-172.5 -98.5t-204.5 -32.5q-187 0 -341 66l23 86q161 -68 329 -68q190 0 313.5 113.5t154.5 359.5l15 122q-61 -121 -177 -186.5t-256 -65.5q-191 0 -300 116.5t-109 317.5zM633 1238l16 126h122l-16 -126h-122z" />
    <glyph glyph-name="Gcommaaccent" unicode="&#x122;" horiz-adv-x="1513" 
d="M540 -557l157 433h117l-204 -433h-70zM741 -21q-302 0 -472 163t-170 445q0 53 8 119q29 234 140 409.5t288 270.5t398 95h32q236 0 418 -147l-55 -77q-191 138 -405 138q-283 0 -475.5 -187.5t-230.5 -501.5q-7 -53 -7 -109q0 -247 143.5 -389.5t399.5 -142.5
q112 0 227.5 17.5t195.5 52.5l63 510h-409l10 86h505l-80 -651q-219 -101 -524 -101z" />
    <glyph glyph-name="gcommaaccent" unicode="&#x123;" horiz-adv-x="1268" 
d="M916 1683l-157 -433h-117l204 433h70zM662 970q-193 0 -319.5 -151t-126.5 -392q0 -168 85 -264.5t234 -96.5q202 0 332 147t130 386q0 172 -89 271.5t-246 99.5zM116 418q0 187 72.5 332.5t199 223.5t284.5 78q132 0 227.5 -65t129.5 -170l36 209h95l-31 -189l-88 -723
q-18 -143 -70 -251.5t-130 -174.5t-172.5 -98.5t-204.5 -32.5q-187 0 -341 66l23 86q161 -68 329 -68q190 0 313.5 113.5t154.5 359.5l15 122q-61 -121 -177 -186.5t-256 -65.5q-191 0 -300 116.5t-109 317.5z" />
    <glyph glyph-name="Hcircumflex" unicode="&#x124;" horiz-adv-x="1558" 
d="M673 1645l240 272h57l167 -272h-56l-157 185l-201 -185h-50zM135 0l178 1456h112l-82 -670h894l82 670h104l-178 -1456h-108l86 700h-894l-86 -700h-108z" />
    <glyph glyph-name="hcircumflex" unicode="&#x125;" horiz-adv-x="1255" 
d="M103 0l186 1516h98l-85 -689q70 102 181 163.5t253 61.5q60 0 112.5 -13.5t102.5 -44.5t79.5 -93t29.5 -149q0 -37 -4 -70l-84 -682h-98l81 659q6 45 6 84q0 114 -55.5 170.5t-179.5 56.5q-105 0 -205.5 -48.5t-166 -128t-76.5 -165.5l-77 -628h-98zM531 1215l240 272h57
l167 -272h-56l-157 185l-201 -185h-50z" />
    <glyph glyph-name="Hbar" unicode="&#x126;" horiz-adv-x="1594" 
d="M198 1223l5 57h1317l-7 -57h-1315zM135 0l178 1456h112l-82 -670h894l82 670h104l-178 -1456h-108l86 700h-894l-86 -700h-108z" />
    <glyph glyph-name="hbar" unicode="&#x127;" horiz-adv-x="1255" 
d="M46 1219l10 75h530l-10 -75h-530zM103 0l186 1516h98l-85 -689q70 102 181 163.5t253 61.5q60 0 112.5 -13.5t102.5 -44.5t79.5 -93t29.5 -149q0 -37 -4 -70l-84 -682h-98l81 659q6 45 6 84q0 114 -55.5 170.5t-179.5 56.5q-105 0 -205.5 -48.5t-166 -128t-76.5 -165.5
l-77 -628h-98z" />
    <glyph glyph-name="Itilde" unicode="&#x128;" horiz-adv-x="592" 
d="M567 1663q-48 0 -155.5 48.5t-141.5 48.5q-62 0 -72 -80h-62q9 71 44.5 107.5t92.5 36.5q50 0 155.5 -48.5t139.5 -48.5q27 0 37 19.5t16 66.5h66q-20 -150 -120 -150zM153 0l178 1456h108l-178 -1456h-108z" />
    <glyph glyph-name="itilde" unicode="&#x129;" horiz-adv-x="473" 
d="M481 1233q-48 0 -155.5 48.5t-141.5 48.5q-62 0 -72 -80h-62q9 71 44.5 107.5t92.5 36.5q50 0 155.5 -48.5t139.5 -48.5q27 0 37 19.5t16 66.5h66q-20 -150 -120 -150zM124 0l124 1026h101l-124 -1026h-101z" />
    <glyph glyph-name="Imacron" unicode="&#x12a;" horiz-adv-x="592" 
d="M139 1665l10 75h530l-10 -75h-530zM153 0l178 1456h108l-178 -1456h-108z" />
    <glyph glyph-name="imacron" unicode="&#x12b;" horiz-adv-x="473" 
d="M53 1235l10 75h530l-10 -75h-530zM124 0l124 1026h101l-124 -1026h-101z" />
    <glyph glyph-name="Ibreve" unicode="&#x12c;" horiz-adv-x="592" 
d="M402 1592q-103 0 -148 48t-45 148v18h75q-1 -8 -1 -22q0 -58 30 -87t98 -29q71 0 105 35t55 103h73q-20 -104 -82 -159t-160 -55zM153 0l178 1456h108l-178 -1456h-108z" />
    <glyph glyph-name="ibreve" unicode="&#x12d;" horiz-adv-x="473" 
d="M124 0l124 1026h101l-124 -1026h-101zM316 1162q-103 0 -148 48t-45 148v18h75q-1 -8 -1 -22q0 -58 30 -87t98 -29q71 0 105 35t55 103h73q-20 -104 -82 -159t-160 -55z" />
    <glyph glyph-name="Iogonek" unicode="&#x12e;" horiz-adv-x="592" 
d="M176 -448q-89 0 -148.5 55t-59.5 135q0 15 1 23q8 62 56 124.5t137 115.5l82 -1q-82 -56 -124.5 -118.5t-48.5 -112.5q-1 -6 -1 -19q0 -49 31.5 -79t87.5 -30q36 0 78 13l-11 -95q-38 -11 -80 -11zM153 0l178 1456h108l-178 -1456h-108z" />
    <glyph glyph-name="iogonek" unicode="&#x12f;" horiz-adv-x="473" 
d="M151 -448q-89 0 -148.5 55t-59.5 135q0 15 1 23q8 62 56 124.5t137 115.5l82 -1q-82 -56 -124.5 -118.5t-48.5 -112.5q-1 -6 -1 -19q0 -49 31.5 -79t87.5 -30q36 0 78 13l-11 -95q-38 -11 -80 -11zM124 0l124 1026h101l-124 -1026h-101zM265 1238l16 126h122l-16 -126
h-122z" />
    <glyph glyph-name="Idotaccent" unicode="&#x130;" horiz-adv-x="592" 
d="M351 1668l16 126h122l-16 -126h-122zM153 0l178 1456h108l-178 -1456h-108z" />
    <glyph glyph-name="dotlessi" unicode="&#x131;" horiz-adv-x="473" 
d="M124 0l124 1026h101l-124 -1026h-101z" />
    <glyph glyph-name="IJ" unicode="&#x132;" horiz-adv-x="1259" 
d="M576 -312q-26 0 -92 2l12 87q52 -3 95 -3q99 0 150.5 27t82 102t49.5 229l163 1324h108l-163 -1324q-12 -95 -29.5 -165.5t-44 -119.5t-57.5 -80t-75 -48.5t-90 -24t-109 -6.5zM153 0l178 1456h108l-178 -1456h-108z" />
    <glyph glyph-name="ij" unicode="&#x133;" horiz-adv-x="994" 
d="M806 1346l14 110h98l-14 -110h-98zM324 -438l11 76q29 -4 62 -4q130 0 187.5 88.5t81.5 287.5l124 1016h98l-127 -1026q-9 -76 -23 -135.5t-41 -119.5t-65 -99.5t-97 -64.5t-134 -25q-36 0 -77 6zM317 1346l13 110h98l-13 -110h-98zM152 0l126 1026h98l-126 -1026h-98z
" />
    <glyph glyph-name="Jcircumflex" unicode="&#x134;" horiz-adv-x="667" 
d="M291 1645l240 272h57l167 -272h-56l-157 185l-201 -185h-50zM-16 -312q-26 0 -92 2l12 87q52 -3 95 -3q99 0 150.5 27t82 102t49.5 229l163 1324h108l-163 -1324q-12 -95 -29.5 -165.5t-44 -119.5t-57.5 -80t-75 -48.5t-90 -24t-109 -6.5z" />
    <glyph glyph-name="jcircumflex" unicode="&#x135;" horiz-adv-x="503" 
d="M-167 -438l11 76q29 -4 62 -4q130 0 187.5 88.5t81.5 287.5l124 1016h98l-127 -1026q-9 -76 -23 -135.5t-41 -119.5t-65 -99.5t-97 -64.5t-134 -25q-36 0 -77 6zM153 1215l240 272h57l167 -272h-56l-157 185l-201 -185h-50z" />
    <glyph glyph-name="Kcommaaccent" unicode="&#x136;" horiz-adv-x="1232" 
d="M399 -557l157 433h117l-204 -433h-70zM135 0l178 1456h108l-83 -682l797 682h132l-814 -698l681 -758h-126l-676 745l-91 -745h-106z" />
    <glyph glyph-name="kcommaaccent" unicode="&#x137;" horiz-adv-x="1045" 
d="M264 -557l157 433h117l-204 -433h-70zM103 0l186 1516h98l-119 -967l607 477h129l-617 -483l533 -543h-128l-525 535l-66 -535h-98z" />
    <glyph glyph-name="kgreenlandic" unicode="&#x138;" horiz-adv-x="1082" 
d="M140 0l126 1026h103l-61 -501l611 501h140l-627 -512l542 -514h-136l-532 513l-63 -513h-103z" />
    <glyph glyph-name="Lacute" unicode="&#x139;" horiz-adv-x="1045" 
d="M370 1604l230 282h132l-307 -282h-55zM135 0l178 1456h108l-168 -1370h681l-10 -86h-789z" />
    <glyph glyph-name="lacute" unicode="&#x13a;" horiz-adv-x="509" 
d="M112 0l186 1516h98l-186 -1516h-98zM328 1604l230 282h132l-307 -282h-55z" />
    <glyph glyph-name="Lcommaaccent" unicode="&#x13b;" horiz-adv-x="1045" 
d="M343 -557l157 433h117l-204 -433h-70zM135 0l178 1456h108l-168 -1370h681l-10 -86h-789z" />
    <glyph glyph-name="lcommaaccent" unicode="&#x13c;" horiz-adv-x="509" 
d="M133 -557l157 433h117l-204 -433h-70zM112 0l186 1516h98l-186 -1516h-98z" />
    <glyph glyph-name="Lcaron" unicode="&#x13d;" horiz-adv-x="1045" 
d="M592 1082l157 433h117l-204 -433h-70zM135 0l178 1456h108l-168 -1370h681l-10 -86h-789z" />
    <glyph glyph-name="lcaron" unicode="&#x13e;" horiz-adv-x="509" 
d="M112 0l186 1516h98l-186 -1516h-98zM467 1082l157 433h117l-204 -433h-70z" />
    <glyph glyph-name="Ldot" unicode="&#x13f;" horiz-adv-x="1045" 
d="M521 693l20 160h128l-20 -160h-128zM135 0l178 1456h108l-168 -1370h681l-10 -86h-789z" />
    <glyph glyph-name="ldot" unicode="&#x140;" horiz-adv-x="509" 
d="M471 713l20 160h128l-20 -160h-128zM112 0l186 1516h98l-186 -1516h-98z" />
    <glyph glyph-name="Lslash" unicode="&#x141;" horiz-adv-x="1086" 
d="M41 537l9 75l594 335l-9 -74zM135 0l178 1456h108l-168 -1370h681l-10 -86h-789z" />
    <glyph glyph-name="lslash" unicode="&#x142;" horiz-adv-x="503" 
d="M113 0l81 663l-223 -100l10 79l224 100l95 774h101l-90 -735l236 104l-10 -75l-236 -104l-87 -706h-101z" />
    <glyph glyph-name="Nacute" unicode="&#x143;" horiz-adv-x="1571" 
d="M900 1604l230 282h132l-307 -282h-55zM135 0l178 1456h106l647 -1121l103 -193l161 1314h106l-178 -1456h-105l-664 1137l-88 166l-160 -1303h-106z" />
    <glyph glyph-name="nacute" unicode="&#x144;" horiz-adv-x="1257" 
d="M137 0l108 880l12 146h89l-15 -206q66 112 180.5 172t252.5 60q321 0 321 -331q0 -47 -6 -99l-77 -622h-98l77 622q6 48 6 89q0 259 -233 259q-150 0 -265 -75.5t-170 -216.5l-84 -678h-98zM717 1174l230 282h132l-307 -282h-55z" />
    <glyph glyph-name="Ncommaaccent" unicode="&#x145;" horiz-adv-x="1571" 
d="M503 -557l157 433h117l-204 -433h-70zM135 0l178 1456h106l647 -1121l103 -193l161 1314h106l-178 -1456h-105l-664 1137l-88 166l-160 -1303h-106z" />
    <glyph glyph-name="ncommaaccent" unicode="&#x146;" horiz-adv-x="1257" 
d="M364 -557l157 433h117l-204 -433h-70zM137 0l108 880l12 146h89l-15 -206q66 112 180.5 172t252.5 60q321 0 321 -331q0 -47 -6 -99l-77 -622h-98l77 622q6 48 6 89q0 259 -233 259q-150 0 -265 -75.5t-170 -216.5l-84 -678h-98z" />
    <glyph glyph-name="Ncaron" unicode="&#x147;" horiz-adv-x="1571" 
d="M874 1645l-178 268h78l159 -221l221 221h87l-242 -268h-125zM135 0l178 1456h106l647 -1121l103 -193l161 1314h106l-178 -1456h-105l-664 1137l-88 166l-160 -1303h-106z" />
    <glyph glyph-name="ncaron" unicode="&#x148;" horiz-adv-x="1257" 
d="M137 0l108 880l12 146h89l-15 -206q66 112 180.5 172t252.5 60q321 0 321 -331q0 -47 -6 -99l-77 -622h-98l77 622q6 48 6 89q0 259 -233 259q-150 0 -265 -75.5t-170 -216.5l-84 -678h-98zM691 1215l-178 268h78l159 -221l221 221h87l-242 -268h-125z" />
    <glyph glyph-name="napostrophe" unicode="&#x149;" horiz-adv-x="1250" 
d="M137 0l108 880l12 146h89l-15 -206q66 112 180.5 172t252.5 60q321 0 321 -331q0 -47 -6 -99l-77 -622h-98l77 622q6 48 6 89q0 259 -233 259q-150 0 -265 -75.5t-170 -216.5l-84 -678h-98zM86 1210l96 552h119l-148 -552h-67z" />
    <glyph glyph-name="Eng" unicode="&#x14a;" horiz-adv-x="1503" 
d="M1481 1456l-179 -1456q-7 -57 -14.5 -97t-22.5 -88.5t-35.5 -80.5t-53.5 -65.5t-76.5 -53t-105.5 -31.5t-139 -12l10 82q148 0 226 64.5t95 197.5l10 85l-663 1136l-88 166l-160 -1303h-106l179 1456h106l646 -1121l103 -193l162 1314h106z" />
    <glyph glyph-name="eng" unicode="&#x14b;" horiz-adv-x="1295" 
d="M610 -390l11 84q88 0 150 24.5t96 54t58 101t31.5 117t20.5 150.5q2 15 3 23l39 317q15 117 15 196q0 139 -57.5 212.5t-203.5 73.5q-79 0 -150.5 -25.5t-119 -61.5t-84 -77.5t-53.5 -73t-19 -47.5l-84 -678h-102l109 880l21 146h94l-8 -138q85 84 182.5 123t237.5 39
q100 0 169.5 -28.5t106 -81t51.5 -113.5t15 -139q0 -70 -12 -163l-45 -369q-8 -63 -14 -105t-17 -94.5t-23.5 -87t-31.5 -74.5t-43 -65t-57.5 -50t-74.5 -39t-94 -22.5t-117 -8.5z" />
    <glyph glyph-name="Omacron" unicode="&#x14c;" 
d="M628 1665l10 75h530l-10 -75h-530zM696 -21q-278 0 -436.5 165t-158.5 450q0 57 8 129q43 346 251.5 552t519.5 206q274 0 432 -167.5t158 -455.5q0 -64 -9 -135q-41 -339 -249.5 -541.5t-515.5 -202.5zM706 65q186 0 334.5 97.5t233.5 277t85 409.5q0 253 -130 399.5
t-359 146.5q-260 0 -437 -182.5t-214 -489.5q-8 -66 -8 -120q0 -249 132.5 -393.5t362.5 -144.5z" />
    <glyph glyph-name="omacron" unicode="&#x14d;" horiz-adv-x="1230" 
d="M1139 601q0 -186 -77 -328.5t-210.5 -218t-302.5 -75.5q-214 0 -336.5 119.5t-122.5 325.5q0 48 5 86q31 248 190 395t396 147q214 0 336 -121t122 -330zM559 61q216 0 348 146.5t132 388.5q0 175 -96 274.5t-272 99.5q-197 0 -323 -124t-153 -336q-5 -47 -5 -80
q0 -172 96 -270.5t273 -98.5zM432 1235l10 75h530l-10 -75h-530z" />
    <glyph glyph-name="Obreve" unicode="&#x14e;" 
d="M891 1592q-103 0 -148 48t-45 148v18h75q-1 -8 -1 -22q0 -58 30 -87t98 -29q71 0 105 35t55 103h73q-20 -104 -82 -159t-160 -55zM696 -21q-278 0 -436.5 165t-158.5 450q0 57 8 129q43 346 251.5 552t519.5 206q274 0 432 -167.5t158 -455.5q0 -64 -9 -135
q-41 -339 -249.5 -541.5t-515.5 -202.5zM706 65q186 0 334.5 97.5t233.5 277t85 409.5q0 253 -130 399.5t-359 146.5q-260 0 -437 -182.5t-214 -489.5q-8 -66 -8 -120q0 -249 132.5 -393.5t362.5 -144.5z" />
    <glyph glyph-name="obreve" unicode="&#x14f;" horiz-adv-x="1230" 
d="M1139 601q0 -186 -77 -328.5t-210.5 -218t-302.5 -75.5q-214 0 -336.5 119.5t-122.5 325.5q0 48 5 86q31 248 190 395t396 147q214 0 336 -121t122 -330zM559 61q216 0 348 146.5t132 388.5q0 175 -96 274.5t-272 99.5q-197 0 -323 -124t-153 -336q-5 -47 -5 -80
q0 -172 96 -270.5t273 -98.5zM695 1162q-103 0 -148 48t-45 148v18h75q-1 -8 -1 -22q0 -58 30 -87t98 -29q71 0 105 35t55 103h73q-20 -104 -82 -159t-160 -55z" />
    <glyph glyph-name="Ohungarumlaut" unicode="&#x150;" 
d="M946 1604l224 282h114l-268 -282h-70zM683 1604l229 282h99l-256 -282h-72zM696 -21q-278 0 -436.5 165t-158.5 450q0 57 8 129q43 346 251.5 552t519.5 206q274 0 432 -167.5t158 -455.5q0 -64 -9 -135q-41 -339 -249.5 -541.5t-515.5 -202.5zM706 65q186 0 334.5 97.5
t233.5 277t85 409.5q0 253 -130 399.5t-359 146.5q-260 0 -437 -182.5t-214 -489.5q-8 -66 -8 -120q0 -249 132.5 -393.5t362.5 -144.5z" />
    <glyph glyph-name="ohungarumlaut" unicode="&#x151;" horiz-adv-x="1230" 
d="M1139 601q0 -186 -77 -328.5t-210.5 -218t-302.5 -75.5q-214 0 -336.5 119.5t-122.5 325.5q0 48 5 86q31 248 190 395t396 147q214 0 336 -121t122 -330zM559 61q216 0 348 146.5t132 388.5q0 175 -96 274.5t-272 99.5q-197 0 -323 -124t-153 -336q-5 -47 -5 -80
q0 -172 96 -270.5t273 -98.5zM750 1174l224 282h114l-268 -282h-70zM487 1174l229 282h99l-256 -282h-72z" />
    <glyph glyph-name="OE" unicode="&#x152;" horiz-adv-x="2038" 
d="M744 66q116 0 216.5 45t172.5 127l122 1001q-51 67 -140 111.5t-207 44.5q-129 0 -240 -43t-187 -111.5t-133 -158.5t-87.5 -179t-41.5 -177q-7 -56 -7 -121q0 -87 16 -163t54.5 -146t98 -120t152.5 -80t211 -30zM1120 135q-67 -70 -172.5 -112.5t-226.5 -42.5
q-129 0 -233 31.5t-175.5 87t-119.5 133.5t-70 169t-22 196q0 59 8 129q16 126 59 239t114.5 207t164 163t213.5 107.5t258 38.5q88 0 185 -31.5t165 -105.5l14 112h778l-12 -99h-668l-69 -561h629l-12 -98h-631l-74 -599h701l-12 -99h-809z" />
    <glyph glyph-name="oe" unicode="&#x153;" horiz-adv-x="1946" 
d="M1796 578q5 50 5 74q0 146 -81.5 232t-223.5 86q-166 0 -283 -107.5t-136 -284.5h719zM542 61q192 0 316.5 150t124.5 390q0 171 -86 270t-238 99q-186 0 -313 -127t-153 -340q-5 -45 -5 -77q0 -169 94.5 -267t259.5 -98zM532 -21q-211 0 -332 119t-121 323q0 48 5 86
q31 249 190 397t395 148q147 0 248 -76.5t131 -211.5q50 133 175.5 210.5t282.5 77.5q175 0 275 -108.5t100 -296.5q0 -43 -6 -90l-6 -50h-801l-4 -29q-5 -42 -5 -71q0 -160 91 -252.5t250 -92.5q78 0 172 31.5t173 83.5l28 -69q-84 -59 -191 -94t-201 -35q-145 0 -253.5 75
t-142.5 200q-62 -126 -184 -200.5t-269 -74.5z" />
    <glyph glyph-name="Racute" unicode="&#x154;" horiz-adv-x="1373" 
d="M673 1604l230 282h132l-307 -282h-55zM339 758h354q179 0 273.5 80t114.5 239q4 28 4 59q0 121 -74.5 178t-233.5 57q-26 0 -39 -1h-324zM1189 1150q0 -184 -92 -303t-256 -133q31 -5 54.5 -11.5t43 -17.5t33 -20.5t26 -29.5t20 -35t16.5 -46.5t15 -54.5t16 -68l98 -431
h-101l-94 408q-14 59 -23.5 93.5t-24 68.5t-30.5 50t-42 30t-58 18t-79 4h-386l-82 -672h-108l178 1456h435q229 0 335 -73.5t106 -232.5z" />
    <glyph glyph-name="racute" unicode="&#x155;" horiz-adv-x="769" 
d="M141 0l95 776q7 57 12.5 119.5t7.5 96.5l2 34h100l-14 -191q47 112 133 162.5t195 50.5q50 0 100 -9l-16 -90q-47 9 -93 9q-141 0 -235.5 -96t-120.5 -303l-68 -559h-98zM534 1174l230 282h132l-307 -282h-55z" />
    <glyph glyph-name="Rcommaaccent" unicode="&#x156;" horiz-adv-x="1373" 
d="M386 -557l157 433h117l-204 -433h-70zM339 758h354q179 0 273.5 80t114.5 239q4 28 4 59q0 121 -74.5 178t-233.5 57q-26 0 -39 -1h-324zM1189 1150q0 -184 -92 -303t-256 -133q31 -5 54.5 -11.5t43 -17.5t33 -20.5t26 -29.5t20 -35t16.5 -46.5t15 -54.5t16 -68l98 -431
h-101l-94 408q-14 59 -23.5 93.5t-24 68.5t-30.5 50t-42 30t-58 18t-79 4h-386l-82 -672h-108l178 1456h435q229 0 335 -73.5t106 -232.5z" />
    <glyph glyph-name="rcommaaccent" unicode="&#x157;" horiz-adv-x="769" 
d="M34 -557l157 433h117l-204 -433h-70zM141 0l95 776q7 57 12.5 119.5t7.5 96.5l2 34h100l-14 -191q47 112 133 162.5t195 50.5q50 0 100 -9l-16 -90q-47 9 -93 9q-141 0 -235.5 -96t-120.5 -303l-68 -559h-98z" />
    <glyph glyph-name="Rcaron" unicode="&#x158;" horiz-adv-x="1373" 
d="M647 1645l-178 268h78l159 -221l221 221h87l-242 -268h-125zM339 758h354q179 0 273.5 80t114.5 239q4 28 4 59q0 121 -74.5 178t-233.5 57q-26 0 -39 -1h-324zM1189 1150q0 -184 -92 -303t-256 -133q31 -5 54.5 -11.5t43 -17.5t33 -20.5t26 -29.5t20 -35t16.5 -46.5
t15 -54.5t16 -68l98 -431h-101l-94 408q-14 59 -23.5 93.5t-24 68.5t-30.5 50t-42 30t-58 18t-79 4h-386l-82 -672h-108l178 1456h435q229 0 335 -73.5t106 -232.5z" />
    <glyph glyph-name="rcaron" unicode="&#x159;" horiz-adv-x="769" 
d="M141 0l95 776q7 57 12.5 119.5t7.5 96.5l2 34h100l-14 -191q47 112 133 162.5t195 50.5q50 0 100 -9l-16 -90q-47 9 -93 9q-141 0 -235.5 -96t-120.5 -303l-68 -559h-98zM508 1215l-178 268h78l159 -221l221 221h87l-242 -268h-125z" />
    <glyph glyph-name="Sacute" unicode="&#x15a;" horiz-adv-x="1130" 
d="M688 1604l230 282h132l-307 -282h-55zM1004 465q0 -225 -136.5 -355.5t-373.5 -130.5q-58 0 -109.5 7t-92.5 21t-72 27t-58.5 32.5t-41.5 30.5t-31.5 28t-18.5 17l60 74q60 -58 108 -86q112 -65 266 -65q182 0 289.5 102.5t107.5 276.5q0 98 -62 152t-222 97l-144 39
q-155 42 -228.5 113t-73.5 201q0 207 134.5 321t365.5 114q55 0 104 -6t85.5 -17t64.5 -22t50.5 -26.5t34.5 -24t25 -21.5l13 -13l-56 -74q-14 16 -35 32.5t-59.5 38t-100.5 34.5t-136 13q-183 0 -283 -90.5t-100 -258.5q0 -92 50.5 -140.5t179.5 -83.5l144 -38
q198 -53 275 -125.5t77 -193.5z" />
    <glyph glyph-name="sacute" unicode="&#x15b;" horiz-adv-x="935" 
d="M548 970q-154 0 -228 -53.5t-74 -162.5q0 -57 33 -86.5t122 -58.5l194 -63q112 -37 164.5 -88t52.5 -137q0 -19 -3 -41q-19 -151 -128 -226t-270 -75q-190 0 -341 117l47 76q1 -1 12 -9t19 -13t23 -15t29 -16.5t33 -15.5t39 -15t43 -11.5t49.5 -8.5t53.5 -3q43 0 81 5.5
t79 21t70 40.5t48 67t19 98q0 64 -37.5 99t-125.5 63l-198 63q-105 33 -156 82t-51 136q0 159 111.5 235.5t299.5 76.5q181 0 297 -75l-41 -73q-114 66 -266 66zM521 1174l230 282h132l-307 -282h-55z" />
    <glyph glyph-name="Scircumflex" unicode="&#x15c;" horiz-adv-x="1130" 
d="M490 1645l240 272h57l167 -272h-56l-157 185l-201 -185h-50zM1004 465q0 -225 -136.5 -355.5t-373.5 -130.5q-58 0 -109.5 7t-92.5 21t-72 27t-58.5 32.5t-41.5 30.5t-31.5 28t-18.5 17l60 74q60 -58 108 -86q112 -65 266 -65q182 0 289.5 102.5t107.5 276.5
q0 98 -62 152t-222 97l-144 39q-155 42 -228.5 113t-73.5 201q0 207 134.5 321t365.5 114q55 0 104 -6t85.5 -17t64.5 -22t50.5 -26.5t34.5 -24t25 -21.5l13 -13l-56 -74q-14 16 -35 32.5t-59.5 38t-100.5 34.5t-136 13q-183 0 -283 -90.5t-100 -258.5q0 -92 50.5 -140.5
t179.5 -83.5l144 -38q198 -53 275 -125.5t77 -193.5z" />
    <glyph glyph-name="scircumflex" unicode="&#x15d;" horiz-adv-x="935" 
d="M548 970q-154 0 -228 -53.5t-74 -162.5q0 -57 33 -86.5t122 -58.5l194 -63q112 -37 164.5 -88t52.5 -137q0 -19 -3 -41q-19 -151 -128 -226t-270 -75q-190 0 -341 117l47 76q1 -1 12 -9t19 -13t23 -15t29 -16.5t33 -15.5t39 -15t43 -11.5t49.5 -8.5t53.5 -3q43 0 81 5.5
t79 21t70 40.5t48 67t19 98q0 64 -37.5 99t-125.5 63l-198 63q-105 33 -156 82t-51 136q0 159 111.5 235.5t299.5 76.5q181 0 297 -75l-41 -73q-114 66 -266 66zM323 1215l240 272h57l167 -272h-56l-157 185l-201 -185h-50z" />
    <glyph glyph-name="Scedilla" unicode="&#x15e;" horiz-adv-x="1130" 
d="M686 -245q0 -42 -18.5 -72t-50 -45t-63 -21t-66.5 -6q-88 0 -166 39l19 58q20 -10 65 -19.5t83 -9.5q58 0 82.5 17.5t24.5 55.5q0 59 -168 59h-6l58 194h59l-41 -144q37 -1 63 -5t58 -14t49.5 -32t17.5 -55zM1004 465q0 -225 -136.5 -355.5t-373.5 -130.5q-58 0 -109.5 7
t-92.5 21t-72 27t-58.5 32.5t-41.5 30.5t-31.5 28t-18.5 17l60 74q60 -58 108 -86q112 -65 266 -65q182 0 289.5 102.5t107.5 276.5q0 98 -62 152t-222 97l-144 39q-155 42 -228.5 113t-73.5 201q0 207 134.5 321t365.5 114q55 0 104 -6t85.5 -17t64.5 -22t50.5 -26.5
t34.5 -24t25 -21.5l13 -13l-56 -74q-14 16 -35 32.5t-59.5 38t-100.5 34.5t-136 13q-183 0 -283 -90.5t-100 -258.5q0 -92 50.5 -140.5t179.5 -83.5l144 -38q198 -53 275 -125.5t77 -193.5z" />
    <glyph glyph-name="scedilla" unicode="&#x15f;" horiz-adv-x="935" 
d="M548 970q-154 0 -228 -53.5t-74 -162.5q0 -57 33 -86.5t122 -58.5l194 -63q112 -37 164.5 -88t52.5 -137q0 -19 -3 -41q-19 -151 -128 -226t-270 -75q-190 0 -341 117l47 76q1 -1 12 -9t19 -13t23 -15t29 -16.5t33 -15.5t39 -15t43 -11.5t49.5 -8.5t53.5 -3q43 0 81 5.5
t79 21t70 40.5t48 67t19 98q0 64 -37.5 99t-125.5 63l-198 63q-105 33 -156 82t-51 136q0 159 111.5 235.5t299.5 76.5q181 0 297 -75l-41 -73q-114 66 -266 66zM616 -245q0 -42 -18.5 -72t-50 -45t-63 -21t-66.5 -6q-88 0 -166 39l19 58q20 -10 65 -19.5t83 -9.5
q58 0 82.5 17.5t24.5 55.5q0 59 -168 59h-6l58 194h59l-41 -144q37 -1 63 -5t58 -14t49.5 -32t17.5 -55z" />
    <glyph glyph-name="Scaron" unicode="&#x160;" horiz-adv-x="1130" 
d="M662 1645l-178 268h78l159 -221l221 221h87l-242 -268h-125zM1004 465q0 -225 -136.5 -355.5t-373.5 -130.5q-58 0 -109.5 7t-92.5 21t-72 27t-58.5 32.5t-41.5 30.5t-31.5 28t-18.5 17l60 74q60 -58 108 -86q112 -65 266 -65q182 0 289.5 102.5t107.5 276.5
q0 98 -62 152t-222 97l-144 39q-155 42 -228.5 113t-73.5 201q0 207 134.5 321t365.5 114q55 0 104 -6t85.5 -17t64.5 -22t50.5 -26.5t34.5 -24t25 -21.5l13 -13l-56 -74q-14 16 -35 32.5t-59.5 38t-100.5 34.5t-136 13q-183 0 -283 -90.5t-100 -258.5q0 -92 50.5 -140.5
t179.5 -83.5l144 -38q198 -53 275 -125.5t77 -193.5z" />
    <glyph glyph-name="scaron" unicode="&#x161;" horiz-adv-x="935" 
d="M548 970q-154 0 -228 -53.5t-74 -162.5q0 -57 33 -86.5t122 -58.5l194 -63q112 -37 164.5 -88t52.5 -137q0 -19 -3 -41q-19 -151 -128 -226t-270 -75q-190 0 -341 117l47 76q1 -1 12 -9t19 -13t23 -15t29 -16.5t33 -15.5t39 -15t43 -11.5t49.5 -8.5t53.5 -3q43 0 81 5.5
t79 21t70 40.5t48 67t19 98q0 64 -37.5 99t-125.5 63l-198 63q-105 33 -156 82t-51 136q0 159 111.5 235.5t299.5 76.5q181 0 297 -75l-41 -73q-114 66 -266 66zM495 1215l-178 268h78l159 -221l221 221h87l-242 -268h-125z" />
    <glyph glyph-name="Tcommaaccent" unicode="&#x162;" horiz-adv-x="1097" 
d="M637 -245q0 -42 -18.5 -72t-50 -45t-63 -21t-66.5 -6q-88 0 -166 39l19 58q20 -10 65 -19.5t83 -9.5q58 0 82.5 17.5t24.5 55.5q0 59 -168 59h-6l58 194h59l-41 -144q37 -1 63 -5t58 -14t49.5 -32t17.5 -55zM405 0l168 1370h-486l10 86h1080l-10 -86h-486l-168 -1370
h-108z" />
    <glyph glyph-name="tcommaaccent" unicode="&#x163;" horiz-adv-x="687" 
d="M509 -1q-8 0 -23.5 0.5t-22.5 0.5q-79 4 -132 18.5t-80.5 40t-38 55t-10.5 71.5q0 31 13 141l78 635h-202l8 65h202l36 294l102 29l-40 -323h233l-8 -65h-233l-78 -638q-11 -93 -11 -124q0 -71 42.5 -93.5t174.5 -22.5zM530 -214q0 -42 -18.5 -72t-50 -45t-63 -21
t-66.5 -6q-88 0 -166 39l19 58q20 -10 65 -19.5t83 -9.5q58 0 82.5 17.5t24.5 55.5q0 59 -168 59h-6l58 194h59l-41 -144q37 -1 63 -5t58 -14t49.5 -32t17.5 -55z" />
    <glyph glyph-name="Tcaron" unicode="&#x164;" horiz-adv-x="1097" 
d="M604 1645l-178 268h78l159 -221l221 221h87l-242 -268h-125zM405 0l168 1370h-486l10 86h1080l-10 -86h-486l-168 -1370h-108z" />
    <glyph glyph-name="tcaron" unicode="&#x165;" horiz-adv-x="687" 
d="M509 -1q-8 0 -23.5 0.5t-22.5 0.5q-79 4 -132 18.5t-80.5 40t-38 55t-10.5 71.5q0 31 13 141l78 635h-202l8 65h202l36 294l102 29l-40 -323h233l-8 -65h-233l-78 -638q-11 -93 -11 -124q0 -71 42.5 -93.5t174.5 -22.5zM625 1320l157 433h117l-204 -433h-70z" />
    <glyph glyph-name="Tbar" unicode="&#x166;" horiz-adv-x="1097" 
d="M294 733l10 75h530l-10 -75h-530zM405 0l168 1370h-486l10 86h1080l-10 -86h-486l-168 -1370h-108z" />
    <glyph glyph-name="tbar" unicode="&#x167;" horiz-adv-x="687" 
d="M509 -1q-8 0 -23.5 0.5t-22.5 0.5q-79 4 -132 18.5t-80.5 40t-38 55t-10.5 71.5q0 31 13 141l78 635h-202l8 65h202l36 294l102 29l-40 -323h233l-8 -65h-233l-78 -638q-11 -93 -11 -124q0 -71 42.5 -93.5t174.5 -22.5zM63 560l10 75h530l-10 -75h-530z" />
    <glyph glyph-name="Utilde" unicode="&#x168;" horiz-adv-x="1480" 
d="M1018 1663q-48 0 -155.5 48.5t-141.5 48.5q-62 0 -72 -80h-62q9 71 44.5 107.5t92.5 36.5q50 0 155.5 -48.5t139.5 -48.5q27 0 37 19.5t16 66.5h66q-20 -150 -120 -150zM641 -21q-245 0 -371 110t-126 323q0 39 7 102l116 942h108l-117 -950q-5 -38 -5 -85
q0 -176 101 -266t298 -90q220 0 348 112t154 329l117 950h108l-116 -942q-35 -263 -193 -399t-429 -136z" />
    <glyph glyph-name="utilde" unicode="&#x169;" horiz-adv-x="1285" 
d="M519 -26q-168 0 -253 86t-85 255q0 46 6 97l76 614h98l-76 -618q-6 -45 -6 -85q0 -267 250 -267q90 0 171.5 33t133.5 81.5t84 97.5t36 87l83 671h98l-99 -801q-17 -135 -22 -225h-89l14 191q-164 -217 -420 -217zM897 1233q-48 0 -155.5 48.5t-141.5 48.5q-62 0 -72 -80
h-62q9 71 44.5 107.5t92.5 36.5q50 0 155.5 -48.5t139.5 -48.5q27 0 37 19.5t16 66.5h66q-20 -150 -120 -150z" />
    <glyph glyph-name="Umacron" unicode="&#x16a;" horiz-adv-x="1480" 
d="M590 1665l10 75h530l-10 -75h-530zM641 -21q-245 0 -371 110t-126 323q0 39 7 102l116 942h108l-117 -950q-5 -38 -5 -85q0 -176 101 -266t298 -90q220 0 348 112t154 329l117 950h108l-116 -942q-35 -263 -193 -399t-429 -136z" />
    <glyph glyph-name="umacron" unicode="&#x16b;" horiz-adv-x="1285" 
d="M519 -26q-168 0 -253 86t-85 255q0 46 6 97l76 614h98l-76 -618q-6 -45 -6 -85q0 -267 250 -267q90 0 171.5 33t133.5 81.5t84 97.5t36 87l83 671h98l-99 -801q-17 -135 -22 -225h-89l14 191q-164 -217 -420 -217zM469 1235l10 75h530l-10 -75h-530z" />
    <glyph glyph-name="Ubreve" unicode="&#x16c;" horiz-adv-x="1480" 
d="M853 1592q-103 0 -148 48t-45 148v18h75q-1 -8 -1 -22q0 -58 30 -87t98 -29q71 0 105 35t55 103h73q-20 -104 -82 -159t-160 -55zM641 -21q-245 0 -371 110t-126 323q0 39 7 102l116 942h108l-117 -950q-5 -38 -5 -85q0 -176 101 -266t298 -90q220 0 348 112t154 329
l117 950h108l-116 -942q-35 -263 -193 -399t-429 -136z" />
    <glyph glyph-name="ubreve" unicode="&#x16d;" horiz-adv-x="1285" 
d="M519 -26q-168 0 -253 86t-85 255q0 46 6 97l76 614h98l-76 -618q-6 -45 -6 -85q0 -267 250 -267q90 0 171.5 33t133.5 81.5t84 97.5t36 87l83 671h98l-99 -801q-17 -135 -22 -225h-89l14 191q-164 -217 -420 -217zM732 1162q-103 0 -148 48t-45 148v18h75q-1 -8 -1 -22
q0 -58 30 -87t98 -29q71 0 105 35t55 103h73q-20 -104 -82 -159t-160 -55z" />
    <glyph glyph-name="Uring" unicode="&#x16e;" horiz-adv-x="1480" 
d="M1048 1767q0 -82 -58 -136.5t-139 -54.5q-69 0 -112 40.5t-43 104.5q0 82 58 136.5t139 54.5q69 0 112 -40.5t43 -104.5zM886 1856q-50 0 -85 -37t-35 -92q0 -25 16 -41.5t41.5 -30.5t34.5 -23q50 0 85 37t35 92q0 25 -16 41.5t-41.5 30.5t-34.5 23zM641 -21
q-245 0 -371 110t-126 323q0 39 7 102l116 942h108l-117 -950q-5 -38 -5 -85q0 -176 101 -266t298 -90q220 0 348 112t154 329l117 950h108l-116 -942q-35 -263 -193 -399t-429 -136z" />
    <glyph glyph-name="uring" unicode="&#x16f;" horiz-adv-x="1285" 
d="M519 -26q-168 0 -253 86t-85 255q0 46 6 97l76 614h98l-76 -618q-6 -45 -6 -85q0 -267 250 -267q90 0 171.5 33t133.5 81.5t84 97.5t36 87l83 671h98l-99 -801q-17 -135 -22 -225h-89l14 191q-164 -217 -420 -217zM927 1337q0 -82 -58 -136.5t-139 -54.5q-69 0 -112 40.5
t-43 104.5q0 82 58 136.5t139 54.5q69 0 112 -40.5t43 -104.5zM765 1426q-50 0 -85 -37t-35 -92q0 -25 16 -41.5t41.5 -30.5t34.5 -23q50 0 85 37t35 92q0 25 -16 41.5t-41.5 30.5t-34.5 23z" />
    <glyph glyph-name="Uhungarumlaut" unicode="&#x170;" horiz-adv-x="1480" 
d="M908 1604l224 282h114l-268 -282h-70zM645 1604l229 282h99l-256 -282h-72zM641 -21q-245 0 -371 110t-126 323q0 39 7 102l116 942h108l-117 -950q-5 -38 -5 -85q0 -176 101 -266t298 -90q220 0 348 112t154 329l117 950h108l-116 -942q-35 -263 -193 -399t-429 -136z
" />
    <glyph glyph-name="uhungarumlaut" unicode="&#x171;" horiz-adv-x="1285" 
d="M519 -26q-168 0 -253 86t-85 255q0 46 6 97l76 614h98l-76 -618q-6 -45 -6 -85q0 -267 250 -267q90 0 171.5 33t133.5 81.5t84 97.5t36 87l83 671h98l-99 -801q-17 -135 -22 -225h-89l14 191q-164 -217 -420 -217zM787 1174l224 282h114l-268 -282h-70zM524 1174l229 282
h99l-256 -282h-72z" />
    <glyph glyph-name="Uogonek" unicode="&#x172;" horiz-adv-x="1480" 
d="M686 -448q-89 0 -148.5 55t-59.5 135q0 15 1 23q8 62 56 124.5t137 115.5l82 -1q-82 -56 -124.5 -118.5t-48.5 -112.5q-1 -6 -1 -19q0 -49 31.5 -79t87.5 -30q36 0 78 13l-11 -95q-38 -11 -80 -11zM641 -21q-245 0 -371 110t-126 323q0 39 7 102l116 942h108l-117 -950
q-5 -38 -5 -85q0 -176 101 -266t298 -90q220 0 348 112t154 329l117 950h108l-116 -942q-35 -263 -193 -399t-429 -136z" />
    <glyph glyph-name="uogonek" unicode="&#x173;" horiz-adv-x="1285" 
d="M519 -26q-168 0 -253 86t-85 255q0 46 6 97l76 614h98l-76 -618q-6 -45 -6 -85q0 -267 250 -267q90 0 171.5 33t133.5 81.5t84 97.5t36 87l83 671h98l-99 -801q-17 -135 -22 -225h-89l14 191q-164 -217 -420 -217zM933 -448q-89 0 -148.5 55t-59.5 135q0 15 1 23
q8 62 56 124.5t137 115.5l82 -1q-82 -56 -124.5 -118.5t-48.5 -112.5q-1 -6 -1 -19q0 -49 31.5 -79t87.5 -30q36 0 78 13l-11 -95q-38 -11 -80 -11z" />
    <glyph glyph-name="Wcircumflex" unicode="&#x174;" horiz-adv-x="2037" 
d="M915 1645l240 272h57l167 -272h-56l-157 185l-201 -185h-50zM425 0l-198 1456h114l159 -1242l4 -111l41 111l516 1242h109l212 -1242l13 -97q93 252 260 719t223 620h110l-540 -1456h-129l-217 1320l-549 -1320h-128z" />
    <glyph glyph-name="wcircumflex" unicode="&#x175;" horiz-adv-x="1553" 
d="M279 0l-172 1026h106q98 -616 148 -924l429 924h128l179 -844l16 -80q58 154 174.5 462t174.5 462h109l-404 -1026h-128q-21 104 -60.5 295t-71.5 347.5t-60 296.5q-84 -184 -242.5 -519.5t-197.5 -419.5h-128zM650 1215l240 272h57l167 -272h-56l-157 185l-201 -185h-50
z" />
    <glyph glyph-name="Ycircumflex" unicode="&#x176;" horiz-adv-x="1235" 
d="M496 1645l240 272h57l167 -272h-56l-157 185l-201 -185h-50zM471 0l72 591l-374 865h109l332 -773l529 773h105l-592 -862l-73 -594h-108z" />
    <glyph glyph-name="ycircumflex" unicode="&#x177;" horiz-adv-x="983" 
d="M68 -417l-24 72q77 19 137.5 50.5t100.5 71.5t62.5 71.5t45.5 72.5l31 58l-270 1047h106l228 -929l467 929h96l-545 -1078q-154 -315 -435 -365zM403 1215l240 272h57l167 -272h-56l-157 185l-201 -185h-50z" />
    <glyph glyph-name="Ydieresis" unicode="&#x178;" horiz-adv-x="1235" 
d="M841 1640l14 108h99l-14 -108h-99zM505 1640l14 108h98l-14 -108h-98zM471 0l72 591l-374 865h109l332 -773l529 773h105l-592 -862l-73 -594h-108z" />
    <glyph glyph-name="Zacute" unicode="&#x179;" horiz-adv-x="1182" 
d="M704 1604l230 282h132l-307 -282h-55zM45 0l7 61l967 1309h-770l10 86h900l-7 -57l-970 -1313h805l-10 -86h-932z" />
    <glyph glyph-name="zacute" unicode="&#x17a;" horiz-adv-x="934" 
d="M27 0l7 59l749 885h-615l10 82h740l-7 -57l-744 -887h623l-10 -82h-753zM515 1174l230 282h132l-307 -282h-55z" />
    <glyph glyph-name="Zdotaccent" unicode="&#x17b;" horiz-adv-x="1182" 
d="M676 1668l16 126h122l-16 -126h-122zM45 0l7 61l967 1309h-770l10 86h900l-7 -57l-970 -1313h805l-10 -86h-932z" />
    <glyph glyph-name="zdotaccent" unicode="&#x17c;" horiz-adv-x="934" 
d="M27 0l7 59l749 885h-615l10 82h740l-7 -57l-744 -887h623l-10 -82h-753zM487 1238l16 126h122l-16 -126h-122z" />
    <glyph glyph-name="Zcaron" unicode="&#x17d;" horiz-adv-x="1182" 
d="M678 1645l-178 268h78l159 -221l221 221h87l-242 -268h-125zM45 0l7 61l967 1309h-770l10 86h900l-7 -57l-970 -1313h805l-10 -86h-932z" />
    <glyph glyph-name="zcaron" unicode="&#x17e;" horiz-adv-x="934" 
d="M27 0l7 59l749 885h-615l10 82h740l-7 -57l-744 -887h623l-10 -82h-753zM489 1215l-178 268h78l159 -221l221 221h87l-242 -268h-125z" />
    <glyph glyph-name="longs" unicode="&#x17f;" horiz-adv-x="935" 
d="M548 970q-154 0 -228 -53.5t-74 -162.5q0 -57 33 -86.5t122 -58.5l194 -63q112 -37 164.5 -88t52.5 -137q0 -19 -3 -41q-19 -151 -128 -226t-270 -75q-190 0 -341 117l47 76q1 -1 12 -9t19 -13t23 -15t29 -16.5t33 -15.5t39 -15t43 -11.5t49.5 -8.5t53.5 -3q43 0 81 5.5
t79 21t70 40.5t48 67t19 98q0 64 -37.5 99t-125.5 63l-198 63q-105 33 -156 82t-51 136q0 159 111.5 235.5t299.5 76.5q181 0 297 -75l-41 -73q-114 66 -266 66z" />
    <glyph glyph-name="florin" unicode="&#x192;" horiz-adv-x="1016" 
d="M88 -277q-40 0 -98 14l20 91q42 -13 64 -13q89 0 140 46.5t70 104.5l323 1068h-173l13 79h182l10 38q42 168 122.5 254.5t225.5 86.5q14 0 42.5 -5t50.5 -9l22 -5l-26 -91q-46 19 -97 19q-48 0 -84.5 -10t-57.5 -24t-37.5 -39t-23 -43t-15.5 -48l-44 -124h244l-26 -79
h-233l-268 -897q-7 -25 -17 -62.5t-16.5 -62t-17.5 -57.5t-20 -55t-24 -48.5t-30.5 -43.5t-38 -35t-48.5 -27.5t-60 -16t-74 -6.5z" />
    <glyph glyph-name="uni01C4" unicode="&#x1c4;" horiz-adv-x="2705" 
d="M2201 1645l-178 268h78l159 -221l221 221h87l-242 -268h-125zM1568 0l7 61l967 1309h-770l10 86h900l-7 -57l-970 -1313h805l-10 -86h-932zM135 0l178 1456h374q349 0 528 -153.5t179 -451.5q0 -65 -9 -139q-43 -350 -260.5 -531t-593.5 -181h-396zM253 86h288
q323 0 510 159.5t224 466.5q8 70 8 126q0 262 -153.5 397t-452.5 135h-266z" />
    <glyph glyph-name="uni01C5" unicode="&#x1c5;" horiz-adv-x="2457" 
d="M1550 0l7 59l749 885h-615l10 82h740l-7 -57l-744 -887h623l-10 -82h-753zM2012 1215l-178 268h78l159 -221l221 221h87l-242 -268h-125zM135 0l178 1456h374q349 0 528 -153.5t179 -451.5q0 -65 -9 -139q-43 -350 -260.5 -531t-593.5 -181h-396zM253 86h288
q323 0 510 159.5t224 466.5q8 70 8 126q0 262 -153.5 397t-452.5 135h-266z" />
    <glyph glyph-name="uni01C6" unicode="&#x1c6;" horiz-adv-x="2190" 
d="M1283 0l7 59l749 885h-615l10 82h740l-7 -57l-744 -887h623l-10 -82h-753zM1745 1215l-178 268h78l159 -221l221 221h87l-242 -268h-125zM587 970q-192 0 -309.5 -151t-117.5 -394q0 -170 82 -267t234 -97q200 0 331.5 150t131.5 390q0 171 -94 270t-258 99zM62 421
q0 281 151.5 456t383.5 175q136 0 237 -69t134 -184l88 717h98l-153 -1248q-6 -47 -12.5 -114t-10 -109.5t-3.5 -44.5h-99l25 239q-58 -119 -176 -189.5t-259 -70.5q-189 0 -296.5 118.5t-107.5 323.5z" />
    <glyph glyph-name="uni01C7" unicode="&#x1c7;" horiz-adv-x="1712" 
d="M135 0l178 1456h108l-168 -1370h681l-10 -86h-789zM1029 -312q-26 0 -92 2l12 87q52 -3 95 -3q99 0 150.5 27t82 102t49.5 229l163 1324h108l-163 -1324q-12 -95 -29.5 -165.5t-44 -119.5t-57.5 -80t-75 -48.5t-90 -24t-109 -6.5z" />
    <glyph glyph-name="uni01C8" unicode="&#x1c8;" horiz-adv-x="1548" 
d="M1360 1346l14 110h98l-14 -110h-98zM878 -438l11 76q29 -4 62 -4q130 0 187.5 88.5t81.5 287.5l124 1016h98l-127 -1026q-9 -76 -23 -135.5t-41 -119.5t-65 -99.5t-97 -64.5t-134 -25q-36 0 -77 6zM135 0l178 1456h108l-168 -1370h681l-10 -86h-789z" />
    <glyph glyph-name="uni01C9" unicode="&#x1c9;" horiz-adv-x="1012" 
d="M112 0l186 1516h98l-186 -1516h-98zM824 1346l14 110h98l-14 -110h-98zM342 -438l11 76q29 -4 62 -4q130 0 187.5 88.5t81.5 287.5l124 1016h98l-127 -1026q-9 -76 -23 -135.5t-41 -119.5t-65 -99.5t-97 -64.5t-134 -25q-36 0 -77 6z" />
    <glyph glyph-name="uni01CA" unicode="&#x1ca;" horiz-adv-x="2238" 
d="M135 0l178 1456h106l647 -1121l103 -193l161 1314h106l-178 -1456h-105l-664 1137l-88 166l-160 -1303h-106zM1555 -312q-26 0 -92 2l12 87q52 -3 95 -3q99 0 150.5 27t82 102t49.5 229l163 1324h108l-163 -1324q-12 -95 -29.5 -165.5t-44 -119.5t-57.5 -80t-75 -48.5
t-90 -24t-109 -6.5z" />
    <glyph glyph-name="uni01CB" unicode="&#x1cb;" horiz-adv-x="2074" 
d="M1886 1346l14 110h98l-14 -110h-98zM1404 -438l11 76q29 -4 62 -4q130 0 187.5 88.5t81.5 287.5l124 1016h98l-127 -1026q-9 -76 -23 -135.5t-41 -119.5t-65 -99.5t-97 -64.5t-134 -25q-36 0 -77 6zM135 0l178 1456h106l647 -1121l103 -193l161 1314h106l-178 -1456h-105
l-664 1137l-88 166l-160 -1303h-106z" />
    <glyph glyph-name="uni01CC" unicode="&#x1cc;" horiz-adv-x="1760" 
d="M137 0l108 880l12 146h89l-15 -206q66 112 180.5 172t252.5 60q321 0 321 -331q0 -47 -6 -99l-77 -622h-98l77 622q6 48 6 89q0 259 -233 259q-150 0 -265 -75.5t-170 -216.5l-84 -678h-98zM1572 1346l14 110h98l-14 -110h-98zM1090 -438l11 76q29 -4 62 -4
q130 0 187.5 88.5t81.5 287.5l124 1016h98l-127 -1026q-9 -76 -23 -135.5t-41 -119.5t-65 -99.5t-97 -64.5t-134 -25q-36 0 -77 6z" />
    <glyph glyph-name="uni01CD" unicode="&#x1cd;" horiz-adv-x="1329" 
d="M721 1645l-178 268h78l159 -221l221 221h87l-242 -268h-125zM328 473h619q-66 299 -202 893q-278 -596 -417 -893zM-21 0l708 1456h134l351 -1456h-112l-94 399h-674l-192 -399h-121z" />
    <glyph glyph-name="uni01CE" unicode="&#x1ce;" horiz-adv-x="1253" 
d="M617 1215l-178 268h78l159 -221l221 221h87l-242 -268h-125zM637 970q-194 0 -320 -148.5t-126 -385.5q0 -174 89 -274.5t245 -100.5q173 0 284.5 124.5t138.5 338.5q5 38 5 85q0 164 -88.5 262.5t-227.5 98.5zM91 425q0 281 156.5 454t399.5 173q128 0 217 -62.5
t121 -164.5l25 201h98l-126 -1026h-98l26 215q-61 -108 -163.5 -172t-235.5 -64q-197 0 -308.5 119.5t-111.5 326.5z" />
    <glyph glyph-name="uni01CF" unicode="&#x1cf;" horiz-adv-x="592" 
d="M353 1645l-178 268h78l159 -221l221 221h87l-242 -268h-125zM153 0l178 1456h108l-178 -1456h-108z" />
    <glyph glyph-name="uni01D0" unicode="&#x1d0;" horiz-adv-x="473" 
d="M124 0l124 1026h101l-124 -1026h-101zM267 1215l-178 268h78l159 -221l221 221h87l-242 -268h-125z" />
    <glyph glyph-name="uni01D1" unicode="&#x1d1;" 
d="M842 1645l-178 268h78l159 -221l221 221h87l-242 -268h-125zM696 -21q-278 0 -436.5 165t-158.5 450q0 57 8 129q43 346 251.5 552t519.5 206q274 0 432 -167.5t158 -455.5q0 -64 -9 -135q-41 -339 -249.5 -541.5t-515.5 -202.5zM706 65q186 0 334.5 97.5t233.5 277
t85 409.5q0 253 -130 399.5t-359 146.5q-260 0 -437 -182.5t-214 -489.5q-8 -66 -8 -120q0 -249 132.5 -393.5t362.5 -144.5z" />
    <glyph glyph-name="uni01D2" unicode="&#x1d2;" horiz-adv-x="1230" 
d="M1139 601q0 -186 -77 -328.5t-210.5 -218t-302.5 -75.5q-214 0 -336.5 119.5t-122.5 325.5q0 48 5 86q31 248 190 395t396 147q214 0 336 -121t122 -330zM559 61q216 0 348 146.5t132 388.5q0 175 -96 274.5t-272 99.5q-197 0 -323 -124t-153 -336q-5 -47 -5 -80
q0 -172 96 -270.5t273 -98.5zM646 1215l-178 268h78l159 -221l221 221h87l-242 -268h-125z" />
    <glyph glyph-name="uni01D3" unicode="&#x1d3;" horiz-adv-x="1480" 
d="M804 1645l-178 268h78l159 -221l221 221h87l-242 -268h-125zM641 -21q-245 0 -371 110t-126 323q0 39 7 102l116 942h108l-117 -950q-5 -38 -5 -85q0 -176 101 -266t298 -90q220 0 348 112t154 329l117 950h108l-116 -942q-35 -263 -193 -399t-429 -136z" />
    <glyph glyph-name="uni01D4" unicode="&#x1d4;" horiz-adv-x="1285" 
d="M519 -26q-168 0 -253 86t-85 255q0 46 6 97l76 614h98l-76 -618q-6 -45 -6 -85q0 -267 250 -267q90 0 171.5 33t133.5 81.5t84 97.5t36 87l83 671h98l-99 -801q-17 -135 -22 -225h-89l14 191q-164 -217 -420 -217zM683 1215l-178 268h78l159 -221l221 221h87l-242 -268
h-125z" />
    <glyph glyph-name="uni01E2" unicode="&#x1e2;" horiz-adv-x="1860" 
d="M1106 1665l10 75h530l-10 -75h-530zM398 536h605l37 833h-66zM-54 0l1012 1456h908l-10 -87h-733l-23 -573h615l-9 -77h-617l-21 -636h654l-10 -83h-721l13 459h-650l-319 -459h-89z" />
    <glyph glyph-name="uni01E3" unicode="&#x1e3;" horiz-adv-x="1811" 
d="M735 1235l10 75h530l-10 -75h-530zM971 578h677l2 30q2 26 2 40q0 59 -15.5 113.5t-47.5 102.5t-90.5 77t-135.5 29t-148 -35.5t-121 -92.5t-82.5 -126t-40.5 -138zM415 61q187 0 298.5 122.5t134.5 323.5h-222q-102 0 -169.5 -5.5t-123 -19.5t-87.5 -40t-52 -65t-27 -97
q-2 -22 -2 -32q0 -96 69.5 -141.5t180.5 -45.5zM1735 638q0 -53 -9 -129h-764l-4 -35q-5 -42 -5 -75q0 -69 17 -128t51.5 -107t95 -75.5t140.5 -27.5q57 0 113 12t95.5 29t71.5 34t47 29l16 12l28 -69q-6 -5 -17.5 -14t-50 -31t-80 -39t-105.5 -31t-128 -14q-150 0 -249 83
t-124 217q-22 -56 -60.5 -107t-95.5 -95.5t-138 -70.5t-175 -26q-154 0 -245.5 68.5t-91.5 188.5q0 24 2 37q10 78 40.5 133t75.5 88t119 52t152.5 25t193.5 6h202q5 43 5 76q0 142 -70.5 229t-201.5 87q-186 0 -363 -85l-24 79q1 0 14 6.5t20 9.5t25 10.5t31.5 12
t36.5 11.5t43 12t48 10t54.5 8.5t59 5.5t65.5 2q148 0 239.5 -77t102.5 -208q63 127 180 206t255 79q167 0 264.5 -107t97.5 -307z" />
    <glyph glyph-name="Gcaron" unicode="&#x1e6;" horiz-adv-x="1513" 
d="M912 1645l-178 268h78l159 -221l221 221h87l-242 -268h-125zM741 -21q-302 0 -472 163t-170 445q0 53 8 119q29 234 140 409.5t288 270.5t398 95h32q236 0 418 -147l-55 -77q-191 138 -405 138q-283 0 -475.5 -187.5t-230.5 -501.5q-7 -53 -7 -109q0 -247 143.5 -389.5
t399.5 -142.5q112 0 227.5 17.5t195.5 52.5l63 510h-409l10 86h505l-80 -651q-219 -101 -524 -101z" />
    <glyph glyph-name="gcaron" unicode="&#x1e7;" horiz-adv-x="1268" 
d="M662 970q-193 0 -319.5 -151t-126.5 -392q0 -168 85 -264.5t234 -96.5q202 0 332 147t130 386q0 172 -89 271.5t-246 99.5zM116 418q0 187 72.5 332.5t199 223.5t284.5 78q132 0 227.5 -65t129.5 -170l36 209h95l-31 -189l-88 -723q-18 -143 -70 -251.5t-130 -174.5
t-172.5 -98.5t-204.5 -32.5q-187 0 -341 66l23 86q161 -68 329 -68q190 0 313.5 113.5t154.5 359.5l15 122q-61 -121 -177 -186.5t-256 -65.5q-191 0 -300 116.5t-109 317.5zM635 1215l-178 268h78l159 -221l221 221h87l-242 -268h-125z" />
    <glyph glyph-name="uni01E8" unicode="&#x1e8;" horiz-adv-x="1232" 
d="M702 1645l-178 268h78l159 -221l221 221h87l-242 -268h-125zM135 0l178 1456h108l-83 -682l797 682h132l-814 -698l681 -758h-126l-676 745l-91 -745h-106z" />
    <glyph glyph-name="uni01E9" unicode="&#x1e9;" horiz-adv-x="1045" 
d="M103 0l186 1516h98l-119 -967l607 477h129l-617 -483l533 -543h-128l-525 535l-66 -535h-98zM659 1215l-178 268h78l159 -221l221 221h87l-242 -268h-125z" />
    <glyph glyph-name="uni01EA" unicode="&#x1ea;" 
d="M744 -448q-89 0 -148.5 55t-59.5 135q0 15 1 23q8 62 56 124.5t137 115.5l82 -1q-82 -56 -124.5 -118.5t-48.5 -112.5q-1 -6 -1 -19q0 -49 31.5 -79t87.5 -30q36 0 78 13l-11 -95q-38 -11 -80 -11zM696 -21q-278 0 -436.5 165t-158.5 450q0 57 8 129q43 346 251.5 552
t519.5 206q274 0 432 -167.5t158 -455.5q0 -64 -9 -135q-41 -339 -249.5 -541.5t-515.5 -202.5zM706 65q186 0 334.5 97.5t233.5 277t85 409.5q0 253 -130 399.5t-359 146.5q-260 0 -437 -182.5t-214 -489.5q-8 -66 -8 -120q0 -249 132.5 -393.5t362.5 -144.5z" />
    <glyph glyph-name="uni01EB" unicode="&#x1eb;" horiz-adv-x="1230" 
d="M541 -448q-89 0 -148.5 55t-59.5 135q0 15 1 23q8 62 56 124.5t137 115.5l82 -1q-82 -56 -124.5 -118.5t-48.5 -112.5q-1 -6 -1 -19q0 -49 31.5 -79t87.5 -30q36 0 78 13l-11 -95q-38 -11 -80 -11zM1139 601q0 -186 -77 -328.5t-210.5 -218t-302.5 -75.5
q-214 0 -336.5 119.5t-122.5 325.5q0 48 5 86q31 248 190 395t396 147q214 0 336 -121t122 -330zM559 61q216 0 348 146.5t132 388.5q0 175 -96 274.5t-272 99.5q-197 0 -323 -124t-153 -336q-5 -47 -5 -80q0 -172 96 -270.5t273 -98.5z" />
    <glyph glyph-name="uni01F0" unicode="&#x1f0;" horiz-adv-x="503" 
d="M-167 -438l11 76q29 -4 62 -4q130 0 187.5 88.5t81.5 287.5l124 1016h98l-127 -1026q-9 -76 -23 -135.5t-41 -119.5t-65 -99.5t-97 -64.5t-134 -25q-36 0 -77 6zM325 1215l-178 268h78l159 -221l221 221h87l-242 -268h-125z" />
    <glyph glyph-name="uni01F1" unicode="&#x1f1;" horiz-adv-x="2705" 
d="M1568 0l7 61l967 1309h-770l10 86h900l-7 -57l-970 -1313h805l-10 -86h-932zM135 0l178 1456h374q349 0 528 -153.5t179 -451.5q0 -65 -9 -139q-43 -350 -260.5 -531t-593.5 -181h-396zM253 86h288q323 0 510 159.5t224 466.5q8 70 8 126q0 262 -153.5 397t-452.5 135
h-266z" />
    <glyph glyph-name="uni01F2" unicode="&#x1f2;" horiz-adv-x="2457" 
d="M1550 0l7 59l749 885h-615l10 82h740l-7 -57l-744 -887h623l-10 -82h-753zM135 0l178 1456h374q349 0 528 -153.5t179 -451.5q0 -65 -9 -139q-43 -350 -260.5 -531t-593.5 -181h-396zM253 86h288q323 0 510 159.5t224 466.5q8 70 8 126q0 262 -153.5 397t-452.5 135h-266
z" />
    <glyph glyph-name="uni01F3" unicode="&#x1f3;" horiz-adv-x="2190" 
d="M1283 0l7 59l749 885h-615l10 82h740l-7 -57l-744 -887h623l-10 -82h-753zM587 970q-192 0 -309.5 -151t-117.5 -394q0 -170 82 -267t234 -97q200 0 331.5 150t131.5 390q0 171 -94 270t-258 99zM62 421q0 281 151.5 456t383.5 175q136 0 237 -69t134 -184l88 717h98
l-153 -1248q-6 -47 -12.5 -114t-10 -109.5t-3.5 -44.5h-99l25 239q-58 -119 -176 -189.5t-259 -70.5q-189 0 -296.5 118.5t-107.5 323.5z" />
    <glyph glyph-name="uni01F4" unicode="&#x1f4;" horiz-adv-x="1513" 
d="M938 1604l230 282h132l-307 -282h-55zM741 -21q-302 0 -472 163t-170 445q0 53 8 119q29 234 140 409.5t288 270.5t398 95h32q236 0 418 -147l-55 -77q-191 138 -405 138q-283 0 -475.5 -187.5t-230.5 -501.5q-7 -53 -7 -109q0 -247 143.5 -389.5t399.5 -142.5
q112 0 227.5 17.5t195.5 52.5l63 510h-409l10 86h505l-80 -651q-219 -101 -524 -101z" />
    <glyph glyph-name="uni01F5" unicode="&#x1f5;" horiz-adv-x="1268" 
d="M662 970q-193 0 -319.5 -151t-126.5 -392q0 -168 85 -264.5t234 -96.5q202 0 332 147t130 386q0 172 -89 271.5t-246 99.5zM116 418q0 187 72.5 332.5t199 223.5t284.5 78q132 0 227.5 -65t129.5 -170l36 209h95l-31 -189l-88 -723q-18 -143 -70 -251.5t-130 -174.5
t-172.5 -98.5t-204.5 -32.5q-187 0 -341 66l23 86q161 -68 329 -68q190 0 313.5 113.5t154.5 359.5l15 122q-61 -121 -177 -186.5t-256 -65.5q-191 0 -300 116.5t-109 317.5zM661 1174l230 282h132l-307 -282h-55z" />
    <glyph glyph-name="uni01F8" unicode="&#x1f8;" horiz-adv-x="1571" 
d="M896 1604l-284 282h135l203 -282h-54zM135 0l178 1456h106l647 -1121l103 -193l161 1314h106l-178 -1456h-105l-664 1137l-88 166l-160 -1303h-106z" />
    <glyph glyph-name="uni01F9" unicode="&#x1f9;" horiz-adv-x="1257" 
d="M137 0l108 880l12 146h89l-15 -206q66 112 180.5 172t252.5 60q321 0 321 -331q0 -47 -6 -99l-77 -622h-98l77 622q6 48 6 89q0 259 -233 259q-150 0 -265 -75.5t-170 -216.5l-84 -678h-98zM713 1174l-284 282h135l203 -282h-54z" />
    <glyph glyph-name="Aringacute" unicode="&#x1fa;" horiz-adv-x="1329" 
d="M965 1767q0 -82 -58 -136.5t-139 -54.5q-69 0 -112 40.5t-43 104.5q0 82 58 136.5t139 54.5q69 0 112 -40.5t43 -104.5zM803 1856q-50 0 -85 -37t-35 -92q0 -25 16 -41.5t41.5 -30.5t34.5 -23q50 0 85 37t35 92q0 25 -16 41.5t-41.5 30.5t-34.5 23zM797 2034l230 282h132
l-307 -282h-55zM328 473h619q-66 299 -202 893q-278 -596 -417 -893zM-21 0l708 1456h134l351 -1456h-112l-94 399h-674l-192 -399h-121z" />
    <glyph glyph-name="aringacute" unicode="&#x1fb;" horiz-adv-x="1253" 
d="M861 1337q0 -82 -58 -136.5t-139 -54.5q-69 0 -112 40.5t-43 104.5q0 82 58 136.5t139 54.5q69 0 112 -40.5t43 -104.5zM699 1426q-50 0 -85 -37t-35 -92q0 -25 16 -41.5t41.5 -30.5t34.5 -23q50 0 85 37t35 92q0 25 -16 41.5t-41.5 30.5t-34.5 23zM693 1604l230 282h132
l-307 -282h-55zM637 970q-194 0 -320 -148.5t-126 -385.5q0 -174 89 -274.5t245 -100.5q173 0 284.5 124.5t138.5 338.5q5 38 5 85q0 164 -88.5 262.5t-227.5 98.5zM91 425q0 281 156.5 454t399.5 173q128 0 217 -62.5t121 -164.5l25 201h98l-126 -1026h-98l26 215
q-61 -108 -163.5 -172t-235.5 -64q-197 0 -308.5 119.5t-111.5 326.5z" />
    <glyph glyph-name="AEacute" unicode="&#x1fc;" horiz-adv-x="1860" 
d="M1346 1604l230 282h132l-307 -282h-55zM398 536h605l37 833h-66zM-54 0l1012 1456h908l-10 -87h-733l-23 -573h615l-9 -77h-617l-21 -636h654l-10 -83h-721l13 459h-650l-319 -459h-89z" />
    <glyph glyph-name="aeacute" unicode="&#x1fd;" horiz-adv-x="1811" 
d="M971 578h677l2 30q2 26 2 40q0 59 -15.5 113.5t-47.5 102.5t-90.5 77t-135.5 29t-148 -35.5t-121 -92.5t-82.5 -126t-40.5 -138zM415 61q187 0 298.5 122.5t134.5 323.5h-222q-102 0 -169.5 -5.5t-123 -19.5t-87.5 -40t-52 -65t-27 -97q-2 -22 -2 -32q0 -96 69.5 -141.5
t180.5 -45.5zM1735 638q0 -53 -9 -129h-764l-4 -35q-5 -42 -5 -75q0 -69 17 -128t51.5 -107t95 -75.5t140.5 -27.5q57 0 113 12t95.5 29t71.5 34t47 29l16 12l28 -69q-6 -5 -17.5 -14t-50 -31t-80 -39t-105.5 -31t-128 -14q-150 0 -249 83t-124 217q-22 -56 -60.5 -107
t-95.5 -95.5t-138 -70.5t-175 -26q-154 0 -245.5 68.5t-91.5 188.5q0 24 2 37q10 78 40.5 133t75.5 88t119 52t152.5 25t193.5 6h202q5 43 5 76q0 142 -70.5 229t-201.5 87q-186 0 -363 -85l-24 79q1 0 14 6.5t20 9.5t25 10.5t31.5 12t36.5 11.5t43 12t48 10t54.5 8.5
t59 5.5t65.5 2q148 0 239.5 -77t102.5 -208q63 127 180 206t255 79q167 0 264.5 -107t97.5 -307zM975 1174l230 282h132l-307 -282h-55z" />
    <glyph glyph-name="Oslashacute" unicode="&#x1fe;" 
d="M868 1604l230 282h132l-307 -282h-55zM252 -155l-59 34l1160 1726l56 -33zM696 -21q-278 0 -436.5 165t-158.5 450q0 57 8 129q43 346 251.5 552t519.5 206q274 0 432 -167.5t158 -455.5q0 -64 -9 -135q-41 -339 -249.5 -541.5t-515.5 -202.5zM706 65q186 0 334.5 97.5
t233.5 277t85 409.5q0 253 -130 399.5t-359 146.5q-260 0 -437 -182.5t-214 -489.5q-8 -66 -8 -120q0 -249 132.5 -393.5t362.5 -144.5z" />
    <glyph glyph-name="oslashacute" unicode="&#x1ff;" horiz-adv-x="1230" 
d="M235 -228l-40 18l812 1459l45 -21zM1139 601q0 -186 -77 -328.5t-210.5 -218t-302.5 -75.5q-214 0 -336.5 119.5t-122.5 325.5q0 48 5 86q31 248 190 395t396 147q214 0 336 -121t122 -330zM559 61q216 0 348 146.5t132 388.5q0 175 -96 274.5t-272 99.5
q-197 0 -323 -124t-153 -336q-5 -47 -5 -80q0 -172 96 -270.5t273 -98.5zM672 1174l230 282h132l-307 -282h-55z" />
    <glyph glyph-name="uni0200" unicode="&#x200;" horiz-adv-x="1329" 
d="M896 1604l-237 313h116l179 -313h-58zM627 1604l-238 313h116l182 -313h-60zM328 473h619q-66 299 -202 893q-278 -596 -417 -893zM-21 0l708 1456h134l351 -1456h-112l-94 399h-674l-192 -399h-121z" />
    <glyph glyph-name="uni0201" unicode="&#x201;" horiz-adv-x="1253" 
d="M792 1174l-237 313h116l179 -313h-58zM523 1174l-238 313h116l182 -313h-60zM637 970q-194 0 -320 -148.5t-126 -385.5q0 -174 89 -274.5t245 -100.5q173 0 284.5 124.5t138.5 338.5q5 38 5 85q0 164 -88.5 262.5t-227.5 98.5zM91 425q0 281 156.5 454t399.5 173
q128 0 217 -62.5t121 -164.5l25 201h98l-126 -1026h-98l26 215q-61 -108 -163.5 -172t-235.5 -64q-197 0 -308.5 119.5t-111.5 326.5z" />
    <glyph glyph-name="uni0202" unicode="&#x202;" horiz-adv-x="1329" 
d="M516 1655q16 103 99.5 160t187.5 57q100 0 171 -53t71 -149v-15h-71q-1 66 -54 102.5t-127 36.5q-73 0 -132 -36t-72 -103h-73zM328 473h619q-66 299 -202 893q-278 -596 -417 -893zM-21 0l708 1456h134l351 -1456h-112l-94 399h-674l-192 -399h-121z" />
    <glyph glyph-name="uni0203" unicode="&#x203;" horiz-adv-x="1253" 
d="M412 1225q16 103 99.5 160t187.5 57q100 0 171 -53t71 -149v-15h-71q-1 66 -54 102.5t-127 36.5q-73 0 -132 -36t-72 -103h-73zM637 970q-194 0 -320 -148.5t-126 -385.5q0 -174 89 -274.5t245 -100.5q173 0 284.5 124.5t138.5 338.5q5 38 5 85q0 164 -88.5 262.5
t-227.5 98.5zM91 425q0 281 156.5 454t399.5 173q128 0 217 -62.5t121 -164.5l25 201h98l-126 -1026h-98l26 215q-61 -108 -163.5 -172t-235.5 -64q-197 0 -308.5 119.5t-111.5 326.5z" />
    <glyph glyph-name="uni0204" unicode="&#x204;" horiz-adv-x="1219" 
d="M869 1604l-237 313h116l179 -313h-58zM600 1604l-238 313h116l182 -313h-60zM135 0l178 1456h810l-10 -86h-702l-72 -583h663l-10 -86h-665l-76 -615h734l-10 -86h-840z" />
    <glyph glyph-name="uni0205" unicode="&#x205;" horiz-adv-x="1133" 
d="M790 1174l-237 313h116l179 -313h-58zM521 1174l-238 313h116l182 -313h-60zM210 578h761q1 14 1 40q0 162 -87 257t-237 95q-164 0 -283 -106.5t-155 -285.5zM550 -21q-214 0 -337 119.5t-123 324.5q0 49 5 85q31 248 184 396t379 148q186 0 292 -108.5t106 -295.5
q0 -35 -5 -83l-7 -58h-849q-6 -42 -6 -81q0 -169 99 -267t272 -98q95 0 190 31t170 85l28 -69q-79 -59 -186.5 -94t-211.5 -35z" />
    <glyph glyph-name="uni0206" unicode="&#x206;" horiz-adv-x="1219" 
d="M489 1655q16 103 99.5 160t187.5 57q100 0 171 -53t71 -149v-15h-71q-1 66 -54 102.5t-127 36.5q-73 0 -132 -36t-72 -103h-73zM135 0l178 1456h810l-10 -86h-702l-72 -583h663l-10 -86h-665l-76 -615h734l-10 -86h-840z" />
    <glyph glyph-name="uni0207" unicode="&#x207;" horiz-adv-x="1133" 
d="M410 1225q16 103 99.5 160t187.5 57q100 0 171 -53t71 -149v-15h-71q-1 66 -54 102.5t-127 36.5q-73 0 -132 -36t-72 -103h-73zM210 578h761q1 14 1 40q0 162 -87 257t-237 95q-164 0 -283 -106.5t-155 -285.5zM550 -21q-214 0 -337 119.5t-123 324.5q0 49 5 85
q31 248 184 396t379 148q186 0 292 -108.5t106 -295.5q0 -35 -5 -83l-7 -58h-849q-6 -42 -6 -81q0 -169 99 -267t272 -98q95 0 190 31t170 85l28 -69q-79 -59 -186.5 -94t-211.5 -35z" />
    <glyph glyph-name="uni0208" unicode="&#x208;" horiz-adv-x="592" 
d="M528 1604l-237 313h116l179 -313h-58zM259 1604l-238 313h116l182 -313h-60zM153 0l178 1456h108l-178 -1456h-108z" />
    <glyph glyph-name="uni0209" unicode="&#x209;" horiz-adv-x="473" 
d="M442 1174l-237 313h116l179 -313h-58zM173 1174l-238 313h116l182 -313h-60zM124 0l124 1026h101l-124 -1026h-101z" />
    <glyph glyph-name="uni020A" unicode="&#x20a;" horiz-adv-x="592" 
d="M148 1655q16 103 99.5 160t187.5 57q100 0 171 -53t71 -149v-15h-71q-1 66 -54 102.5t-127 36.5q-73 0 -132 -36t-72 -103h-73zM153 0l178 1456h108l-178 -1456h-108z" />
    <glyph glyph-name="uni020B" unicode="&#x20b;" horiz-adv-x="473" 
d="M62 1225q16 103 99.5 160t187.5 57q100 0 171 -53t71 -149v-15h-71q-1 66 -54 102.5t-127 36.5q-73 0 -132 -36t-72 -103h-73zM124 0l124 1026h101l-124 -1026h-101z" />
    <glyph glyph-name="uni020C" unicode="&#x20c;" 
d="M1017 1604l-237 313h116l179 -313h-58zM748 1604l-238 313h116l182 -313h-60zM696 -21q-278 0 -436.5 165t-158.5 450q0 57 8 129q43 346 251.5 552t519.5 206q274 0 432 -167.5t158 -455.5q0 -64 -9 -135q-41 -339 -249.5 -541.5t-515.5 -202.5zM706 65
q186 0 334.5 97.5t233.5 277t85 409.5q0 253 -130 399.5t-359 146.5q-260 0 -437 -182.5t-214 -489.5q-8 -66 -8 -120q0 -249 132.5 -393.5t362.5 -144.5z" />
    <glyph glyph-name="uni020D" unicode="&#x20d;" horiz-adv-x="1230" 
d="M821 1174l-237 313h116l179 -313h-58zM552 1174l-238 313h116l182 -313h-60zM1139 601q0 -186 -77 -328.5t-210.5 -218t-302.5 -75.5q-214 0 -336.5 119.5t-122.5 325.5q0 48 5 86q31 248 190 395t396 147q214 0 336 -121t122 -330zM559 61q216 0 348 146.5t132 388.5
q0 175 -96 274.5t-272 99.5q-197 0 -323 -124t-153 -336q-5 -47 -5 -80q0 -172 96 -270.5t273 -98.5z" />
    <glyph glyph-name="uni020E" unicode="&#x20e;" 
d="M637 1655q16 103 99.5 160t187.5 57q100 0 171 -53t71 -149v-15h-71q-1 66 -54 102.5t-127 36.5q-73 0 -132 -36t-72 -103h-73zM696 -21q-278 0 -436.5 165t-158.5 450q0 57 8 129q43 346 251.5 552t519.5 206q274 0 432 -167.5t158 -455.5q0 -64 -9 -135
q-41 -339 -249.5 -541.5t-515.5 -202.5zM706 65q186 0 334.5 97.5t233.5 277t85 409.5q0 253 -130 399.5t-359 146.5q-260 0 -437 -182.5t-214 -489.5q-8 -66 -8 -120q0 -249 132.5 -393.5t362.5 -144.5z" />
    <glyph glyph-name="uni020F" unicode="&#x20f;" horiz-adv-x="1230" 
d="M441 1225q16 103 99.5 160t187.5 57q100 0 171 -53t71 -149v-15h-71q-1 66 -54 102.5t-127 36.5q-73 0 -132 -36t-72 -103h-73zM1139 601q0 -186 -77 -328.5t-210.5 -218t-302.5 -75.5q-214 0 -336.5 119.5t-122.5 325.5q0 48 5 86q31 248 190 395t396 147
q214 0 336 -121t122 -330zM559 61q216 0 348 146.5t132 388.5q0 175 -96 274.5t-272 99.5q-197 0 -323 -124t-153 -336q-5 -47 -5 -80q0 -172 96 -270.5t273 -98.5z" />
    <glyph glyph-name="uni0210" unicode="&#x210;" horiz-adv-x="1373" 
d="M822 1604l-237 313h116l179 -313h-58zM553 1604l-238 313h116l182 -313h-60zM339 758h354q179 0 273.5 80t114.5 239q4 28 4 59q0 121 -74.5 178t-233.5 57q-26 0 -39 -1h-324zM1189 1150q0 -184 -92 -303t-256 -133q31 -5 54.5 -11.5t43 -17.5t33 -20.5t26 -29.5t20 -35
t16.5 -46.5t15 -54.5t16 -68l98 -431h-101l-94 408q-14 59 -23.5 93.5t-24 68.5t-30.5 50t-42 30t-58 18t-79 4h-386l-82 -672h-108l178 1456h435q229 0 335 -73.5t106 -232.5z" />
    <glyph glyph-name="uni0211" unicode="&#x211;" horiz-adv-x="769" 
d="M683 1174l-237 313h116l179 -313h-58zM414 1174l-238 313h116l182 -313h-60zM141 0l95 776q7 57 12.5 119.5t7.5 96.5l2 34h100l-14 -191q47 112 133 162.5t195 50.5q50 0 100 -9l-16 -90q-47 9 -93 9q-141 0 -235.5 -96t-120.5 -303l-68 -559h-98z" />
    <glyph glyph-name="uni0212" unicode="&#x212;" horiz-adv-x="1373" 
d="M442 1655q16 103 99.5 160t187.5 57q100 0 171 -53t71 -149v-15h-71q-1 66 -54 102.5t-127 36.5q-73 0 -132 -36t-72 -103h-73zM339 758h354q179 0 273.5 80t114.5 239q4 28 4 59q0 121 -74.5 178t-233.5 57q-26 0 -39 -1h-324zM1189 1150q0 -184 -92 -303t-256 -133
q31 -5 54.5 -11.5t43 -17.5t33 -20.5t26 -29.5t20 -35t16.5 -46.5t15 -54.5t16 -68l98 -431h-101l-94 408q-14 59 -23.5 93.5t-24 68.5t-30.5 50t-42 30t-58 18t-79 4h-386l-82 -672h-108l178 1456h435q229 0 335 -73.5t106 -232.5z" />
    <glyph glyph-name="uni0213" unicode="&#x213;" horiz-adv-x="769" 
d="M303 1225q16 103 99.5 160t187.5 57q100 0 171 -53t71 -149v-15h-71q-1 66 -54 102.5t-127 36.5q-73 0 -132 -36t-72 -103h-73zM141 0l95 776q7 57 12.5 119.5t7.5 96.5l2 34h100l-14 -191q47 112 133 162.5t195 50.5q50 0 100 -9l-16 -90q-47 9 -93 9q-141 0 -235.5 -96
t-120.5 -303l-68 -559h-98z" />
    <glyph glyph-name="uni0214" unicode="&#x214;" horiz-adv-x="1480" 
d="M979 1604l-237 313h116l179 -313h-58zM710 1604l-238 313h116l182 -313h-60zM641 -21q-245 0 -371 110t-126 323q0 39 7 102l116 942h108l-117 -950q-5 -38 -5 -85q0 -176 101 -266t298 -90q220 0 348 112t154 329l117 950h108l-116 -942q-35 -263 -193 -399t-429 -136z
" />
    <glyph glyph-name="uni0215" unicode="&#x215;" horiz-adv-x="1285" 
d="M858 1174l-237 313h116l179 -313h-58zM589 1174l-238 313h116l182 -313h-60zM519 -26q-168 0 -253 86t-85 255q0 46 6 97l76 614h98l-76 -618q-6 -45 -6 -85q0 -267 250 -267q90 0 171.5 33t133.5 81.5t84 97.5t36 87l83 671h98l-99 -801q-17 -135 -22 -225h-89l14 191
q-164 -217 -420 -217z" />
    <glyph glyph-name="uni0216" unicode="&#x216;" horiz-adv-x="1480" 
d="M599 1655q16 103 99.5 160t187.5 57q100 0 171 -53t71 -149v-15h-71q-1 66 -54 102.5t-127 36.5q-73 0 -132 -36t-72 -103h-73zM641 -21q-245 0 -371 110t-126 323q0 39 7 102l116 942h108l-117 -950q-5 -38 -5 -85q0 -176 101 -266t298 -90q220 0 348 112t154 329
l117 950h108l-116 -942q-35 -263 -193 -399t-429 -136z" />
    <glyph glyph-name="uni0217" unicode="&#x217;" horiz-adv-x="1285" 
d="M478 1225q16 103 99.5 160t187.5 57q100 0 171 -53t71 -149v-15h-71q-1 66 -54 102.5t-127 36.5q-73 0 -132 -36t-72 -103h-73zM519 -26q-168 0 -253 86t-85 255q0 46 6 97l76 614h98l-76 -618q-6 -45 -6 -85q0 -267 250 -267q90 0 171.5 33t133.5 81.5t84 97.5t36 87
l83 671h98l-99 -801q-17 -135 -22 -225h-89l14 191q-164 -217 -420 -217z" />
    <glyph glyph-name="Scommaaccent" unicode="&#x218;" horiz-adv-x="1130" 
d="M290 -557l157 433h117l-204 -433h-70zM1004 465q0 -225 -136.5 -355.5t-373.5 -130.5q-58 0 -109.5 7t-92.5 21t-72 27t-58.5 32.5t-41.5 30.5t-31.5 28t-18.5 17l60 74q60 -58 108 -86q112 -65 266 -65q182 0 289.5 102.5t107.5 276.5q0 98 -62 152t-222 97l-144 39
q-155 42 -228.5 113t-73.5 201q0 207 134.5 321t365.5 114q55 0 104 -6t85.5 -17t64.5 -22t50.5 -26.5t34.5 -24t25 -21.5l13 -13l-56 -74q-14 16 -35 32.5t-59.5 38t-100.5 34.5t-136 13q-183 0 -283 -90.5t-100 -258.5q0 -92 50.5 -140.5t179.5 -83.5l144 -38
q198 -53 275 -125.5t77 -193.5z" />
    <glyph glyph-name="scommaaccent" unicode="&#x219;" horiz-adv-x="935" 
d="M220 -557l157 433h117l-204 -433h-70zM548 970q-154 0 -228 -53.5t-74 -162.5q0 -57 33 -86.5t122 -58.5l194 -63q112 -37 164.5 -88t52.5 -137q0 -19 -3 -41q-19 -151 -128 -226t-270 -75q-190 0 -341 117l47 76q1 -1 12 -9t19 -13t23 -15t29 -16.5t33 -15.5t39 -15
t43 -11.5t49.5 -8.5t53.5 -3q43 0 81 5.5t79 21t70 40.5t48 67t19 98q0 64 -37.5 99t-125.5 63l-198 63q-105 33 -156 82t-51 136q0 159 111.5 235.5t299.5 76.5q181 0 297 -75l-41 -73q-114 66 -266 66z" />
    <glyph glyph-name="uni021A" unicode="&#x21a;" horiz-adv-x="1097" 
d="M241 -557l157 433h117l-204 -433h-70zM405 0l168 1370h-486l10 86h1080l-10 -86h-486l-168 -1370h-108z" />
    <glyph glyph-name="uni021B" unicode="&#x21b;" horiz-adv-x="687" 
d="M134 -526l157 433h117l-204 -433h-70zM509 -1q-8 0 -23.5 0.5t-22.5 0.5q-79 4 -132 18.5t-80.5 40t-38 55t-10.5 71.5q0 31 13 141l78 635h-202l8 65h202l36 294l102 29l-40 -323h233l-8 -65h-233l-78 -638q-11 -93 -11 -124q0 -71 42.5 -93.5t174.5 -22.5z" />
    <glyph glyph-name="uni021E" unicode="&#x21e;" horiz-adv-x="1558" 
d="M845 1645l-178 268h78l159 -221l221 221h87l-242 -268h-125zM135 0l178 1456h112l-82 -670h894l82 670h104l-178 -1456h-108l86 700h-894l-86 -700h-108z" />
    <glyph glyph-name="uni021F" unicode="&#x21f;" horiz-adv-x="1255" 
d="M103 0l186 1516h98l-85 -689q70 102 181 163.5t253 61.5q60 0 112.5 -13.5t102.5 -44.5t79.5 -93t29.5 -149q0 -37 -4 -70l-84 -682h-98l81 659q6 45 6 84q0 114 -55.5 170.5t-179.5 56.5q-105 0 -205.5 -48.5t-166 -128t-76.5 -165.5l-77 -628h-98zM703 1215l-178 268
h78l159 -221l221 221h87l-242 -268h-125z" />
    <glyph glyph-name="uni0226" unicode="&#x226;" horiz-adv-x="1329" 
d="M719 1668l16 126h122l-16 -126h-122zM328 473h619q-66 299 -202 893q-278 -596 -417 -893zM-21 0l708 1456h134l351 -1456h-112l-94 399h-674l-192 -399h-121z" />
    <glyph glyph-name="uni0227" unicode="&#x227;" horiz-adv-x="1253" 
d="M615 1238l16 126h122l-16 -126h-122zM637 970q-194 0 -320 -148.5t-126 -385.5q0 -174 89 -274.5t245 -100.5q173 0 284.5 124.5t138.5 338.5q5 38 5 85q0 164 -88.5 262.5t-227.5 98.5zM91 425q0 281 156.5 454t399.5 173q128 0 217 -62.5t121 -164.5l25 201h98
l-126 -1026h-98l26 215q-61 -108 -163.5 -172t-235.5 -64q-197 0 -308.5 119.5t-111.5 326.5z" />
    <glyph glyph-name="uni0228" unicode="&#x228;" horiz-adv-x="1219" 
d="M769 -245q0 -42 -18.5 -72t-50 -45t-63 -21t-66.5 -6q-88 0 -166 39l19 58q20 -10 65 -19.5t83 -9.5q58 0 82.5 17.5t24.5 55.5q0 59 -168 59h-6l58 194h59l-41 -144q37 -1 63 -5t58 -14t49.5 -32t17.5 -55zM135 0l178 1456h810l-10 -86h-702l-72 -583h663l-10 -86h-665
l-76 -615h734l-10 -86h-840z" />
    <glyph glyph-name="uni0229" unicode="&#x229;" horiz-adv-x="1133" 
d="M210 578h761q1 14 1 40q0 162 -87 257t-237 95q-164 0 -283 -106.5t-155 -285.5zM550 -21q-214 0 -337 119.5t-123 324.5q0 49 5 85q31 248 184 396t379 148q186 0 292 -108.5t106 -295.5q0 -35 -5 -83l-7 -58h-849q-6 -42 -6 -81q0 -169 99 -267t272 -98q95 0 190 31
t170 85l28 -69q-79 -59 -186.5 -94t-211.5 -35zM709 -245q0 -42 -18.5 -72t-50 -45t-63 -21t-66.5 -6q-88 0 -166 39l19 58q20 -10 65 -19.5t83 -9.5q58 0 82.5 17.5t24.5 55.5q0 59 -168 59h-6l58 194h59l-41 -144q37 -1 63 -5t58 -14t49.5 -32t17.5 -55z" />
    <glyph glyph-name="uni022E" unicode="&#x22e;" 
d="M840 1668l16 126h122l-16 -126h-122zM696 -21q-278 0 -436.5 165t-158.5 450q0 57 8 129q43 346 251.5 552t519.5 206q274 0 432 -167.5t158 -455.5q0 -64 -9 -135q-41 -339 -249.5 -541.5t-515.5 -202.5zM706 65q186 0 334.5 97.5t233.5 277t85 409.5q0 253 -130 399.5
t-359 146.5q-260 0 -437 -182.5t-214 -489.5q-8 -66 -8 -120q0 -249 132.5 -393.5t362.5 -144.5z" />
    <glyph glyph-name="uni022F" unicode="&#x22f;" horiz-adv-x="1230" 
d="M1139 601q0 -186 -77 -328.5t-210.5 -218t-302.5 -75.5q-214 0 -336.5 119.5t-122.5 325.5q0 48 5 86q31 248 190 395t396 147q214 0 336 -121t122 -330zM559 61q216 0 348 146.5t132 388.5q0 175 -96 274.5t-272 99.5q-197 0 -323 -124t-153 -336q-5 -47 -5 -80
q0 -172 96 -270.5t273 -98.5zM644 1238l16 126h122l-16 -126h-122z" />
    <glyph glyph-name="uni0232" unicode="&#x232;" horiz-adv-x="1235" 
d="M454 1665l10 75h530l-10 -75h-530zM471 0l72 591l-374 865h109l332 -773l529 773h105l-592 -862l-73 -594h-108z" />
    <glyph glyph-name="uni0233" unicode="&#x233;" horiz-adv-x="983" 
d="M68 -417l-24 72q77 19 137.5 50.5t100.5 71.5t62.5 71.5t45.5 72.5l31 58l-270 1047h106l228 -929l467 929h96l-545 -1078q-154 -315 -435 -365zM361 1235l10 75h530l-10 -75h-530z" />
    <glyph glyph-name="uni0237" unicode="&#x237;" horiz-adv-x="503" 
d="M-167 -438l11 76q29 -4 62 -4q130 0 187.5 88.5t81.5 287.5l124 1016h98l-127 -1026q-9 -76 -23 -135.5t-41 -119.5t-65 -99.5t-97 -64.5t-134 -25q-36 0 -77 6z" />
    <glyph glyph-name="afii57929" unicode="&#x2bc;" horiz-adv-x="600" 
d="M86 1210l96 552h119l-148 -552h-67z" />
    <glyph glyph-name="circumflex" unicode="&#x2c6;" horiz-adv-x="699" 
d="M99 1215l240 272h57l167 -272h-56l-157 185l-201 -185h-50z" />
    <glyph glyph-name="caron" unicode="&#x2c7;" horiz-adv-x="699" 
d="M271 1215l-178 268h78l159 -221l221 221h87l-242 -268h-125z" />
    <glyph glyph-name="breve" unicode="&#x2d8;" horiz-adv-x="503" 
d="M240 1162q-103 0 -148 48t-45 148v18h75q-1 -8 -1 -22q0 -58 30 -87t98 -29q71 0 105 35t55 103h73q-20 -104 -82 -159t-160 -55z" />
    <glyph glyph-name="dotaccent" unicode="&#x2d9;" horiz-adv-x="524" 
d="M193 1238l16 126h122l-16 -126h-122z" />
    <glyph glyph-name="ring" unicode="&#x2da;" horiz-adv-x="534" 
d="M444 1337q0 -82 -58 -136.5t-139 -54.5q-69 0 -112 40.5t-43 104.5q0 82 58 136.5t139 54.5q69 0 112 -40.5t43 -104.5zM282 1426q-50 0 -85 -37t-35 -92q0 -25 16 -41.5t41.5 -30.5t34.5 -23q50 0 85 37t35 92q0 25 -16 41.5t-41.5 30.5t-34.5 23z" />
    <glyph glyph-name="ogonek" unicode="&#x2db;" horiz-adv-x="508" 
d="M302 -448q-89 0 -148.5 55t-59.5 135q0 15 1 23q8 62 56 124.5t137 115.5l82 -1q-82 -56 -124.5 -118.5t-48.5 -112.5q-1 -6 -1 -19q0 -49 31.5 -79t87.5 -30q36 0 78 13l-11 -95q-38 -11 -80 -11z" />
    <glyph glyph-name="tilde" unicode="&#x2dc;" horiz-adv-x="573" 
d="M442 1233q-48 0 -155.5 48.5t-141.5 48.5q-62 0 -72 -80h-62q9 71 44.5 107.5t92.5 36.5q50 0 155.5 -48.5t139.5 -48.5q27 0 37 19.5t16 66.5h66q-20 -150 -120 -150z" />
    <glyph glyph-name="hungarumlaut" unicode="&#x2dd;" horiz-adv-x="969" 
d="M400 1174l224 282h114l-268 -282h-70zM137 1174l229 282h99l-256 -282h-72z" />
    <glyph glyph-name="uni0307" unicode="&#x307;" horiz-adv-x="524" 
d="M174 1246l18 163h157l-17 -163h-158z" />
    <glyph glyph-name="uni030F" unicode="&#x30f;" horiz-adv-x="969" 
d="M739 1174l-237 313h116l179 -313h-58zM470 1174l-238 313h116l182 -313h-60z" />
    <glyph glyph-name="uni0311" unicode="&#x311;" horiz-adv-x="629" 
d="M37 1225q16 103 99.5 160t187.5 57q100 0 171 -53t71 -149v-15h-71q-1 66 -54 102.5t-127 36.5q-73 0 -132 -36t-72 -103h-73z" />
    <glyph glyph-name="uni0312" unicode="&#x312;" horiz-adv-x="600" 
d="M470 1683l-157 -433h-117l204 433h70z" />
    <glyph glyph-name="uni0326" unicode="&#x326;" horiz-adv-x="540" 
d="M133 -557l157 433h117l-204 -433h-70z" />
    <glyph glyph-name="uni0358" unicode="&#x358;" horiz-adv-x="524" 
d="M174 1246l18 163h157l-17 -163h-158z" />
    <glyph glyph-name="uni0394" unicode="&#x394;" horiz-adv-x="1298" 
d="M58 77h1017l-359 1218zM-48 0l6 48l765 1403h31l420 -1403l-6 -48h-1216z" />
    <glyph glyph-name="Sigma" unicode="&#x3a3;" horiz-adv-x="1102" 
d="M7 -99l6 49l603 744l-408 698l7 60h899l-9 -74h-768l383 -672l-595 -733h850l-9 -72h-959z" />
    <glyph glyph-name="uni03A9" unicode="&#x3a9;" horiz-adv-x="1603" 
d="M898 1331q-135 0 -254.5 -51t-206.5 -141t-137.5 -221.5t-50.5 -285.5q0 -340 293 -546l-9 -86h-476l1 90h391q-312 208 -312 559q0 47 6 98q25 202 134.5 357t276 237t363.5 82q182 0 317 -75t203.5 -204t68.5 -296q0 -111 -28.5 -212t-73 -177.5t-110 -148t-127 -121
t-137.5 -99.5h399l-21 -90h-480l8 86q402 246 450 639q6 48 6 96q0 107 -30.5 198.5t-90 161.5t-155 110t-218.5 40z" />
    <glyph glyph-name="uni03BC" unicode="&#x3bc;" horiz-adv-x="1285" 
d="M213 -332l-98 4l166 1354h98l-76 -618q-5 -37 -5 -83q0 -269 250 -269q90 0 171.5 33t133.5 81.5t83.5 97.5t36.5 87l82 671h98l-98 -801q-15 -122 -23 -225h-89l15 191q-164 -217 -420 -217q-191 0 -274 110z" />
    <glyph glyph-name="pi" unicode="&#x3c0;" horiz-adv-x="1288" 
d="M119 0q38 43 68.5 84t55 87.5t42.5 84t34.5 93t27 94.5t23.5 108t20.5 114t22 132.5t24.5 143.5q-112 0 -223 -59l-7 81q129 63 244 63h747l-11 -85h-174l-85 -692q-4 -28 -4 -59q0 -59 24.5 -88.5t84.5 -29.5q20 0 44 3l-2 -76q-58 -8 -88 -8q-75 0 -118 40t-43 144
q0 27 5 74l85 692h-380q-63 -385 -94 -510q-58 -236 -162 -382q-18 -25 -38 -49h-123z" />
    <glyph glyph-name="uni1E02" unicode="&#x1e02;" horiz-adv-x="1352" 
d="M702 1668l16 126h122l-16 -126h-122zM342 794h349q193 0 285.5 75t111.5 230q2 13 2 38q0 233 -374 233h-303zM645 86q209 0 319.5 90.5t110.5 269.5q0 132 -92.5 197t-301.5 65h-351l-77 -622h392zM135 0l178 1456h413q473 0 473 -305q0 -25 -3 -52q-40 -312 -325 -342
q149 -12 231.5 -91.5t82.5 -218.5q0 -33 -4 -62q-23 -189 -162 -287t-384 -98h-500z" />
    <glyph glyph-name="uni1E03" unicode="&#x1e03;" horiz-adv-x="1259" 
d="M673 1238l16 126h122l-16 -126h-122zM723 970q-201 0 -331.5 -147.5t-130.5 -385.5q0 -174 93.5 -275t257.5 -101q191 0 309.5 153.5t118.5 398.5q0 167 -82 262t-235 95zM1138 617q0 -283 -152.5 -460.5t-383.5 -177.5q-141 0 -242 71t-129 189l-35 -239h-99l7 44
q7 44 17 110.5t16 113.5l153 1248h98l-88 -717q61 115 179 184t254 69q189 0 297 -116.5t108 -318.5z" />
    <glyph glyph-name="uni1E0A" unicode="&#x1e0a;" horiz-adv-x="1523" 
d="M792 1668l16 126h122l-16 -126h-122zM135 0l178 1456h374q349 0 528 -153.5t179 -451.5q0 -65 -9 -139q-43 -350 -260.5 -531t-593.5 -181h-396zM253 86h288q323 0 510 159.5t224 466.5q8 70 8 126q0 262 -153.5 397t-452.5 135h-266z" />
    <glyph glyph-name="uni1E0B" unicode="&#x1e0b;" horiz-adv-x="1256" 
d="M579 1238l16 126h122l-16 -126h-122zM587 970q-192 0 -309.5 -151t-117.5 -394q0 -170 82 -267t234 -97q200 0 331.5 150t131.5 390q0 171 -94 270t-258 99zM62 421q0 281 151.5 456t383.5 175q136 0 237 -69t134 -184l88 717h98l-153 -1248q-6 -47 -12.5 -114
t-10 -109.5t-3.5 -44.5h-99l25 239q-58 -119 -176 -189.5t-259 -70.5q-189 0 -296.5 118.5t-107.5 323.5z" />
    <glyph glyph-name="uni1E1E" unicode="&#x1e1e;" horiz-adv-x="1090" 
d="M682 1668l16 126h122l-16 -126h-122zM135 0l178 1456h777l-10 -86h-669l-73 -591h612l-10 -86h-612l-85 -693h-108z" />
    <glyph glyph-name="uni1E1F" unicode="&#x1e1f;" horiz-adv-x="604" 
d="M150 0l118 961h-174l8 65h174l19 158q11 89 30.5 144t61.5 96t110.5 58t175.5 17h35l-10 -83q-51 0 -89.5 -2t-68.5 -9t-50.5 -14t-36 -21.5t-24.5 -27t-15.5 -37t-10 -43.5t-7.5 -53l-22 -183h263l-8 -65h-263l-118 -961h-98zM333 1668l16 126h122l-16 -126h-122z" />
    <glyph glyph-name="uni1E40" unicode="&#x1e40;" horiz-adv-x="1849" 
d="M987 1668l16 126h122l-16 -126h-122zM135 0l178 1456h138l339 -1097l62 -218q107 197 232 417.5t275.5 483t236.5 414.5h118l-178 -1456h-104l157 1279l-72 -145l-652 -1134h-63l-356 1134l-45 186l-162 -1320h-104z" />
    <glyph glyph-name="uni1E41" unicode="&#x1e41;" horiz-adv-x="1946" 
d="M139 0l108 880l12 146h89l-15 -206q136 232 413 232q133 0 208 -66.5t89 -196.5q69 131 183.5 197t246.5 66q149 0 225 -84t76 -246q0 -46 -6 -100l-77 -622h-98l77 622q6 48 6 91q0 257 -213 257q-158 0 -264.5 -88.5t-157.5 -259.5l-77 -622h-98l77 622q6 48 6 91
q0 257 -213 257q-147 0 -253 -74.5t-162 -217.5l-84 -678h-98zM1024 1238l16 126h122l-16 -126h-122z" />
    <glyph glyph-name="uni1E56" unicode="&#x1e56;" horiz-adv-x="1219" 
d="M702 1668l16 126h122l-16 -126h-122zM339 787h323q215 0 310.5 68t114.5 224q4 28 4 59q0 121 -76.5 177t-240.5 56q-26 0 -40 -1h-323zM135 0l178 1456h431q234 0 342.5 -72.5t108.5 -231.5q0 -30 -5 -73q-24 -199 -152 -288.5t-386 -89.5h-323l-86 -701h-108z" />
    <glyph glyph-name="uni1E57" unicode="&#x1e57;" horiz-adv-x="1263" 
d="M787 965q-198 0 -331.5 -156.5t-133.5 -396.5q0 -168 94 -262t260 -94q192 0 309.5 151t117.5 394q0 170 -82 267t-234 97zM1201 605q0 -281 -151.5 -456t-383.5 -175q-139 0 -240 62.5t-133 175.5l-86 -702h-98l153 1248q6 47 12.5 114t10 109.5t3.5 44.5h99l-26 -247
q58 120 177 194t259 74q189 0 296.5 -118.5t107.5 -323.5zM761 1238l16 126h122l-16 -126h-122z" />
    <glyph glyph-name="uni1E60" unicode="&#x1e60;" horiz-adv-x="1130" 
d="M660 1668l16 126h122l-16 -126h-122zM1004 465q0 -225 -136.5 -355.5t-373.5 -130.5q-58 0 -109.5 7t-92.5 21t-72 27t-58.5 32.5t-41.5 30.5t-31.5 28t-18.5 17l60 74q60 -58 108 -86q112 -65 266 -65q182 0 289.5 102.5t107.5 276.5q0 98 -62 152t-222 97l-144 39
q-155 42 -228.5 113t-73.5 201q0 207 134.5 321t365.5 114q55 0 104 -6t85.5 -17t64.5 -22t50.5 -26.5t34.5 -24t25 -21.5l13 -13l-56 -74q-14 16 -35 32.5t-59.5 38t-100.5 34.5t-136 13q-183 0 -283 -90.5t-100 -258.5q0 -92 50.5 -140.5t179.5 -83.5l144 -38
q198 -53 275 -125.5t77 -193.5z" />
    <glyph glyph-name="uni1E61" unicode="&#x1e61;" horiz-adv-x="935" 
d="M548 970q-154 0 -228 -53.5t-74 -162.5q0 -57 33 -86.5t122 -58.5l194 -63q112 -37 164.5 -88t52.5 -137q0 -19 -3 -41q-19 -151 -128 -226t-270 -75q-190 0 -341 117l47 76q1 -1 12 -9t19 -13t23 -15t29 -16.5t33 -15.5t39 -15t43 -11.5t49.5 -8.5t53.5 -3q43 0 81 5.5
t79 21t70 40.5t48 67t19 98q0 64 -37.5 99t-125.5 63l-198 63q-105 33 -156 82t-51 136q0 159 111.5 235.5t299.5 76.5q181 0 297 -75l-41 -73q-114 66 -266 66zM493 1238l16 126h122l-16 -126h-122z" />
    <glyph glyph-name="uni1E6A" unicode="&#x1e6a;" horiz-adv-x="1097" 
d="M602 1668l16 126h122l-16 -126h-122zM405 0l168 1370h-486l10 86h1080l-10 -86h-486l-168 -1370h-108z" />
    <glyph glyph-name="uni1E6B" unicode="&#x1e6b;" horiz-adv-x="687" 
d="M509 -1q-8 0 -23.5 0.5t-22.5 0.5q-79 4 -132 18.5t-80.5 40t-38 55t-10.5 71.5q0 31 13 141l78 635h-202l8 65h202l36 294l102 29l-40 -323h233l-8 -65h-233l-78 -638q-11 -93 -11 -124q0 -71 42.5 -93.5t174.5 -22.5zM336 1523l16 126h122l-16 -126h-122z" />
    <glyph glyph-name="Wgrave" unicode="&#x1e80;" horiz-adv-x="2037" 
d="M1109 1604l-284 282h135l203 -282h-54zM425 0l-198 1456h114l159 -1242l4 -111l41 111l516 1242h109l212 -1242l13 -97q93 252 260 719t223 620h110l-540 -1456h-129l-217 1320l-549 -1320h-128z" />
    <glyph glyph-name="wgrave" unicode="&#x1e81;" horiz-adv-x="1553" 
d="M279 0l-172 1026h106q98 -616 148 -924l429 924h128l179 -844l16 -80q58 154 174.5 462t174.5 462h109l-404 -1026h-128q-21 104 -60.5 295t-71.5 347.5t-60 296.5q-84 -184 -242.5 -519.5t-197.5 -419.5h-128zM844 1174l-284 282h135l203 -282h-54z" />
    <glyph glyph-name="Wacute" unicode="&#x1e82;" horiz-adv-x="2037" 
d="M1113 1604l230 282h132l-307 -282h-55zM425 0l-198 1456h114l159 -1242l4 -111l41 111l516 1242h109l212 -1242l13 -97q93 252 260 719t223 620h110l-540 -1456h-129l-217 1320l-549 -1320h-128z" />
    <glyph glyph-name="wacute" unicode="&#x1e83;" horiz-adv-x="1553" 
d="M279 0l-172 1026h106q98 -616 148 -924l429 924h128l179 -844l16 -80q58 154 174.5 462t174.5 462h109l-404 -1026h-128q-21 104 -60.5 295t-71.5 347.5t-60 296.5q-84 -184 -242.5 -519.5t-197.5 -419.5h-128zM848 1174l230 282h132l-307 -282h-55z" />
    <glyph glyph-name="Wdieresis" unicode="&#x1e84;" horiz-adv-x="2037" 
d="M1260 1640l14 108h99l-14 -108h-99zM924 1640l14 108h98l-14 -108h-98zM425 0l-198 1456h114l159 -1242l4 -111l41 111l516 1242h109l212 -1242l13 -97q93 252 260 719t223 620h110l-540 -1456h-129l-217 1320l-549 -1320h-128z" />
    <glyph glyph-name="wdieresis" unicode="&#x1e85;" horiz-adv-x="1553" 
d="M279 0l-172 1026h106q98 -616 148 -924l429 924h128l179 -844l16 -80q58 154 174.5 462t174.5 462h109l-404 -1026h-128q-21 104 -60.5 295t-71.5 347.5t-60 296.5q-84 -184 -242.5 -519.5t-197.5 -419.5h-128zM995 1210l14 108h99l-14 -108h-99zM659 1210l14 108h98
l-14 -108h-98z" />
    <glyph glyph-name="uni1EBC" unicode="&#x1ebc;" horiz-adv-x="1219" 
d="M908 1663q-48 0 -155.5 48.5t-141.5 48.5q-62 0 -72 -80h-62q9 71 44.5 107.5t92.5 36.5q50 0 155.5 -48.5t139.5 -48.5q27 0 37 19.5t16 66.5h66q-20 -150 -120 -150zM135 0l178 1456h810l-10 -86h-702l-72 -583h663l-10 -86h-665l-76 -615h734l-10 -86h-840z" />
    <glyph glyph-name="uni1EBD" unicode="&#x1ebd;" horiz-adv-x="1133" 
d="M829 1233q-48 0 -155.5 48.5t-141.5 48.5q-62 0 -72 -80h-62q9 71 44.5 107.5t92.5 36.5q50 0 155.5 -48.5t139.5 -48.5q27 0 37 19.5t16 66.5h66q-20 -150 -120 -150zM210 578h761q1 14 1 40q0 162 -87 257t-237 95q-164 0 -283 -106.5t-155 -285.5zM550 -21
q-214 0 -337 119.5t-123 324.5q0 49 5 85q31 248 184 396t379 148q186 0 292 -108.5t106 -295.5q0 -35 -5 -83l-7 -58h-849q-6 -42 -6 -81q0 -169 99 -267t272 -98q95 0 190 31t170 85l28 -69q-79 -59 -186.5 -94t-211.5 -35z" />
    <glyph glyph-name="Ygrave" unicode="&#x1ef2;" horiz-adv-x="1235" 
d="M690 1604l-284 282h135l203 -282h-54zM471 0l72 591l-374 865h109l332 -773l529 773h105l-592 -862l-73 -594h-108z" />
    <glyph glyph-name="ygrave" unicode="&#x1ef3;" horiz-adv-x="983" 
d="M68 -417l-24 72q77 19 137.5 50.5t100.5 71.5t62.5 71.5t45.5 72.5l31 58l-270 1047h106l228 -929l467 929h96l-545 -1078q-154 -315 -435 -365zM597 1174l-284 282h135l203 -282h-54z" />
    <glyph glyph-name="uni1EF8" unicode="&#x1ef8;" horiz-adv-x="1235" 
d="M882 1663q-48 0 -155.5 48.5t-141.5 48.5q-62 0 -72 -80h-62q9 71 44.5 107.5t92.5 36.5q50 0 155.5 -48.5t139.5 -48.5q27 0 37 19.5t16 66.5h66q-20 -150 -120 -150zM471 0l72 591l-374 865h109l332 -773l529 773h105l-592 -862l-73 -594h-108z" />
    <glyph glyph-name="uni1EF9" unicode="&#x1ef9;" horiz-adv-x="983" 
d="M68 -417l-24 72q77 19 137.5 50.5t100.5 71.5t62.5 71.5t45.5 72.5l31 58l-270 1047h106l228 -929l467 929h96l-545 -1078q-154 -315 -435 -365zM789 1233q-48 0 -155.5 48.5t-141.5 48.5q-62 0 -72 -80h-62q9 71 44.5 107.5t92.5 36.5q50 0 155.5 -48.5t139.5 -48.5
q27 0 37 19.5t16 66.5h66q-20 -150 -120 -150z" />
    <glyph glyph-name="endash" unicode="&#x2013;" horiz-adv-x="1067" 
d="M-18 515l10 89h1078l-10 -89h-1078z" />
    <glyph glyph-name="emdash" unicode="&#x2014;" horiz-adv-x="2171" 
d="M-47 515l10 89h2225l-10 -89h-2225z" />
    <glyph glyph-name="afii00208" unicode="&#x2015;" horiz-adv-x="4095" 
d="M65 515l12 100h3953l-12 -100h-3953z" />
    <glyph glyph-name="quoteleft" unicode="&#x2018;" horiz-adv-x="432" 
d="M188 904h-119l148 552h67z" />
    <glyph glyph-name="quoteright" unicode="&#x2019;" horiz-adv-x="395" 
d="M109 904l96 552h119l-148 -552h-67z" />
    <glyph glyph-name="quotesinglbase" unicode="&#x201a;" horiz-adv-x="445" 
d="M175 -369l34 527h110l-80 -527h-64z" />
    <glyph glyph-name="quotedblleft" unicode="&#x201c;" horiz-adv-x="1024" 
d="M517 904l148 552h67l-96 -552h-119zM178 904l148 552h67l-96 -552h-119z" />
    <glyph glyph-name="quotedblright" unicode="&#x201d;" horiz-adv-x="1024" 
d="M517 904l96 552h119l-148 -552h-67zM178 904l96 552h119l-148 -552h-67z" />
    <glyph glyph-name="quotedblbase" unicode="&#x201e;" horiz-adv-x="1024" 
d="M282 -369l34 527h110l-80 -527h-64zM583 -369l34 527h110l-80 -527h-64z" />
    <glyph glyph-name="dagger" unicode="&#x2020;" horiz-adv-x="1022" 
d="M363 0l121 989h-335l10 79h335l49 405h108l-49 -405h335l-10 -79h-335l-121 -989h-108z" />
    <glyph glyph-name="daggerdbl" unicode="&#x2021;" horiz-adv-x="971" 
d="M130 1068h335l49 405h108l-49 -405h335l-10 -79h-335l-62 -505h335l-10 -79h-335l-49 -405h-108l49 405h-335l10 79h335l62 505h-335z" />
    <glyph glyph-name="bullet" unicode="&#x2022;" horiz-adv-x="991" 
d="M806 739q0 -143 -104 -239t-246 -96q-119 0 -196 75.5t-77 186.5q0 143 104 243.5t243 100.5q118 0 197 -79t79 -192z" />
    <glyph glyph-name="ellipsis" unicode="&#x2026;" horiz-adv-x="1620" 
d="M1291 -11l20 167h155l-20 -167h-155zM737 -11l20 167h153l-21 -167h-152zM182 -11l20 167h154l-21 -167h-153z" />
    <glyph glyph-name="perthousand" unicode="&#x2030;" horiz-adv-x="2988" 
d="M2407 0q-141 0 -213 86t-72 253q0 57 7 114q29 228 128 346.5t262 118.5q133 0 202 -86.5t69 -253.5q0 -65 -8 -125q-27 -222 -122.5 -337.5t-252.5 -115.5zM2416 76q112 0 182 96.5t92 281.5q8 69 8 119q0 269 -188 269q-118 0 -191.5 -98.5t-97.5 -289.5
q-7 -53 -7 -107q0 -134 51 -202.5t151 -68.5zM1542 0q-141 0 -213 86t-72 253q0 57 7 114q29 228 128 346.5t262 118.5q133 0 202 -86.5t69 -253.5q0 -65 -8 -125q-27 -222 -122.5 -337.5t-252.5 -115.5zM1551 76q112 0 182 96.5t92 281.5q8 69 8 119q0 269 -188 269
q-118 0 -191.5 -98.5t-97.5 -289.5q-7 -53 -7 -107q0 -134 51 -202.5t151 -68.5zM666 0l717 1456h82l-719 -1456h-80zM482 538q-141 0 -213 86t-72 253q0 57 7 114q29 228 128 346.5t262 118.5q133 0 202 -86.5t69 -253.5q0 -65 -8 -125q-27 -222 -122.5 -337.5
t-252.5 -115.5zM491 614q112 0 182 96.5t92 281.5q8 69 8 119q0 269 -188 269q-118 0 -191.5 -98.5t-97.5 -289.5q-7 -53 -7 -107q0 -134 51 -202.5t151 -68.5z" />
    <glyph glyph-name="guilsinglleft" unicode="&#x2039;" horiz-adv-x="634" 
d="M356 180l-218 361l312 367h114l-306 -366l208 -362h-110z" />
    <glyph glyph-name="guilsinglright" unicode="&#x203a;" horiz-adv-x="634" 
d="M70 181l306 366l-208 362h110l218 -361l-312 -367h-114z" />
    <glyph glyph-name="fraction" unicode="&#x2044;" horiz-adv-x="994" 
d="M-89 0l1098 1456h74l-1095 -1456h-77z" />
    <glyph glyph-name="uni2074" unicode="&#x2074;" horiz-adv-x="897" 
d="M206 926h307l54 441zM484 670l22 184h-395l9 69l439 533h99l-65 -530h83l-10 -72h-86l-22 -184h-74z" />
    <glyph glyph-name="Euro" unicode="&#x20ac;" horiz-adv-x="1334" 
d="M-85 542l14 72h171q2 47 7 87q10 76 25 137h-182l15 78h189q87 264 288.5 414.5t473.5 150.5q255 0 402 -139l-52 -68q-139 121 -360 121q-224 0 -392.5 -127.5t-247.5 -351.5h613l-17 -78h-620q-16 -63 -25 -137q-5 -40 -7 -87h596l-16 -72h-579q14 -222 151 -349.5
t366 -127.5q240 0 444 125l26 -75q-228 -137 -480 -137q-278 0 -442 151t-176 413h-185z" />
    <glyph glyph-name="afii61289" unicode="&#x2113;" horiz-adv-x="509" 
d="M112 0l186 1516h98l-186 -1516h-98z" />
    <glyph glyph-name="trademark" unicode="&#x2122;" horiz-adv-x="1869" 
d="M301 731l86 699h-280l6 52h642l-6 -52h-291l-86 -699h-71zM779 731l92 751h108l219 -657l411 657h88l-92 -751h-60l84 688l-423 -688h-43l-237 694l-85 -694h-62z" />
    <glyph glyph-name="Omega" unicode="&#x2126;" horiz-adv-x="1603" 
d="M898 1331q-135 0 -254.5 -51t-206.5 -141t-137.5 -221.5t-50.5 -285.5q0 -340 293 -546l-9 -86h-476l1 90h391q-312 208 -312 559q0 47 6 98q25 202 134.5 357t276 237t363.5 82q182 0 317 -75t203.5 -204t68.5 -296q0 -111 -28.5 -212t-73 -177.5t-110 -148t-127 -121
t-137.5 -99.5h399l-21 -90h-480l8 86q402 246 450 639q6 48 6 96q0 107 -30.5 198.5t-90 161.5t-155 110t-218.5 40z" />
    <glyph glyph-name="estimated" unicode="&#x212e;" horiz-adv-x="1184" 
d="M283 713h642q8 69 8 118q0 310 -265 310q-50 0 -97.5 -13t-95 -45t-85 -79.5t-66.5 -122t-41 -168.5zM1037 819q0 -116 -18 -164h-743q-8 -59 -8 -121q0 -99 25.5 -171t71.5 -111.5t102 -57.5t126 -18q80 0 187.5 32.5t204.5 90.5l21 -52q-220 -133 -446 -133
q-196 0 -309 111t-113 322q0 53 7 105q18 143 70.5 252t127.5 171.5t159.5 93t175.5 30.5q359 0 359 -380z" />
    <glyph glyph-name="partialdiff" unicode="&#x2202;" horiz-adv-x="1168" 
d="M419 63q87 0 165 38.5t134.5 99.5t102.5 141.5t74.5 160t45.5 159.5q-19 109 -96 180.5t-201 71.5q-113 0 -216.5 -69t-172 -184t-85.5 -249q-4 -31 -4 -66q0 -135 62.5 -209t190.5 -74zM972 767q2 17 8 61t9.5 74t7 69.5t3.5 67.5q0 206 -87 318.5t-249 112.5
q-136 0 -263 -86l3 94q144 81 300 81q193 0 297.5 -126t104.5 -380q0 -83 -12 -181q-17 -135 -56 -263.5t-101 -243.5t-140 -201.5t-180 -137t-213 -50.5q-168 0 -256 99.5t-88 261.5q0 34 5 77q30 249 192 418.5t367 169.5q65 0 120.5 -17.5t90 -40.5t64.5 -59t44 -61
t29 -57z" />
    <glyph glyph-name="emptyset" unicode="&#x2205;" horiz-adv-x="1678" 
d="M112 733q0 152 60.5 290.5t159.5 236.5t230.5 155.5t269.5 57.5q129 0 251 -49t221 -138l177 199l37 -29l-181 -202q101 -102 158 -236.5t57 -284.5q0 -152 -60.5 -290.5t-159.5 -236.5t-230.5 -155.5t-269.5 -57.5q-126 0 -245.5 47t-217.5 132l-192 -215l-32 29
l192 216q-105 103 -165 240t-60 291zM398 204q92 -80 204 -123.5t230 -43.5q130 0 253.5 54.5t217 146t150 222t56.5 273.5q0 141 -53.5 266.5t-147.5 222.5zM366 234l909 1020q-92 83 -207 129t-236 46q-130 0 -253.5 -54.5t-217 -146t-150 -222t-56.5 -273.5
q0 -145 56 -274t155 -225z" />
    <glyph glyph-name="Delta" unicode="&#x2206;" horiz-adv-x="1319" 
d="M58 77h1017l-359 1218zM-48 0l6 48l765 1403h31l420 -1403l-6 -48h-1216z" />
    <glyph glyph-name="product" unicode="&#x220f;" horiz-adv-x="1521" 
d="M202 -43l173 1413h-184l11 86h1301l-11 -86h-184l-173 -1413h-100l173 1413h-733l-173 -1413h-100z" />
    <glyph glyph-name="summation" unicode="&#x2211;" horiz-adv-x="1102" 
d="M7 -99l6 49l603 744l-408 698l7 60h899l-9 -74h-768l383 -672l-595 -733h850l-9 -72h-959z" />
    <glyph glyph-name="minus" unicode="&#x2212;" horiz-adv-x="1008" 
d="M132 645l12 92h732l-12 -92h-732z" />
    <glyph glyph-name="uni2215" unicode="&#x2215;" horiz-adv-x="600" 
d="M54 0l605 1456h82l-607 -1456h-80z" />
    <glyph glyph-name="uni2219" unicode="&#x2219;" horiz-adv-x="600" 
d="M248 474l16 126h122l-16 -126h-122z" />
    <glyph glyph-name="radical" unicode="&#x221a;" horiz-adv-x="1314" 
d="M550 -160l-247 889l-185 -27l6 65l221 34l248 -917l675 1742h56l-692 -1786h-82z" />
    <glyph glyph-name="infinity" unicode="&#x221e;" horiz-adv-x="1711" 
d="M1220 334q111 0 181.5 77.5t86.5 199.5q2 18 2 26q0 84 -60.5 141.5t-153.5 57.5q-170 0 -368 -251q81 -132 151 -191.5t161 -59.5zM468 836q-113 0 -193.5 -82t-80.5 -197q0 -92 62.5 -157.5t160.5 -65.5q92 0 181.5 65.5t185.5 181.5q-66 120 -141 187.5t-175 67.5z
M1605 635q0 -115 -59 -207t-150.5 -140.5t-192.5 -48.5q-106 0 -192 62t-173 189q-109 -119 -212 -185t-213 -66q-143 0 -230 91t-87 225q0 103 57.5 189t148 132.5t190.5 46.5q114 0 202.5 -65t167.5 -185q109 120 210.5 185t216.5 65q146 0 231 -79.5t85 -208.5z" />
    <glyph glyph-name="integral" unicode="&#x222b;" horiz-adv-x="655" 
d="M-9 -282q-30 0 -56.5 4t-38.5 8l-11 5l10 88q35 -14 80 -14q64 0 107.5 15.5t69.5 50t39.5 77.5t21.5 110l143 1168q11 87 29.5 149t53.5 115t93 79.5t140 26.5q36 0 58 -4.5t26 -9.5l5 -4l-10 -82q-16 10 -71 10q-51 0 -87.5 -11.5t-59 -30t-38 -52.5t-23 -69.5
t-14.5 -90.5l-143 -1167q-10 -85 -30.5 -148.5t-57 -116t-96 -79.5t-140.5 -27z" />
    <glyph glyph-name="approxequal" unicode="&#x2248;" horiz-adv-x="1351" 
d="M199 285l-46 9q37 108 114.5 167t185.5 59q60 0 114 -22t120 -63q128 -90 220 -90q77 0 131 42t96 125l45 -12q-32 -104 -106.5 -164.5t-181.5 -60.5q-56 0 -110 22t-142 75q-59 39 -104.5 57.5t-97.5 18.5q-162 0 -238 -163zM244 673l-45 15q38 105 116 164t183 59
q56 0 110 -21.5t125 -65.5q70 -46 120 -65.5t100 -19.5q152 0 226 167l45 -16q-32 -103 -106 -164t-182 -61q-53 0 -109 24t-144 77q-116 73 -199 73q-175 0 -240 -166z" />
    <glyph glyph-name="notequal" unicode="&#x2260;" horiz-adv-x="1326" 
d="M361 53l-66 9l176 280h-331l9 73h365l228 352h-550l9 73h581l179 284l66 -10l-170 -274h330l-9 -73h-365l-227 -352h549l-9 -73h-582z" />
    <glyph glyph-name="lessequal" unicode="&#x2264;" horiz-adv-x="1349" 
d="M192 0l9 77h849l-9 -77h-849zM1035 153l-722 457l8 71l831 382l-12 -102l-720 -325l627 -382z" />
    <glyph glyph-name="greaterequal" unicode="&#x2265;" horiz-adv-x="1349" 
d="M245 0l9 77h849l-9 -77h-849zM279 153l12 103l719 324l-627 382l12 101l723 -457l-9 -71z" />
    <glyph glyph-name="lozenge" unicode="&#x25ca;" horiz-adv-x="1248" 
d="M544 8l513 712l-323 724l-514 -720zM506 -49l-363 769l563 773h64l366 -772l-566 -770h-64z" />
    <glyph glyph-name="uniFB00" unicode="&#xfb00;" horiz-adv-x="1205" 
d="M966 961l-118 -961h-98l118 961h-504l-118 -961h-98l118 961h-174l8 65h174l18 146q9 71 22.5 120t40 90.5t67.5 66t102.5 37.5t146.5 13h41l-3 -83q-58 0 -102 -5t-76 -12.5t-54.5 -22.5t-36.5 -29.5t-23.5 -38.5t-14 -45t-8.5 -54l-22 -183h504l18 146q9 71 22.5 120
t40 90.5t67.5 66t102.5 37.5t146.5 13h41l-3 -83q-58 0 -102 -5t-76 -12.5t-54.5 -22.5t-36.5 -29.5t-23.5 -38.5t-14 -45t-8.5 -54l-22 -183h263l-8 -65h-263z" />
    <glyph glyph-name="uniFB01" unicode="&#xfb01;" horiz-adv-x="1174" 
d="M150 0l117 954h-175l9 72h175l17 138q9 73 23 122.5t41 92t69 67t105 38t151 13.5h42l-5 -90q-66 0 -114.5 -5.5t-81 -18.5t-53 -28t-33 -42t-18 -51t-10.5 -64l-21 -172h551l-9 -72h-551l-117 -954h-112zM979 1346l13 110h98l-13 -110h-98zM814 0l126 1026h98
l-126 -1026h-98z" />
    <glyph glyph-name="uniFB02" unicode="&#xfb02;" horiz-adv-x="1229" 
d="M186 0l118 961h-209l8 65h209l16 129q11 91 39.5 148t91.5 95.5t162 54t254 15.5h242l-180 -1468h-113l173 1390h-161q-117 0 -189 -11t-116.5 -40t-63.5 -69.5t-27 -108.5l-16 -135h260l-8 -65h-260l-118 -961h-112z" />
    <glyph glyph-name="uniFB03" unicode="&#xfb03;" horiz-adv-x="1696" 
d="M1567 1346h-98l14 110h98zM1402 0h-98l118 961h-456l-118 -961h-98l118 961h-504l-118 -961h-98l118 961h-174l8 65h174l18 146q9 71 22.5 120t40 90.5t67.5 66t102.5 37.5t146.5 13h41l-3 -83q-58 0 -102 -5t-76 -12.5t-54.5 -22.5t-36.5 -29.5t-23.5 -38.5t-14 -45
t-8.5 -54l-22 -183h504l18 146q9 71 22.5 120t40 90.5t67.5 66t102.5 37.5t146.5 13h41l-3 -83q-58 0 -102 -5t-76 -12.5t-54.5 -22.5t-36.5 -29.5t-23.5 -38.5t-14 -45t-8.5 -54l-22 -183h554z" />
    <glyph glyph-name="uniFB04" unicode="&#xfb04;" horiz-adv-x="1714" 
d="M148 0l118 961h-174l8 65h174l18 146q9 71 22.5 120t40 90.5t67.5 66t102.5 37.5t146.5 13h41l-3 -83q-58 0 -102 -5t-76 -12.5t-54.5 -22.5t-36.5 -29.5t-23.5 -38.5t-14 -45t-8.5 -54l-22 -183h263l-8 -65h-263l-118 -961h-98zM691 0l118 961h-209l8 65h209l16 129
q11 91 39.5 148t91.5 95.5t162 54t254 15.5h242l-180 -1468h-113l173 1390h-161q-117 0 -189 -11t-116.5 -40t-63.5 -69.5t-27 -108.5l-16 -135h260l-8 -65h-260l-118 -961h-112z" />
    <glyph glyph-name="NULL" horiz-adv-x="600" 
 />
    <glyph glyph-name="caron.alt" horiz-adv-x="600" 
d="M300 1082l157 433h117l-204 -433h-70z" />
    <glyph glyph-name="fj" horiz-adv-x="1107" 
d="M919 1346l14 110h98l-14 -110h-98zM437 -438l11 76q29 -4 62 -4q130 0 187.5 88.5t81.5 287.5l124 1016h98l-127 -1026q-9 -76 -23 -135.5t-41 -119.5t-65 -99.5t-97 -64.5t-134 -25q-36 0 -77 6zM150 0l118 961h-174l8 65h174l19 158q11 89 30.5 144t61.5 96t110.5 58
t175.5 17h35l-10 -83q-51 0 -89.5 -2t-68.5 -9t-50.5 -14t-36 -21.5t-24.5 -27t-15.5 -37t-10 -43.5t-7.5 -53l-22 -183h263l-8 -65h-263l-118 -961h-98z" />
    <glyph glyph-name="foundryicon" horiz-adv-x="600" 
 />
    <glyph glyph-name="i.loclTRK" horiz-adv-x="473" 
d="M124 0l124 1026h101l-124 -1026h-101zM265 1238l16 126h122l-16 -126h-122z" />
    <glyph glyph-name="middot" horiz-adv-x="600" 
 />
    <glyph glyph-name="slashbar" horiz-adv-x="600" 
 />
  </font>
</defs>
</svg>
