<?xml version="1.0" standalone="no"?>
<!DOCTYPE svg PUBLIC "-//W3C//DTD SVG 1.1//EN" "http://www.w3.org/Graphics/SVG/1.1/DTD/svg11.dtd" >
<svg xmlns="http://www.w3.org/2000/svg" xmlns:xlink="http://www.w3.org/1999/xlink" version="1.1">
<metadata>
Created by FontForge 20170731 at Wed Feb 26 18:23:33 2014
 By Aleksey,,,
Digitized data Copyright (c) 2011-2014, vernon adams.
</metadata>
<defs>
<font id="Muli-Italic" horiz-adv-x="1399" >
  <font-face 
    font-family="Muli"
    font-weight="400"
    font-style="italic"
    font-stretch="normal"
    units-per-em="2048"
    panose-1="2 0 5 3 0 0 0 0 0 0"
    ascent="1638"
    descent="-410"
    x-height="1026"
    cap-height="1456"
    bbox="-210 -607 4044 2412"
    underline-thickness="0"
    underline-position="0"
    slope="-7"
    unicode-range="U+000D-FB04"
  />
<missing-glyph horiz-adv-x="748" 
d="M68 0v1365h544v-1365h-544zM136 68h408v1229h-408v-1229z" />
    <glyph glyph-name=".notdef" horiz-adv-x="748" 
d="M68 0v1365h544v-1365h-544zM136 68h408v1229h-408v-1229z" />
    <glyph glyph-name=".null" horiz-adv-x="0" 
 />
    <glyph glyph-name="uni000D" unicode="&#xd;" horiz-adv-x="480" 
 />
    <glyph glyph-name="space" unicode=" " horiz-adv-x="596" 
 />
    <glyph glyph-name="exclam" unicode="!" horiz-adv-x="582" 
d="M122 0l26 220h186l-26 -220h-186zM205 377l78 1079h218l-188 -1079h-108z" />
    <glyph glyph-name="quotedbl" unicode="&#x22;" horiz-adv-x="792" 
d="M217 955l18 501h189l-94 -501h-113zM543 955l18 501h189l-94 -501h-113z" />
    <glyph glyph-name="numbersign" unicode="#" horiz-adv-x="1300" 
d="M156 42l139 441h-248l25 125h263l88 282h-262l26 125h275l131 416h150l-131 -416h253l130 416h148l-132 -416h237l-25 -125h-250l-89 -282h253l-27 -125h-265l-140 -441h-147l138 441h-253l-140 -441h-147zM482 608h254l89 282h-252z" />
    <glyph glyph-name="dollar" unicode="$" horiz-adv-x="1197" 
d="M605 144q125 17 192 91.5t67 199.5q0 71 -42.5 115.5t-156.5 86.5zM665 1319q-135 -10 -210.5 -76t-75.5 -192q0 -74 50 -118.5t178 -82.5zM1064 463q0 -112 -37 -201t-102.5 -147t-151 -91.5t-188.5 -42.5l-23 -184h-85l22 181q-83 2 -160 19.5t-132 44t-92 52t-58 48.5
l102 138q55 -50 151.5 -94.5t208.5 -46.5l65 525q-7 2 -28.5 8.5t-28.5 8.5q-181 55 -266 133.5t-85 216.5q0 108 39 193.5t108.5 140t161.5 84.5t200 33l18 146h84l-18 -148q80 -4 144 -19.5t107.5 -39.5t69.5 -44.5t50 -46.5l-111 -129q-43 45 -115 79t-165 40l-60 -493
q208 -65 291.5 -147t83.5 -217z" />
    <glyph glyph-name="percent" unicode="%" horiz-adv-x="1869" 
d="M534 1353q-110 0 -168.5 -95.5t-58.5 -248.5q0 -195 160 -195q185 0 217 269q5 47 5 78q0 192 -155 192zM849 1158q0 -210 -109.5 -338t-288.5 -128q-147 0 -225.5 83t-78.5 231q0 209 110.5 339t290.5 130q146 0 223.5 -84t77.5 -233zM351 0l1023 1456h156l-1025 -1456
h-154zM1406 643q-111 0 -168.5 -96t-57.5 -251q0 -192 159 -192q186 0 218 268q5 47 5 78q0 193 -156 193zM1721 444q0 -204 -110.5 -333.5t-287.5 -129.5q-145 0 -223.5 86.5t-78.5 233.5q0 203 111 333.5t289 130.5q145 0 222.5 -87t77.5 -234z" />
    <glyph glyph-name="ampersand" unicode="&#x26;" horiz-adv-x="1536" 
d="M348 1135q0 109 54 188t137 116t183 37q84 0 153.5 -26.5t115 -85t45.5 -141.5q0 -25 -2 -38q-14 -109 -102.5 -202.5t-218.5 -167.5l311 -392q72 98 122 226t66 254l166 -28q-23 -155 -90 -310t-161 -272q130 -153 289 -193l-135 -109q-79 13 -150.5 68t-122.5 115
q-214 -198 -471 -198q-201 0 -325.5 100.5t-124.5 275.5q0 19 4 59q8 64 34 120.5t59 98t84.5 83.5t96 69.5t108.5 63.5q-62 79 -93.5 145.5t-31.5 143.5zM561 729q-51 -27 -85.5 -48t-75 -54t-64.5 -66.5t-40.5 -81t-16.5 -102.5q0 -107 75 -173t201 -66q109 0 193 39.5
t167 115.5zM711 1326q-82 0 -133.5 -48.5t-51.5 -137.5q0 -116 93 -220q50 29 87 55t73.5 61t56.5 76.5t20 86.5q0 127 -145 127z" />
    <glyph glyph-name="quotesingle" unicode="'" horiz-adv-x="509" 
d="M167 936l27 520h197l-92 -520h-132z" />
    <glyph glyph-name="parenleft" unicode="(" horiz-adv-x="635" 
d="M308 -173q-180 340 -180 688q0 73 9 148q51 426 375 853h178q-315 -418 -369 -851q-9 -72 -9 -145q0 -174 45 -354.5t126 -338.5h-175z" />
    <glyph glyph-name="parenright" unicode=")" horiz-adv-x="635" 
d="M-55 -193q316 417 370 852q8 63 8 143q0 174 -44.5 354t-125.5 340h175q180 -338 180 -689q0 -73 -9 -147q-53 -430 -375 -853h-179z" />
    <glyph glyph-name="asterisk" unicode="*" horiz-adv-x="1112" 
d="M672 711l-130 263l-190 -258l-127 90l224 238l-260 89l72 142l239 -120l7 302h170l-53 -302l250 120l51 -142l-274 -89l172 -246z" />
    <glyph glyph-name="plus" unicode="+" horiz-adv-x="1202" 
d="M455 103l51 415h-384l19 156h384l50 401h170l-49 -401h386l-19 -156h-385l-51 -415h-172z" />
    <glyph glyph-name="comma" unicode="," horiz-adv-x="487" 
d="M42 -265l168 487h209l-227 -487h-150z" />
    <glyph glyph-name="hyphen" unicode="-" horiz-adv-x="679" 
d="M53 487l17 142h556l-18 -142h-555z" />
    <glyph glyph-name="period" unicode="." horiz-adv-x="543" 
d="M137 0l28 225h235l-28 -225h-235z" />
    <glyph glyph-name="slash" unicode="/" horiz-adv-x="910" 
d="M36 0l708 1456h171l-712 -1456h-167z" />
    <glyph glyph-name="zero" unicode="0" horiz-adv-x="1231" 
d="M550 139q287 0 358 593q14 115 14 208q0 381 -228 381q-80 0 -144 -44t-109 -125t-74.5 -185.5t-45.5 -234.5q-14 -114 -14 -203q0 -95 10.5 -162t36.5 -121t74.5 -80.5t121.5 -26.5zM528 -22q-204 0 -309.5 149t-105.5 414q0 91 12 191q43 358 194 554t394 196
q203 0 305.5 -141.5t102.5 -403.5q0 -91 -14 -205q-42 -351 -191 -552.5t-388 -201.5z" />
    <glyph glyph-name="one" unicode="1" horiz-adv-x="1231" 
d="M193 0l18 150h281l136 1100q-104 -53 -313 -128l21 173q78 26 180.5 72.5t177.5 88.5h150l-160 -1306h264l-18 -150h-737z" />
    <glyph glyph-name="two" unicode="2" horiz-adv-x="1238" 
d="M118 0l18 150l501 470q136 127 196 226.5t68 207.5q1 11 1 33q0 107 -63.5 170t-179.5 63q-37 0 -76.5 -6t-74.5 -16t-66 -21.5t-59.5 -25t-47 -23t-36 -19.5t-18.5 -11l-43 149q1 1 17 10t31 17.5t42.5 21.5t54.5 24t64.5 23t74 20t80.5 13.5t88 5.5q186 0 293 -102.5
t107 -270.5q0 -33 -2 -50q-10 -100 -57.5 -195.5t-117 -177t-181.5 -185.5l-366 -343h606l-20 -158h-834z" />
    <glyph glyph-name="three" unicode="3" horiz-adv-x="1231" 
d="M493 139q157 0 256 83t99 227q0 116 -91 175t-259 59h-8l-76 -1l17 163h75q183 0 278 60.5t112 201.5q2 18 2 25q0 90 -75.5 139.5t-188.5 49.5q-201 0 -356 -132l-72 128q95 84 207.5 124.5t261.5 40.5q176 0 294.5 -86.5t118.5 -239.5q0 -23 -3 -47
q-16 -125 -97.5 -219.5t-214.5 -122.5q126 -24 195 -107t69 -204q0 -26 -3 -53q-24 -194 -178 -309.5t-366 -115.5q-78 0 -151 13.5t-123.5 33.5t-76 33t-40.5 23l71 146q168 -88 323 -88z" />
    <glyph glyph-name="four" unicode="4" horiz-adv-x="1231" 
d="M663 0l47 385h-647l16 128l712 943h234l-113 -929h217l-17 -142h-218l-48 -385h-183zM281 527h446l91 745q-79 -114 -162.5 -230t-209 -288t-165.5 -227z" />
    <glyph glyph-name="five" unicode="5" horiz-adv-x="1231" 
d="M531 139q151 0 251.5 105t100.5 277q0 112 -60.5 182t-170.5 70q-70 0 -137 -26.5t-104 -73.5l-177 17l98 766h781l-20 -163h-607l-71 -454q50 50 125 75.5t155 25.5q176 0 281 -112t105 -291q0 -39 -4 -72q-28 -223 -187 -355.5t-378 -132.5q-124 0 -233.5 42
t-187.5 128l110 142q64 -76 150 -113t180 -37z" />
    <glyph glyph-name="six" unicode="6" horiz-adv-x="1231" 
d="M564 -22q-220 0 -330 143.5t-110 397.5q0 83 12 175q20 165 73 306t135 249.5t199 170.5t256 62q105 0 189.5 -31t139.5 -84l-83 -140q-107 94 -264 94q-88 0 -162 -42t-125 -114t-85.5 -157t-53.5 -181q-3 -13 -7 -36.5t-5 -29.5q63 81 157 130.5t211 49.5
q180 0 288 -107.5t108 -290.5q0 -32 -5 -77q-25 -212 -172.5 -350t-365.5 -138zM584 139q143 0 234 109.5t91 275.5q0 118 -61 189t-180 71q-136 0 -231 -82t-110 -199q-4 -32 -4 -69q0 -136 68 -215.5t193 -79.5z" />
    <glyph glyph-name="seven" unicode="7" horiz-adv-x="1231" 
d="M265 0l680 1295h-704l19 161h921l-17 -144l-693 -1312h-206z" />
    <glyph glyph-name="eight" unicode="8" horiz-adv-x="1232" 
d="M528 -22q-187 0 -310.5 93.5t-123.5 256.5q0 25 3 52q16 133 106.5 233t237.5 150q-106 43 -165.5 119.5t-59.5 180.5q0 23 3 47q21 171 159.5 271.5t332.5 100.5q181 0 293.5 -86.5t112.5 -238.5q0 -25 -3 -50q-15 -123 -96 -211t-210 -133q119 -45 185.5 -133
t66.5 -204q0 -24 -3 -49q-15 -124 -94.5 -216.5t-192.5 -137.5t-242 -45zM615 682q-145 -31 -238 -117.5t-93 -219.5q0 -102 70.5 -158t190.5 -56q140 0 233.5 74.5t93.5 211.5q0 99 -70.5 169.5t-186.5 95.5zM694 1333q-121 0 -206.5 -66.5t-85.5 -186.5q0 -90 60.5 -151.5
t170.5 -85.5q129 27 206.5 97.5t90.5 174.5q2 20 2 29q0 89 -68 139t-170 50z" />
    <glyph glyph-name="nine" unicode="9" horiz-adv-x="1232" 
d="M467 -22q-174 0 -341 93l84 152q128 -84 264 -84q172 0 284 139t141 373q7 35 7 50q-55 -80 -147 -123.5t-205 -43.5q-184 0 -289.5 106t-105.5 285q0 32 5 75q26 210 172.5 346t363.5 136q208 0 312.5 -133.5t104.5 -388.5q0 -88 -12 -188q-46 -375 -215 -584.5
t-423 -209.5zM682 1321q-147 0 -237 -107.5t-90 -273.5q0 -114 58.5 -181t179.5 -67q150 0 246 97t96 253q0 78 -25.5 139t-84 100.5t-143.5 39.5z" />
    <glyph glyph-name="colon" unicode=":" horiz-adv-x="541" 
d="M109 1l27 226h218l-27 -226h-218zM210 832l27 226h218l-27 -226h-218z" />
    <glyph glyph-name="semicolon" unicode=";" horiz-adv-x="543" 
d="M15 -265l166 487h211l-227 -487h-150zM222 827l28 226h226l-28 -226h-226z" />
    <glyph glyph-name="less" unicode="&#x3c;" horiz-adv-x="1255" 
d="M976 67l-876 467l13 96l991 442l-21 -172l-744 -321l658 -341z" />
    <glyph glyph-name="equal" unicode="=" horiz-adv-x="1290" 
d="M138 292l19 153h948l-19 -153h-948zM185 683l20 154h947l-19 -154h-948z" />
    <glyph glyph-name="greater" unicode="&#x3e;" horiz-adv-x="1256" 
d="M153 68l21 174l739 318l-652 343l20 172l875 -473l-12 -98z" />
    <glyph glyph-name="question" unicode="?" horiz-adv-x="1058" 
d="M317 379l17 142q9 69 56 135t109 120t123.5 106.5t108 115t54.5 125.5q2 20 2 29q0 85 -62.5 126t-166.5 41q-81 0 -164 -24t-134 -50l20 166q63 29 151 48.5t168 19.5q173 0 277 -76.5t104 -222.5q0 -71 -26 -135t-68 -112.5t-93.5 -94t-104 -87t-97 -82.5t-76 -90
t-37.5 -101l-12 -99h-149zM251 -4l28 221h187l-28 -221h-187z" />
    <glyph glyph-name="at" unicode="@" horiz-adv-x="1768" 
d="M1229 359q51 0 108 42.5t103.5 112t77 167.5t30.5 199q0 146 -70 255t-189.5 164.5t-270.5 55.5q-141 0 -269 -46t-230 -130.5t-171 -214.5t-88 -288q-6 -51 -6 -98q0 -131 46.5 -235.5t128 -171.5t190 -102t235.5 -35q139 0 275.5 41.5t240.5 118.5l60 -82
q-107 -97 -267 -148.5t-334 -51.5q-215 0 -380 78t-258 228t-93 351q0 43 7 108q22 181 106 332.5t208.5 253.5t282 158.5t328.5 56.5q288 0 467.5 -162.5t179.5 -426.5q0 -123 -40 -240.5t-103.5 -202t-145 -136.5t-162.5 -52q-83 0 -127 40t-44 115q0 26 4 49
q-44 -85 -129 -140.5t-187 -55.5q-115 0 -195.5 78t-80.5 214q0 26 5 64q31 217 185.5 368.5t322.5 151.5q85 0 139.5 -38t63.5 -112l43 122h155l-171 -509q-36 -107 -44 -162q-1 -4 -1 -13q0 -30 16 -50.5t48 -20.5zM1115 858q0 71 -35.5 111.5t-100.5 40.5
q-82 0 -157 -62.5t-122 -157t-59 -194.5q-2 -24 -2 -34q0 -72 38 -114t104 -42q76 0 147.5 57.5t120 151.5t63.5 201q3 22 3 42z" />
    <glyph glyph-name="A" unicode="A" 
d="M-58 0l743 1456h204l390 -1456h-209l-102 389h-623l-195 -389h-208zM416 545h514q-103 437 -169 711z" />
    <glyph glyph-name="B" unicode="B" horiz-adv-x="1356" 
d="M113 0l178 1456h385q61 0 113 -3t109 -11.5t102 -22.5t87 -37t70 -54.5t44.5 -76t16.5 -99.5q0 -24 -3 -51q-15 -121 -86 -206t-194 -118q130 -23 199.5 -103t69.5 -203q0 -17 -4 -57q-22 -180 -171 -297t-399 -117h-517zM619 163q187 0 285 78t98 232q0 114 -81 161.5
t-265 47.5h-268l-64 -519h295zM660 840q75 0 136 14t111 44.5t78 85t28 130.5q0 102 -82 141.5t-248 39.5h-220l-56 -455h253z" />
    <glyph glyph-name="C" unicode="C" 
d="M904 1321q-169 0 -307.5 -92t-217 -253t-78.5 -357q0 -223 125 -351.5t335 -128.5q219 0 429 144l46 -152q-230 -153 -504 -153q-133 0 -247.5 40.5t-201 117t-136 196t-49.5 267.5q0 60 7 117q28 227 143 402.5t287.5 269.5t373.5 94q275 0 440 -150l-92 -130
q-146 119 -353 119z" />
    <glyph glyph-name="D" unicode="D" horiz-adv-x="1539" 
d="M323 161h243q292 0 459 147.5t200 417.5q8 64 8 113q0 232 -145.5 344t-440.5 112h-185zM113 0l178 1456h358q786 0 786 -600q0 -70 -8 -130q-42 -348 -272 -537t-619 -189h-423z" />
    <glyph glyph-name="E" unicode="E" horiz-adv-x="1204" 
d="M113 0l178 1456h872l-20 -161h-681l-56 -458h643l-19 -162h-643l-63 -514h710l-20 -161h-901z" />
    <glyph glyph-name="F" unicode="F" horiz-adv-x="1117" 
d="M113 0l178 1456h840l-20 -161h-649l-56 -458h604l-20 -162h-604l-82 -675h-191z" />
    <glyph glyph-name="G" unicode="G" horiz-adv-x="1527" 
d="M937 1321q-135 0 -253.5 -54t-203.5 -147.5t-134 -226.5t-49 -285q0 -218 122 -343.5t360 -125.5q182 0 325 52l50 412h-367l20 163h558l-84 -682q-245 -106 -529 -106q-317 0 -486 160.5t-169 441.5q0 55 8 124q28 224 144 401t300 277t404 100q283 0 462 -146l-94 -133
q-158 118 -384 118z" />
    <glyph glyph-name="H" unicode="H" horiz-adv-x="1559" 
d="M113 0l178 1456h192l-78 -629h774l77 629h190l-178 -1456h-189l81 666h-773l-82 -666h-192z" />
    <glyph glyph-name="I" unicode="I" horiz-adv-x="602" 
d="M129 0l178 1456h191l-178 -1456h-191z" />
    <glyph glyph-name="J" unicode="J" horiz-adv-x="786" 
d="M119 -326q-108 0 -230 42l45 150q103 -31 180 -31q111 0 160 65.5t68 219.5l164 1336h192l-165 -1335q-28 -231 -131 -339t-283 -108z" />
    <glyph glyph-name="K" unicode="K" horiz-adv-x="1296" 
d="M113 0l178 1456h191l-80 -656l707 656h237l-759 -701l629 -755h-242l-585 692l-85 -692h-191z" />
    <glyph glyph-name="L" unicode="L" horiz-adv-x="1109" 
d="M113 0l178 1456h191l-159 -1295h677l-19 -161h-868z" />
    <glyph glyph-name="M" unicode="M" horiz-adv-x="1923" 
d="M113 0l178 1456h232q27 -87 167.5 -528.5t212.5 -680.5q130 236 375.5 670t304.5 539h227l-178 -1456h-182l141 1145q-36 -64 -650 -1145h-137l-313 973l-52 180l-142 -1153h-184z" />
    <glyph glyph-name="N" unicode="N" horiz-adv-x="1598" 
d="M113 0l178 1456h203l577 -1024l86 -170l147 1194h182l-178 -1456h-204l-564 986l-102 200l-146 -1186h-179z" />
    <glyph glyph-name="O" unicode="O" horiz-adv-x="1626" 
d="M888 1321q-176 0 -310 -92t-204.5 -253t-70.5 -367q0 -221 112 -345.5t326 -124.5q244 0 390.5 157.5t180.5 432.5q8 66 8 120q0 218 -110 345t-322 127zM724 -22q-297 0 -461 166t-164 454q0 71 8 131q27 223 131.5 392.5t278 265t393.5 95.5q289 0 453 -169.5
t164 -455.5q0 -69 -8 -128q-42 -344 -254.5 -547.5t-540.5 -203.5z" />
    <glyph glyph-name="P" unicode="P" horiz-adv-x="1260" 
d="M1237 1132q0 -130 -41 -223t-120.5 -146.5t-183 -78t-240.5 -24.5h-268l-80 -660h-191l178 1456h419q101 0 176.5 -7.5t144.5 -29t112 -57t68.5 -93.5t25.5 -137zM670 821q187 0 278.5 62.5t91.5 219.5q0 112 -78.5 152t-248.5 40h-18h-233l-57 -474h265z" />
    <glyph glyph-name="Q" unicode="Q" horiz-adv-x="1626" 
d="M888 1321q-176 0 -310 -92t-204.5 -253t-70.5 -367q0 -221 112 -345.5t326 -124.5q244 0 390.5 157.5t180.5 432.5q8 66 8 120q0 218 -110 345t-322 127zM724 -22q-297 0 -461 166t-164 454q0 71 8 131q27 223 131.5 392.5t278 265t393.5 95.5q289 0 453 -169.5
t164 -455.5q0 -69 -8 -128q-31 -259 -163 -442t-341 -260q33 -73 90 -160.5t97 -138.5l40 -51l-137 -105q-19 23 -49.5 62t-101 148.5t-111.5 203.5q-61 -8 -119 -8z" />
    <glyph glyph-name="R" unicode="R" horiz-adv-x="1362" 
d="M1215 1141q0 -171 -83.5 -280.5t-248.5 -142.5q80 -26 120 -91t72 -187l118 -440h-204l-107 428q-33 133 -77.5 176t-160.5 43h-261l-79 -647h-191l178 1456h466q104 0 182 -13.5t143 -47.5t99 -97.5t34 -156.5zM672 808q340 0 340 304q0 102 -62 142.5t-198 40.5h-11
h-280l-60 -487h271z" />
    <glyph glyph-name="S" unicode="S" horiz-adv-x="1214" 
d="M1064 463q0 -97 -28.5 -177.5t-78.5 -137t-119 -95t-150 -57t-172 -18.5q-163 0 -285 53.5t-174 110.5l102 138q56 -51 155 -96t214 -45q161 0 248.5 76.5t87.5 219.5q0 78 -53 125.5t-197 94.5q-9 3 -43 13t-44 13q-181 55 -266 133.5t-85 216.5q0 147 72.5 250.5
t190.5 152t270 48.5q95 0 171 -14t126 -39.5t79 -47.5t55 -51l-111 -129q-46 50 -128.5 85t-188.5 35q-155 0 -244 -66.5t-89 -203.5q0 -74 46 -115.5t173 -82.5q74 -22 83 -24q213 -66 298 -148t85 -218z" />
    <glyph glyph-name="T" unicode="T" horiz-adv-x="1145" 
d="M386 0l158 1295h-465l20 161h1124l-19 -161h-469l-158 -1295h-191z" />
    <glyph glyph-name="U" unicode="U" horiz-adv-x="1495" 
d="M653 -22q-511 0 -511 460q0 55 8 122l111 896h191l-111 -900q-6 -51 -6 -95q0 -322 340 -322q387 0 437 413l111 904h190l-110 -894q-17 -133 -61.5 -237t-121.5 -183.5t-195 -121.5t-272 -42z" />
    <glyph glyph-name="V" unicode="V" horiz-adv-x="1348" 
d="M487 0l-368 1456h213q264 -1138 286 -1228q31 67 588 1228h201l-720 -1456h-200z" />
    <glyph glyph-name="W" unicode="W" horiz-adv-x="2022" 
d="M351 0l-220 1456h205l134 -1004l25 -235q74 186 160.5 394t192 455.5t164.5 389.5h191l181 -1011l37 -225q64 185 140 393t167.5 454t143.5 389h197l-565 -1456h-223l-208 1199l-502 -1199h-220z" />
    <glyph glyph-name="X" unicode="X" horiz-adv-x="1302" 
d="M-54 0l600 740l-400 716h231l305 -560l444 560h217l-571 -709l411 -747h-227l-318 589l-471 -589h-221z" />
    <glyph glyph-name="Y" unicode="Y" horiz-adv-x="1239" 
d="M433 0l71 575l-394 881h212l302 -713l478 713h213l-620 -878l-70 -578h-192z" />
    <glyph glyph-name="Z" unicode="Z" horiz-adv-x="1185" 
d="M8 0l13 103l884 1192h-708l20 161h963l-12 -99l-891 -1196h740l-19 -161h-990z" />
    <glyph glyph-name="bracketleft" unicode="[" horiz-adv-x="660" 
d="M68 -227l208 1697h410l-17 -139h-229l-174 -1419h231l-17 -139h-412z" />
    <glyph glyph-name="backslash" unicode="\" horiz-adv-x="834" 
d="M524 13l-383 1443h168l387 -1443h-172z" />
    <glyph glyph-name="bracketright" unicode="]" horiz-adv-x="660" 
d="M20 -227l17 139h227l174 1419h-229l17 139h410l-207 -1697h-409z" />
    <glyph glyph-name="asciicircum" unicode="^" horiz-adv-x="1628" 
d="M217 563l590 893h115l381 -893h-179l-285 693l-441 -693h-181z" />
    <glyph glyph-name="underscore" unicode="_" horiz-adv-x="941" 
d="M-14 -268l18 145h951l-18 -145h-951z" />
    <glyph glyph-name="grave" unicode="`" horiz-adv-x="597" 
d="M361 1173l-293 360h240l206 -360h-153z" />
    <glyph glyph-name="a" unicode="a" horiz-adv-x="1273" 
d="M523 -22q-205 0 -316.5 127t-111.5 324q0 37 5 84q19 150 92.5 271.5t194.5 194.5t268 73q109 0 192 -53t119 -136l20 163h182l-126 -1026h-184l22 175q-57 -92 -150 -144.5t-207 -52.5zM660 902q-177 0 -277.5 -129.5t-100.5 -330.5q0 -142 72 -228t214 -86
q153 0 246.5 106.5t115.5 286.5q5 43 5 74q0 139 -70.5 223t-204.5 84z" />
    <glyph glyph-name="b" unicode="b" horiz-adv-x="1274" 
d="M1152 621q0 -141 -43.5 -262.5t-117.5 -204t-172.5 -129.5t-207.5 -47q-123 0 -210 56t-116 140l-23 -174h-187q37 244 40 270l149 1216h184l-78 -634q47 81 146.5 140.5t229.5 59.5q189 0 297.5 -116.5t108.5 -314.5zM699 902q-167 0 -274 -129.5t-107 -330.5
q0 -144 75 -229t212 -85q146 0 237 107t113 289q5 43 5 74q0 139 -68 221.5t-193 82.5z" />
    <glyph glyph-name="c" unicode="c" horiz-adv-x="1064" 
d="M688 901q-170 0 -286 -124t-116 -336q0 -146 80.5 -229.5t223.5 -83.5q155 0 292 96l42 -133q-159 -113 -366 -113q-216 0 -339.5 123.5t-123.5 324.5q0 34 5 81q29 243 192.5 394t401.5 151q216 0 323 -122l-79 -122q-96 93 -250 93z" />
    <glyph glyph-name="d" unicode="d" horiz-adv-x="1264" 
d="M478 -22q-186 0 -298 119t-112 322q0 43 6 91q29 241 176 391.5t369 150.5q118 0 200 -53t107 -127l75 614h184l-150 -1220q-18 -188 -25 -266h-187l18 174q-42 -80 -137.5 -138t-225.5 -58zM621 902q-161 0 -261.5 -131t-100.5 -334q0 -141 68.5 -225t194.5 -84
q151 0 247 107t118 287q5 42 5 72q0 139 -70.5 223.5t-200.5 84.5z" />
    <glyph glyph-name="e" unicode="e" horiz-adv-x="1166" 
d="M1063 633q0 -83 -16 -146h-759q-3 -28 -3 -56q0 -146 84 -224.5t228 -78.5q183 0 339 114l39 -136q-180 -128 -407 -128q-222 0 -347.5 120.5t-125.5 325.5q0 180 75.5 324t207 224t294.5 80q192 0 291.5 -113.5t99.5 -305.5zM308 613h589q0 5 0.5 13.5t0.5 12.5
q0 130 -62.5 198.5t-176.5 68.5q-126 0 -220 -78t-131 -215z" />
    <glyph glyph-name="f" unicode="f" horiz-adv-x="727" 
d="M160 0l111 903h-183l16 123h182l11 84q9 71 19.5 119t30.5 93.5t50 73t76.5 49.5t111 31t151.5 9h47l-22 -143q-61 0 -101.5 -3.5t-70.5 -14.5t-47 -24t-29.5 -41.5t-18 -56t-11.5 -77.5l-12 -99h244l-15 -123h-244l-111 -903h-185z" />
    <glyph glyph-name="g" unicode="g" horiz-adv-x="1267" 
d="M481 -418q-202 0 -369 87l48 159q160 -97 332 -97q164 0 265 88t122 266l13 107q-52 -77 -140 -127.5t-206 -50.5q-193 0 -309.5 112.5t-116.5 308.5q0 34 5 81q30 240 175 388t373 148q116 0 192 -50t112 -128l22 152h190q-33 -166 -46 -276l-75 -610
q-15 -122 -57.5 -222t-113 -176t-176.5 -118t-240 -42zM679 902q-163 0 -265.5 -129t-102.5 -329q0 -137 68 -211.5t196 -74.5q171 0 270 124.5t99 322.5q0 138 -69 217.5t-196 79.5z" />
    <glyph glyph-name="h" unicode="h" horiz-adv-x="1237" 
d="M74 0l183 1486h184l-76 -621q56 84 159.5 135.5t212.5 51.5q166 0 248.5 -96t82.5 -254q0 -48 -5 -83l-76 -619h-184l75 614q6 46 6 84q0 106 -46.5 155t-144.5 49q-82 0 -161.5 -39t-133 -104t-62.5 -137l-77 -622h-185z" />
    <glyph glyph-name="i" unicode="i" horiz-adv-x="596" 
d="M159 0l126 1026h183l-126 -1026h-183zM318 1285l20 171h182l-21 -171h-181z" />
    <glyph glyph-name="j" unicode="j" horiz-adv-x="510" 
d="M271 1277l22 179h182l-22 -179h-182zM-85 -423q-64 0 -125 12l18 151q52 -12 86 -12q95 0 151 75t75 233l121 990h184l-113 -922q-8 -65 -19.5 -120t-31 -118.5t-49.5 -112.5t-70.5 -90t-98.5 -63.5t-128 -22.5z" />
    <glyph glyph-name="k" unicode="k" horiz-adv-x="1111" 
d="M82 0l183 1486h184l-110 -899l498 439h253l-580 -489l490 -537h-245l-429 485l-59 -485h-185z" />
    <glyph glyph-name="l" unicode="l" horiz-adv-x="526" 
d="M86 0l182 1486h185l-183 -1486h-184z" />
    <glyph glyph-name="m" unicode="m" horiz-adv-x="1881" 
d="M112 0l93 758q8 68 22 268h191l-19 -166q53 90 149.5 141t203.5 51q110 0 185 -58t100 -164q69 104 171.5 163t222.5 59q154 0 232 -86t78 -245q0 -43 -6 -93l-78 -628h-184l75 613q6 43 6 82q0 207 -158 207q-123 0 -222.5 -89.5t-121.5 -220.5l-73 -592h-184l78 629
q4 31 4 66q0 96 -41 151.5t-130 55.5q-122 0 -216 -81t-115 -196l-78 -625h-185z" />
    <glyph glyph-name="n" unicode="n" horiz-adv-x="1244" 
d="M112 0l91 742q9 68 15 139t8 108l1 37h190l-17 -161q63 88 165 137.5t208 49.5q167 0 247.5 -87.5t80.5 -264.5q0 -52 -8 -122l-72 -578h-184l71 577q7 55 7 108q0 110 -44.5 163.5t-148.5 53.5q-116 0 -220.5 -78.5t-125.5 -180.5l-79 -643h-185z" />
    <glyph glyph-name="o" unicode="o" horiz-adv-x="1258" 
d="M677 902q-177 0 -283 -129t-106 -334q0 -143 75 -227t221 -84q178 0 281.5 128t103.5 332q0 145 -74.5 229.5t-217.5 84.5zM565 -22q-224 0 -347 122t-123 325q0 42 6 87q29 242 189 391t409 149q224 0 344 -122t120 -327q0 -45 -6 -91q-29 -238 -187.5 -386t-404.5 -148
z" />
    <glyph glyph-name="p" unicode="p" horiz-adv-x="1263" 
d="M1194 612q0 -178 -70 -323.5t-192.5 -228.5t-272.5 -83q-122 0 -210 57t-106 132l-74 -594h-182l141 1156q11 83 26 298h193l-22 -184q40 85 144.5 147t225.5 62q187 0 293 -120.5t106 -318.5zM742 901q-162 0 -265.5 -133.5t-103.5 -337.5q0 -139 70.5 -221t202.5 -82
q161 0 257.5 132.5t96.5 337.5q0 140 -66 222t-192 82z" />
    <glyph glyph-name="q" unicode="q" horiz-adv-x="1259" 
d="M808 -419l70 569q-56 -72 -145.5 -122t-200.5 -50q-193 0 -303.5 121t-110.5 321q0 44 6 92q30 242 178.5 391t369.5 149q102 0 179.5 -45t116.5 -123l19 142h190q-24 -129 -36 -234l-149 -1211h-184zM674 901q-159 0 -259.5 -132t-100.5 -338q0 -140 67 -221t192 -81
q147 0 240 108.5t115 293.5q5 43 5 74q0 137 -67 216.5t-192 79.5z" />
    <glyph glyph-name="r" unicode="r" horiz-adv-x="803" 
d="M115 0l95 774q4 34 8.5 97t7.5 109l2 46h194l-17 -160q56 90 132.5 137t164.5 47q57 0 102 -12l-21 -163q-57 16 -111 16q-118 0 -200 -82.5t-102 -237.5l-70 -571h-185z" />
    <glyph glyph-name="s" unicode="s" horiz-adv-x="978" 
d="M856 332q0 -93 -36 -163.5t-96 -111t-129 -60t-143 -19.5q-133 0 -230 40t-147 84l68 137q52 -42 136.5 -76t176.5 -34q43 0 80 8t71 26t53.5 52t19.5 82q0 53 -43 81.5t-163 70.5l-85 30q-56 21 -93 40t-71.5 47.5t-51 68t-16.5 90.5q0 85 35 149.5t94.5 102t129.5 56
t148 18.5q203 0 331 -89l-67 -132q-128 72 -262 72q-106 0 -165 -38t-59 -112q0 -44 30.5 -68t115.5 -56q67 -22 98 -35q56 -21 89 -35t72 -37.5t60 -47.5t35 -60t14 -81z" />
    <glyph glyph-name="t" unicode="t" horiz-adv-x="803" 
d="M622 0h-85q-189 2 -266 57.5t-77 195.5q0 50 7 102l67 548h-196l15 123h200l32 264l187 53l-38 -317h278l-16 -123h-277l-69 -558q-5 -43 -5 -68q0 -83 53 -108t207 -25z" />
    <glyph glyph-name="u" unicode="u" horiz-adv-x="1234" 
d="M491 -23q-176 0 -263 90.5t-87 247.5q0 32 5 77l78 634h183l-77 -634q-4 -27 -4 -58q0 -109 46.5 -158t166.5 -49q136 0 221 77t100 199l77 623h184l-95 -772q-8 -67 -22 -254h-187l16 165q-52 -79 -138.5 -133.5t-203.5 -54.5z" />
    <glyph glyph-name="v" unicode="v" horiz-adv-x="1056" 
d="M378 0l-304 1026h201q23 -87 70 -261t83.5 -311.5t67.5 -263.5q59 127 128.5 266.5t155.5 307.5t133 262h197l-556 -1026h-176z" />
    <glyph glyph-name="w" unicode="w" horiz-adv-x="1636" 
d="M309 0l-215 1026h196q15 -85 66 -370t80 -440q125 270 373 810h179q110 -540 164 -811q66 158 337 811h179l-467 -1026h-173q-148 707 -167 803q-27 -57 -380 -803h-172z" />
    <glyph glyph-name="x" unicode="x" horiz-adv-x="1066" 
d="M-18 0l451 512l-302 515l201 -1l217 -381l331 381h194l-437 -502l319 -524h-200l-236 392l-343 -392h-195z" />
    <glyph glyph-name="y" unicode="y" horiz-adv-x="1065" 
d="M119 -433l-59 126q258 82 342 263l23 52l-294 1018h192l216 -820l399 820h185l-547 -1080q-73 -145 -191 -244t-266 -135z" />
    <glyph glyph-name="z" unicode="z" horiz-adv-x="969" 
d="M41 0l12 100l632 777h-520l18 149h757l-11 -98l-632 -780h551l-18 -148h-789z" />
    <glyph glyph-name="braceleft" unicode="{" horiz-adv-x="789" 
d="M566 1130l-32 -262q-11 -93 -67 -155t-138 -89q68 -29 106.5 -87t38.5 -140q0 -21 -3 -43l-32 -256q-3 -24 -3 -44q0 -75 41.5 -103.5t134.5 -28.5l-17 -143q-185 1 -266.5 64t-81.5 183q0 17 4 57l30 246q4 29 4 61q0 82 -39 125t-128 50l16 126q99 7 152 61.5t66 157.5
l30 245q7 57 23 103t47.5 87.5t77.5 69.5t115.5 44t158.5 16l-17 -143q-112 -1 -159.5 -49t-61.5 -153z" />
    <glyph glyph-name="bar" unicode="|" horiz-adv-x="950" 
d="M263 -482l248 2017h176l-248 -2017h-176z" />
    <glyph glyph-name="braceright" unicode="}" horiz-adv-x="787" 
d="M3 -221l18 144q112 0 160 48.5t61 153.5l32 262q12 93 68 155t137 89q-68 29 -106.5 87t-38.5 140q0 20 3 43l32 256q3 24 3 45q0 75 -41.5 103t-134.5 28l17 142q185 -1 266.5 -63.5t81.5 -182.5q0 -17 -4 -57l-30 -246q-4 -29 -4 -61q0 -82 39 -125t128 -50l-16 -126
q-99 -7 -152 -61.5t-67 -157.5l-29 -245q-9 -72 -33.5 -127t-71.5 -100.5t-127 -69.5t-191 -24z" />
    <glyph glyph-name="asciitilde" unicode="~" horiz-adv-x="1253" 
d="M240 373l-127 64q37 114 120.5 184t205.5 70q80 0 251 -74q13 -5 45 -18.5t52.5 -21.5t45.5 -15.5t40 -7.5q56 0 102.5 51.5t73.5 126.5l142 -45q-46 -130 -132.5 -207.5t-203.5 -77.5q-68 0 -218 70q-2 1 -25.5 11t-31.5 13t-30.5 12t-35.5 13t-31 9.5t-32.5 7.5
t-26.5 2q-124 0 -184 -167z" />
    <glyph glyph-name="uni007F" horiz-adv-x="1521" 
d="M286 124h801l148 1206h-801zM99 0l178 1456h1145l-178 -1456h-1145z" />
    <glyph glyph-name="uni00A0" unicode="&#xa0;" horiz-adv-x="596" 
 />
    <glyph glyph-name="exclamdown" unicode="&#xa1;" horiz-adv-x="572" 
d="M287 1140h186l-29 -220h-186zM276 763h108l-82 -1079h-218z" />
    <glyph glyph-name="cent" unicode="&#xa2;" horiz-adv-x="1030" 
d="M496 -213l179 1465h83l-179 -1465h-83zM688 901q-170 0 -286 -124t-116 -336q0 -146 80.5 -229.5t223.5 -83.5q155 0 292 96l42 -133q-159 -113 -366 -113q-216 0 -339.5 123.5t-123.5 324.5q0 34 5 81q29 243 192.5 394t401.5 151q216 0 323 -122l-79 -122
q-96 93 -250 93z" />
    <glyph glyph-name="sterling" unicode="&#xa3;" horiz-adv-x="1203" 
d="M64 0l18 150q92 62 155.5 175.5t81.5 265.5l13 105h-191l16 124h189l15 119q11 96 32.5 173.5t61 147.5t95 117.5t137.5 75t186 27.5q174 0 267 -75l-67 -140q-91 58 -200 58q-147 0 -222 -84.5t-96 -256.5l-20 -162h363l-16 -124h-361l-12 -107q-19 -151 -77 -263
t-118 -169h656l-19 -157h-887z" />
    <glyph glyph-name="currency" unicode="&#xa4;" horiz-adv-x="1218" 
d="M1004 1074q0 -164 -122 -293l163 -185l-57 -51l-163 186q-121 -90 -263 -90q-144 0 -241 91l-210 -187l-45 51l210 187q-61 86 -61 196q0 170 129 299l-171 195l57 51l173 -196q115 83 253 83q135 0 233 -82l219 195l45 -51l-217 -193q68 -90 68 -206zM646 1333
q-140 0 -241.5 -101.5t-101.5 -250.5q0 -116 74 -192.5t192 -76.5q139 0 241.5 103t102.5 251q0 116 -74 191.5t-193 75.5z" />
    <glyph glyph-name="yen" unicode="&#xa5;" horiz-adv-x="1221" 
d="M144 281l15 116h323l20 161h-324l15 120h265l-348 778h212l302 -713l478 713h213l-549 -778h281l-14 -120h-340l-20 -161h340l-14 -116h-340l-34 -281h-192l35 281h-324z" />
    <glyph glyph-name="brokenbar" unicode="&#xa6;" horiz-adv-x="500" 
d="M74 -482l108 881h161l-109 -881h-160zM212 648l109 887h160l-109 -887h-160z" />
    <glyph glyph-name="section" unicode="&#xa7;" horiz-adv-x="1069" 
d="M914 750q0 -160 -212 -286q142 -80 142 -203q0 -10 -2 -30q-19 -148 -139.5 -227t-291.5 -79q-157 0 -295 56l19 150q150 -66 282 -66q106 0 175 45t69 126q0 47 -48.5 81.5t-182.5 101.5q-33 16 -50 25q-96 47 -144.5 103t-48.5 135q0 93 65.5 165t162.5 111
q-71 49 -106.5 96t-35.5 113q0 80 35 142.5t94.5 100t132 57t153.5 19.5q133 0 246 -40l-16 -135q-106 41 -220 41q-65 0 -118 -15t-89 -51.5t-36 -90.5q0 -49 48 -90t161 -97q64 -33 100.5 -55t75.5 -54t56.5 -68.5t17.5 -80.5zM531 888q-67 -29 -117 -73t-50 -101
q0 -23 12 -44.5t27.5 -36.5t50 -35t59.5 -32t77 -36q56 32 95 81t39 107q0 18 -4.5 33t-16 28.5t-21 23t-31.5 22.5t-34.5 19.5t-42 21.5t-43.5 22z" />
    <glyph glyph-name="dieresis" unicode="&#xa8;" horiz-adv-x="743" 
d="M65 1182l24 189h186l-23 -189h-187zM468 1182l24 189h186l-24 -189h-186z" />
    <glyph glyph-name="copyright" unicode="&#xa9;" horiz-adv-x="1728" 
d="M937 1047q-62 0 -120 -24.5t-106 -70.5t-76.5 -121t-28.5 -168q0 -120 68 -186t180 -66q131 0 241 79l36 -109q-136 -95 -300 -95q-170 0 -277 101.5t-107 268.5q0 34 4 62q25 205 161.5 330t331.5 125q173 0 262 -101l-66 -102q-80 77 -203 77zM784 75q173 0 331 88
t261.5 238t125.5 324q5 45 5 81q0 158 -72 289.5t-201 208.5t-289 77q-130 0 -255.5 -53t-222 -141.5t-161.5 -209.5t-81 -252q-5 -45 -5 -81q0 -157 72 -287t201.5 -206t290.5 -76zM771 -25q-189 0 -342.5 87t-240 238t-86.5 335q0 45 6 93q19 153 96 293t190.5 241
t261 161t300.5 60q190 0 344 -87.5t240.5 -239.5t86.5 -336q0 -46 -6 -92q-19 -153 -96 -292.5t-191 -240.5t-261.5 -160.5t-301.5 -59.5z" />
    <glyph glyph-name="ordfeminine" unicode="&#xaa;" horiz-adv-x="791" 
d="M70 941q0 114 81 175.5t228 61.5h174l5 36q3 21 3 40q0 60 -30 86.5t-96 26.5q-53 0 -113 -13.5t-94 -27.5l-34 -13l-30 101q14 8 40 19t103 29.5t151 18.5q113 0 182 -51t69 -160q0 -20 -21 -186t-21 -167q-2 -22 -9 -134h-141l4 95q-33 -51 -94.5 -84.5t-137.5 -33.5
q-98 0 -158.5 49t-60.5 132zM317 867q88 0 150 55.5t73 144.5l2 22q-70 0 -101.5 -0.5t-77.5 -3.5t-65.5 -10t-42.5 -20t-32 -32.5t-13 -48.5q-1 -5 -1 -16q0 -44 29 -67.5t79 -23.5z" />
    <glyph glyph-name="guillemotleft" unicode="&#xab;" horiz-adv-x="1118" 
d="M357 170l-225 373l322 375h162l-293 -375l194 -373h-160zM786 170l-225 373l323 375h162l-294 -375l195 -373h-161z" />
    <glyph glyph-name="logicalnot" unicode="&#xac;" horiz-adv-x="1464" 
d="M1044 234l50 412h-882l19 156h1053l-70 -568h-170z" />
    <glyph glyph-name="uni00AD" unicode="&#xad;" horiz-adv-x="679" 
d="M53 487l17 142h556l-18 -142h-555z" />
    <glyph glyph-name="registered" unicode="&#xae;" horiz-adv-x="1728" 
d="M488 278l112 909h283q195 0 286 -55.5t91 -164.5q0 -19 -3 -39q-12 -97 -65.5 -160t-172.5 -87l161 -403h-185l-137 382h-159l-46 -382h-165zM829 777q140 0 200 35.5t60 139.5q0 64 -46.5 83.5t-180.5 19.5h-116l-34 -278h117zM784 75q173 0 331 88t261.5 238t125.5 324
q5 45 5 81q0 158 -72 289.5t-201 208.5t-289 77q-130 0 -255.5 -53t-222 -141.5t-161.5 -209.5t-81 -252q-5 -45 -5 -81q0 -157 72 -287t201.5 -206t290.5 -76zM771 -25q-189 0 -342.5 87t-240 238t-86.5 335q0 45 6 93q19 153 96 293t190.5 241t261 161t300.5 60
q190 0 344 -87.5t240.5 -239.5t86.5 -336q0 -46 -6 -92q-19 -153 -96 -292.5t-191 -240.5t-261.5 -160.5t-301.5 -59.5z" />
    <glyph glyph-name="macron" unicode="&#xaf;" horiz-adv-x="720" 
d="M61 1242l14 124h585l-15 -124h-584z" />
    <glyph glyph-name="degree" unicode="&#xb0;" horiz-adv-x="854" 
d="M449 1336q-86 0 -145 -60.5t-59 -148.5q0 -69 42.5 -114t116.5 -45q88 0 146.5 61.5t58.5 150.5q0 68 -43 112t-117 44zM733 1191q0 -140 -103 -238.5t-240 -98.5q-117 0 -193 74.5t-76 185.5q0 141 102.5 238.5t239.5 97.5q119 0 194.5 -74t75.5 -185z" />
    <glyph glyph-name="plusminus" unicode="&#xb1;" horiz-adv-x="1232" 
d="M497 255l41 339h-338l19 155h336l41 340h171l-42 -340h335l-19 -155h-329l-42 -339h-173zM117 0l16 132h873l-15 -132h-874z" />
    <glyph glyph-name="uni00B2" unicode="&#xb2;" horiz-adv-x="1114" 
d="M257 619l13 100l307 266q159 138 171 239q1 5 1 15q0 45 -32.5 71t-92.5 26q-61 0 -117 -32t-95 -92l-67 83q48 76 128 118.5t174 42.5q109 0 174.5 -53t65.5 -146q0 -9 -2 -31q-10 -81 -70.5 -160.5t-171.5 -171.5l-198 -166h376l-14 -109h-550z" />
    <glyph glyph-name="uni00B3" unicode="&#xb3;" horiz-adv-x="1064" 
d="M830 1262q0 -168 -172 -211q74 -18 111 -64t37 -109q0 -9 -2 -27q-15 -116 -104 -183t-213 -67q-75 0 -142 24.5t-111 70.5l68 97q86 -78 193 -78q76 0 126.5 42.5t50.5 114.5q0 57 -47.5 87t-134.5 30h-73l14 113h68q90 0 143 35t53 106q0 49 -32.5 73.5t-91.5 24.5
q-108 0 -212 -76l-44 92q55 46 130 72.5t149 26.5q104 0 170 -51t66 -143z" />
    <glyph glyph-name="acute" unicode="&#xb4;" horiz-adv-x="607" 
d="M51 1172l279 360h238l-363 -360h-154z" />
    <glyph glyph-name="mu" unicode="&#xb5;" horiz-adv-x="1235" 
d="M263 -276h-183l159 1302h184l-78 -634q-3 -30 -3 -56q0 -209 213 -209q136 0 221 77t100 199l77 623h184l-95 -772q-15 -119 -22 -254h-187l15 165q-52 -79 -138.5 -133.5t-203.5 -54.5q-128 0 -205 53z" />
    <glyph glyph-name="paragraph" unicode="&#xb6;" horiz-adv-x="1210" 
d="M383 -179l121 992q-137 4 -226.5 77t-89.5 200q0 20 3 43q9 75 38 131t73 92.5t107 59t133 31.5t157 9h450l-17 -141h-104l-183 -1494h-135l183 1494h-191l-183 -1494h-136z" />
    <glyph glyph-name="periodcentered" unicode="&#xb7;" horiz-adv-x="509" 
d="M269 517l25 200h199l-24 -200h-200z" />
    <glyph glyph-name="cedilla" unicode="&#xb8;" horiz-adv-x="529" 
d="M472 -265q0 -87 -80 -134.5t-195 -47.5h-4q-93 0 -172 28l24 97q20 -9 65.5 -18t85.5 -9h3q53 0 85 22.5t32 61.5q0 32 -36 55t-113 23h-22l56 196h97l-36 -128q98 -9 154 -47t56 -99z" />
    <glyph glyph-name="uni00B9" unicode="&#xb9;" horiz-adv-x="1055" 
d="M277 618l14 118h150l68 555q-19 -10 -176 -66l16 127q30 10 105 40t94 41l110 8l-87 -708h141l-14 -115h-421z" />
    <glyph glyph-name="ordmasculine" unicode="&#xba;" horiz-adv-x="885" 
d="M473 1336q-107 0 -174.5 -74.5t-67.5 -197.5q0 -88 48.5 -136.5t139.5 -48.5q106 0 173.5 74t67.5 194q0 89 -49.5 139t-137.5 50zM403 752q-160 0 -244.5 83.5t-84.5 219.5q0 18 4 56q19 154 129.5 254.5t281.5 100.5q156 0 240 -84.5t84 -220.5q0 -27 -3 -54
q-19 -152 -128 -253.5t-279 -101.5z" />
    <glyph glyph-name="guillemotright" unicode="&#xbb;" horiz-adv-x="1118" 
d="M89 168l293 375l-194 373h161l225 -373l-322 -375h-163zM519 168l293 375l-193 373h159l225 -373l-322 -375h-162z" />
    <glyph glyph-name="onequarter" unicode="&#xbc;" horiz-adv-x="1970" 
d="M199 631l15 113h166l70 573l-188 -64l15 118q19 5 110 41.5t104 43.5h118l-87 -714h150l-14 -111h-459zM1435 0l22 190h-377l12 95l431 515h146l-61 -500h111l-14 -110h-112l-23 -190h-135zM403 0l1080 1456h159l-1077 -1456h-162zM1225 300h244l42 343z" />
    <glyph glyph-name="onehalf" unicode="&#xbd;" horiz-adv-x="2126" 
d="M1194 0l15 126l304 251q100 83 133.5 128t33.5 105q0 48 -29.5 76t-88.5 28t-118 -31t-102 -86l-62 95q53 70 134 109t172 39q111 0 178 -55t67 -153q0 -18 -1 -27q-8 -98 -62 -164.5t-184 -168.5l-184 -148h367l-15 -124h-558zM372 0l1080 1456h158l-1076 -1456h-162z
M198 631l14 113h166l71 573l-188 -64l15 118q19 6 110.5 42t103.5 43h117l-87 -714h151l-15 -111h-458z" />
    <glyph glyph-name="threequarters" unicode="&#xbe;" horiz-adv-x="2126" 
d="M807 1265q0 -153 -168 -208q71 -22 108 -68.5t37 -106.5q0 -7 -2 -25q-14 -119 -106.5 -186.5t-217.5 -67.5q-158 0 -255 94l69 95q91 -77 192 -77q74 0 125.5 45t51.5 115q0 55 -45.5 84.5t-128.5 29.5h-78l14 111h74q83 0 135 37.5t52 104.5q0 49 -34 78t-91 29
q-104 0 -211 -75l-46 88q59 45 134.5 70.5t149.5 25.5q107 0 174 -50.5t67 -142.5zM1445 0l24 190h-378l12 95l431 515h147l-61 -500h110l-14 -110h-112l-23 -190h-136zM439 0l1081 1456h159l-1077 -1456h-163zM1237 300h243l42 343z" />
    <glyph glyph-name="questiondown" unicode="&#xbf;" horiz-adv-x="1032" 
d="M721 753l-17 -142q-9 -69 -56 -135t-109 -120t-123.5 -106.5t-108 -115t-54.5 -125.5q-2 -20 -2 -29q0 -85 62.5 -126t166.5 -41q81 0 164 24t134 50l-20 -166q-63 -29 -151 -48.5t-168 -19.5q-173 0 -277 76.5t-104 222.5q0 71 26 135t68 112.5t93.5 94t104 87t97 82.5
t76 90t37.5 101l12 99h149zM787 1136l-28 -221h-187l28 221h187z" />
    <glyph glyph-name="Agrave" unicode="&#xc0;" 
d="M726 1603l-293 360h240l206 -360h-153zM-58 0l743 1456h204l390 -1456h-209l-102 389h-623l-195 -389h-208zM416 545h514q-103 437 -169 711z" />
    <glyph glyph-name="Aacute" unicode="&#xc1;" 
d="M738 1602l279 360h238l-363 -360h-154zM-58 0l743 1456h204l390 -1456h-209l-102 389h-623l-195 -389h-208zM416 545h514q-103 437 -169 711z" />
    <glyph glyph-name="Acircumflex" unicode="&#xc2;" 
d="M492 1584l276 347h162l194 -347h-156l-136 218l-190 -218h-150zM-58 0l743 1456h204l390 -1456h-209l-102 389h-623l-195 -389h-208zM416 545h514q-103 437 -169 711z" />
    <glyph glyph-name="Atilde" unicode="&#xc3;" 
d="M963 1605q-49 0 -148 50.5t-132 50.5q-61 0 -82 -93h-118q13 106 69.5 169.5t139.5 63.5q44 0 99.5 -25t103.5 -50.5t76 -25.5q30 0 46.5 22t25.5 77h122q-14 -112 -66.5 -175.5t-135.5 -63.5zM-58 0l743 1456h204l390 -1456h-209l-102 389h-623l-195 -389h-208zM416 545
h514q-103 437 -169 711z" />
    <glyph glyph-name="Adieresis" unicode="&#xc4;" 
d="M512 1612l24 189h186l-23 -189h-187zM915 1612l24 189h186l-24 -189h-186zM-58 0l743 1456h204l390 -1456h-209l-102 389h-623l-195 -389h-208zM416 545h514q-103 437 -169 711z" />
    <glyph glyph-name="Aring" unicode="&#xc5;" 
d="M836 1862q-48 0 -84 -36t-36 -87q0 -41 26.5 -69t66.5 -28q48 0 84.5 36t36.5 87q0 42 -26.5 69.5t-67.5 27.5zM1026 1776q0 -94 -68.5 -156.5t-157.5 -62.5q-77 0 -128 48t-51 122q0 95 68 157.5t159 62.5q78 0 128 -48t50 -123zM-58 0l743 1456h204l390 -1456h-209
l-102 389h-623l-195 -389h-208zM416 545h514q-103 437 -169 711z" />
    <glyph glyph-name="AE" unicode="&#xc6;" horiz-adv-x="2062" 
d="M-64 0l1022 1456h1018l-20 -165h-689l-18 -462h618l-19 -158h-601l-17 -508h613l-20 -163h-794l14 401h-612l-277 -401h-218zM524 548h523l36 743h-47z" />
    <glyph glyph-name="Ccedilla" unicode="&#xc7;" 
d="M946 -265q0 -87 -80 -134.5t-195 -47.5h-4q-93 0 -172 28l24 97q20 -9 65.5 -18t85.5 -9h3q53 0 85 22.5t32 61.5q0 32 -36 55t-113 23h-22l56 196h97l-36 -128q98 -9 154 -47t56 -99zM904 1321q-169 0 -307.5 -92t-217 -253t-78.5 -357q0 -223 125 -351.5t335 -128.5
q219 0 429 144l46 -152q-230 -153 -504 -153q-133 0 -247.5 40.5t-201 117t-136 196t-49.5 267.5q0 60 7 117q28 227 143 402.5t287.5 269.5t373.5 94q275 0 440 -150l-92 -130q-146 119 -353 119z" />
    <glyph glyph-name="Egrave" unicode="&#xc8;" horiz-adv-x="1205" 
d="M672 1603l-293 360h240l206 -360h-153zM113 0l178 1456h872l-20 -161h-681l-56 -458h643l-19 -162h-643l-63 -514h710l-20 -161h-901z" />
    <glyph glyph-name="Eacute" unicode="&#xc9;" horiz-adv-x="1205" 
d="M684 1602l279 360h238l-363 -360h-154zM113 0l178 1456h872l-20 -161h-681l-56 -458h643l-19 -162h-643l-63 -514h710l-20 -161h-901z" />
    <glyph glyph-name="Ecircumflex" unicode="&#xca;" horiz-adv-x="1205" 
d="M438 1584l276 347h162l194 -347h-156l-136 218l-190 -218h-150zM113 0l178 1456h872l-20 -161h-681l-56 -458h643l-19 -162h-643l-63 -514h710l-20 -161h-901z" />
    <glyph glyph-name="Edieresis" unicode="&#xcb;" horiz-adv-x="1205" 
d="M459 1612l24 189h186l-23 -189h-187zM862 1612l24 189h186l-24 -189h-186zM113 0l178 1456h872l-20 -161h-681l-56 -458h643l-19 -162h-643l-63 -514h710l-20 -161h-901z" />
    <glyph glyph-name="Igrave" unicode="&#xcc;" horiz-adv-x="602" 
d="M348 1603l-293 360h240l206 -360h-153zM129 0l178 1456h191l-178 -1456h-191z" />
    <glyph glyph-name="Iacute" unicode="&#xcd;" horiz-adv-x="602" 
d="M360 1602l279 360h238l-363 -360h-154zM129 0l178 1456h191l-178 -1456h-191z" />
    <glyph glyph-name="Icircumflex" unicode="&#xce;" horiz-adv-x="602" 
d="M114 1584l276 347h162l194 -347h-156l-136 218l-190 -218h-150zM129 0l178 1456h191l-178 -1456h-191z" />
    <glyph glyph-name="Idieresis" unicode="&#xcf;" horiz-adv-x="602" 
d="M135 1612l24 189h186l-23 -189h-187zM538 1612l24 189h186l-24 -189h-186zM129 0l178 1456h191l-178 -1456h-191z" />
    <glyph glyph-name="Eth" unicode="&#xd0;" horiz-adv-x="1540" 
d="M43 704l17 142h556l-18 -142h-555zM323 161h243q292 0 459 147.5t200 417.5q8 64 8 113q0 232 -145.5 344t-440.5 112h-185zM113 0l178 1456h358q786 0 786 -600q0 -70 -8 -130q-42 -348 -272 -537t-619 -189h-423z" />
    <glyph glyph-name="Ntilde" unicode="&#xd1;" horiz-adv-x="1598" 
d="M1073 1605q-49 0 -148 50.5t-132 50.5q-61 0 -82 -93h-118q13 106 69.5 169.5t139.5 63.5q44 0 99.5 -25t103.5 -50.5t76 -25.5q30 0 46.5 22t25.5 77h122q-14 -112 -66.5 -175.5t-135.5 -63.5zM113 0l178 1456h203l577 -1024l86 -170l147 1194h182l-178 -1456h-204
l-564 986l-102 200l-146 -1186h-179z" />
    <glyph glyph-name="Ograve" unicode="&#xd2;" horiz-adv-x="1626" 
d="M844 1603l-293 360h240l206 -360h-153zM888 1321q-176 0 -310 -92t-204.5 -253t-70.5 -367q0 -221 112 -345.5t326 -124.5q244 0 390.5 157.5t180.5 432.5q8 66 8 120q0 218 -110 345t-322 127zM724 -22q-297 0 -461 166t-164 454q0 71 8 131q27 223 131.5 392.5t278 265
t393.5 95.5q289 0 453 -169.5t164 -455.5q0 -69 -8 -128q-42 -344 -254.5 -547.5t-540.5 -203.5z" />
    <glyph glyph-name="Oacute" unicode="&#xd3;" horiz-adv-x="1626" 
d="M856 1602l279 360h238l-363 -360h-154zM888 1321q-176 0 -310 -92t-204.5 -253t-70.5 -367q0 -221 112 -345.5t326 -124.5q244 0 390.5 157.5t180.5 432.5q8 66 8 120q0 218 -110 345t-322 127zM724 -22q-297 0 -461 166t-164 454q0 71 8 131q27 223 131.5 392.5t278 265
t393.5 95.5q289 0 453 -169.5t164 -455.5q0 -69 -8 -128q-42 -344 -254.5 -547.5t-540.5 -203.5z" />
    <glyph glyph-name="Ocircumflex" unicode="&#xd4;" horiz-adv-x="1626" 
d="M610 1584l276 347h162l194 -347h-156l-136 218l-190 -218h-150zM888 1321q-176 0 -310 -92t-204.5 -253t-70.5 -367q0 -221 112 -345.5t326 -124.5q244 0 390.5 157.5t180.5 432.5q8 66 8 120q0 218 -110 345t-322 127zM724 -22q-297 0 -461 166t-164 454q0 71 8 131
q27 223 131.5 392.5t278 265t393.5 95.5q289 0 453 -169.5t164 -455.5q0 -69 -8 -128q-42 -344 -254.5 -547.5t-540.5 -203.5z" />
    <glyph glyph-name="Otilde" unicode="&#xd5;" horiz-adv-x="1626" 
d="M1081 1605q-49 0 -148 50.5t-132 50.5q-61 0 -82 -93h-118q13 106 69.5 169.5t139.5 63.5q44 0 99.5 -25t103.5 -50.5t76 -25.5q30 0 46.5 22t25.5 77h122q-14 -112 -66.5 -175.5t-135.5 -63.5zM888 1321q-176 0 -310 -92t-204.5 -253t-70.5 -367q0 -221 112 -345.5
t326 -124.5q244 0 390.5 157.5t180.5 432.5q8 66 8 120q0 218 -110 345t-322 127zM724 -22q-297 0 -461 166t-164 454q0 71 8 131q27 223 131.5 392.5t278 265t393.5 95.5q289 0 453 -169.5t164 -455.5q0 -69 -8 -128q-42 -344 -254.5 -547.5t-540.5 -203.5z" />
    <glyph glyph-name="Odieresis" unicode="&#xd6;" horiz-adv-x="1626" 
d="M631 1612l24 189h186l-23 -189h-187zM1034 1612l24 189h186l-24 -189h-186zM888 1321q-176 0 -310 -92t-204.5 -253t-70.5 -367q0 -221 112 -345.5t326 -124.5q244 0 390.5 157.5t180.5 432.5q8 66 8 120q0 218 -110 345t-322 127zM724 -22q-297 0 -461 166t-164 454
q0 71 8 131q27 223 131.5 392.5t278 265t393.5 95.5q289 0 453 -169.5t164 -455.5q0 -69 -8 -128q-42 -344 -254.5 -547.5t-540.5 -203.5z" />
    <glyph glyph-name="multiply" unicode="&#xd7;" horiz-adv-x="1231" 
d="M285 145l-103 117l325 291l-254 289l132 118l254 -290l326 290l103 -118l-326 -289l255 -290l-133 -118l-253 288z" />
    <glyph glyph-name="Oslash" unicode="&#xd8;" horiz-adv-x="1626" 
d="M318 -131l-87 48l108 164q-117 79 -178.5 211t-61.5 306q0 71 8 131q27 223 131.5 392.5t278 265t393.5 95.5q175 0 309 -66l102 156l86 -47l-105 -159q110 -81 167.5 -211.5t57.5 -297.5q0 -69 -8 -128q-42 -344 -254.5 -547.5t-540.5 -203.5q-167 0 -298 56zM741 139
q244 0 390.5 157.5t180.5 432.5q8 66 8 120q0 235 -122 358l-674 -1024q91 -44 217 -44zM888 1321q-176 0 -310 -92t-204.5 -253t-70.5 -367q0 -250 139 -372l678 1030q-96 54 -232 54z" />
    <glyph glyph-name="Ugrave" unicode="&#xd9;" horiz-adv-x="1495" 
d="M776 1603l-293 360h240l206 -360h-153zM653 -22q-511 0 -511 460q0 55 8 122l111 896h191l-111 -900q-6 -51 -6 -95q0 -322 340 -322q387 0 437 413l111 904h190l-110 -894q-17 -133 -61.5 -237t-121.5 -183.5t-195 -121.5t-272 -42z" />
    <glyph glyph-name="Uacute" unicode="&#xda;" horiz-adv-x="1495" 
d="M788 1602l279 360h238l-363 -360h-154zM653 -22q-511 0 -511 460q0 55 8 122l111 896h191l-111 -900q-6 -51 -6 -95q0 -322 340 -322q387 0 437 413l111 904h190l-110 -894q-17 -133 -61.5 -237t-121.5 -183.5t-195 -121.5t-272 -42z" />
    <glyph glyph-name="Ucircumflex" unicode="&#xdb;" horiz-adv-x="1495" 
d="M542 1584l276 347h162l194 -347h-156l-136 218l-190 -218h-150zM653 -22q-511 0 -511 460q0 55 8 122l111 896h191l-111 -900q-6 -51 -6 -95q0 -322 340 -322q387 0 437 413l111 904h190l-110 -894q-17 -133 -61.5 -237t-121.5 -183.5t-195 -121.5t-272 -42z" />
    <glyph glyph-name="Udieresis" unicode="&#xdc;" horiz-adv-x="1495" 
d="M563 1612l24 189h186l-23 -189h-187zM966 1612l24 189h186l-24 -189h-186zM653 -22q-511 0 -511 460q0 55 8 122l111 896h191l-111 -900q-6 -51 -6 -95q0 -322 340 -322q387 0 437 413l111 904h190l-110 -894q-17 -133 -61.5 -237t-121.5 -183.5t-195 -121.5t-272 -42z
" />
    <glyph glyph-name="Yacute" unicode="&#xdd;" horiz-adv-x="1239" 
d="M679 1602l279 360h238l-363 -360h-154zM433 0l71 575l-394 881h212l302 -713l478 713h213l-620 -878l-70 -578h-192z" />
    <glyph glyph-name="Thorn" unicode="&#xde;" horiz-adv-x="1280" 
d="M1216 855q0 -107 -32 -193t-88 -144t-135 -97t-169.5 -56.5t-195.5 -17.5h-251l-43 -347h-191l178 1456h191l-30 -244h207q101 0 179.5 -8.5t152 -32t121.5 -62.5t77 -103.5t29 -150.5zM621 508q178 0 283 78.5t105 240.5q0 127 -89.5 175.5t-269.5 48.5h-219l-67 -543
h257z" />
    <glyph glyph-name="germandbls" unicode="&#xdf;" horiz-adv-x="1251" 
d="M1132 399q0 -126 -60.5 -224.5t-157 -148.5t-208.5 -50q-73 0 -150 14.5t-111.5 26t-53.5 20.5l47 145q149 -58 248 -58q109 0 178.5 65t69.5 183q0 119 -92 206.5t-285 172.5l18 140q152 50 221 117.5t81 165.5q1 8 1 23q0 73 -53.5 115.5t-146.5 42.5
q-123 0 -199 -87.5t-95 -239.5l-126 -1028h-181l125 1026q28 231 158 354t336 123q174 0 274.5 -77t100.5 -206q0 -26 -2 -39q-14 -116 -84 -195t-202 -132q-23 -12 -70 -27q33 -9 66 -22q353 -133 353 -406z" />
    <glyph glyph-name="agrave" unicode="&#xe0;" horiz-adv-x="1273" 
d="M594 1173l-293 360h240l206 -360h-153zM523 -22q-205 0 -316.5 127t-111.5 324q0 37 5 84q19 150 92.5 271.5t194.5 194.5t268 73q109 0 192 -53t119 -136l20 163h182l-126 -1026h-184l22 175q-57 -92 -150 -144.5t-207 -52.5zM660 902q-177 0 -277.5 -129.5
t-100.5 -330.5q0 -142 72 -228t214 -86q153 0 246.5 106.5t115.5 286.5q5 43 5 74q0 139 -70.5 223t-204.5 84z" />
    <glyph glyph-name="aacute" unicode="&#xe1;" horiz-adv-x="1273" 
d="M606 1172l279 360h238l-363 -360h-154zM523 -22q-205 0 -316.5 127t-111.5 324q0 37 5 84q19 150 92.5 271.5t194.5 194.5t268 73q109 0 192 -53t119 -136l20 163h182l-126 -1026h-184l22 175q-57 -92 -150 -144.5t-207 -52.5zM660 902q-177 0 -277.5 -129.5
t-100.5 -330.5q0 -142 72 -228t214 -86q153 0 246.5 106.5t115.5 286.5q5 43 5 74q0 139 -70.5 223t-204.5 84z" />
    <glyph glyph-name="acircumflex" unicode="&#xe2;" horiz-adv-x="1273" 
d="M360 1154l276 347h162l194 -347h-156l-136 218l-190 -218h-150zM523 -22q-205 0 -316.5 127t-111.5 324q0 37 5 84q19 150 92.5 271.5t194.5 194.5t268 73q109 0 192 -53t119 -136l20 163h182l-126 -1026h-184l22 175q-57 -92 -150 -144.5t-207 -52.5zM660 902
q-177 0 -277.5 -129.5t-100.5 -330.5q0 -142 72 -228t214 -86q153 0 246.5 106.5t115.5 286.5q5 43 5 74q0 139 -70.5 223t-204.5 84z" />
    <glyph glyph-name="atilde" unicode="&#xe3;" horiz-adv-x="1273" 
d="M831 1175q-49 0 -148 50.5t-132 50.5q-61 0 -82 -93h-118q13 106 69.5 169.5t139.5 63.5q44 0 99.5 -25t103.5 -50.5t76 -25.5q30 0 46.5 22t25.5 77h122q-14 -112 -66.5 -175.5t-135.5 -63.5zM523 -22q-205 0 -316.5 127t-111.5 324q0 37 5 84q19 150 92.5 271.5
t194.5 194.5t268 73q109 0 192 -53t119 -136l20 163h182l-126 -1026h-184l22 175q-57 -92 -150 -144.5t-207 -52.5zM660 902q-177 0 -277.5 -129.5t-100.5 -330.5q0 -142 72 -228t214 -86q153 0 246.5 106.5t115.5 286.5q5 43 5 74q0 139 -70.5 223t-204.5 84z" />
    <glyph glyph-name="adieresis" unicode="&#xe4;" horiz-adv-x="1273" 
d="M380 1182l24 189h186l-23 -189h-187zM783 1182l24 189h186l-24 -189h-186zM523 -22q-205 0 -316.5 127t-111.5 324q0 37 5 84q19 150 92.5 271.5t194.5 194.5t268 73q109 0 192 -53t119 -136l20 163h182l-126 -1026h-184l22 175q-57 -92 -150 -144.5t-207 -52.5zM660 902
q-177 0 -277.5 -129.5t-100.5 -330.5q0 -142 72 -228t214 -86q153 0 246.5 106.5t115.5 286.5q5 43 5 74q0 139 -70.5 223t-204.5 84z" />
    <glyph glyph-name="aring" unicode="&#xe5;" horiz-adv-x="1273" 
d="M704 1432q-48 0 -84 -36t-36 -87q0 -41 26.5 -69t66.5 -28q48 0 84.5 36t36.5 87q0 42 -26.5 69.5t-67.5 27.5zM894 1346q0 -94 -68.5 -156.5t-157.5 -62.5q-77 0 -128 48t-51 122q0 95 68 157.5t159 62.5q78 0 128 -48t50 -123zM523 -22q-205 0 -316.5 127t-111.5 324
q0 37 5 84q19 150 92.5 271.5t194.5 194.5t268 73q109 0 192 -53t119 -136l20 163h182l-126 -1026h-184l22 175q-57 -92 -150 -144.5t-207 -52.5zM660 902q-177 0 -277.5 -129.5t-100.5 -330.5q0 -142 72 -228t214 -86q153 0 246.5 106.5t115.5 286.5q5 43 5 74
q0 139 -70.5 223t-204.5 84z" />
    <glyph glyph-name="ae" unicode="&#xe6;" horiz-adv-x="1791" 
d="M1219 -22q-138 0 -236.5 66.5t-137.5 181.5q-65 -111 -182 -180.5t-261 -69.5q-159 0 -253 70.5t-94 196.5q0 21 3 42q9 70 35 123.5t71 89.5t99.5 59.5t132 36t155.5 17t182 4.5h69q3 29 3 54q0 108 -58 171.5t-168 63.5q-147 0 -332 -82l-39 130q189 101 415 101
q110 0 200 -56.5t115 -156.5q69 99 169.5 156t216.5 57q184 0 280.5 -113.5t96.5 -309.5q0 -68 -13 -144h-715l-3 -27q-2 -34 -2 -48q0 -133 68 -208t209 -75q82 0 164 28t123 56l42 27l38 -134q-6 -5 -18 -13.5t-51.5 -30.5t-82 -39t-108.5 -30.5t-133 -13.5zM434 126
q80 0 144.5 30t106.5 81.5t67.5 114t34.5 133.5h-152q-83 0 -147.5 -9t-119.5 -29.5t-87.5 -59t-39.5 -93.5q-1 -8 -1 -23q0 -74 54 -109.5t140 -35.5zM1543 612q1 8 1 25q0 120 -60.5 194t-173.5 74q-122 0 -205.5 -84.5t-114.5 -208.5h553z" />
    <glyph glyph-name="ccedilla" unicode="&#xe7;" horiz-adv-x="1064" 
d="M783 -265q0 -87 -80 -134.5t-195 -47.5h-4q-93 0 -172 28l24 97q20 -9 65.5 -18t85.5 -9h3q53 0 85 22.5t32 61.5q0 32 -36 55t-113 23h-22l56 196h97l-36 -128q98 -9 154 -47t56 -99zM688 901q-170 0 -286 -124t-116 -336q0 -146 80.5 -229.5t223.5 -83.5q155 0 292 96
l42 -133q-159 -113 -366 -113q-216 0 -339.5 123.5t-123.5 324.5q0 34 5 81q29 243 192.5 394t401.5 151q216 0 323 -122l-79 -122q-96 93 -250 93z" />
    <glyph glyph-name="egrave" unicode="&#xe8;" horiz-adv-x="1166" 
d="M592 1173l-293 360h240l206 -360h-153zM1063 633q0 -83 -16 -146h-759q-3 -28 -3 -56q0 -146 84 -224.5t228 -78.5q183 0 339 114l39 -136q-180 -128 -407 -128q-222 0 -347.5 120.5t-125.5 325.5q0 180 75.5 324t207 224t294.5 80q192 0 291.5 -113.5t99.5 -305.5z
M308 613h589q0 5 0.5 13.5t0.5 12.5q0 130 -62.5 198.5t-176.5 68.5q-126 0 -220 -78t-131 -215z" />
    <glyph glyph-name="eacute" unicode="&#xe9;" horiz-adv-x="1166" 
d="M1063 633q0 -83 -16 -146h-759q-3 -28 -3 -56q0 -146 84 -224.5t228 -78.5q183 0 339 114l39 -136q-180 -128 -407 -128q-222 0 -347.5 120.5t-125.5 325.5q0 180 75.5 324t207 224t294.5 80q192 0 291.5 -113.5t99.5 -305.5zM308 613h589q0 5 0.5 13.5t0.5 12.5
q0 130 -62.5 198.5t-176.5 68.5q-126 0 -220 -78t-131 -215zM604 1172l279 360h238l-363 -360h-154z" />
    <glyph glyph-name="ecircumflex" unicode="&#xea;" horiz-adv-x="1166" 
d="M1063 633q0 -83 -16 -146h-759q-3 -28 -3 -56q0 -146 84 -224.5t228 -78.5q183 0 339 114l39 -136q-180 -128 -407 -128q-222 0 -347.5 120.5t-125.5 325.5q0 180 75.5 324t207 224t294.5 80q192 0 291.5 -113.5t99.5 -305.5zM308 613h589q0 5 0.5 13.5t0.5 12.5
q0 130 -62.5 198.5t-176.5 68.5q-126 0 -220 -78t-131 -215zM358 1154l276 347h162l194 -347h-156l-136 218l-190 -218h-150z" />
    <glyph glyph-name="edieresis" unicode="&#xeb;" horiz-adv-x="1166" 
d="M1063 633q0 -83 -16 -146h-759q-3 -28 -3 -56q0 -146 84 -224.5t228 -78.5q183 0 339 114l39 -136q-180 -128 -407 -128q-222 0 -347.5 120.5t-125.5 325.5q0 180 75.5 324t207 224t294.5 80q192 0 291.5 -113.5t99.5 -305.5zM308 613h589q0 5 0.5 13.5t0.5 12.5
q0 130 -62.5 198.5t-176.5 68.5q-126 0 -220 -78t-131 -215zM378 1182l24 189h186l-23 -189h-187zM781 1182l24 189h186l-24 -189h-186z" />
    <glyph glyph-name="igrave" unicode="&#xec;" horiz-adv-x="534" 
d="M268 1173l-293 360h240l206 -360h-153zM114 0l125 1026h185l-125 -1026h-185z" />
    <glyph glyph-name="iacute" unicode="&#xed;" horiz-adv-x="534" 
d="M114 0l125 1026h185l-125 -1026h-185zM280 1172l279 360h238l-363 -360h-154z" />
    <glyph glyph-name="icircumflex" unicode="&#xee;" horiz-adv-x="534" 
d="M114 0l125 1026h185l-125 -1026h-185zM35 1154l276 347h162l194 -347h-156l-136 218l-190 -218h-150z" />
    <glyph glyph-name="idieresis" unicode="&#xef;" horiz-adv-x="534" 
d="M114 0l125 1026h185l-125 -1026h-185zM55 1182l24 189h186l-23 -189h-187zM458 1182l24 189h186l-24 -189h-186z" />
    <glyph glyph-name="eth" unicode="&#xf0;" horiz-adv-x="1223" 
d="M500 -22q-202 0 -318.5 114.5t-116.5 294.5q0 36 4 67q25 200 176 325.5t363 125.5q117 0 200.5 -53.5t113.5 -125.5q1 7 1 25q0 99 -47.5 234.5t-139.5 225.5l-238 -142l-53 102l200 119q-133 96 -295 137l86 125q198 -46 357 -175l233 139l53 -102l-199 -118
q215 -225 215 -549q0 -55 -8 -124q-38 -310 -191 -477.5t-396 -167.5zM594 752q-144 0 -240.5 -95t-96.5 -255q0 -122 73.5 -193t192.5 -71q139 0 232 92.5t112 244.5q2 24 2 34q0 108 -80 175.5t-195 67.5z" />
    <glyph glyph-name="ntilde" unicode="&#xf1;" horiz-adv-x="1244" 
d="M921 1175q-49 0 -148 50.5t-132 50.5q-61 0 -82 -93h-118q13 106 69.5 169.5t139.5 63.5q44 0 99.5 -25t103.5 -50.5t76 -25.5q30 0 46.5 22t25.5 77h122q-14 -112 -66.5 -175.5t-135.5 -63.5zM112 0l91 742q9 68 15 139t8 108l1 37h190l-17 -161q63 88 165 137.5
t208 49.5q167 0 247.5 -87.5t80.5 -264.5q0 -52 -8 -122l-72 -578h-184l71 577q7 55 7 108q0 110 -44.5 163.5t-148.5 53.5q-116 0 -220.5 -78.5t-125.5 -180.5l-79 -643h-185z" />
    <glyph glyph-name="ograve" unicode="&#xf2;" horiz-adv-x="1258" 
d="M677 902q-177 0 -283 -129t-106 -334q0 -143 75 -227t221 -84q178 0 281.5 128t103.5 332q0 145 -74.5 229.5t-217.5 84.5zM565 -22q-224 0 -347 122t-123 325q0 42 6 87q29 242 189 391t409 149q224 0 344 -122t120 -327q0 -45 -6 -91q-29 -238 -187.5 -386t-404.5 -148
zM634 1173l-293 360h240l206 -360h-153z" />
    <glyph glyph-name="oacute" unicode="&#xf3;" horiz-adv-x="1258" 
d="M677 902q-177 0 -283 -129t-106 -334q0 -143 75 -227t221 -84q178 0 281.5 128t103.5 332q0 145 -74.5 229.5t-217.5 84.5zM565 -22q-224 0 -347 122t-123 325q0 42 6 87q29 242 189 391t409 149q224 0 344 -122t120 -327q0 -45 -6 -91q-29 -238 -187.5 -386t-404.5 -148
zM646 1172l279 360h238l-363 -360h-154z" />
    <glyph glyph-name="ocircumflex" unicode="&#xf4;" horiz-adv-x="1258" 
d="M677 902q-177 0 -283 -129t-106 -334q0 -143 75 -227t221 -84q178 0 281.5 128t103.5 332q0 145 -74.5 229.5t-217.5 84.5zM565 -22q-224 0 -347 122t-123 325q0 42 6 87q29 242 189 391t409 149q224 0 344 -122t120 -327q0 -45 -6 -91q-29 -238 -187.5 -386t-404.5 -148
zM400 1154l276 347h162l194 -347h-156l-136 218l-190 -218h-150z" />
    <glyph glyph-name="otilde" unicode="&#xf5;" horiz-adv-x="1258" 
d="M871 1175q-49 0 -148 50.5t-132 50.5q-61 0 -82 -93h-118q13 106 69.5 169.5t139.5 63.5q44 0 99.5 -25t103.5 -50.5t76 -25.5q30 0 46.5 22t25.5 77h122q-14 -112 -66.5 -175.5t-135.5 -63.5zM677 902q-177 0 -283 -129t-106 -334q0 -143 75 -227t221 -84
q178 0 281.5 128t103.5 332q0 145 -74.5 229.5t-217.5 84.5zM565 -22q-224 0 -347 122t-123 325q0 42 6 87q29 242 189 391t409 149q224 0 344 -122t120 -327q0 -45 -6 -91q-29 -238 -187.5 -386t-404.5 -148z" />
    <glyph glyph-name="odieresis" unicode="&#xf6;" horiz-adv-x="1258" 
d="M677 902q-177 0 -283 -129t-106 -334q0 -143 75 -227t221 -84q178 0 281.5 128t103.5 332q0 145 -74.5 229.5t-217.5 84.5zM565 -22q-224 0 -347 122t-123 325q0 42 6 87q29 242 189 391t409 149q224 0 344 -122t120 -327q0 -45 -6 -91q-29 -238 -187.5 -386t-404.5 -148
zM421 1182l24 189h186l-23 -189h-187zM824 1182l24 189h186l-24 -189h-186z" />
    <glyph glyph-name="divide" unicode="&#xf7;" horiz-adv-x="1286" 
d="M459 11l27 226h237l-27 -226h-237zM148 476l19 156h965l-19 -156h-965zM563 865l27 225h237l-27 -225h-237z" />
    <glyph glyph-name="oslash" unicode="&#xf8;" horiz-adv-x="1254" 
d="M677 902q-177 0 -283 -129t-106 -334q0 -167 99 -250l401 697q-48 16 -111 16zM584 128q178 0 281.5 128t103.5 332q0 171 -101 254l-401 -696q51 -18 117 -18zM260 -214l-83 38l124 215q-101 56 -153.5 155.5t-52.5 230.5q0 42 6 87q29 242 189 391t409 149
q94 0 172 -23l114 198l83 -38l-112 -195q102 -55 154.5 -155.5t52.5 -235.5q0 -45 -6 -91q-29 -238 -187.5 -386t-404.5 -148q-97 0 -180 25z" />
    <glyph glyph-name="ugrave" unicode="&#xf9;" horiz-adv-x="1235" 
d="M491 -23q-176 0 -263 90.5t-87 247.5q0 32 5 77l78 634h183l-77 -634q-4 -27 -4 -58q0 -109 46.5 -158t166.5 -49q136 0 221 77t100 199l77 623h184l-95 -772q-8 -67 -22 -254h-187l16 165q-52 -79 -138.5 -133.5t-203.5 -54.5zM610 1173l-293 360h240l206 -360h-153z
" />
    <glyph glyph-name="uacute" unicode="&#xfa;" horiz-adv-x="1235" 
d="M491 -23q-176 0 -263 90.5t-87 247.5q0 32 5 77l78 634h183l-77 -634q-4 -27 -4 -58q0 -109 46.5 -158t166.5 -49q136 0 221 77t100 199l77 623h184l-95 -772q-8 -67 -22 -254h-187l16 165q-52 -79 -138.5 -133.5t-203.5 -54.5zM622 1172l279 360h238l-363 -360h-154z
" />
    <glyph glyph-name="ucircumflex" unicode="&#xfb;" horiz-adv-x="1235" 
d="M491 -23q-176 0 -263 90.5t-87 247.5q0 32 5 77l78 634h183l-77 -634q-4 -27 -4 -58q0 -109 46.5 -158t166.5 -49q136 0 221 77t100 199l77 623h184l-95 -772q-8 -67 -22 -254h-187l16 165q-52 -79 -138.5 -133.5t-203.5 -54.5zM376 1154l276 347h162l194 -347h-156
l-136 218l-190 -218h-150z" />
    <glyph glyph-name="udieresis" unicode="&#xfc;" horiz-adv-x="1235" 
d="M491 -23q-176 0 -263 90.5t-87 247.5q0 32 5 77l78 634h183l-77 -634q-4 -27 -4 -58q0 -109 46.5 -158t166.5 -49q136 0 221 77t100 199l77 623h184l-95 -772q-8 -67 -22 -254h-187l16 165q-52 -79 -138.5 -133.5t-203.5 -54.5zM397 1182l24 189h186l-23 -189h-187z
M800 1182l24 189h186l-24 -189h-186z" />
    <glyph glyph-name="yacute" unicode="&#xfd;" horiz-adv-x="1065" 
d="M119 -433l-59 126q258 82 342 263l23 52l-294 1018h192l216 -820l399 820h185l-547 -1080q-73 -145 -191 -244t-266 -135zM589 1172l279 360h238l-363 -360h-154z" />
    <glyph glyph-name="thorn" unicode="&#xfe;" horiz-adv-x="1236" 
d="M39 -419l231 1877h182l-70 -579q56 80 149.5 126t199.5 46q136 0 230.5 -57t138 -153t43.5 -224q0 -46 -6 -94q-14 -112 -56 -210t-108.5 -173t-163 -118.5t-210.5 -43.5q-104 0 -187.5 41t-121.5 119l-68 -557h-183zM590 126q109 0 191.5 65.5t124 172.5t41.5 237
q0 136 -62.5 217.5t-193.5 81.5q-84 0 -150 -33t-107.5 -91t-66.5 -127t-35 -151q-4 -33 -4 -71q0 -138 67 -219.5t195 -81.5z" />
    <glyph glyph-name="ydieresis" unicode="&#xff;" horiz-adv-x="1065" 
d="M119 -433l-59 126q258 82 342 263l23 52l-294 1018h192l216 -820l399 820h185l-547 -1080q-73 -145 -191 -244t-266 -135zM364 1182l24 189h186l-23 -189h-187zM767 1182l24 189h186l-24 -189h-186z" />
    <glyph glyph-name="Amacron" unicode="&#x100;" 
d="M542 1672l14 124h585l-15 -124h-584zM-58 0l743 1456h204l390 -1456h-209l-102 389h-623l-195 -389h-208zM416 545h514q-103 437 -169 711z" />
    <glyph glyph-name="amacron" unicode="&#x101;" horiz-adv-x="1273" 
d="M410 1242l14 124h585l-15 -124h-584zM523 -22q-205 0 -316.5 127t-111.5 324q0 37 5 84q19 150 92.5 271.5t194.5 194.5t268 73q109 0 192 -53t119 -136l20 163h182l-126 -1026h-184l22 175q-57 -92 -150 -144.5t-207 -52.5zM660 902q-177 0 -277.5 -129.5t-100.5 -330.5
q0 -142 72 -228t214 -86q153 0 246.5 106.5t115.5 286.5q5 43 5 74q0 139 -70.5 223t-204.5 84z" />
    <glyph glyph-name="Abreve" unicode="&#x102;" 
d="M802 1610q-123 0 -185 56.5t-62 175.5q0 18 1 28h132q0 -3 -0.5 -9t-0.5 -8q0 -61 33.5 -86t97.5 -25q65 0 104.5 29.5t56.5 98.5h129q-51 -260 -306 -260zM-58 0l743 1456h204l390 -1456h-209l-102 389h-623l-195 -389h-208zM416 545h514q-103 437 -169 711z" />
    <glyph glyph-name="abreve" unicode="&#x103;" horiz-adv-x="1273" 
d="M670 1180q-123 0 -185 56.5t-62 175.5q0 18 1 28h132q0 -3 -0.5 -9t-0.5 -8q0 -61 33.5 -86t97.5 -25q65 0 104.5 29.5t56.5 98.5h129q-51 -260 -306 -260zM523 -22q-205 0 -316.5 127t-111.5 324q0 37 5 84q19 150 92.5 271.5t194.5 194.5t268 73q109 0 192 -53
t119 -136l20 163h182l-126 -1026h-184l22 175q-57 -92 -150 -144.5t-207 -52.5zM660 902q-177 0 -277.5 -129.5t-100.5 -330.5q0 -142 72 -228t214 -86q153 0 246.5 106.5t115.5 286.5q5 43 5 74q0 139 -70.5 223t-204.5 84z" />
    <glyph glyph-name="Aogonek" unicode="&#x104;" 
d="M1256 10q-80 -48 -136 -117.5t-56 -126.5q0 -73 104 -73q47 0 137 23l-14 -112q-92 -28 -178 -28q-93 0 -153 39.5t-60 113.5q0 14 1 21q7 54 49 108t92.5 91t108.5 66zM-58 0l743 1456h204l390 -1456h-209l-102 389h-623l-195 -389h-208zM416 545h514q-103 437 -169 711
z" />
    <glyph glyph-name="aogonek" unicode="&#x105;" horiz-adv-x="1273" 
d="M1024 10q-80 -48 -136 -117.5t-56 -126.5q0 -73 104 -73q47 0 137 23l-14 -112q-92 -28 -178 -28q-93 0 -153 39.5t-60 113.5q0 14 1 21q7 54 49 108t92.5 91t108.5 66zM523 -22q-205 0 -316.5 127t-111.5 324q0 37 5 84q19 150 92.5 271.5t194.5 194.5t268 73
q109 0 192 -53t119 -136l20 163h182l-126 -1026h-184l22 175q-57 -92 -150 -144.5t-207 -52.5zM660 902q-177 0 -277.5 -129.5t-100.5 -330.5q0 -142 72 -228t214 -86q153 0 246.5 106.5t115.5 286.5q5 43 5 74q0 139 -70.5 223t-204.5 84z" />
    <glyph glyph-name="Cacute" unicode="&#x106;" 
d="M854 1602l279 360h238l-363 -360h-154zM904 1321q-169 0 -307.5 -92t-217 -253t-78.5 -357q0 -223 125 -351.5t335 -128.5q219 0 429 144l46 -152q-230 -153 -504 -153q-133 0 -247.5 40.5t-201 117t-136 196t-49.5 267.5q0 60 7 117q28 227 143 402.5t287.5 269.5
t373.5 94q275 0 440 -150l-92 -130q-146 119 -353 119z" />
    <glyph glyph-name="cacute" unicode="&#x107;" horiz-adv-x="1064" 
d="M688 901q-170 0 -286 -124t-116 -336q0 -146 80.5 -229.5t223.5 -83.5q155 0 292 96l42 -133q-159 -113 -366 -113q-216 0 -339.5 123.5t-123.5 324.5q0 34 5 81q29 243 192.5 394t401.5 151q216 0 323 -122l-79 -122q-96 93 -250 93zM614 1172l279 360h238l-363 -360
h-154z" />
    <glyph glyph-name="Ccircumflex" unicode="&#x108;" 
d="M608 1584l276 347h162l194 -347h-156l-136 218l-190 -218h-150zM904 1321q-169 0 -307.5 -92t-217 -253t-78.5 -357q0 -223 125 -351.5t335 -128.5q219 0 429 144l46 -152q-230 -153 -504 -153q-133 0 -247.5 40.5t-201 117t-136 196t-49.5 267.5q0 60 7 117
q28 227 143 402.5t287.5 269.5t373.5 94q275 0 440 -150l-92 -130q-146 119 -353 119z" />
    <glyph glyph-name="ccircumflex" unicode="&#x109;" horiz-adv-x="1064" 
d="M369 1154l276 347h162l194 -347h-156l-136 218l-190 -218h-150zM688 901q-170 0 -286 -124t-116 -336q0 -146 80.5 -229.5t223.5 -83.5q155 0 292 96l42 -133q-159 -113 -366 -113q-216 0 -339.5 123.5t-123.5 324.5q0 34 5 81q29 243 192.5 394t401.5 151
q216 0 323 -122l-79 -122q-96 93 -250 93z" />
    <glyph glyph-name="Cdotaccent" unicode="&#x10a;" 
d="M836 1686l22 182h188l-22 -182h-188zM904 1321q-169 0 -307.5 -92t-217 -253t-78.5 -357q0 -223 125 -351.5t335 -128.5q219 0 429 144l46 -152q-230 -153 -504 -153q-133 0 -247.5 40.5t-201 117t-136 196t-49.5 267.5q0 60 7 117q28 227 143 402.5t287.5 269.5
t373.5 94q275 0 440 -150l-92 -130q-146 119 -353 119z" />
    <glyph glyph-name="cdotaccent" unicode="&#x10b;" horiz-adv-x="1064" 
d="M597 1256l22 182h188l-22 -182h-188zM688 901q-170 0 -286 -124t-116 -336q0 -146 80.5 -229.5t223.5 -83.5q155 0 292 96l42 -133q-159 -113 -366 -113q-216 0 -339.5 123.5t-123.5 324.5q0 34 5 81q29 243 192.5 394t401.5 151q216 0 323 -122l-79 -122q-96 93 -250 93
z" />
    <glyph glyph-name="Ccaron" unicode="&#x10c;" 
d="M839 1584l-203 351h163l134 -230l192 230h168l-290 -351h-164zM904 1321q-169 0 -307.5 -92t-217 -253t-78.5 -357q0 -223 125 -351.5t335 -128.5q219 0 429 144l46 -152q-230 -153 -504 -153q-133 0 -247.5 40.5t-201 117t-136 196t-49.5 267.5q0 60 7 117
q28 227 143 402.5t287.5 269.5t373.5 94q275 0 440 -150l-92 -130q-146 119 -353 119z" />
    <glyph glyph-name="ccaron" unicode="&#x10d;" horiz-adv-x="1064" 
d="M599 1154l-203 351h163l134 -230l192 230h168l-290 -351h-164zM688 901q-170 0 -286 -124t-116 -336q0 -146 80.5 -229.5t223.5 -83.5q155 0 292 96l42 -133q-159 -113 -366 -113q-216 0 -339.5 123.5t-123.5 324.5q0 34 5 81q29 243 192.5 394t401.5 151q216 0 323 -122
l-79 -122q-96 93 -250 93z" />
    <glyph glyph-name="Dcaron" unicode="&#x10e;" horiz-adv-x="1540" 
d="M721 1584l-203 351h163l134 -230l192 230h168l-290 -351h-164zM323 161h243q292 0 459 147.5t200 417.5q8 64 8 113q0 232 -145.5 344t-440.5 112h-185zM113 0l178 1456h358q786 0 786 -600q0 -70 -8 -130q-42 -348 -272 -537t-619 -189h-423z" />
    <glyph glyph-name="dcaron" unicode="&#x10f;" horiz-adv-x="1264" 
d="M478 -22q-186 0 -298 119t-112 322q0 43 6 91q29 241 176 391.5t369 150.5q118 0 200 -53t107 -127l75 614h184l-150 -1220q-18 -188 -25 -266h-187l18 174q-42 -80 -137.5 -138t-225.5 -58zM621 902q-161 0 -261.5 -131t-100.5 -334q0 -141 68.5 -225t194.5 -84
q151 0 247 107t118 287q5 42 5 72q0 139 -70.5 223.5t-200.5 84.5zM1208 994l167 474h209l-226 -474h-150z" />
    <glyph glyph-name="Dcroat" unicode="&#x110;" horiz-adv-x="1540" 
d="M43 704l17 142h556l-18 -142h-555zM323 161h243q292 0 459 147.5t200 417.5q8 64 8 113q0 232 -145.5 344t-440.5 112h-185zM113 0l178 1456h358q786 0 786 -600q0 -70 -8 -130q-42 -348 -272 -537t-619 -189h-423z" />
    <glyph glyph-name="dcroat" unicode="&#x111;" horiz-adv-x="1264" 
d="M742 1191l14 124h585l-15 -124h-584zM478 -22q-186 0 -298 119t-112 322q0 43 6 91q29 241 176 391.5t369 150.5q118 0 200 -53t107 -127l75 614h184l-150 -1220q-18 -188 -25 -266h-187l18 174q-42 -80 -137.5 -138t-225.5 -58zM621 902q-161 0 -261.5 -131t-100.5 -334
q0 -141 68.5 -225t194.5 -84q151 0 247 107t118 287q5 42 5 72q0 139 -70.5 223.5t-200.5 84.5z" />
    <glyph glyph-name="Emacron" unicode="&#x112;" horiz-adv-x="1205" 
d="M488 1672l14 124h585l-15 -124h-584zM113 0l178 1456h872l-20 -161h-681l-56 -458h643l-19 -162h-643l-63 -514h710l-20 -161h-901z" />
    <glyph glyph-name="emacron" unicode="&#x113;" horiz-adv-x="1166" 
d="M408 1242l14 124h585l-15 -124h-584zM1063 633q0 -83 -16 -146h-759q-3 -28 -3 -56q0 -146 84 -224.5t228 -78.5q183 0 339 114l39 -136q-180 -128 -407 -128q-222 0 -347.5 120.5t-125.5 325.5q0 180 75.5 324t207 224t294.5 80q192 0 291.5 -113.5t99.5 -305.5z
M308 613h589q0 5 0.5 13.5t0.5 12.5q0 130 -62.5 198.5t-176.5 68.5q-126 0 -220 -78t-131 -215z" />
    <glyph glyph-name="Ebreve" unicode="&#x114;" horiz-adv-x="1205" 
d="M748 1610q-123 0 -185 56.5t-62 175.5q0 18 1 28h132q0 -3 -0.5 -9t-0.5 -8q0 -61 33.5 -86t97.5 -25q65 0 104.5 29.5t56.5 98.5h129q-51 -260 -306 -260zM113 0l178 1456h872l-20 -161h-681l-56 -458h643l-19 -162h-643l-63 -514h710l-20 -161h-901z" />
    <glyph glyph-name="ebreve" unicode="&#x115;" horiz-adv-x="1166" 
d="M1063 633q0 -83 -16 -146h-759q-3 -28 -3 -56q0 -146 84 -224.5t228 -78.5q183 0 339 114l39 -136q-180 -128 -407 -128q-222 0 -347.5 120.5t-125.5 325.5q0 180 75.5 324t207 224t294.5 80q192 0 291.5 -113.5t99.5 -305.5zM308 613h589q0 5 0.5 13.5t0.5 12.5
q0 130 -62.5 198.5t-176.5 68.5q-126 0 -220 -78t-131 -215zM668 1180q-123 0 -185 56.5t-62 175.5q0 18 1 28h132q0 -3 -0.5 -9t-0.5 -8q0 -61 33.5 -86t97.5 -25q65 0 104.5 29.5t56.5 98.5h129q-51 -260 -306 -260z" />
    <glyph glyph-name="Edotaccent" unicode="&#x116;" horiz-adv-x="1205" 
d="M666 1686l22 182h188l-22 -182h-188zM113 0l178 1456h872l-20 -161h-681l-56 -458h643l-19 -162h-643l-63 -514h710l-20 -161h-901z" />
    <glyph glyph-name="edotaccent" unicode="&#x117;" horiz-adv-x="1166" 
d="M1063 633q0 -83 -16 -146h-759q-3 -28 -3 -56q0 -146 84 -224.5t228 -78.5q183 0 339 114l39 -136q-180 -128 -407 -128q-222 0 -347.5 120.5t-125.5 325.5q0 180 75.5 324t207 224t294.5 80q192 0 291.5 -113.5t99.5 -305.5zM308 613h589q0 5 0.5 13.5t0.5 12.5
q0 130 -62.5 198.5t-176.5 68.5q-126 0 -220 -78t-131 -215zM586 1256l22 182h188l-22 -182h-188z" />
    <glyph glyph-name="Eogonek" unicode="&#x118;" horiz-adv-x="1205" 
d="M849 10q-80 -48 -136 -117.5t-56 -126.5q0 -73 104 -73q47 0 137 23l-14 -112q-92 -28 -178 -28q-93 0 -153 39.5t-60 113.5q0 14 1 21q7 54 49 108t92.5 91t108.5 66zM113 0l178 1456h872l-20 -161h-681l-56 -458h643l-19 -162h-643l-63 -514h710l-20 -161h-901z" />
    <glyph glyph-name="eogonek" unicode="&#x119;" horiz-adv-x="1166" 
d="M734 10q-80 -48 -136 -117.5t-56 -126.5q0 -73 104 -73q47 0 137 23l-14 -112q-92 -28 -178 -28q-93 0 -153 39.5t-60 113.5q0 14 1 21q7 54 49 108t92.5 91t108.5 66zM1063 633q0 -83 -16 -146h-759q-3 -28 -3 -56q0 -146 84 -224.5t228 -78.5q183 0 339 114l39 -136
q-180 -128 -407 -128q-222 0 -347.5 120.5t-125.5 325.5q0 180 75.5 324t207 224t294.5 80q192 0 291.5 -113.5t99.5 -305.5zM308 613h589q0 5 0.5 13.5t0.5 12.5q0 130 -62.5 198.5t-176.5 68.5q-126 0 -220 -78t-131 -215z" />
    <glyph glyph-name="Ecaron" unicode="&#x11a;" horiz-adv-x="1205" 
d="M669 1584l-203 351h163l134 -230l192 230h168l-290 -351h-164zM113 0l178 1456h872l-20 -161h-681l-56 -458h643l-19 -162h-643l-63 -514h710l-20 -161h-901z" />
    <glyph glyph-name="ecaron" unicode="&#x11b;" horiz-adv-x="1166" 
d="M1063 633q0 -83 -16 -146h-759q-3 -28 -3 -56q0 -146 84 -224.5t228 -78.5q183 0 339 114l39 -136q-180 -128 -407 -128q-222 0 -347.5 120.5t-125.5 325.5q0 180 75.5 324t207 224t294.5 80q192 0 291.5 -113.5t99.5 -305.5zM308 613h589q0 5 0.5 13.5t0.5 12.5
q0 130 -62.5 198.5t-176.5 68.5q-126 0 -220 -78t-131 -215zM588 1154l-203 351h163l134 -230l192 230h168l-290 -351h-164z" />
    <glyph glyph-name="Gcircumflex" unicode="&#x11c;" horiz-adv-x="1527" 
d="M626 1584l276 347h162l194 -347h-156l-136 218l-190 -218h-150zM937 1321q-135 0 -253.5 -54t-203.5 -147.5t-134 -226.5t-49 -285q0 -218 122 -343.5t360 -125.5q182 0 325 52l50 412h-367l20 163h558l-84 -682q-245 -106 -529 -106q-317 0 -486 160.5t-169 441.5
q0 55 8 124q28 224 144 401t300 277t404 100q283 0 462 -146l-94 -133q-158 118 -384 118z" />
    <glyph glyph-name="gcircumflex" unicode="&#x11d;" horiz-adv-x="1267" 
d="M481 -418q-202 0 -369 87l48 159q160 -97 332 -97q164 0 265 88t122 266l13 107q-52 -77 -140 -127.5t-206 -50.5q-193 0 -309.5 112.5t-116.5 308.5q0 34 5 81q30 240 175 388t373 148q116 0 192 -50t112 -128l22 152h190q-33 -166 -46 -276l-75 -610
q-15 -122 -57.5 -222t-113 -176t-176.5 -118t-240 -42zM679 902q-163 0 -265.5 -129t-102.5 -329q0 -137 68 -211.5t196 -74.5q171 0 270 124.5t99 322.5q0 138 -69 217.5t-196 79.5zM343 1154l276 347h162l194 -347h-156l-136 218l-190 -218h-150z" />
    <glyph glyph-name="Gbreve" unicode="&#x11e;" horiz-adv-x="1527" 
d="M936 1610q-123 0 -185 56.5t-62 175.5q0 18 1 28h132q0 -3 -0.5 -9t-0.5 -8q0 -61 33.5 -86t97.5 -25q65 0 104.5 29.5t56.5 98.5h129q-51 -260 -306 -260zM937 1321q-135 0 -253.5 -54t-203.5 -147.5t-134 -226.5t-49 -285q0 -218 122 -343.5t360 -125.5q182 0 325 52
l50 412h-367l20 163h558l-84 -682q-245 -106 -529 -106q-317 0 -486 160.5t-169 441.5q0 55 8 124q28 224 144 401t300 277t404 100q283 0 462 -146l-94 -133q-158 118 -384 118z" />
    <glyph glyph-name="gbreve" unicode="&#x11f;" horiz-adv-x="1267" 
d="M481 -418q-202 0 -369 87l48 159q160 -97 332 -97q164 0 265 88t122 266l13 107q-52 -77 -140 -127.5t-206 -50.5q-193 0 -309.5 112.5t-116.5 308.5q0 34 5 81q30 240 175 388t373 148q116 0 192 -50t112 -128l22 152h190q-33 -166 -46 -276l-75 -610
q-15 -122 -57.5 -222t-113 -176t-176.5 -118t-240 -42zM679 902q-163 0 -265.5 -129t-102.5 -329q0 -137 68 -211.5t196 -74.5q171 0 270 124.5t99 322.5q0 138 -69 217.5t-196 79.5zM653 1180q-123 0 -185 56.5t-62 175.5q0 18 1 28h132q0 -3 -0.5 -9t-0.5 -8
q0 -61 33.5 -86t97.5 -25q65 0 104.5 29.5t56.5 98.5h129q-51 -260 -306 -260z" />
    <glyph glyph-name="Gdotaccent" unicode="&#x120;" horiz-adv-x="1527" 
d="M854 1686l22 182h188l-22 -182h-188zM937 1321q-135 0 -253.5 -54t-203.5 -147.5t-134 -226.5t-49 -285q0 -218 122 -343.5t360 -125.5q182 0 325 52l50 412h-367l20 163h558l-84 -682q-245 -106 -529 -106q-317 0 -486 160.5t-169 441.5q0 55 8 124q28 224 144 401
t300 277t404 100q283 0 462 -146l-94 -133q-158 118 -384 118z" />
    <glyph glyph-name="gdotaccent" unicode="&#x121;" horiz-adv-x="1267" 
d="M481 -418q-202 0 -369 87l48 159q160 -97 332 -97q164 0 265 88t122 266l13 107q-52 -77 -140 -127.5t-206 -50.5q-193 0 -309.5 112.5t-116.5 308.5q0 34 5 81q30 240 175 388t373 148q116 0 192 -50t112 -128l22 152h190q-33 -166 -46 -276l-75 -610
q-15 -122 -57.5 -222t-113 -176t-176.5 -118t-240 -42zM679 902q-163 0 -265.5 -129t-102.5 -329q0 -137 68 -211.5t196 -74.5q171 0 270 124.5t99 322.5q0 138 -69 217.5t-196 79.5zM571 1256l22 182h188l-22 -182h-188z" />
    <glyph glyph-name="Gcommaaccent" unicode="&#x122;" horiz-adv-x="1527" 
d="M434 -607l167 473h209l-226 -473h-150zM937 1321q-135 0 -253.5 -54t-203.5 -147.5t-134 -226.5t-49 -285q0 -218 122 -343.5t360 -125.5q182 0 325 52l50 412h-367l20 163h558l-84 -682q-245 -106 -529 -106q-317 0 -486 160.5t-169 441.5q0 55 8 124q28 224 144 401
t300 277t404 100q283 0 462 -146l-94 -133q-158 118 -384 118z" />
    <glyph glyph-name="gcommaaccent" unicode="&#x123;" horiz-adv-x="1267" 
d="M930 1681l-169 -489h-209l227 489h151zM481 -418q-202 0 -369 87l48 159q160 -97 332 -97q164 0 265 88t122 266l13 107q-52 -77 -140 -127.5t-206 -50.5q-193 0 -309.5 112.5t-116.5 308.5q0 34 5 81q30 240 175 388t373 148q116 0 192 -50t112 -128l22 152h190
q-33 -166 -46 -276l-75 -610q-15 -122 -57.5 -222t-113 -176t-176.5 -118t-240 -42zM679 902q-163 0 -265.5 -129t-102.5 -329q0 -137 68 -211.5t196 -74.5q171 0 270 124.5t99 322.5q0 138 -69 217.5t-196 79.5z" />
    <glyph glyph-name="Hcircumflex" unicode="&#x124;" horiz-adv-x="1559" 
d="M573 1584l276 347h162l194 -347h-156l-136 218l-190 -218h-150zM113 0l178 1456h192l-78 -629h774l77 629h190l-178 -1456h-189l81 666h-773l-82 -666h-192z" />
    <glyph glyph-name="hcircumflex" unicode="&#x125;" horiz-adv-x="1237" 
d="M74 0l183 1486h184l-76 -621q56 84 159.5 135.5t212.5 51.5q166 0 248.5 -96t82.5 -254q0 -48 -5 -83l-76 -619h-184l75 614q6 46 6 84q0 106 -46.5 155t-144.5 49q-82 0 -161.5 -39t-133 -104t-62.5 -137l-77 -622h-185zM437 1154l276 347h162l194 -347h-156l-136 218
l-190 -218h-150z" />
    <glyph glyph-name="Hbar" unicode="&#x126;" horiz-adv-x="1566" 
d="M151 1161l13 108h1364l-13 -108h-1364zM113 0l178 1456h192l-78 -629h774l77 629h190l-178 -1456h-189l81 666h-773l-82 -666h-192z" />
    <glyph glyph-name="hbar" unicode="&#x127;" horiz-adv-x="1237" 
d="M32 1190l14 124h585l-15 -124h-584zM74 0l183 1486h184l-76 -621q56 84 159.5 135.5t212.5 51.5q166 0 248.5 -96t82.5 -254q0 -48 -5 -83l-76 -619h-184l75 614q6 46 6 84q0 106 -46.5 155t-144.5 49q-82 0 -161.5 -39t-133 -104t-62.5 -137l-77 -622h-185z" />
    <glyph glyph-name="Itilde" unicode="&#x128;" horiz-adv-x="602" 
d="M585 1605q-49 0 -148 50.5t-132 50.5q-61 0 -82 -93h-118q13 106 69.5 169.5t139.5 63.5q44 0 99.5 -25t103.5 -50.5t76 -25.5q30 0 46.5 22t25.5 77h122q-14 -112 -66.5 -175.5t-135.5 -63.5zM129 0l178 1456h191l-178 -1456h-191z" />
    <glyph glyph-name="itilde" unicode="&#x129;" horiz-adv-x="534" 
d="M506 1175q-49 0 -148 50.5t-132 50.5q-61 0 -82 -93h-118q13 106 69.5 169.5t139.5 63.5q44 0 99.5 -25t103.5 -50.5t76 -25.5q30 0 46.5 22t25.5 77h122q-14 -112 -66.5 -175.5t-135.5 -63.5zM114 0l125 1026h185l-125 -1026h-185z" />
    <glyph glyph-name="Imacron" unicode="&#x12a;" horiz-adv-x="602" 
d="M164 1672l14 124h585l-15 -124h-584zM129 0l178 1456h191l-178 -1456h-191z" />
    <glyph glyph-name="imacron" unicode="&#x12b;" horiz-adv-x="534" 
d="M85 1242l14 124h585l-15 -124h-584zM114 0l125 1026h185l-125 -1026h-185z" />
    <glyph glyph-name="Ibreve" unicode="&#x12c;" horiz-adv-x="602" 
d="M424 1610q-123 0 -185 56.5t-62 175.5q0 18 1 28h132q0 -3 -0.5 -9t-0.5 -8q0 -61 33.5 -86t97.5 -25q65 0 104.5 29.5t56.5 98.5h129q-51 -260 -306 -260zM129 0l178 1456h191l-178 -1456h-191z" />
    <glyph glyph-name="ibreve" unicode="&#x12d;" horiz-adv-x="534" 
d="M114 0l125 1026h185l-125 -1026h-185zM344 1180q-123 0 -185 56.5t-62 175.5q0 18 1 28h132q0 -3 -0.5 -9t-0.5 -8q0 -61 33.5 -86t97.5 -25q65 0 104.5 29.5t56.5 98.5h129q-51 -260 -306 -260z" />
    <glyph glyph-name="Iogonek" unicode="&#x12e;" horiz-adv-x="602" 
d="M348 10q-80 -48 -136 -117.5t-56 -126.5q0 -73 104 -73q47 0 137 23l-14 -112q-92 -28 -178 -28q-93 0 -153 39.5t-60 113.5q0 14 1 21q7 54 49 108t92.5 91t108.5 66zM129 0l178 1456h191l-178 -1456h-191z" />
    <glyph glyph-name="iogonek" unicode="&#x12f;" horiz-adv-x="534" 
d="M292 10q-80 -48 -136 -117.5t-56 -126.5q0 -73 104 -73q47 0 137 23l-14 -112q-92 -28 -178 -28q-93 0 -153 39.5t-60 113.5q0 14 1 21q7 54 49 108t92.5 91t108.5 66zM114 0l125 1026h185l-125 -1026h-185zM263 1256l22 182h188l-22 -182h-188z" />
    <glyph glyph-name="Idotaccent" unicode="&#x130;" horiz-adv-x="602" 
d="M342 1686l22 182h188l-22 -182h-188zM129 0l178 1456h191l-178 -1456h-191z" />
    <glyph glyph-name="dotlessi" unicode="&#x131;" horiz-adv-x="533" 
d="M114 0l125 1026h185l-125 -1026h-185z" />
    <glyph glyph-name="IJ" unicode="&#x132;" horiz-adv-x="1388" 
d="M721 -326q-108 0 -230 42l45 150q103 -31 180 -31q111 0 160 65.5t68 219.5l164 1336h192l-165 -1335q-28 -231 -131 -339t-283 -108zM129 0l178 1456h191l-178 -1456h-191z" />
    <glyph glyph-name="ij" unicode="&#x133;" horiz-adv-x="1023" 
d="M791 1277l22 179h182l-22 -179h-182zM435 -423q-64 0 -125 12l18 151q52 -12 86 -12q95 0 151 75t75 233l121 990h184l-113 -922q-8 -65 -19.5 -120t-31 -118.5t-49.5 -112.5t-70.5 -90t-98.5 -63.5t-128 -22.5zM159 0l126 1026h183l-126 -1026h-183zM318 1285l20 171
h182l-21 -171h-181z" />
    <glyph glyph-name="Jcircumflex" unicode="&#x134;" horiz-adv-x="786" 
d="M302 1584l276 347h162l194 -347h-156l-136 218l-190 -218h-150zM119 -326q-108 0 -230 42l45 150q103 -31 180 -31q111 0 160 65.5t68 219.5l164 1336h192l-165 -1335q-28 -231 -131 -339t-283 -108z" />
    <glyph glyph-name="jcircumflex" unicode="&#x135;" horiz-adv-x="510" 
d="M-85 -423q-64 0 -125 12l18 151q52 -12 86 -12q95 0 151 75t75 233l121 990h184l-113 -922q-8 -65 -19.5 -120t-31 -118.5t-49.5 -112.5t-70.5 -90t-98.5 -63.5t-128 -22.5zM52 1154l276 347h162l194 -347h-156l-136 218l-190 -218h-150z" />
    <glyph glyph-name="Kcommaaccent" unicode="&#x136;" horiz-adv-x="1295" 
d="M334 -607l167 473h209l-226 -473h-150zM113 0l178 1456h191l-80 -656l707 656h237l-759 -701l629 -755h-242l-585 692l-85 -692h-191z" />
    <glyph glyph-name="kcommaaccent" unicode="&#x137;" horiz-adv-x="1111" 
d="M215 -607l167 473h209l-226 -473h-150zM82 0l183 1486h184l-110 -899l498 439h253l-580 -489l490 -537h-245l-429 485l-59 -485h-185z" />
    <glyph glyph-name="kgreenlandic" unicode="&#x138;" horiz-adv-x="1082" 
d="M107 0l126 1026h185l-56 -455l495 455h244l-583 -509l494 -517h-237l-427 455l-56 -455h-185z" />
    <glyph glyph-name="Lacute" unicode="&#x139;" horiz-adv-x="1109" 
d="M350 1602l279 360h238l-363 -360h-154zM113 0l178 1456h191l-159 -1295h677l-19 -161h-868z" />
    <glyph glyph-name="lacute" unicode="&#x13a;" horiz-adv-x="526" 
d="M86 0l182 1486h185l-183 -1486h-184zM306 1602l279 360h238l-363 -360h-154z" />
    <glyph glyph-name="Lcommaaccent" unicode="&#x13b;" horiz-adv-x="1109" 
d="M291 -607l167 473h209l-226 -473h-150zM113 0l178 1456h191l-159 -1295h677l-19 -161h-868z" />
    <glyph glyph-name="lcommaaccent" unicode="&#x13c;" horiz-adv-x="526" 
d="M-72 -607l167 473h209l-226 -473h-150zM86 0l182 1486h185l-183 -1486h-184z" />
    <glyph glyph-name="Lcaron" unicode="&#x13d;" horiz-adv-x="1109" 
d="M623 994l167 474h209l-226 -474h-150zM113 0l178 1456h191l-159 -1295h677l-19 -161h-868z" />
    <glyph glyph-name="lcaron" unicode="&#x13e;" horiz-adv-x="526" 
d="M86 0l182 1486h185l-183 -1486h-184zM561 994l167 474h209l-226 -474h-150z" />
    <glyph glyph-name="Ldot" unicode="&#x13f;" horiz-adv-x="1109" 
d="M572 643l25 200h199l-24 -200h-200zM113 0l178 1456h191l-159 -1295h677l-19 -161h-868z" />
    <glyph glyph-name="ldot" unicode="&#x140;" horiz-adv-x="526" 
d="M496 639l25 200h199l-24 -200h-200zM86 0l182 1486h185l-183 -1486h-184z" />
    <glyph glyph-name="Lslash" unicode="&#x141;" horiz-adv-x="1131" 
d="M20 472l20 159l687 407l-19 -159zM113 0l178 1456h191l-159 -1295h677l-19 -161h-868z" />
    <glyph glyph-name="lslash" unicode="&#x142;" horiz-adv-x="503" 
d="M64 0l86 698l-166 -100l19 158l167 100l77 627h185l-63 -506l168 100l-20 -158l-166 -102l-101 -817h-186z" />
    <glyph glyph-name="Nacute" unicode="&#x143;" horiz-adv-x="1598" 
d="M848 1602l279 360h238l-363 -360h-154zM113 0l178 1456h203l577 -1024l86 -170l147 1194h182l-178 -1456h-204l-564 986l-102 200l-146 -1186h-179z" />
    <glyph glyph-name="nacute" unicode="&#x144;" horiz-adv-x="1244" 
d="M112 0l91 742q9 68 15 139t8 108l1 37h190l-17 -161q63 88 165 137.5t208 49.5q167 0 247.5 -87.5t80.5 -264.5q0 -52 -8 -122l-72 -578h-184l71 577q7 55 7 108q0 110 -44.5 163.5t-148.5 53.5q-116 0 -220.5 -78.5t-125.5 -180.5l-79 -643h-185zM696 1172l279 360h238
l-363 -360h-154z" />
    <glyph glyph-name="Ncommaaccent" unicode="&#x145;" horiz-adv-x="1598" 
d="M459 -607l167 473h209l-226 -473h-150zM113 0l178 1456h203l577 -1024l86 -170l147 1194h182l-178 -1456h-204l-564 986l-102 200l-146 -1186h-179z" />
    <glyph glyph-name="ncommaaccent" unicode="&#x146;" horiz-adv-x="1244" 
d="M314 -607l167 473h209l-226 -473h-150zM112 0l91 742q9 68 15 139t8 108l1 37h190l-17 -161q63 88 165 137.5t208 49.5q167 0 247.5 -87.5t80.5 -264.5q0 -52 -8 -122l-72 -578h-184l71 577q7 55 7 108q0 110 -44.5 163.5t-148.5 53.5q-116 0 -220.5 -78.5t-125.5 -180.5
l-79 -643h-185z" />
    <glyph glyph-name="Ncaron" unicode="&#x147;" horiz-adv-x="1598" 
d="M833 1584l-203 351h163l134 -230l192 230h168l-290 -351h-164zM113 0l178 1456h203l577 -1024l86 -170l147 1194h182l-178 -1456h-204l-564 986l-102 200l-146 -1186h-179z" />
    <glyph glyph-name="ncaron" unicode="&#x148;" horiz-adv-x="1244" 
d="M112 0l91 742q9 68 15 139t8 108l1 37h190l-17 -161q63 88 165 137.5t208 49.5q167 0 247.5 -87.5t80.5 -264.5q0 -52 -8 -122l-72 -578h-184l71 577q7 55 7 108q0 110 -44.5 163.5t-148.5 53.5q-116 0 -220.5 -78.5t-125.5 -180.5l-79 -643h-185zM680 1154l-203 351h163
l134 -230l192 230h168l-290 -351h-164z" />
    <glyph glyph-name="napostrophe" unicode="&#x149;" horiz-adv-x="1250" 
d="M112 0l91 742q9 68 15 139t8 108l1 37h190l-17 -161q63 88 165 137.5t208 49.5q167 0 247.5 -87.5t80.5 -264.5q0 -52 -8 -122l-72 -578h-184l71 577q7 55 7 108q0 110 -44.5 163.5t-148.5 53.5q-116 0 -220.5 -78.5t-125.5 -180.5l-79 -643h-185zM2 1215l140 574h219
l-224 -574h-135z" />
    <glyph glyph-name="Eng" unicode="&#x14a;" horiz-adv-x="1570" 
d="M1507 1456l-172 -1400q-30 -244 -155.5 -368t-371.5 -124q-152 0 -361 50l40 151q201 -54 339 -54t216.5 62.5t96.5 198.5l10 83l-598 989l-82 156l-147 -1200h-184l178 1456h207l572 -968l88 -161l138 1129h186z" />
    <glyph glyph-name="eng" unicode="&#x14b;" horiz-adv-x="1235" 
d="M521 -408q-148 0 -340 47l36 138q183 -46 302 -46q169 0 247.5 89t101.5 280l55 449q10 83 10 136q0 109 -43.5 162t-151.5 53q-82 0 -159.5 -42.5t-124 -101.5t-53.5 -113l-80 -643h-185l92 742q8 68 14.5 139t8.5 108l2 37h191l-16 -144q65 83 161 126t203 43
q172 0 249.5 -89t77.5 -264q0 -56 -10 -139l-52 -429q-32 -267 -157.5 -402.5t-378.5 -135.5z" />
    <glyph glyph-name="Omacron" unicode="&#x14c;" horiz-adv-x="1626" 
d="M660 1672l14 124h585l-15 -124h-584zM888 1321q-176 0 -310 -92t-204.5 -253t-70.5 -367q0 -221 112 -345.5t326 -124.5q244 0 390.5 157.5t180.5 432.5q8 66 8 120q0 218 -110 345t-322 127zM724 -22q-297 0 -461 166t-164 454q0 71 8 131q27 223 131.5 392.5t278 265
t393.5 95.5q289 0 453 -169.5t164 -455.5q0 -69 -8 -128q-42 -344 -254.5 -547.5t-540.5 -203.5z" />
    <glyph glyph-name="omacron" unicode="&#x14d;" horiz-adv-x="1258" 
d="M677 902q-177 0 -283 -129t-106 -334q0 -143 75 -227t221 -84q178 0 281.5 128t103.5 332q0 145 -74.5 229.5t-217.5 84.5zM565 -22q-224 0 -347 122t-123 325q0 42 6 87q29 242 189 391t409 149q224 0 344 -122t120 -327q0 -45 -6 -91q-29 -238 -187.5 -386t-404.5 -148
zM450 1242l14 124h585l-15 -124h-584z" />
    <glyph glyph-name="Obreve" unicode="&#x14e;" horiz-adv-x="1626" 
d="M920 1610q-123 0 -185 56.5t-62 175.5q0 18 1 28h132q0 -3 -0.5 -9t-0.5 -8q0 -61 33.5 -86t97.5 -25q65 0 104.5 29.5t56.5 98.5h129q-51 -260 -306 -260zM888 1321q-176 0 -310 -92t-204.5 -253t-70.5 -367q0 -221 112 -345.5t326 -124.5q244 0 390.5 157.5
t180.5 432.5q8 66 8 120q0 218 -110 345t-322 127zM724 -22q-297 0 -461 166t-164 454q0 71 8 131q27 223 131.5 392.5t278 265t393.5 95.5q289 0 453 -169.5t164 -455.5q0 -69 -8 -128q-42 -344 -254.5 -547.5t-540.5 -203.5z" />
    <glyph glyph-name="obreve" unicode="&#x14f;" horiz-adv-x="1258" 
d="M677 902q-177 0 -283 -129t-106 -334q0 -143 75 -227t221 -84q178 0 281.5 128t103.5 332q0 145 -74.5 229.5t-217.5 84.5zM565 -22q-224 0 -347 122t-123 325q0 42 6 87q29 242 189 391t409 149q224 0 344 -122t120 -327q0 -45 -6 -91q-29 -238 -187.5 -386t-404.5 -148
zM710 1180q-123 0 -185 56.5t-62 175.5q0 18 1 28h132q0 -3 -0.5 -9t-0.5 -8q0 -61 33.5 -86t97.5 -25q65 0 104.5 29.5t56.5 98.5h129q-51 -260 -306 -260z" />
    <glyph glyph-name="Ohungarumlaut" unicode="&#x150;" horiz-adv-x="1626" 
d="M724 1590l258 372h198l-323 -372h-133zM1049 1590l285 372h209l-358 -372h-136zM888 1321q-176 0 -310 -92t-204.5 -253t-70.5 -367q0 -221 112 -345.5t326 -124.5q244 0 390.5 157.5t180.5 432.5q8 66 8 120q0 218 -110 345t-322 127zM724 -22q-297 0 -461 166t-164 454
q0 71 8 131q27 223 131.5 392.5t278 265t393.5 95.5q289 0 453 -169.5t164 -455.5q0 -69 -8 -128q-42 -344 -254.5 -547.5t-540.5 -203.5z" />
    <glyph glyph-name="ohungarumlaut" unicode="&#x151;" horiz-adv-x="1258" 
d="M677 902q-177 0 -283 -129t-106 -334q0 -143 75 -227t221 -84q178 0 281.5 128t103.5 332q0 145 -74.5 229.5t-217.5 84.5zM565 -22q-224 0 -347 122t-123 325q0 42 6 87q29 242 189 391t409 149q224 0 344 -122t120 -327q0 -45 -6 -91q-29 -238 -187.5 -386t-404.5 -148
zM514 1160l258 372h198l-323 -372h-133zM839 1160l285 372h209l-358 -372h-136z" />
    <glyph glyph-name="OE" unicode="&#x152;" horiz-adv-x="2049" 
d="M1052 94q-45 -43 -141 -79.5t-214 -36.5q-282 0 -440.5 162.5t-158.5 451.5q0 195 61.5 362t168 282.5t254 181t315.5 65.5q116 0 196.5 -31.5t116.5 -70.5l9 75h811l-20 -165h-619l-57 -462h580l-20 -166h-580l-61 -498h649l-21 -165h-841zM741 132q119 0 202 37t128 85
l118 958q-92 108 -286 108q-177 0 -314 -90.5t-211 -251.5t-74 -367q0 -219 110.5 -349t326.5 -130z" />
    <glyph glyph-name="oe" unicode="&#x153;" horiz-adv-x="1978" 
d="M554 -22q-221 0 -343 122.5t-122 324.5q0 48 5 84q29 238 187.5 390.5t405.5 152.5q141 0 235 -60.5t139 -168.5q140 231 417 231q189 0 291 -115.5t102 -314.5q0 -48 -6 -100l-7 -53h-751q0 -1 -0.5 -8t-1 -14.5t-0.5 -8.5q0 -4 -0.5 -12.5t-0.5 -12.5q0 -131 80.5 -209
t222.5 -78q175 0 335 107l40 -134q-177 -123 -412 -123q-133 0 -241 63t-146 167q-61 -106 -178 -168t-251 -62zM576 128q111 0 194 64t124 169t41 234q0 142 -67 224.5t-201 82.5q-155 0 -256.5 -110.5t-123.5 -285.5q-4 -31 -4 -67q0 -141 74 -226t219 -85zM1127 615h577
q0 3 1.5 13.5t1.5 12.5q0 116 -66.5 188.5t-180.5 72.5q-122 0 -214.5 -83t-118.5 -204z" />
    <glyph glyph-name="Racute" unicode="&#x154;" horiz-adv-x="1362" 
d="M691 1602l279 360h238l-363 -360h-154zM1215 1141q0 -171 -83.5 -280.5t-248.5 -142.5q80 -26 120 -91t72 -187l118 -440h-204l-107 428q-33 133 -77.5 176t-160.5 43h-261l-79 -647h-191l178 1456h466q104 0 182 -13.5t143 -47.5t99 -97.5t34 -156.5zM672 808
q340 0 340 304q0 102 -62 142.5t-198 40.5h-11h-280l-60 -487h271z" />
    <glyph glyph-name="racute" unicode="&#x155;" horiz-adv-x="803" 
d="M115 0l95 774q4 34 8.5 97t7.5 109l2 46h194l-17 -160q56 90 132.5 137t164.5 47q57 0 102 -12l-21 -163q-57 16 -111 16q-118 0 -200 -82.5t-102 -237.5l-70 -571h-185zM529 1172l279 360h238l-363 -360h-154z" />
    <glyph glyph-name="Rcommaaccent" unicode="&#x156;" horiz-adv-x="1362" 
d="M348 -607l167 473h209l-226 -473h-150zM1215 1141q0 -171 -83.5 -280.5t-248.5 -142.5q80 -26 120 -91t72 -187l118 -440h-204l-107 428q-33 133 -77.5 176t-160.5 43h-261l-79 -647h-191l178 1456h466q104 0 182 -13.5t143 -47.5t99 -97.5t34 -156.5zM672 808
q340 0 340 304q0 102 -62 142.5t-198 40.5h-11h-280l-60 -487h271z" />
    <glyph glyph-name="rcommaaccent" unicode="&#x157;" horiz-adv-x="803" 
d="M-56 -607l167 473h209l-226 -473h-150zM115 0l95 774q4 34 8.5 97t7.5 109l2 46h194l-17 -160q56 90 132.5 137t164.5 47q57 0 102 -12l-21 -163q-57 16 -111 16q-118 0 -200 -82.5t-102 -237.5l-70 -571h-185z" />
    <glyph glyph-name="Rcaron" unicode="&#x158;" horiz-adv-x="1362" 
d="M676 1584l-203 351h163l134 -230l192 230h168l-290 -351h-164zM1215 1141q0 -171 -83.5 -280.5t-248.5 -142.5q80 -26 120 -91t72 -187l118 -440h-204l-107 428q-33 133 -77.5 176t-160.5 43h-261l-79 -647h-191l178 1456h466q104 0 182 -13.5t143 -47.5t99 -97.5
t34 -156.5zM672 808q340 0 340 304q0 102 -62 142.5t-198 40.5h-11h-280l-60 -487h271z" />
    <glyph glyph-name="rcaron" unicode="&#x159;" horiz-adv-x="803" 
d="M115 0l95 774q4 34 8.5 97t7.5 109l2 46h194l-17 -160q56 90 132.5 137t164.5 47q57 0 102 -12l-21 -163q-57 16 -111 16q-118 0 -200 -82.5t-102 -237.5l-70 -571h-185zM513 1154l-203 351h163l134 -230l192 230h168l-290 -351h-164z" />
    <glyph glyph-name="Sacute" unicode="&#x15a;" horiz-adv-x="1214" 
d="M662 1602l279 360h238l-363 -360h-154zM1064 463q0 -97 -28.5 -177.5t-78.5 -137t-119 -95t-150 -57t-172 -18.5q-163 0 -285 53.5t-174 110.5l102 138q56 -51 155 -96t214 -45q161 0 248.5 76.5t87.5 219.5q0 78 -53 125.5t-197 94.5q-9 3 -43 13t-44 13
q-181 55 -266 133.5t-85 216.5q0 147 72.5 250.5t190.5 152t270 48.5q95 0 171 -14t126 -39.5t79 -47.5t55 -51l-111 -129q-46 50 -128.5 85t-188.5 35q-155 0 -244 -66.5t-89 -203.5q0 -74 46 -115.5t173 -82.5q74 -22 83 -24q213 -66 298 -148t85 -218z" />
    <glyph glyph-name="sacute" unicode="&#x15b;" horiz-adv-x="978" 
d="M856 332q0 -93 -36 -163.5t-96 -111t-129 -60t-143 -19.5q-133 0 -230 40t-147 84l68 137q52 -42 136.5 -76t176.5 -34q43 0 80 8t71 26t53.5 52t19.5 82q0 53 -43 81.5t-163 70.5l-85 30q-56 21 -93 40t-71.5 47.5t-51 68t-16.5 90.5q0 85 35 149.5t94.5 102t129.5 56
t148 18.5q203 0 331 -89l-67 -132q-128 72 -262 72q-106 0 -165 -38t-59 -112q0 -44 30.5 -68t115.5 -56q67 -22 98 -35q56 -21 89 -35t72 -37.5t60 -47.5t35 -60t14 -81zM500 1172l279 360h238l-363 -360h-154z" />
    <glyph glyph-name="Scircumflex" unicode="&#x15c;" horiz-adv-x="1214" 
d="M416 1584l276 347h162l194 -347h-156l-136 218l-190 -218h-150zM1064 463q0 -97 -28.5 -177.5t-78.5 -137t-119 -95t-150 -57t-172 -18.5q-163 0 -285 53.5t-174 110.5l102 138q56 -51 155 -96t214 -45q161 0 248.5 76.5t87.5 219.5q0 78 -53 125.5t-197 94.5
q-9 3 -43 13t-44 13q-181 55 -266 133.5t-85 216.5q0 147 72.5 250.5t190.5 152t270 48.5q95 0 171 -14t126 -39.5t79 -47.5t55 -51l-111 -129q-46 50 -128.5 85t-188.5 35q-155 0 -244 -66.5t-89 -203.5q0 -74 46 -115.5t173 -82.5q74 -22 83 -24q213 -66 298 -148t85 -218
z" />
    <glyph glyph-name="scircumflex" unicode="&#x15d;" horiz-adv-x="978" 
d="M856 332q0 -93 -36 -163.5t-96 -111t-129 -60t-143 -19.5q-133 0 -230 40t-147 84l68 137q52 -42 136.5 -76t176.5 -34q43 0 80 8t71 26t53.5 52t19.5 82q0 53 -43 81.5t-163 70.5l-85 30q-56 21 -93 40t-71.5 47.5t-51 68t-16.5 90.5q0 85 35 149.5t94.5 102t129.5 56
t148 18.5q203 0 331 -89l-67 -132q-128 72 -262 72q-106 0 -165 -38t-59 -112q0 -44 30.5 -68t115.5 -56q67 -22 98 -35q56 -21 89 -35t72 -37.5t60 -47.5t35 -60t14 -81zM254 1154l276 347h162l194 -347h-156l-136 218l-190 -218h-150z" />
    <glyph glyph-name="Scedilla" unicode="&#x15e;" horiz-adv-x="1214" 
d="M776 -265q0 -87 -80 -134.5t-195 -47.5h-4q-93 0 -172 28l24 97q20 -9 65.5 -18t85.5 -9h3q53 0 85 22.5t32 61.5q0 32 -36 55t-113 23h-22l56 196h97l-36 -128q98 -9 154 -47t56 -99zM1064 463q0 -97 -28.5 -177.5t-78.5 -137t-119 -95t-150 -57t-172 -18.5
q-163 0 -285 53.5t-174 110.5l102 138q56 -51 155 -96t214 -45q161 0 248.5 76.5t87.5 219.5q0 78 -53 125.5t-197 94.5q-9 3 -43 13t-44 13q-181 55 -266 133.5t-85 216.5q0 147 72.5 250.5t190.5 152t270 48.5q95 0 171 -14t126 -39.5t79 -47.5t55 -51l-111 -129
q-46 50 -128.5 85t-188.5 35q-155 0 -244 -66.5t-89 -203.5q0 -74 46 -115.5t173 -82.5q74 -22 83 -24q213 -66 298 -148t85 -218z" />
    <glyph glyph-name="scedilla" unicode="&#x15f;" horiz-adv-x="978" 
d="M856 332q0 -93 -36 -163.5t-96 -111t-129 -60t-143 -19.5q-133 0 -230 40t-147 84l68 137q52 -42 136.5 -76t176.5 -34q43 0 80 8t71 26t53.5 52t19.5 82q0 53 -43 81.5t-163 70.5l-85 30q-56 21 -93 40t-71.5 47.5t-51 68t-16.5 90.5q0 85 35 149.5t94.5 102t129.5 56
t148 18.5q203 0 331 -89l-67 -132q-128 72 -262 72q-106 0 -165 -38t-59 -112q0 -44 30.5 -68t115.5 -56q67 -22 98 -35q56 -21 89 -35t72 -37.5t60 -47.5t35 -60t14 -81zM691 -265q0 -87 -80 -134.5t-195 -47.5h-4q-93 0 -172 28l24 97q20 -9 65.5 -18t85.5 -9h3
q53 0 85 22.5t32 61.5q0 32 -36 55t-113 23h-22l56 196h97l-36 -128q98 -9 154 -47t56 -99z" />
    <glyph glyph-name="Scaron" unicode="&#x160;" horiz-adv-x="1214" 
d="M647 1584l-203 351h163l134 -230l192 230h168l-290 -351h-164zM1064 463q0 -97 -28.5 -177.5t-78.5 -137t-119 -95t-150 -57t-172 -18.5q-163 0 -285 53.5t-174 110.5l102 138q56 -51 155 -96t214 -45q161 0 248.5 76.5t87.5 219.5q0 78 -53 125.5t-197 94.5q-9 3 -43 13
t-44 13q-181 55 -266 133.5t-85 216.5q0 147 72.5 250.5t190.5 152t270 48.5q95 0 171 -14t126 -39.5t79 -47.5t55 -51l-111 -129q-46 50 -128.5 85t-188.5 35q-155 0 -244 -66.5t-89 -203.5q0 -74 46 -115.5t173 -82.5q74 -22 83 -24q213 -66 298 -148t85 -218z" />
    <glyph glyph-name="scaron" unicode="&#x161;" horiz-adv-x="978" 
d="M856 332q0 -93 -36 -163.5t-96 -111t-129 -60t-143 -19.5q-133 0 -230 40t-147 84l68 137q52 -42 136.5 -76t176.5 -34q43 0 80 8t71 26t53.5 52t19.5 82q0 53 -43 81.5t-163 70.5l-85 30q-56 21 -93 40t-71.5 47.5t-51 68t-16.5 90.5q0 85 35 149.5t94.5 102t129.5 56
t148 18.5q203 0 331 -89l-67 -132q-128 72 -262 72q-106 0 -165 -38t-59 -112q0 -44 30.5 -68t115.5 -56q67 -22 98 -35q56 -21 89 -35t72 -37.5t60 -47.5t35 -60t14 -81zM484 1154l-203 351h163l134 -230l192 230h168l-290 -351h-164z" />
    <glyph glyph-name="Tcommaaccent" unicode="&#x162;" horiz-adv-x="1144" 
d="M719 -265q0 -87 -80 -134.5t-195 -47.5h-4q-93 0 -172 28l24 97q20 -9 65.5 -18t85.5 -9h3q53 0 85 22.5t32 61.5q0 32 -36 55t-113 23h-22l56 196h97l-36 -128q98 -9 154 -47t56 -99zM386 0l158 1295h-465l20 161h1124l-19 -161h-469l-158 -1295h-191z" />
    <glyph glyph-name="tcommaaccent" unicode="&#x163;" horiz-adv-x="803" 
d="M622 0h-85q-189 2 -266 57.5t-77 195.5q0 50 7 102l67 548h-196l15 123h200l32 264l187 53l-38 -317h278l-16 -123h-277l-69 -558q-5 -43 -5 -68q0 -83 53 -108t207 -25zM678 -259q0 -87 -80 -134.5t-195 -47.5h-4q-93 0 -172 28l24 97q20 -9 65.5 -18t85.5 -9h3
q53 0 85 22.5t32 61.5q0 32 -36 55t-113 23h-22l56 196h97l-36 -128q98 -9 154 -47t56 -99z" />
    <glyph glyph-name="Tcaron" unicode="&#x164;" horiz-adv-x="1144" 
d="M595 1584l-203 351h163l134 -230l192 230h168l-290 -351h-164zM386 0l158 1295h-465l20 161h1124l-19 -161h-469l-158 -1295h-191z" />
    <glyph glyph-name="tcaron" unicode="&#x165;" horiz-adv-x="803" 
d="M622 0h-85q-189 2 -266 57.5t-77 195.5q0 50 7 102l67 548h-196l15 123h200l32 264l187 53l-38 -317h278l-16 -123h-277l-69 -558q-5 -43 -5 -68q0 -83 53 -108t207 -25zM607 1248l167 474h209l-226 -474h-150z" />
    <glyph glyph-name="Tbar" unicode="&#x166;" horiz-adv-x="1144" 
d="M266 686l14 124h585l-15 -124h-584zM386 0l158 1295h-465l20 161h1124l-19 -161h-469l-158 -1295h-191z" />
    <glyph glyph-name="tbar" unicode="&#x167;" horiz-adv-x="803" 
d="M622 0h-85q-189 2 -266 57.5t-77 195.5q0 50 7 102l67 548h-196l15 123h200l32 264l187 53l-38 -317h278l-16 -123h-277l-69 -558q-5 -43 -5 -68q0 -83 53 -108t207 -25zM42 540l14 124h585l-15 -124h-584z" />
    <glyph glyph-name="Utilde" unicode="&#x168;" horiz-adv-x="1495" 
d="M1013 1605q-49 0 -148 50.5t-132 50.5q-61 0 -82 -93h-118q13 106 69.5 169.5t139.5 63.5q44 0 99.5 -25t103.5 -50.5t76 -25.5q30 0 46.5 22t25.5 77h122q-14 -112 -66.5 -175.5t-135.5 -63.5zM653 -22q-511 0 -511 460q0 55 8 122l111 896h191l-111 -900q-6 -51 -6 -95
q0 -322 340 -322q387 0 437 413l111 904h190l-110 -894q-17 -133 -61.5 -237t-121.5 -183.5t-195 -121.5t-272 -42z" />
    <glyph glyph-name="utilde" unicode="&#x169;" horiz-adv-x="1235" 
d="M491 -23q-176 0 -263 90.5t-87 247.5q0 32 5 77l78 634h183l-77 -634q-4 -27 -4 -58q0 -109 46.5 -158t166.5 -49q136 0 221 77t100 199l77 623h184l-95 -772q-8 -67 -22 -254h-187l16 165q-52 -79 -138.5 -133.5t-203.5 -54.5zM847 1175q-49 0 -148 50.5t-132 50.5
q-61 0 -82 -93h-118q13 106 69.5 169.5t139.5 63.5q44 0 99.5 -25t103.5 -50.5t76 -25.5q30 0 46.5 22t25.5 77h122q-14 -112 -66.5 -175.5t-135.5 -63.5z" />
    <glyph glyph-name="Umacron" unicode="&#x16a;" horiz-adv-x="1495" 
d="M592 1672l14 124h585l-15 -124h-584zM653 -22q-511 0 -511 460q0 55 8 122l111 896h191l-111 -900q-6 -51 -6 -95q0 -322 340 -322q387 0 437 413l111 904h190l-110 -894q-17 -133 -61.5 -237t-121.5 -183.5t-195 -121.5t-272 -42z" />
    <glyph glyph-name="umacron" unicode="&#x16b;" horiz-adv-x="1235" 
d="M491 -23q-176 0 -263 90.5t-87 247.5q0 32 5 77l78 634h183l-77 -634q-4 -27 -4 -58q0 -109 46.5 -158t166.5 -49q136 0 221 77t100 199l77 623h184l-95 -772q-8 -67 -22 -254h-187l16 165q-52 -79 -138.5 -133.5t-203.5 -54.5zM426 1242l14 124h585l-15 -124h-584z" />
    <glyph glyph-name="Ubreve" unicode="&#x16c;" horiz-adv-x="1495" 
d="M852 1610q-123 0 -185 56.5t-62 175.5q0 18 1 28h132q0 -3 -0.5 -9t-0.5 -8q0 -61 33.5 -86t97.5 -25q65 0 104.5 29.5t56.5 98.5h129q-51 -260 -306 -260zM653 -22q-511 0 -511 460q0 55 8 122l111 896h191l-111 -900q-6 -51 -6 -95q0 -322 340 -322q387 0 437 413
l111 904h190l-110 -894q-17 -133 -61.5 -237t-121.5 -183.5t-195 -121.5t-272 -42z" />
    <glyph glyph-name="ubreve" unicode="&#x16d;" horiz-adv-x="1235" 
d="M491 -23q-176 0 -263 90.5t-87 247.5q0 32 5 77l78 634h183l-77 -634q-4 -27 -4 -58q0 -109 46.5 -158t166.5 -49q136 0 221 77t100 199l77 623h184l-95 -772q-8 -67 -22 -254h-187l16 165q-52 -79 -138.5 -133.5t-203.5 -54.5zM686 1180q-123 0 -185 56.5t-62 175.5
q0 18 1 28h132q0 -3 -0.5 -9t-0.5 -8q0 -61 33.5 -86t97.5 -25q65 0 104.5 29.5t56.5 98.5h129q-51 -260 -306 -260z" />
    <glyph glyph-name="Uring" unicode="&#x16e;" horiz-adv-x="1495" 
d="M886 1862q-48 0 -84 -36t-36 -87q0 -41 26.5 -69t66.5 -28q48 0 84.5 36t36.5 87q0 42 -26.5 69.5t-67.5 27.5zM1076 1776q0 -94 -68.5 -156.5t-157.5 -62.5q-77 0 -128 48t-51 122q0 95 68 157.5t159 62.5q78 0 128 -48t50 -123zM653 -22q-511 0 -511 460q0 55 8 122
l111 896h191l-111 -900q-6 -51 -6 -95q0 -322 340 -322q387 0 437 413l111 904h190l-110 -894q-17 -133 -61.5 -237t-121.5 -183.5t-195 -121.5t-272 -42z" />
    <glyph glyph-name="uring" unicode="&#x16f;" horiz-adv-x="1235" 
d="M491 -23q-176 0 -263 90.5t-87 247.5q0 32 5 77l78 634h183l-77 -634q-4 -27 -4 -58q0 -109 46.5 -158t166.5 -49q136 0 221 77t100 199l77 623h184l-95 -772q-8 -67 -22 -254h-187l16 165q-52 -79 -138.5 -133.5t-203.5 -54.5zM720 1432q-48 0 -84 -36t-36 -87
q0 -41 26.5 -69t66.5 -28q48 0 84.5 36t36.5 87q0 42 -26.5 69.5t-67.5 27.5zM910 1346q0 -94 -68.5 -156.5t-157.5 -62.5q-77 0 -128 48t-51 122q0 95 68 157.5t159 62.5q78 0 128 -48t50 -123z" />
    <glyph glyph-name="Uhungarumlaut" unicode="&#x170;" horiz-adv-x="1495" 
d="M656 1590l258 372h198l-323 -372h-133zM981 1590l285 372h209l-358 -372h-136zM653 -22q-511 0 -511 460q0 55 8 122l111 896h191l-111 -900q-6 -51 -6 -95q0 -322 340 -322q387 0 437 413l111 904h190l-110 -894q-17 -133 -61.5 -237t-121.5 -183.5t-195 -121.5
t-272 -42z" />
    <glyph glyph-name="uhungarumlaut" unicode="&#x171;" horiz-adv-x="1235" 
d="M491 -23q-176 0 -263 90.5t-87 247.5q0 32 5 77l78 634h183l-77 -634q-4 -27 -4 -58q0 -109 46.5 -158t166.5 -49q136 0 221 77t100 199l77 623h184l-95 -772q-8 -67 -22 -254h-187l16 165q-52 -79 -138.5 -133.5t-203.5 -54.5zM490 1160l258 372h198l-323 -372h-133z
M815 1160l285 372h209l-358 -372h-136z" />
    <glyph glyph-name="Uogonek" unicode="&#x172;" horiz-adv-x="1495" 
d="M778 10q-80 -48 -136 -117.5t-56 -126.5q0 -73 104 -73q47 0 137 23l-14 -112q-92 -28 -178 -28q-93 0 -153 39.5t-60 113.5q0 14 1 21q7 54 49 108t92.5 91t108.5 66zM653 -22q-511 0 -511 460q0 55 8 122l111 896h191l-111 -900q-6 -51 -6 -95q0 -322 340 -322
q387 0 437 413l111 904h190l-110 -894q-17 -133 -61.5 -237t-121.5 -183.5t-195 -121.5t-272 -42z" />
    <glyph glyph-name="uogonek" unicode="&#x173;" horiz-adv-x="1235" 
d="M491 -23q-176 0 -263 90.5t-87 247.5q0 32 5 77l78 634h183l-77 -634q-4 -27 -4 -58q0 -109 46.5 -158t166.5 -49q136 0 221 77t100 199l77 623h184l-95 -772q-8 -67 -22 -254h-187l16 165q-52 -79 -138.5 -133.5t-203.5 -54.5zM984 10q-80 -48 -136 -117.5t-56 -126.5
q0 -73 104 -73q47 0 137 23l-14 -112q-92 -28 -178 -28q-93 0 -153 39.5t-60 113.5q0 14 1 21q7 54 49 108t92.5 91t108.5 66z" />
    <glyph glyph-name="Wcircumflex" unicode="&#x174;" horiz-adv-x="2022" 
d="M815 1584l276 347h162l194 -347h-156l-136 218l-190 -218h-150zM351 0l-220 1456h205l134 -1004l25 -235q74 186 160.5 394t192 455.5t164.5 389.5h191l181 -1011l37 -225q64 185 140 393t167.5 454t143.5 389h197l-565 -1456h-223l-208 1199l-502 -1199h-220z" />
    <glyph glyph-name="wcircumflex" unicode="&#x175;" horiz-adv-x="1636" 
d="M309 0l-215 1026h196q15 -85 66 -370t80 -440q125 270 373 810h179q110 -540 164 -811q66 158 337 811h179l-467 -1026h-173q-148 707 -167 803q-27 -57 -380 -803h-172zM606 1154l276 347h162l194 -347h-156l-136 218l-190 -218h-150z" />
    <glyph glyph-name="Ycircumflex" unicode="&#x176;" horiz-adv-x="1239" 
d="M433 1584l276 347h162l194 -347h-156l-136 218l-190 -218h-150zM433 0l71 575l-394 881h212l302 -713l478 713h213l-620 -878l-70 -578h-192z" />
    <glyph glyph-name="ycircumflex" unicode="&#x177;" horiz-adv-x="1065" 
d="M119 -433l-59 126q258 82 342 263l23 52l-294 1018h192l216 -820l399 820h185l-547 -1080q-73 -145 -191 -244t-266 -135zM343 1154l276 347h162l194 -347h-156l-136 218l-190 -218h-150z" />
    <glyph glyph-name="Ydieresis" unicode="&#x178;" horiz-adv-x="1239" 
d="M454 1612l24 189h186l-23 -189h-187zM857 1612l24 189h186l-24 -189h-186zM433 0l71 575l-394 881h212l302 -713l478 713h213l-620 -878l-70 -578h-192z" />
    <glyph glyph-name="Zacute" unicode="&#x179;" horiz-adv-x="1184" 
d="M649 1602l279 360h238l-363 -360h-154zM8 0l13 103l884 1192h-708l20 161h963l-12 -99l-891 -1196h740l-19 -161h-990z" />
    <glyph glyph-name="zacute" unicode="&#x17a;" horiz-adv-x="969" 
d="M41 0l12 100l632 777h-520l18 149h757l-11 -98l-632 -780h551l-18 -148h-789zM518 1172l279 360h238l-363 -360h-154z" />
    <glyph glyph-name="Zdotaccent" unicode="&#x17b;" horiz-adv-x="1184" 
d="M631 1686l22 182h188l-22 -182h-188zM8 0l13 103l884 1192h-708l20 161h963l-12 -99l-891 -1196h740l-19 -161h-990z" />
    <glyph glyph-name="zdotaccent" unicode="&#x17c;" horiz-adv-x="969" 
d="M41 0l12 100l632 777h-520l18 149h757l-11 -98l-632 -780h551l-18 -148h-789zM501 1256l22 182h188l-22 -182h-188z" />
    <glyph glyph-name="Zcaron" unicode="&#x17d;" horiz-adv-x="1184" 
d="M634 1584l-203 351h163l134 -230l192 230h168l-290 -351h-164zM8 0l13 103l884 1192h-708l20 161h963l-12 -99l-891 -1196h740l-19 -161h-990z" />
    <glyph glyph-name="zcaron" unicode="&#x17e;" horiz-adv-x="969" 
d="M41 0l12 100l632 777h-520l18 149h757l-11 -98l-632 -780h551l-18 -148h-789zM503 1154l-203 351h163l134 -230l192 230h168l-290 -351h-164z" />
    <glyph glyph-name="longs" unicode="&#x17f;" horiz-adv-x="978" 
d="M856 332q0 -93 -36 -163.5t-96 -111t-129 -60t-143 -19.5q-133 0 -230 40t-147 84l68 137q52 -42 136.5 -76t176.5 -34q43 0 80 8t71 26t53.5 52t19.5 82q0 53 -43 81.5t-163 70.5l-85 30q-56 21 -93 40t-71.5 47.5t-51 68t-16.5 90.5q0 85 35 149.5t94.5 102t129.5 56
t148 18.5q203 0 331 -89l-67 -132q-128 72 -262 72q-106 0 -165 -38t-59 -112q0 -44 30.5 -68t115.5 -56q67 -22 98 -35q56 -21 89 -35t72 -37.5t60 -47.5t35 -60t14 -81z" />
    <glyph glyph-name="florin" unicode="&#x192;" horiz-adv-x="1070" 
d="M93 -299q-45 0 -103 17l29 125q36 -10 69 -10q143 0 203 201l237 781h-153l37 120h151l59 191q17 57 35 101t49.5 91.5t69.5 78.5t95.5 51.5t127.5 20.5q40 0 79 -8.5t58 -16.5l19 -9l-32 -122q-62 20 -114 20q-78 0 -124.5 -42t-76.5 -134l-72 -222h214l-38 -120h-212
l-220 -729q-24 -81 -46 -136.5t-54 -106t-70.5 -79.5t-92.5 -46t-124 -17z" />
    <glyph glyph-name="uni01C4" unicode="&#x1c4;" horiz-adv-x="2723" 
d="M2173 1584l-203 351h163l134 -230l192 230h168l-290 -351h-164zM1547 0l13 103l884 1192h-708l20 161h963l-12 -99l-891 -1196h740l-19 -161h-990zM323 161h243q292 0 459 147.5t200 417.5q8 64 8 113q0 232 -145.5 344t-440.5 112h-185zM113 0l178 1456h358
q786 0 786 -600q0 -70 -8 -130q-42 -348 -272 -537t-619 -189h-423z" />
    <glyph glyph-name="uni01C5" unicode="&#x1c5;" horiz-adv-x="2508" 
d="M1580 0l12 100l632 777h-520l18 149h757l-11 -98l-632 -780h551l-18 -148h-789zM2042 1154l-203 351h163l134 -230l192 230h168l-290 -351h-164zM323 161h243q292 0 459 147.5t200 417.5q8 64 8 113q0 232 -145.5 344t-440.5 112h-185zM113 0l178 1456h358
q786 0 786 -600q0 -70 -8 -130q-42 -348 -272 -537t-619 -189h-423z" />
    <glyph glyph-name="uni01C6" unicode="&#x1c6;" horiz-adv-x="2233" 
d="M1305 0l12 100l632 777h-520l18 149h757l-11 -98l-632 -780h551l-18 -148h-789zM1767 1154l-203 351h163l134 -230l192 230h168l-290 -351h-164zM478 -22q-186 0 -298 119t-112 322q0 43 6 91q29 241 176 391.5t369 150.5q118 0 200 -53t107 -127l75 614h184l-150 -1220
q-18 -188 -25 -266h-187l18 174q-42 -80 -137.5 -138t-225.5 -58zM621 902q-161 0 -261.5 -131t-100.5 -334q0 -141 68.5 -225t194.5 -84q151 0 247 107t118 287q5 42 5 72q0 139 -70.5 223.5t-200.5 84.5z" />
    <glyph glyph-name="uni01C7" unicode="&#x1c7;" horiz-adv-x="1895" 
d="M113 0l178 1456h191l-159 -1295h677l-19 -161h-868zM1228 -326q-108 0 -230 42l45 150q103 -31 180 -31q111 0 160 65.5t68 219.5l164 1336h192l-165 -1335q-28 -231 -131 -339t-283 -108z" />
    <glyph glyph-name="uni01C8" unicode="&#x1c8;" horiz-adv-x="1612" 
d="M1380 1277l22 179h182l-22 -179h-182zM1024 -423q-64 0 -125 12l18 151q52 -12 86 -12q95 0 151 75t75 233l121 990h184l-113 -922q-8 -65 -19.5 -120t-31 -118.5t-49.5 -112.5t-70.5 -90t-98.5 -63.5t-128 -22.5zM113 0l178 1456h191l-159 -1295h677l-19 -161h-868z" />
    <glyph glyph-name="uni01C9" unicode="&#x1c9;" horiz-adv-x="1029" 
d="M86 0l182 1486h185l-183 -1486h-184zM797 1277l22 179h182l-22 -179h-182zM441 -423q-64 0 -125 12l18 151q52 -12 86 -12q95 0 151 75t75 233l121 990h184l-113 -922q-8 -65 -19.5 -120t-31 -118.5t-49.5 -112.5t-70.5 -90t-98.5 -63.5t-128 -22.5z" />
    <glyph glyph-name="uni01CA" unicode="&#x1ca;" horiz-adv-x="2384" 
d="M113 0l178 1456h203l577 -1024l86 -170l147 1194h182l-178 -1456h-204l-564 986l-102 200l-146 -1186h-179zM1717 -326q-108 0 -230 42l45 150q103 -31 180 -31q111 0 160 65.5t68 219.5l164 1336h192l-165 -1335q-28 -231 -131 -339t-283 -108z" />
    <glyph glyph-name="uni01CB" unicode="&#x1cb;" horiz-adv-x="2101" 
d="M1869 1277l22 179h182l-22 -179h-182zM1513 -423q-64 0 -125 12l18 151q52 -12 86 -12q95 0 151 75t75 233l121 990h184l-113 -922q-8 -65 -19.5 -120t-31 -118.5t-49.5 -112.5t-70.5 -90t-98.5 -63.5t-128 -22.5zM113 0l178 1456h203l577 -1024l86 -170l147 1194h182
l-178 -1456h-204l-564 986l-102 200l-146 -1186h-179z" />
    <glyph glyph-name="uni01CC" unicode="&#x1cc;" horiz-adv-x="1747" 
d="M112 0l91 742q9 68 15 139t8 108l1 37h190l-17 -161q63 88 165 137.5t208 49.5q167 0 247.5 -87.5t80.5 -264.5q0 -52 -8 -122l-72 -578h-184l71 577q7 55 7 108q0 110 -44.5 163.5t-148.5 53.5q-116 0 -220.5 -78.5t-125.5 -180.5l-79 -643h-185zM1515 1277l22 179h182
l-22 -179h-182zM1159 -423q-64 0 -125 12l18 151q52 -12 86 -12q95 0 151 75t75 233l121 990h184l-113 -922q-8 -65 -19.5 -120t-31 -118.5t-49.5 -112.5t-70.5 -90t-98.5 -63.5t-128 -22.5z" />
    <glyph glyph-name="uni01CD" unicode="&#x1cd;" 
d="M722 1584l-203 351h163l134 -230l192 230h168l-290 -351h-164zM-58 0l743 1456h204l390 -1456h-209l-102 389h-623l-195 -389h-208zM416 545h514q-103 437 -169 711z" />
    <glyph glyph-name="uni01CE" unicode="&#x1ce;" horiz-adv-x="1273" 
d="M590 1154l-203 351h163l134 -230l192 230h168l-290 -351h-164zM523 -22q-205 0 -316.5 127t-111.5 324q0 37 5 84q19 150 92.5 271.5t194.5 194.5t268 73q109 0 192 -53t119 -136l20 163h182l-126 -1026h-184l22 175q-57 -92 -150 -144.5t-207 -52.5zM660 902
q-177 0 -277.5 -129.5t-100.5 -330.5q0 -142 72 -228t214 -86q153 0 246.5 106.5t115.5 286.5q5 43 5 74q0 139 -70.5 223t-204.5 84z" />
    <glyph glyph-name="uni01CF" unicode="&#x1cf;" horiz-adv-x="602" 
d="M345 1584l-203 351h163l134 -230l192 230h168l-290 -351h-164zM129 0l178 1456h191l-178 -1456h-191z" />
    <glyph glyph-name="uni01D0" unicode="&#x1d0;" horiz-adv-x="534" 
d="M114 0l125 1026h185l-125 -1026h-185zM265 1154l-203 351h163l134 -230l192 230h168l-290 -351h-164z" />
    <glyph glyph-name="uni01D1" unicode="&#x1d1;" horiz-adv-x="1626" 
d="M841 1584l-203 351h163l134 -230l192 230h168l-290 -351h-164zM888 1321q-176 0 -310 -92t-204.5 -253t-70.5 -367q0 -221 112 -345.5t326 -124.5q244 0 390.5 157.5t180.5 432.5q8 66 8 120q0 218 -110 345t-322 127zM724 -22q-297 0 -461 166t-164 454q0 71 8 131
q27 223 131.5 392.5t278 265t393.5 95.5q289 0 453 -169.5t164 -455.5q0 -69 -8 -128q-42 -344 -254.5 -547.5t-540.5 -203.5z" />
    <glyph glyph-name="uni01D2" unicode="&#x1d2;" horiz-adv-x="1258" 
d="M677 902q-177 0 -283 -129t-106 -334q0 -143 75 -227t221 -84q178 0 281.5 128t103.5 332q0 145 -74.5 229.5t-217.5 84.5zM565 -22q-224 0 -347 122t-123 325q0 42 6 87q29 242 189 391t409 149q224 0 344 -122t120 -327q0 -45 -6 -91q-29 -238 -187.5 -386t-404.5 -148
zM631 1154l-203 351h163l134 -230l192 230h168l-290 -351h-164z" />
    <glyph glyph-name="uni01D3" unicode="&#x1d3;" horiz-adv-x="1495" 
d="M773 1584l-203 351h163l134 -230l192 230h168l-290 -351h-164zM653 -22q-511 0 -511 460q0 55 8 122l111 896h191l-111 -900q-6 -51 -6 -95q0 -322 340 -322q387 0 437 413l111 904h190l-110 -894q-17 -133 -61.5 -237t-121.5 -183.5t-195 -121.5t-272 -42z" />
    <glyph glyph-name="uni01D4" unicode="&#x1d4;" horiz-adv-x="1235" 
d="M491 -23q-176 0 -263 90.5t-87 247.5q0 32 5 77l78 634h183l-77 -634q-4 -27 -4 -58q0 -109 46.5 -158t166.5 -49q136 0 221 77t100 199l77 623h184l-95 -772q-8 -67 -22 -254h-187l16 165q-52 -79 -138.5 -133.5t-203.5 -54.5zM607 1154l-203 351h163l134 -230l192 230
h168l-290 -351h-164z" />
    <glyph glyph-name="uni01E2" unicode="&#x1e2;" horiz-adv-x="2062" 
d="M1193 1672l14 124h585l-15 -124h-584zM-64 0l1022 1456h1018l-20 -165h-689l-18 -462h618l-19 -158h-601l-17 -508h613l-20 -163h-794l14 401h-612l-277 -401h-218zM524 548h523l36 743h-47z" />
    <glyph glyph-name="uni01E3" unicode="&#x1e3;" horiz-adv-x="1791" 
d="M719 1242l14 124h585l-15 -124h-584zM1219 -22q-138 0 -236.5 66.5t-137.5 181.5q-65 -111 -182 -180.5t-261 -69.5q-159 0 -253 70.5t-94 196.5q0 21 3 42q9 70 35 123.5t71 89.5t99.5 59.5t132 36t155.5 17t182 4.5h69q3 29 3 54q0 108 -58 171.5t-168 63.5
q-147 0 -332 -82l-39 130q189 101 415 101q110 0 200 -56.5t115 -156.5q69 99 169.5 156t216.5 57q184 0 280.5 -113.5t96.5 -309.5q0 -68 -13 -144h-715l-3 -27q-2 -34 -2 -48q0 -133 68 -208t209 -75q82 0 164 28t123 56l42 27l38 -134q-6 -5 -18 -13.5t-51.5 -30.5
t-82 -39t-108.5 -30.5t-133 -13.5zM434 126q80 0 144.5 30t106.5 81.5t67.5 114t34.5 133.5h-152q-83 0 -147.5 -9t-119.5 -29.5t-87.5 -59t-39.5 -93.5q-1 -8 -1 -23q0 -74 54 -109.5t140 -35.5zM1543 612q1 8 1 25q0 120 -60.5 194t-173.5 74q-122 0 -205.5 -84.5
t-114.5 -208.5h553z" />
    <glyph glyph-name="Gcaron" unicode="&#x1e6;" horiz-adv-x="1527" 
d="M857 1584l-203 351h163l134 -230l192 230h168l-290 -351h-164zM937 1321q-135 0 -253.5 -54t-203.5 -147.5t-134 -226.5t-49 -285q0 -218 122 -343.5t360 -125.5q182 0 325 52l50 412h-367l20 163h558l-84 -682q-245 -106 -529 -106q-317 0 -486 160.5t-169 441.5
q0 55 8 124q28 224 144 401t300 277t404 100q283 0 462 -146l-94 -133q-158 118 -384 118z" />
    <glyph glyph-name="gcaron" unicode="&#x1e7;" horiz-adv-x="1267" 
d="M481 -418q-202 0 -369 87l48 159q160 -97 332 -97q164 0 265 88t122 266l13 107q-52 -77 -140 -127.5t-206 -50.5q-193 0 -309.5 112.5t-116.5 308.5q0 34 5 81q30 240 175 388t373 148q116 0 192 -50t112 -128l22 152h190q-33 -166 -46 -276l-75 -610
q-15 -122 -57.5 -222t-113 -176t-176.5 -118t-240 -42zM679 902q-163 0 -265.5 -129t-102.5 -329q0 -137 68 -211.5t196 -74.5q171 0 270 124.5t99 322.5q0 138 -69 217.5t-196 79.5zM574 1154l-203 351h163l134 -230l192 230h168l-290 -351h-164z" />
    <glyph glyph-name="uni01E8" unicode="&#x1e8;" horiz-adv-x="1295" 
d="M695 1584l-203 351h163l134 -230l192 230h168l-290 -351h-164zM113 0l178 1456h191l-80 -656l707 656h237l-759 -701l629 -755h-242l-585 692l-85 -692h-191z" />
    <glyph glyph-name="uni01E9" unicode="&#x1e9;" horiz-adv-x="1111" 
d="M82 0l183 1486h184l-110 -899l498 439h253l-580 -489l490 -537h-245l-429 485l-59 -485h-185zM665 1154l-203 351h163l134 -230l192 230h168l-290 -351h-164z" />
    <glyph glyph-name="uni01EA" unicode="&#x1ea;" horiz-adv-x="1626" 
d="M852 10q-80 -48 -136 -117.5t-56 -126.5q0 -73 104 -73q47 0 137 23l-14 -112q-92 -28 -178 -28q-93 0 -153 39.5t-60 113.5q0 14 1 21q7 54 49 108t92.5 91t108.5 66zM888 1321q-176 0 -310 -92t-204.5 -253t-70.5 -367q0 -221 112 -345.5t326 -124.5q244 0 390.5 157.5
t180.5 432.5q8 66 8 120q0 218 -110 345t-322 127zM724 -22q-297 0 -461 166t-164 454q0 71 8 131q27 223 131.5 392.5t278 265t393.5 95.5q289 0 453 -169.5t164 -455.5q0 -69 -8 -128q-42 -344 -254.5 -547.5t-540.5 -203.5z" />
    <glyph glyph-name="uni01EB" unicode="&#x1eb;" horiz-adv-x="1258" 
d="M649 10q-80 -48 -136 -117.5t-56 -126.5q0 -73 104 -73q47 0 137 23l-14 -112q-92 -28 -178 -28q-93 0 -153 39.5t-60 113.5q0 14 1 21q7 54 49 108t92.5 91t108.5 66zM677 902q-177 0 -283 -129t-106 -334q0 -143 75 -227t221 -84q178 0 281.5 128t103.5 332
q0 145 -74.5 229.5t-217.5 84.5zM565 -22q-224 0 -347 122t-123 325q0 42 6 87q29 242 189 391t409 149q224 0 344 -122t120 -327q0 -45 -6 -91q-29 -238 -187.5 -386t-404.5 -148z" />
    <glyph glyph-name="uni01F0" unicode="&#x1f0;" horiz-adv-x="510" 
d="M-85 -423q-64 0 -125 12l18 151q52 -12 86 -12q95 0 151 75t75 233l121 990h184l-113 -922q-8 -65 -19.5 -120t-31 -118.5t-49.5 -112.5t-70.5 -90t-98.5 -63.5t-128 -22.5zM282 1154l-203 351h163l134 -230l192 230h168l-290 -351h-164z" />
    <glyph glyph-name="uni01F1" unicode="&#x1f1;" horiz-adv-x="2724" 
d="M1547 0l13 103l884 1192h-708l20 161h963l-12 -99l-891 -1196h740l-19 -161h-990zM323 161h243q292 0 459 147.5t200 417.5q8 64 8 113q0 232 -145.5 344t-440.5 112h-185zM113 0l178 1456h358q786 0 786 -600q0 -70 -8 -130q-42 -348 -272 -537t-619 -189h-423z" />
    <glyph glyph-name="uni01F2" unicode="&#x1f2;" horiz-adv-x="2508" 
d="M1580 0l12 100l632 777h-520l18 149h757l-11 -98l-632 -780h551l-18 -148h-789zM323 161h243q292 0 459 147.5t200 417.5q8 64 8 113q0 232 -145.5 344t-440.5 112h-185zM113 0l178 1456h358q786 0 786 -600q0 -70 -8 -130q-42 -348 -272 -537t-619 -189h-423z" />
    <glyph glyph-name="uni01F3" unicode="&#x1f3;" horiz-adv-x="2233" 
d="M1305 0l12 100l632 777h-520l18 149h757l-11 -98l-632 -780h551l-18 -148h-789zM478 -22q-186 0 -298 119t-112 322q0 43 6 91q29 241 176 391.5t369 150.5q118 0 200 -53t107 -127l75 614h184l-150 -1220q-18 -188 -25 -266h-187l18 174q-42 -80 -137.5 -138t-225.5 -58
zM621 902q-161 0 -261.5 -131t-100.5 -334q0 -141 68.5 -225t194.5 -84q151 0 247 107t118 287q5 42 5 72q0 139 -70.5 223.5t-200.5 84.5z" />
    <glyph glyph-name="uni01F4" unicode="&#x1f4;" horiz-adv-x="1527" 
d="M872 1602l279 360h238l-363 -360h-154zM937 1321q-135 0 -253.5 -54t-203.5 -147.5t-134 -226.5t-49 -285q0 -218 122 -343.5t360 -125.5q182 0 325 52l50 412h-367l20 163h558l-84 -682q-245 -106 -529 -106q-317 0 -486 160.5t-169 441.5q0 55 8 124q28 224 144 401
t300 277t404 100q283 0 462 -146l-94 -133q-158 118 -384 118z" />
    <glyph glyph-name="uni01F5" unicode="&#x1f5;" horiz-adv-x="1267" 
d="M481 -418q-202 0 -369 87l48 159q160 -97 332 -97q164 0 265 88t122 266l13 107q-52 -77 -140 -127.5t-206 -50.5q-193 0 -309.5 112.5t-116.5 308.5q0 34 5 81q30 240 175 388t373 148q116 0 192 -50t112 -128l22 152h190q-33 -166 -46 -276l-75 -610
q-15 -122 -57.5 -222t-113 -176t-176.5 -118t-240 -42zM679 902q-163 0 -265.5 -129t-102.5 -329q0 -137 68 -211.5t196 -74.5q171 0 270 124.5t99 322.5q0 138 -69 217.5t-196 79.5zM589 1172l279 360h238l-363 -360h-154z" />
    <glyph glyph-name="uni01F8" unicode="&#x1f8;" horiz-adv-x="1598" 
d="M836 1603l-293 360h240l206 -360h-153zM113 0l178 1456h203l577 -1024l86 -170l147 1194h182l-178 -1456h-204l-564 986l-102 200l-146 -1186h-179z" />
    <glyph glyph-name="uni01F9" unicode="&#x1f9;" horiz-adv-x="1244" 
d="M112 0l91 742q9 68 15 139t8 108l1 37h190l-17 -161q63 88 165 137.5t208 49.5q167 0 247.5 -87.5t80.5 -264.5q0 -52 -8 -122l-72 -578h-184l71 577q7 55 7 108q0 110 -44.5 163.5t-148.5 53.5q-116 0 -220.5 -78.5t-125.5 -180.5l-79 -643h-185zM684 1173l-293 360h240
l206 -360h-153z" />
    <glyph glyph-name="Aringacute" unicode="&#x1fa;" 
d="M836 1862q-48 0 -84 -36t-36 -87q0 -41 26.5 -69t66.5 -28q48 0 84.5 36t36.5 87q0 42 -26.5 69.5t-67.5 27.5zM1026 1776q0 -94 -68.5 -156.5t-157.5 -62.5q-77 0 -128 48t-51 122q0 95 68 157.5t159 62.5q78 0 128 -48t50 -123zM792 2052l279 360h238l-363 -360h-154z
M-58 0l743 1456h204l390 -1456h-209l-102 389h-623l-195 -389h-208zM416 545h514q-103 437 -169 711z" />
    <glyph glyph-name="aringacute" unicode="&#x1fb;" horiz-adv-x="1273" 
d="M704 1432q-48 0 -84 -36t-36 -87q0 -41 26.5 -69t66.5 -28q48 0 84.5 36t36.5 87q0 42 -26.5 69.5t-67.5 27.5zM894 1346q0 -94 -68.5 -156.5t-157.5 -62.5q-77 0 -128 48t-51 122q0 95 68 157.5t159 62.5q78 0 128 -48t50 -123zM660 1622l279 360h238l-363 -360h-154z
M523 -22q-205 0 -316.5 127t-111.5 324q0 37 5 84q19 150 92.5 271.5t194.5 194.5t268 73q109 0 192 -53t119 -136l20 163h182l-126 -1026h-184l22 175q-57 -92 -150 -144.5t-207 -52.5zM660 902q-177 0 -277.5 -129.5t-100.5 -330.5q0 -142 72 -228t214 -86
q153 0 246.5 106.5t115.5 286.5q5 43 5 74q0 139 -70.5 223t-204.5 84z" />
    <glyph glyph-name="AEacute" unicode="&#x1fc;" horiz-adv-x="2062" 
d="M1389 1602l279 360h238l-363 -360h-154zM-64 0l1022 1456h1018l-20 -165h-689l-18 -462h618l-19 -158h-601l-17 -508h613l-20 -163h-794l14 401h-612l-277 -401h-218zM524 548h523l36 743h-47z" />
    <glyph glyph-name="aeacute" unicode="&#x1fd;" horiz-adv-x="1791" 
d="M1219 -22q-138 0 -236.5 66.5t-137.5 181.5q-65 -111 -182 -180.5t-261 -69.5q-159 0 -253 70.5t-94 196.5q0 21 3 42q9 70 35 123.5t71 89.5t99.5 59.5t132 36t155.5 17t182 4.5h69q3 29 3 54q0 108 -58 171.5t-168 63.5q-147 0 -332 -82l-39 130q189 101 415 101
q110 0 200 -56.5t115 -156.5q69 99 169.5 156t216.5 57q184 0 280.5 -113.5t96.5 -309.5q0 -68 -13 -144h-715l-3 -27q-2 -34 -2 -48q0 -133 68 -208t209 -75q82 0 164 28t123 56l42 27l38 -134q-6 -5 -18 -13.5t-51.5 -30.5t-82 -39t-108.5 -30.5t-133 -13.5zM434 126
q80 0 144.5 30t106.5 81.5t67.5 114t34.5 133.5h-152q-83 0 -147.5 -9t-119.5 -29.5t-87.5 -59t-39.5 -93.5q-1 -8 -1 -23q0 -74 54 -109.5t140 -35.5zM1543 612q1 8 1 25q0 120 -60.5 194t-173.5 74q-122 0 -205.5 -84.5t-114.5 -208.5h553zM915 1172l279 360h238
l-363 -360h-154z" />
    <glyph glyph-name="Oslashacute" unicode="&#x1fe;" horiz-adv-x="1626" 
d="M856 1602l279 360h238l-363 -360h-154zM318 -131l-87 48l108 164q-117 79 -178.5 211t-61.5 306q0 71 8 131q27 223 131.5 392.5t278 265t393.5 95.5q175 0 309 -66l102 156l86 -47l-105 -159q110 -81 167.5 -211.5t57.5 -297.5q0 -69 -8 -128q-42 -344 -254.5 -547.5
t-540.5 -203.5q-167 0 -298 56zM741 139q244 0 390.5 157.5t180.5 432.5q8 66 8 120q0 235 -122 358l-674 -1024q91 -44 217 -44zM888 1321q-176 0 -310 -92t-204.5 -253t-70.5 -367q0 -250 139 -372l678 1030q-96 54 -232 54z" />
    <glyph glyph-name="oslashacute" unicode="&#x1ff;" horiz-adv-x="1254" 
d="M677 902q-177 0 -283 -129t-106 -334q0 -167 99 -250l401 697q-48 16 -111 16zM584 128q178 0 281.5 128t103.5 332q0 171 -101 254l-401 -696q51 -18 117 -18zM260 -214l-83 38l124 215q-101 56 -153.5 155.5t-52.5 230.5q0 42 6 87q29 242 189 391t409 149
q94 0 172 -23l114 198l83 -38l-112 -195q102 -55 154.5 -155.5t52.5 -235.5q0 -45 -6 -91q-29 -238 -187.5 -386t-404.5 -148q-97 0 -180 25zM646 1172l279 360h238l-363 -360h-154z" />
    <glyph glyph-name="uni0200" unicode="&#x200;" 
d="M591 1604l-260 393h180l204 -393h-124zM933 1604l-235 393h180l177 -393h-122zM-58 0l743 1456h204l390 -1456h-209l-102 389h-623l-195 -389h-208zM416 545h514q-103 437 -169 711z" />
    <glyph glyph-name="uni0201" unicode="&#x201;" horiz-adv-x="1273" 
d="M459 1174l-260 393h180l204 -393h-124zM801 1174l-235 393h180l177 -393h-122zM523 -22q-205 0 -316.5 127t-111.5 324q0 37 5 84q19 150 92.5 271.5t194.5 194.5t268 73q109 0 192 -53t119 -136l20 163h182l-126 -1026h-184l22 175q-57 -92 -150 -144.5t-207 -52.5z
M660 902q-177 0 -277.5 -129.5t-100.5 -330.5q0 -142 72 -228t214 -86q153 0 246.5 106.5t115.5 286.5q5 43 5 74q0 139 -70.5 223t-204.5 84z" />
    <glyph glyph-name="uni0202" unicode="&#x202;" 
d="M543 1627q22 111 108.5 173t190.5 62q100 0 170 -58t70 -162v-15h-99q-1 61 -45.5 95t-106.5 34t-116 -34t-71 -95h-101zM-58 0l743 1456h204l390 -1456h-209l-102 389h-623l-195 -389h-208zM416 545h514q-103 437 -169 711z" />
    <glyph glyph-name="uni0203" unicode="&#x203;" horiz-adv-x="1273" 
d="M411 1197q22 111 108.5 173t190.5 62q100 0 170 -58t70 -162v-15h-99q-1 61 -45.5 95t-106.5 34t-116 -34t-71 -95h-101zM523 -22q-205 0 -316.5 127t-111.5 324q0 37 5 84q19 150 92.5 271.5t194.5 194.5t268 73q109 0 192 -53t119 -136l20 163h182l-126 -1026h-184
l22 175q-57 -92 -150 -144.5t-207 -52.5zM660 902q-177 0 -277.5 -129.5t-100.5 -330.5q0 -142 72 -228t214 -86q153 0 246.5 106.5t115.5 286.5q5 43 5 74q0 139 -70.5 223t-204.5 84z" />
    <glyph glyph-name="uni0204" unicode="&#x204;" horiz-adv-x="1205" 
d="M538 1604l-260 393h180l204 -393h-124zM880 1604l-235 393h180l177 -393h-122zM113 0l178 1456h872l-20 -161h-681l-56 -458h643l-19 -162h-643l-63 -514h710l-20 -161h-901z" />
    <glyph glyph-name="uni0205" unicode="&#x205;" horiz-adv-x="1166" 
d="M457 1174l-260 393h180l204 -393h-124zM799 1174l-235 393h180l177 -393h-122zM1063 633q0 -83 -16 -146h-759q-3 -28 -3 -56q0 -146 84 -224.5t228 -78.5q183 0 339 114l39 -136q-180 -128 -407 -128q-222 0 -347.5 120.5t-125.5 325.5q0 180 75.5 324t207 224t294.5 80
q192 0 291.5 -113.5t99.5 -305.5zM308 613h589q0 5 0.5 13.5t0.5 12.5q0 130 -62.5 198.5t-176.5 68.5q-126 0 -220 -78t-131 -215z" />
    <glyph glyph-name="uni0206" unicode="&#x206;" horiz-adv-x="1205" 
d="M489 1627q22 111 108.5 173t190.5 62q100 0 170 -58t70 -162v-15h-99q-1 61 -45.5 95t-106.5 34t-116 -34t-71 -95h-101zM113 0l178 1456h872l-20 -161h-681l-56 -458h643l-19 -162h-643l-63 -514h710l-20 -161h-901z" />
    <glyph glyph-name="uni0207" unicode="&#x207;" horiz-adv-x="1166" 
d="M409 1197q22 111 108.5 173t190.5 62q100 0 170 -58t70 -162v-15h-99q-1 61 -45.5 95t-106.5 34t-116 -34t-71 -95h-101zM1063 633q0 -83 -16 -146h-759q-3 -28 -3 -56q0 -146 84 -224.5t228 -78.5q183 0 339 114l39 -136q-180 -128 -407 -128q-222 0 -347.5 120.5
t-125.5 325.5q0 180 75.5 324t207 224t294.5 80q192 0 291.5 -113.5t99.5 -305.5zM308 613h589q0 5 0.5 13.5t0.5 12.5q0 130 -62.5 198.5t-176.5 68.5q-126 0 -220 -78t-131 -215z" />
    <glyph glyph-name="uni0208" unicode="&#x208;" horiz-adv-x="602" 
d="M214 1604l-260 393h180l204 -393h-124zM556 1604l-235 393h180l177 -393h-122zM129 0l178 1456h191l-178 -1456h-191z" />
    <glyph glyph-name="uni0209" unicode="&#x209;" horiz-adv-x="533" 
d="M135 1174l-260 393h180l204 -393h-124zM477 1174l-235 393h180l177 -393h-122zM114 0l125 1026h185l-125 -1026h-185z" />
    <glyph glyph-name="uni020A" unicode="&#x20a;" horiz-adv-x="602" 
d="M165 1627q22 111 108.5 173t190.5 62q100 0 170 -58t70 -162v-15h-99q-1 61 -45.5 95t-106.5 34t-116 -34t-71 -95h-101zM129 0l178 1456h191l-178 -1456h-191z" />
    <glyph glyph-name="uni020B" unicode="&#x20b;" horiz-adv-x="533" 
d="M86 1197q22 111 108.5 173t190.5 62q100 0 170 -58t70 -162v-15h-99q-1 61 -45.5 95t-106.5 34t-116 -34t-71 -95h-101zM114 0l125 1026h185l-125 -1026h-185z" />
    <glyph glyph-name="uni020C" unicode="&#x20c;" horiz-adv-x="1626" 
d="M710 1604l-260 393h180l204 -393h-124zM1052 1604l-235 393h180l177 -393h-122zM888 1321q-176 0 -310 -92t-204.5 -253t-70.5 -367q0 -221 112 -345.5t326 -124.5q244 0 390.5 157.5t180.5 432.5q8 66 8 120q0 218 -110 345t-322 127zM724 -22q-297 0 -461 166t-164 454
q0 71 8 131q27 223 131.5 392.5t278 265t393.5 95.5q289 0 453 -169.5t164 -455.5q0 -69 -8 -128q-42 -344 -254.5 -547.5t-540.5 -203.5z" />
    <glyph glyph-name="uni020D" unicode="&#x20d;" horiz-adv-x="1258" 
d="M500 1174l-260 393h180l204 -393h-124zM842 1174l-235 393h180l177 -393h-122zM677 902q-177 0 -283 -129t-106 -334q0 -143 75 -227t221 -84q178 0 281.5 128t103.5 332q0 145 -74.5 229.5t-217.5 84.5zM565 -22q-224 0 -347 122t-123 325q0 42 6 87q29 242 189 391
t409 149q224 0 344 -122t120 -327q0 -45 -6 -91q-29 -238 -187.5 -386t-404.5 -148z" />
    <glyph glyph-name="uni020E" unicode="&#x20e;" horiz-adv-x="1626" 
d="M661 1627q22 111 108.5 173t190.5 62q100 0 170 -58t70 -162v-15h-99q-1 61 -45.5 95t-106.5 34t-116 -34t-71 -95h-101zM888 1321q-176 0 -310 -92t-204.5 -253t-70.5 -367q0 -221 112 -345.5t326 -124.5q244 0 390.5 157.5t180.5 432.5q8 66 8 120q0 218 -110 345
t-322 127zM724 -22q-297 0 -461 166t-164 454q0 71 8 131q27 223 131.5 392.5t278 265t393.5 95.5q289 0 453 -169.5t164 -455.5q0 -69 -8 -128q-42 -344 -254.5 -547.5t-540.5 -203.5z" />
    <glyph glyph-name="uni020F" unicode="&#x20f;" horiz-adv-x="1258" 
d="M451 1197q22 111 108.5 173t190.5 62q100 0 170 -58t70 -162v-15h-99q-1 61 -45.5 95t-106.5 34t-116 -34t-71 -95h-101zM677 902q-177 0 -283 -129t-106 -334q0 -143 75 -227t221 -84q178 0 281.5 128t103.5 332q0 145 -74.5 229.5t-217.5 84.5zM565 -22
q-224 0 -347 122t-123 325q0 42 6 87q29 242 189 391t409 149q224 0 344 -122t120 -327q0 -45 -6 -91q-29 -238 -187.5 -386t-404.5 -148z" />
    <glyph glyph-name="uni0210" unicode="&#x210;" horiz-adv-x="1362" 
d="M545 1604l-260 393h180l204 -393h-124zM887 1604l-235 393h180l177 -393h-122zM1215 1141q0 -171 -83.5 -280.5t-248.5 -142.5q80 -26 120 -91t72 -187l118 -440h-204l-107 428q-33 133 -77.5 176t-160.5 43h-261l-79 -647h-191l178 1456h466q104 0 182 -13.5t143 -47.5
t99 -97.5t34 -156.5zM672 808q340 0 340 304q0 102 -62 142.5t-198 40.5h-11h-280l-60 -487h271z" />
    <glyph glyph-name="uni0211" unicode="&#x211;" horiz-adv-x="803" 
d="M382 1174l-260 393h180l204 -393h-124zM724 1174l-235 393h180l177 -393h-122zM115 0l95 774q4 34 8.5 97t7.5 109l2 46h194l-17 -160q56 90 132.5 137t164.5 47q57 0 102 -12l-21 -163q-57 16 -111 16q-118 0 -200 -82.5t-102 -237.5l-70 -571h-185z" />
    <glyph glyph-name="uni0212" unicode="&#x212;" horiz-adv-x="1362" 
d="M496 1627q22 111 108.5 173t190.5 62q100 0 170 -58t70 -162v-15h-99q-1 61 -45.5 95t-106.5 34t-116 -34t-71 -95h-101zM1215 1141q0 -171 -83.5 -280.5t-248.5 -142.5q80 -26 120 -91t72 -187l118 -440h-204l-107 428q-33 133 -77.5 176t-160.5 43h-261l-79 -647h-191
l178 1456h466q104 0 182 -13.5t143 -47.5t99 -97.5t34 -156.5zM672 808q340 0 340 304q0 102 -62 142.5t-198 40.5h-11h-280l-60 -487h271z" />
    <glyph glyph-name="uni0213" unicode="&#x213;" horiz-adv-x="803" 
d="M334 1197q22 111 108.5 173t190.5 62q100 0 170 -58t70 -162v-15h-99q-1 61 -45.5 95t-106.5 34t-116 -34t-71 -95h-101zM115 0l95 774q4 34 8.5 97t7.5 109l2 46h194l-17 -160q56 90 132.5 137t164.5 47q57 0 102 -12l-21 -163q-57 16 -111 16q-118 0 -200 -82.5
t-102 -237.5l-70 -571h-185z" />
    <glyph glyph-name="uni0214" unicode="&#x214;" horiz-adv-x="1495" 
d="M642 1604l-260 393h180l204 -393h-124zM984 1604l-235 393h180l177 -393h-122zM653 -22q-511 0 -511 460q0 55 8 122l111 896h191l-111 -900q-6 -51 -6 -95q0 -322 340 -322q387 0 437 413l111 904h190l-110 -894q-17 -133 -61.5 -237t-121.5 -183.5t-195 -121.5
t-272 -42z" />
    <glyph glyph-name="uni0215" unicode="&#x215;" horiz-adv-x="1235" 
d="M476 1174l-260 393h180l204 -393h-124zM818 1174l-235 393h180l177 -393h-122zM491 -23q-176 0 -263 90.5t-87 247.5q0 32 5 77l78 634h183l-77 -634q-4 -27 -4 -58q0 -109 46.5 -158t166.5 -49q136 0 221 77t100 199l77 623h184l-95 -772q-8 -67 -22 -254h-187l16 165
q-52 -79 -138.5 -133.5t-203.5 -54.5z" />
    <glyph glyph-name="uni0216" unicode="&#x216;" horiz-adv-x="1495" 
d="M593 1627q22 111 108.5 173t190.5 62q100 0 170 -58t70 -162v-15h-99q-1 61 -45.5 95t-106.5 34t-116 -34t-71 -95h-101zM653 -22q-511 0 -511 460q0 55 8 122l111 896h191l-111 -900q-6 -51 -6 -95q0 -322 340 -322q387 0 437 413l111 904h190l-110 -894
q-17 -133 -61.5 -237t-121.5 -183.5t-195 -121.5t-272 -42z" />
    <glyph glyph-name="uni0217" unicode="&#x217;" horiz-adv-x="1235" 
d="M427 1197q22 111 108.5 173t190.5 62q100 0 170 -58t70 -162v-15h-99q-1 61 -45.5 95t-106.5 34t-116 -34t-71 -95h-101zM491 -23q-176 0 -263 90.5t-87 247.5q0 32 5 77l78 634h183l-77 -634q-4 -27 -4 -58q0 -109 46.5 -158t166.5 -49q136 0 221 77t100 199l77 623h184
l-95 -772q-8 -67 -22 -254h-187l16 165q-52 -79 -138.5 -133.5t-203.5 -54.5z" />
    <glyph glyph-name="Scommaaccent" unicode="&#x218;" horiz-adv-x="1214" 
d="M256 -607l167 473h209l-226 -473h-150zM1064 463q0 -97 -28.5 -177.5t-78.5 -137t-119 -95t-150 -57t-172 -18.5q-163 0 -285 53.5t-174 110.5l102 138q56 -51 155 -96t214 -45q161 0 248.5 76.5t87.5 219.5q0 78 -53 125.5t-197 94.5q-9 3 -43 13t-44 13
q-181 55 -266 133.5t-85 216.5q0 147 72.5 250.5t190.5 152t270 48.5q95 0 171 -14t126 -39.5t79 -47.5t55 -51l-111 -129q-46 50 -128.5 85t-188.5 35q-155 0 -244 -66.5t-89 -203.5q0 -74 46 -115.5t173 -82.5q74 -22 83 -24q213 -66 298 -148t85 -218z" />
    <glyph glyph-name="scommaaccent" unicode="&#x219;" horiz-adv-x="978" 
d="M171 -607l167 473h209l-226 -473h-150zM856 332q0 -93 -36 -163.5t-96 -111t-129 -60t-143 -19.5q-133 0 -230 40t-147 84l68 137q52 -42 136.5 -76t176.5 -34q43 0 80 8t71 26t53.5 52t19.5 82q0 53 -43 81.5t-163 70.5l-85 30q-56 21 -93 40t-71.5 47.5t-51 68
t-16.5 90.5q0 85 35 149.5t94.5 102t129.5 56t148 18.5q203 0 331 -89l-67 -132q-128 72 -262 72q-106 0 -165 -38t-59 -112q0 -44 30.5 -68t115.5 -56q67 -22 98 -35q56 -21 89 -35t72 -37.5t60 -47.5t35 -60t14 -81z" />
    <glyph glyph-name="uni021A" unicode="&#x21a;" horiz-adv-x="1144" 
d="M199 -607l167 473h209l-226 -473h-150zM386 0l158 1295h-465l20 161h1124l-19 -161h-469l-158 -1295h-191z" />
    <glyph glyph-name="uni021B" unicode="&#x21b;" horiz-adv-x="803" 
d="M158 -601l167 473h209l-226 -473h-150zM622 0h-85q-189 2 -266 57.5t-77 195.5q0 50 7 102l67 548h-196l15 123h200l32 264l187 53l-38 -317h278l-16 -123h-277l-69 -558q-5 -43 -5 -68q0 -83 53 -108t207 -25z" />
    <glyph glyph-name="uni021E" unicode="&#x21e;" horiz-adv-x="1559" 
d="M803 1584l-203 351h163l134 -230l192 230h168l-290 -351h-164zM113 0l178 1456h192l-78 -629h774l77 629h190l-178 -1456h-189l81 666h-773l-82 -666h-192z" />
    <glyph glyph-name="uni021F" unicode="&#x21f;" horiz-adv-x="1237" 
d="M74 0l183 1486h184l-76 -621q56 84 159.5 135.5t212.5 51.5q166 0 248.5 -96t82.5 -254q0 -48 -5 -83l-76 -619h-184l75 614q6 46 6 84q0 106 -46.5 155t-144.5 49q-82 0 -161.5 -39t-133 -104t-62.5 -137l-77 -622h-185zM668 1154l-203 351h163l134 -230l192 230h168
l-290 -351h-164z" />
    <glyph glyph-name="uni0226" unicode="&#x226;" 
d="M720 1686l22 182h188l-22 -182h-188zM-58 0l743 1456h204l390 -1456h-209l-102 389h-623l-195 -389h-208zM416 545h514q-103 437 -169 711z" />
    <glyph glyph-name="uni0227" unicode="&#x227;" horiz-adv-x="1273" 
d="M588 1256l22 182h188l-22 -182h-188zM523 -22q-205 0 -316.5 127t-111.5 324q0 37 5 84q19 150 92.5 271.5t194.5 194.5t268 73q109 0 192 -53t119 -136l20 163h182l-126 -1026h-184l22 175q-57 -92 -150 -144.5t-207 -52.5zM660 902q-177 0 -277.5 -129.5t-100.5 -330.5
q0 -142 72 -228t214 -86q153 0 246.5 106.5t115.5 286.5q5 43 5 74q0 139 -70.5 223t-204.5 84z" />
    <glyph glyph-name="uni0228" unicode="&#x228;" horiz-adv-x="1205" 
d="M801 -265q0 -87 -80 -134.5t-195 -47.5h-4q-93 0 -172 28l24 97q20 -9 65.5 -18t85.5 -9h3q53 0 85 22.5t32 61.5q0 32 -36 55t-113 23h-22l56 196h97l-36 -128q98 -9 154 -47t56 -99zM113 0l178 1456h872l-20 -161h-681l-56 -458h643l-19 -162h-643l-63 -514h710
l-20 -161h-901z" />
    <glyph glyph-name="uni0229" unicode="&#x229;" horiz-adv-x="1166" 
d="M1063 633q0 -83 -16 -146h-759q-3 -28 -3 -56q0 -146 84 -224.5t228 -78.5q183 0 339 114l39 -136q-180 -128 -407 -128q-222 0 -347.5 120.5t-125.5 325.5q0 180 75.5 324t207 224t294.5 80q192 0 291.5 -113.5t99.5 -305.5zM308 613h589q0 5 0.5 13.5t0.5 12.5
q0 130 -62.5 198.5t-176.5 68.5q-126 0 -220 -78t-131 -215zM789 -265q0 -87 -80 -134.5t-195 -47.5h-4q-93 0 -172 28l24 97q20 -9 65.5 -18t85.5 -9h3q53 0 85 22.5t32 61.5q0 32 -36 55t-113 23h-22l56 196h97l-36 -128q98 -9 154 -47t56 -99z" />
    <glyph glyph-name="uni022E" unicode="&#x22e;" horiz-adv-x="1626" 
d="M838 1686l22 182h188l-22 -182h-188zM888 1321q-176 0 -310 -92t-204.5 -253t-70.5 -367q0 -221 112 -345.5t326 -124.5q244 0 390.5 157.5t180.5 432.5q8 66 8 120q0 218 -110 345t-322 127zM724 -22q-297 0 -461 166t-164 454q0 71 8 131q27 223 131.5 392.5t278 265
t393.5 95.5q289 0 453 -169.5t164 -455.5q0 -69 -8 -128q-42 -344 -254.5 -547.5t-540.5 -203.5z" />
    <glyph glyph-name="uni022F" unicode="&#x22f;" horiz-adv-x="1258" 
d="M677 902q-177 0 -283 -129t-106 -334q0 -143 75 -227t221 -84q178 0 281.5 128t103.5 332q0 145 -74.5 229.5t-217.5 84.5zM565 -22q-224 0 -347 122t-123 325q0 42 6 87q29 242 189 391t409 149q224 0 344 -122t120 -327q0 -45 -6 -91q-29 -238 -187.5 -386t-404.5 -148
zM628 1256l22 182h188l-22 -182h-188z" />
    <glyph glyph-name="uni0232" unicode="&#x232;" horiz-adv-x="1239" 
d="M483 1672l14 124h585l-15 -124h-584zM433 0l71 575l-394 881h212l302 -713l478 713h213l-620 -878l-70 -578h-192z" />
    <glyph glyph-name="uni0233" unicode="&#x233;" horiz-adv-x="1065" 
d="M119 -433l-59 126q258 82 342 263l23 52l-294 1018h192l216 -820l399 820h185l-547 -1080q-73 -145 -191 -244t-266 -135zM393 1242l14 124h585l-15 -124h-584z" />
    <glyph glyph-name="uni0237" unicode="&#x237;" horiz-adv-x="510" 
d="M-85 -423q-64 0 -125 12l18 151q52 -12 86 -12q95 0 151 75t75 233l121 990h184l-113 -922q-8 -65 -19.5 -120t-31 -118.5t-49.5 -112.5t-70.5 -90t-98.5 -63.5t-128 -22.5z" />
    <glyph glyph-name="afii57929" unicode="&#x2bc;" horiz-adv-x="600" 
d="M2 1215l140 574h219l-224 -574h-135z" />
    <glyph glyph-name="circumflex" unicode="&#x2c6;" horiz-adv-x="699" 
d="M13 1154l276 347h162l194 -347h-156l-136 218l-190 -218h-150z" />
    <glyph glyph-name="caron" unicode="&#x2c7;" horiz-adv-x="699" 
d="M246 1154l-203 351h163l134 -230l192 230h168l-290 -351h-164z" />
    <glyph glyph-name="uni02C9" unicode="&#x2c9;" horiz-adv-x="720" 
d="M61 1242l14 124h585l-15 -124h-584z" />
    <glyph glyph-name="breve" unicode="&#x2d8;" horiz-adv-x="615" 
d="M294 1180q-123 0 -185 56.5t-62 175.5q0 18 1 28h132q0 -3 -0.5 -9t-0.5 -8q0 -61 33.5 -86t97.5 -25q65 0 104.5 29.5t56.5 98.5h129q-51 -260 -306 -260z" />
    <glyph glyph-name="dotaccent" unicode="&#x2d9;" horiz-adv-x="524" 
d="M157 1256l22 182h188l-22 -182h-188z" />
    <glyph glyph-name="ring" unicode="&#x2da;" horiz-adv-x="628" 
d="M327 1432q-48 0 -84 -36t-36 -87q0 -41 26.5 -69t66.5 -28q48 0 84.5 36t36.5 87q0 42 -26.5 69.5t-67.5 27.5zM517 1346q0 -94 -68.5 -156.5t-157.5 -62.5q-77 0 -128 48t-51 122q0 95 68 157.5t159 62.5q78 0 128 -48t50 -123z" />
    <glyph glyph-name="ogonek" unicode="&#x2db;" horiz-adv-x="508" 
d="M396 10q-80 -48 -136 -117.5t-56 -126.5q0 -73 104 -73q47 0 137 23l-14 -112q-92 -28 -178 -28q-93 0 -153 39.5t-60 113.5q0 14 1 21q7 54 49 108t92.5 91t108.5 66z" />
    <glyph glyph-name="tilde" unicode="&#x2dc;" horiz-adv-x="667" 
d="M473 1175q-49 0 -148 50.5t-132 50.5q-61 0 -82 -93h-118q13 106 69.5 169.5t139.5 63.5q44 0 99.5 -25t103.5 -50.5t76 -25.5q30 0 46.5 22t25.5 77h122q-14 -112 -66.5 -175.5t-135.5 -63.5z" />
    <glyph glyph-name="hungarumlaut" unicode="&#x2dd;" horiz-adv-x="969" 
d="M60 1160l258 372h198l-323 -372h-133zM385 1160l285 372h209l-358 -372h-136z" />
    <glyph glyph-name="uni0307" unicode="&#x307;" horiz-adv-x="524" 
d="M160 1268l22 179h181l-21 -179h-182z" />
    <glyph glyph-name="uni030F" unicode="&#x30f;" horiz-adv-x="969" 
d="M352 1174l-260 393h180l204 -393h-124zM694 1174l-235 393h180l177 -393h-122z" />
    <glyph glyph-name="uni0311" unicode="&#x311;" horiz-adv-x="629" 
d="M30 1197q22 111 108.5 173t190.5 62q100 0 170 -58t70 -162v-15h-99q-1 61 -45.5 95t-106.5 34t-116 -34t-71 -95h-101z" />
    <glyph glyph-name="uni0312" unicode="&#x312;" horiz-adv-x="600" 
d="M532 1681l-169 -489h-209l227 489h151z" />
    <glyph glyph-name="uni0326" unicode="&#x326;" horiz-adv-x="540" 
d="M82 -607l167 473h209l-226 -473h-150z" />
    <glyph glyph-name="uni0358" unicode="&#x358;" horiz-adv-x="524" 
d="M160 1268l22 179h181l-21 -179h-182z" />
    <glyph glyph-name="uni0394" unicode="&#x394;" horiz-adv-x="1305" 
d="M-33 0l10 84l696 1371h154l343 -1371l-10 -84h-1193zM182 142h793l-255 1095z" />
    <glyph glyph-name="Sigma" unicode="&#x3a3;" horiz-adv-x="1193" 
d="M36 -110l11 96l583 695l-394 677l12 97h901l-18 -147h-672l368 -620l-549 -648h740l-18 -150h-964z" />
    <glyph glyph-name="uni03A9" unicode="&#x3a9;" horiz-adv-x="1603" 
d="M868 1308q-117 0 -220 -45t-178.5 -125t-119.5 -196.5t-44 -252.5q0 -170 72.5 -319t197.5 -237l-17 -133h-548l-3 144h333q-107 94 -170 240t-63 312q0 50 6 102q25 201 134.5 355t277 235.5t366.5 81.5q185 0 321.5 -75t206 -205t69.5 -298q0 -48 -6 -99
q-24 -193 -135.5 -366t-257.5 -283h313l-32 -144h-532l16 133q168 105 286 278t141 365q6 45 6 89q0 127 -44.5 225t-141 158t-234.5 60z" />
    <glyph glyph-name="uni03BC" unicode="&#x3bc;" horiz-adv-x="1235" 
d="M263 -276h-183l159 1302h184l-78 -634q-3 -30 -3 -56q0 -209 213 -209q136 0 221 77t100 199l77 623h184l-95 -772q-15 -119 -22 -254h-187l15 165q-52 -79 -138.5 -133.5t-203.5 -54.5q-128 0 -205 53z" />
    <glyph glyph-name="pi" unicode="&#x3c0;" horiz-adv-x="1288" 
d="M118 0q52 65 94 161.5t74.5 226.5t53.5 235t47 262q-159 -3 -258 -61v139q97 63 297 63h836l-17 -141h-197l-74 -601q-4 -36 -4 -53q0 -97 89 -97q25 0 78 11l-16 -145q-73 -13 -129 -13q-98 0 -148 48.5t-50 158.5q0 28 5 73l76 618h-317q-14 -81 -30 -164t-51 -245.5
t-80 -291.5t-89 -184h-190z" />
    <glyph glyph-name="uni1E02" unicode="&#x1e02;" horiz-adv-x="1356" 
d="M668 1686l22 182h188l-22 -182h-188zM113 0l178 1456h385q61 0 113 -3t109 -11.5t102 -22.5t87 -37t70 -54.5t44.5 -76t16.5 -99.5q0 -24 -3 -51q-15 -121 -86 -206t-194 -118q130 -23 199.5 -103t69.5 -203q0 -17 -4 -57q-22 -180 -171 -297t-399 -117h-517zM619 163
q187 0 285 78t98 232q0 114 -81 161.5t-265 47.5h-268l-64 -519h295zM660 840q75 0 136 14t111 44.5t78 85t28 130.5q0 102 -82 141.5t-248 39.5h-220l-56 -455h253z" />
    <glyph glyph-name="uni1E03" unicode="&#x1e03;" horiz-adv-x="1274" 
d="M675 1256l22 182h188l-22 -182h-188zM1152 621q0 -141 -43.5 -262.5t-117.5 -204t-172.5 -129.5t-207.5 -47q-123 0 -210 56t-116 140l-23 -174h-187q37 244 40 270l149 1216h184l-78 -634q47 81 146.5 140.5t229.5 59.5q189 0 297.5 -116.5t108.5 -314.5zM699 902
q-167 0 -274 -129.5t-107 -330.5q0 -144 75 -229t212 -85q146 0 237 107t113 289q5 43 5 74q0 139 -68 221.5t-193 82.5z" />
    <glyph glyph-name="uni1E0A" unicode="&#x1e0a;" horiz-adv-x="1540" 
d="M718 1686l22 182h188l-22 -182h-188zM323 161h243q292 0 459 147.5t200 417.5q8 64 8 113q0 232 -145.5 344t-440.5 112h-185zM113 0l178 1456h358q786 0 786 -600q0 -70 -8 -130q-42 -348 -272 -537t-619 -189h-423z" />
    <glyph glyph-name="uni1E0B" unicode="&#x1e0b;" horiz-adv-x="1264" 
d="M521 1256l22 182h188l-22 -182h-188zM478 -22q-186 0 -298 119t-112 322q0 43 6 91q29 241 176 391.5t369 150.5q118 0 200 -53t107 -127l75 614h184l-150 -1220q-18 -188 -25 -266h-187l18 174q-42 -80 -137.5 -138t-225.5 -58zM621 902q-161 0 -261.5 -131t-100.5 -334
q0 -141 68.5 -225t194.5 -84q151 0 247 107t118 287q5 42 5 72q0 139 -70.5 223.5t-200.5 84.5z" />
    <glyph glyph-name="uni1E1E" unicode="&#x1e1e;" horiz-adv-x="1116" 
d="M660 1686l22 182h188l-22 -182h-188zM113 0l178 1456h840l-20 -161h-649l-56 -458h604l-20 -162h-604l-82 -675h-191z" />
    <glyph glyph-name="uni1E1F" unicode="&#x1e1f;" horiz-adv-x="726" 
d="M160 0l111 903h-183l16 123h182l11 84q9 71 19.5 119t30.5 93.5t50 73t76.5 49.5t111 31t151.5 9h47l-22 -143q-61 0 -101.5 -3.5t-70.5 -14.5t-47 -24t-29.5 -41.5t-18 -56t-11.5 -77.5l-12 -99h244l-15 -123h-244l-111 -903h-185zM378 1686l22 182h188l-22 -182h-188z
" />
    <glyph glyph-name="uni1E40" unicode="&#x1e40;" horiz-adv-x="1923" 
d="M989 1686l22 182h188l-22 -182h-188zM113 0l178 1456h232q27 -87 167.5 -528.5t212.5 -680.5q130 236 375.5 670t304.5 539h227l-178 -1456h-182l141 1145q-36 -64 -650 -1145h-137l-313 973l-52 180l-142 -1153h-184z" />
    <glyph glyph-name="uni1E41" unicode="&#x1e41;" horiz-adv-x="1880" 
d="M112 0l93 758q8 68 22 268h191l-19 -166q53 90 149.5 141t203.5 51q110 0 185 -58t100 -164q69 104 171.5 163t222.5 59q154 0 232 -86t78 -245q0 -43 -6 -93l-78 -628h-184l75 613q6 43 6 82q0 207 -158 207q-123 0 -222.5 -89.5t-121.5 -220.5l-73 -592h-184l78 629
q4 31 4 66q0 96 -41 151.5t-130 55.5q-122 0 -216 -81t-115 -196l-78 -625h-185zM990 1256l22 182h188l-22 -182h-188z" />
    <glyph glyph-name="uni1E56" unicode="&#x1e56;" horiz-adv-x="1260" 
d="M668 1686l22 182h188l-22 -182h-188zM1237 1132q0 -130 -41 -223t-120.5 -146.5t-183 -78t-240.5 -24.5h-268l-80 -660h-191l178 1456h419q101 0 176.5 -7.5t144.5 -29t112 -57t68.5 -93.5t25.5 -137zM670 821q187 0 278.5 62.5t91.5 219.5q0 112 -78.5 152t-248.5 40
h-18h-233l-57 -474h265z" />
    <glyph glyph-name="uni1E57" unicode="&#x1e57;" horiz-adv-x="1263" 
d="M1194 612q0 -178 -70 -323.5t-192.5 -228.5t-272.5 -83q-122 0 -210 57t-106 132l-74 -594h-182l141 1156q11 83 26 298h193l-22 -184q40 85 144.5 147t225.5 62q187 0 293 -120.5t106 -318.5zM742 901q-162 0 -265.5 -133.5t-103.5 -337.5q0 -139 70.5 -221t202.5 -82
q161 0 257.5 132.5t96.5 337.5q0 140 -66 222t-192 82zM696 1256l22 182h188l-22 -182h-188z" />
    <glyph glyph-name="uni1E60" unicode="&#x1e60;" horiz-adv-x="1214" 
d="M644 1686l22 182h188l-22 -182h-188zM1064 463q0 -97 -28.5 -177.5t-78.5 -137t-119 -95t-150 -57t-172 -18.5q-163 0 -285 53.5t-174 110.5l102 138q56 -51 155 -96t214 -45q161 0 248.5 76.5t87.5 219.5q0 78 -53 125.5t-197 94.5q-9 3 -43 13t-44 13
q-181 55 -266 133.5t-85 216.5q0 147 72.5 250.5t190.5 152t270 48.5q95 0 171 -14t126 -39.5t79 -47.5t55 -51l-111 -129q-46 50 -128.5 85t-188.5 35q-155 0 -244 -66.5t-89 -203.5q0 -74 46 -115.5t173 -82.5q74 -22 83 -24q213 -66 298 -148t85 -218z" />
    <glyph glyph-name="uni1E61" unicode="&#x1e61;" horiz-adv-x="978" 
d="M856 332q0 -93 -36 -163.5t-96 -111t-129 -60t-143 -19.5q-133 0 -230 40t-147 84l68 137q52 -42 136.5 -76t176.5 -34q43 0 80 8t71 26t53.5 52t19.5 82q0 53 -43 81.5t-163 70.5l-85 30q-56 21 -93 40t-71.5 47.5t-51 68t-16.5 90.5q0 85 35 149.5t94.5 102t129.5 56
t148 18.5q203 0 331 -89l-67 -132q-128 72 -262 72q-106 0 -165 -38t-59 -112q0 -44 30.5 -68t115.5 -56q67 -22 98 -35q56 -21 89 -35t72 -37.5t60 -47.5t35 -60t14 -81zM482 1256l22 182h188l-22 -182h-188z" />
    <glyph glyph-name="uni1E6A" unicode="&#x1e6a;" horiz-adv-x="1144" 
d="M592 1686l22 182h188l-22 -182h-188zM386 0l158 1295h-465l20 161h1124l-19 -161h-469l-158 -1295h-191z" />
    <glyph glyph-name="uni1E6B" unicode="&#x1e6b;" horiz-adv-x="803" 
d="M622 0h-85q-189 2 -266 57.5t-77 195.5q0 50 7 102l67 548h-196l15 123h200l32 264l187 53l-38 -317h278l-16 -123h-277l-69 -558q-5 -43 -5 -68q0 -83 53 -108t207 -25zM343 1577l22 182h188l-22 -182h-188z" />
    <glyph glyph-name="Wgrave" unicode="&#x1e80;" horiz-adv-x="2022" 
d="M1048 1603l-293 360h240l206 -360h-153zM351 0l-220 1456h205l134 -1004l25 -235q74 186 160.5 394t192 455.5t164.5 389.5h191l181 -1011l37 -225q64 185 140 393t167.5 454t143.5 389h197l-565 -1456h-223l-208 1199l-502 -1199h-220z" />
    <glyph glyph-name="wgrave" unicode="&#x1e81;" horiz-adv-x="1636" 
d="M309 0l-215 1026h196q15 -85 66 -370t80 -440q125 270 373 810h179q110 -540 164 -811q66 158 337 811h179l-467 -1026h-173q-148 707 -167 803q-27 -57 -380 -803h-172zM840 1173l-293 360h240l206 -360h-153z" />
    <glyph glyph-name="Wacute" unicode="&#x1e82;" horiz-adv-x="2022" 
d="M1060 1602l279 360h238l-363 -360h-154zM351 0l-220 1456h205l134 -1004l25 -235q74 186 160.5 394t192 455.5t164.5 389.5h191l181 -1011l37 -225q64 185 140 393t167.5 454t143.5 389h197l-565 -1456h-223l-208 1199l-502 -1199h-220z" />
    <glyph glyph-name="wacute" unicode="&#x1e83;" horiz-adv-x="1636" 
d="M309 0l-215 1026h196q15 -85 66 -370t80 -440q125 270 373 810h179q110 -540 164 -811q66 158 337 811h179l-467 -1026h-173q-148 707 -167 803q-27 -57 -380 -803h-172zM852 1172l279 360h238l-363 -360h-154z" />
    <glyph glyph-name="Wdieresis" unicode="&#x1e84;" horiz-adv-x="2022" 
d="M835 1612l24 189h186l-23 -189h-187zM1238 1612l24 189h186l-24 -189h-186zM351 0l-220 1456h205l134 -1004l25 -235q74 186 160.5 394t192 455.5t164.5 389.5h191l181 -1011l37 -225q64 185 140 393t167.5 454t143.5 389h197l-565 -1456h-223l-208 1199l-502 -1199h-220
z" />
    <glyph glyph-name="wdieresis" unicode="&#x1e85;" horiz-adv-x="1636" 
d="M309 0l-215 1026h196q15 -85 66 -370t80 -440q125 270 373 810h179q110 -540 164 -811q66 158 337 811h179l-467 -1026h-173q-148 707 -167 803q-27 -57 -380 -803h-172zM627 1182l24 189h186l-23 -189h-187zM1030 1182l24 189h186l-24 -189h-186z" />
    <glyph glyph-name="uni1EBC" unicode="&#x1ebc;" horiz-adv-x="1205" 
d="M909 1605q-49 0 -148 50.5t-132 50.5q-61 0 -82 -93h-118q13 106 69.5 169.5t139.5 63.5q44 0 99.5 -25t103.5 -50.5t76 -25.5q30 0 46.5 22t25.5 77h122q-14 -112 -66.5 -175.5t-135.5 -63.5zM113 0l178 1456h872l-20 -161h-681l-56 -458h643l-19 -162h-643l-63 -514
h710l-20 -161h-901z" />
    <glyph glyph-name="uni1EBD" unicode="&#x1ebd;" horiz-adv-x="1166" 
d="M829 1175q-49 0 -148 50.5t-132 50.5q-61 0 -82 -93h-118q13 106 69.5 169.5t139.5 63.5q44 0 99.5 -25t103.5 -50.5t76 -25.5q30 0 46.5 22t25.5 77h122q-14 -112 -66.5 -175.5t-135.5 -63.5zM1063 633q0 -83 -16 -146h-759q-3 -28 -3 -56q0 -146 84 -224.5t228 -78.5
q183 0 339 114l39 -136q-180 -128 -407 -128q-222 0 -347.5 120.5t-125.5 325.5q0 180 75.5 324t207 224t294.5 80q192 0 291.5 -113.5t99.5 -305.5zM308 613h589q0 5 0.5 13.5t0.5 12.5q0 130 -62.5 198.5t-176.5 68.5q-126 0 -220 -78t-131 -215z" />
    <glyph glyph-name="Ygrave" unicode="&#x1ef2;" horiz-adv-x="1239" 
d="M667 1603l-293 360h240l206 -360h-153zM433 0l71 575l-394 881h212l302 -713l478 713h213l-620 -878l-70 -578h-192z" />
    <glyph glyph-name="ygrave" unicode="&#x1ef3;" horiz-adv-x="1065" 
d="M119 -433l-59 126q258 82 342 263l23 52l-294 1018h192l216 -820l399 820h185l-547 -1080q-73 -145 -191 -244t-266 -135zM577 1173l-293 360h240l206 -360h-153z" />
    <glyph glyph-name="uni1EF8" unicode="&#x1ef8;" horiz-adv-x="1239" 
d="M904 1605q-49 0 -148 50.5t-132 50.5q-61 0 -82 -93h-118q13 106 69.5 169.5t139.5 63.5q44 0 99.5 -25t103.5 -50.5t76 -25.5q30 0 46.5 22t25.5 77h122q-14 -112 -66.5 -175.5t-135.5 -63.5zM433 0l71 575l-394 881h212l302 -713l478 713h213l-620 -878l-70 -578h-192z
" />
    <glyph glyph-name="uni1EF9" unicode="&#x1ef9;" horiz-adv-x="1065" 
d="M119 -433l-59 126q258 82 342 263l23 52l-294 1018h192l216 -820l399 820h185l-547 -1080q-73 -145 -191 -244t-266 -135zM814 1175q-49 0 -148 50.5t-132 50.5q-61 0 -82 -93h-118q13 106 69.5 169.5t139.5 63.5q44 0 99.5 -25t103.5 -50.5t76 -25.5q30 0 46.5 22
t25.5 77h122q-14 -112 -66.5 -175.5t-135.5 -63.5z" />
    <glyph glyph-name="endash" unicode="&#x2013;" horiz-adv-x="1103" 
d="M-6 488l18 146h1094l-18 -146h-1094z" />
    <glyph glyph-name="emdash" unicode="&#x2014;" horiz-adv-x="2171" 
d="M7 480l18 154h2133l-18 -154h-2133z" />
    <glyph glyph-name="afii00208" unicode="&#x2015;" horiz-adv-x="4097" 
d="M53 480l18 150h3973l-19 -150h-3972z" />
    <glyph glyph-name="quoteleft" unicode="&#x2018;" horiz-adv-x="530" 
d="M446 1456l-140 -574h-219l224 574h135z" />
    <glyph glyph-name="quoteright" unicode="&#x2019;" horiz-adv-x="530" 
d="M87 882l140 574h219l-224 -574h-135z" />
    <glyph glyph-name="quotesinglbase" unicode="&#x201a;" horiz-adv-x="587" 
d="M121 -327l150 543h198l-196 -543h-152z" />
    <glyph glyph-name="quotedblleft" unicode="&#x201c;" horiz-adv-x="1024" 
d="M130 882l226 574h150l-165 -574h-211zM523 882l220 574h150l-164 -574h-206z" />
    <glyph glyph-name="quotedblright" unicode="&#x201d;" horiz-adv-x="1024" 
d="M161 882l162 574h206l-218 -574h-150zM525 882l164 574h205l-217 -574h-152z" />
    <glyph glyph-name="quotedblbase" unicode="&#x201e;" horiz-adv-x="1024" 
d="M42 -398l162 574h206l-218 -574h-150zM406 -398l164 574h205l-217 -574h-152z" />
    <glyph glyph-name="dagger" unicode="&#x2020;" horiz-adv-x="1022" 
d="M356 0l110 903h-327l16 131h328l51 424h158l-52 -424h336l-16 -131h-342l-110 -903h-152z" />
    <glyph glyph-name="daggerdbl" unicode="&#x2021;" horiz-adv-x="1086" 
d="M164 1034h336l52 425h164l-52 -425h334l-14 -115h-335l-50 -409h328l-14 -111h-328l-48 -399h-164l48 399h-339l14 111h339l50 409h-335z" />
    <glyph glyph-name="bullet" unicode="&#x2022;" horiz-adv-x="989" 
d="M832 729q0 -97 -52 -178.5t-137 -127t-181 -45.5q-130 0 -209.5 79.5t-79.5 196.5q0 147 110.5 251.5t256.5 104.5q128 0 210 -81.5t82 -199.5z" />
    <glyph glyph-name="ellipsis" unicode="&#x2026;" horiz-adv-x="1620" 
d="M134 -11l28 225h238l-28 -225h-238zM670 -11l28 225h237l-28 -225h-237zM1205 -11l28 225h237l-28 -225h-237z" />
    <glyph glyph-name="perthousand" unicode="&#x2030;" horiz-adv-x="2701" 
d="M2238 643q-110 0 -168 -96.5t-58 -250.5q0 -192 159 -192q186 0 218 268q5 47 5 78q0 193 -156 193zM2554 444q0 -204 -110.5 -333.5t-287.5 -129.5q-145 0 -224 86.5t-79 233.5q0 203 111 333.5t289 130.5q145 0 223 -87.5t78 -233.5zM534 1353q-110 0 -168.5 -95.5
t-58.5 -248.5q0 -195 160 -195q185 0 217 269q5 47 5 78q0 192 -155 192zM849 1158q0 -210 -109.5 -338t-288.5 -128q-147 0 -225.5 83t-78.5 231q0 209 110.5 339t290.5 130q146 0 223.5 -84t77.5 -233zM351 0l1023 1456h156l-1025 -1456h-154zM1406 643q-111 0 -168.5 -96
t-57.5 -251q0 -192 159 -192q186 0 218 268q5 47 5 78q0 193 -156 193zM1721 444q0 -204 -110.5 -333.5t-287.5 -129.5q-145 0 -223.5 86.5t-78.5 233.5q0 203 111 333.5t289 130.5q145 0 222.5 -87t77.5 -234z" />
    <glyph glyph-name="guilsinglleft" unicode="&#x2039;" horiz-adv-x="685" 
d="M363 168l-225 373l322 375h163l-294 -375l195 -373h-161z" />
    <glyph glyph-name="guilsinglright" unicode="&#x203a;" horiz-adv-x="685" 
d="M87 167l293 376l-194 372h160l225 -373l-321 -375h-163z" />
    <glyph glyph-name="fraction" unicode="&#x2044;" horiz-adv-x="1073" 
d="M-65 0l1078 1456h173l-1076 -1456h-175z" />
    <glyph glyph-name="uni2074" unicode="&#x2074;" horiz-adv-x="1167" 
d="M621 658l23 188h-380l11 92l432 518h138l-62 -504h107l-14 -106h-107l-23 -188h-125zM416 952h239l42 339z" />
    <glyph glyph-name="Euro" unicode="&#x20ac;" horiz-adv-x="1480" 
d="M190 627q3 106 29 211h-177l19 110h193q93 247 295.5 390.5t451.5 143.5q275 0 440 -150l-92 -130q-146 119 -353 119q-178 0 -319 -101t-216 -272h514l-21 -110h-532q-28 -102 -29 -211h507l-20 -104h-481q26 -181 147.5 -282.5t306.5 -101.5q219 0 429 144l46 -152
q-230 -153 -504 -153q-124 0 -232.5 35.5t-193.5 102.5t-139 171.5t-66 235.5h-188l18 104h167z" />
    <glyph glyph-name="afii61289" unicode="&#x2113;" horiz-adv-x="526" 
d="M86 0l182 1486h185l-183 -1486h-184z" />
    <glyph glyph-name="trademark" unicode="&#x2122;" horiz-adv-x="1869" 
d="M781 690l95 770h161l187 -583l340 583h155l-96 -770h-124l71 574l-327 -574h-88l-183 569l-69 -569h-122zM273 690l80 651h-249l15 119h637l-15 -119h-247l-80 -651h-141z" />
    <glyph glyph-name="Omega" unicode="&#x2126;" horiz-adv-x="1603" 
d="M868 1308q-117 0 -220 -45t-178.5 -125t-119.5 -196.5t-44 -252.5q0 -170 72.5 -319t197.5 -237l-17 -133h-548l-3 144h333q-107 94 -170 240t-63 312q0 50 6 102q25 201 134.5 355t277 235.5t366.5 81.5q185 0 321.5 -75t206 -205t69.5 -298q0 -48 -6 -99
q-24 -193 -135.5 -366t-257.5 -283h313l-32 -144h-532l16 133q168 105 286 278t141 365q6 45 6 89q0 127 -44.5 225t-141 158t-234.5 60z" />
    <glyph glyph-name="estimated" unicode="&#x212e;" horiz-adv-x="1206" 
d="M1076 802q0 -102 -17 -147h-743q-8 -64 -8 -112q0 -367 309 -367q163 0 368 123l21 -52q-220 -133 -446 -133q-133 0 -235.5 49t-164 151.5t-61.5 247.5q0 42 6 90q18 143 74.5 252t138 171.5t172 93t188.5 30.5q83 0 152 -21t125.5 -66t88.5 -124t32 -186zM323 713h570
q8 67 8 114q0 164 -65.5 239t-167.5 75q-54 0 -106 -22.5t-101 -69.5t-86 -133.5t-52 -202.5z" />
    <glyph glyph-name="partialdiff" unicode="&#x2202;" horiz-adv-x="1164" 
d="M889 834q17 162 17 187q0 166 -71 259t-199 93q-150 0 -291 -86l5 142q151 95 325 95q201 0 310 -125t109 -378q0 -81 -12 -176q-16 -131 -54 -255.5t-99 -236t-139 -195.5t-180.5 -133t-215.5 -49q-178 0 -271.5 101t-93.5 267q0 33 5 78q19 160 103.5 293.5t210.5 210
t265 76.5q112 0 182.5 -52t93.5 -116zM413 128q155 0 265.5 139t170.5 385q-20 85 -82.5 143t-152.5 58q-93 0 -178.5 -59.5t-142.5 -159.5t-71 -216q-4 -40 -4 -57q0 -107 51.5 -170t143.5 -63z" />
    <glyph glyph-name="emptyset" unicode="&#x2205;" horiz-adv-x="1678" 
d="M112 733q0 152 60.5 290.5t159.5 236.5t230.5 155.5t269.5 57.5q129 0 251 -49t221 -138l177 199l37 -29l-181 -202q101 -102 158 -236.5t57 -284.5q0 -152 -60.5 -290.5t-159.5 -236.5t-230.5 -155.5t-269.5 -57.5q-126 0 -245.5 47t-217.5 132l-192 -215l-32 29
l192 216q-105 103 -165 240t-60 291zM398 204q92 -80 204 -123.5t230 -43.5q130 0 253.5 54.5t217 146t150 222t56.5 273.5q0 141 -53.5 266.5t-147.5 222.5zM366 234l909 1020q-92 83 -207 129t-236 46q-130 0 -253.5 -54.5t-217 -146t-150 -222t-56.5 -273.5
q0 -145 56 -274t155 -225z" />
    <glyph glyph-name="Delta" unicode="&#x2206;" horiz-adv-x="1309" 
d="M-33 0l10 84l696 1371h154l343 -1371l-10 -84h-1193zM182 142h793l-255 1095z" />
    <glyph glyph-name="product" unicode="&#x220f;" horiz-adv-x="1559" 
d="M180 -89l171 1389h-165l20 156h1316l-20 -156h-148l-170 -1389h-195l170 1389h-617l-170 -1389h-192z" />
    <glyph glyph-name="summation" unicode="&#x2211;" horiz-adv-x="1193" 
d="M36 -110l11 96l583 695l-394 677l12 97h901l-18 -147h-672l368 -620l-549 -648h740l-18 -150h-964z" />
    <glyph glyph-name="minus" unicode="&#x2212;" horiz-adv-x="1287" 
d="M165 443l18 152h939l-18 -152h-939z" />
    <glyph glyph-name="uni2215" unicode="&#x2215;" horiz-adv-x="966" 
d="M36 0l708 1456h171l-712 -1456h-167z" />
    <glyph glyph-name="uni2219" unicode="&#x2219;" horiz-adv-x="527" 
d="M168 517l22 182h188l-22 -182h-188z" />
    <glyph glyph-name="radical" unicode="&#x221a;" horiz-adv-x="1314" 
d="M564 -150l-223 826l-173 -28l-10 129l320 53l181 -732l579 1487h155l-676 -1735h-153z" />
    <glyph glyph-name="infinity" unicode="&#x221e;" horiz-adv-x="1728" 
d="M1631 649q0 -119 -60 -216t-153 -147.5t-197 -50.5q-110 0 -197.5 61t-172.5 192q-109 -122 -214.5 -187.5t-219.5 -65.5q-145 0 -233 94t-88 234q0 108 58.5 199t151 140.5t195.5 49.5q117 0 208 -65t169 -188q106 123 210 188t223 65q149 0 234.5 -83.5t85.5 -219.5z
M486 826q-109 0 -180.5 -75t-71.5 -184q0 -85 55.5 -144.5t149.5 -59.5q160 0 355 228q-62 111 -136.5 173t-171.5 62zM1239 363q106 0 169 71.5t77 186.5q2 18 2 25q0 77 -54 128.5t-142 51.5q-90 0 -181.5 -65t-173.5 -166q80 -122 148 -177t155 -55z" />
    <glyph glyph-name="integral" unicode="&#x222b;" horiz-adv-x="749" 
d="M66 -305q-40 0 -75.5 5.5t-50.5 11.5l-16 5l18 144q77 -15 131 -15q88 0 123 48t48 156l140 1139q9 69 23 123t40 103t61.5 81.5t87.5 51.5t119 19q39 0 73.5 -5.5t49.5 -11.5l14 -5l-18 -146q-51 17 -108 17q-87 0 -121.5 -47.5t-48.5 -156.5l-139 -1139
q-47 -378 -351 -378z" />
    <glyph glyph-name="approxequal" unicode="&#x2248;" horiz-adv-x="1351" 
d="M317 660l-134 31q43 125 132 196.5t207 71.5q61 0 116.5 -21.5t124.5 -65.5q121 -75 184 -75q106 0 182 166l126 -33q-42 -126 -125.5 -196.5t-204.5 -70.5q-63 0 -121 22.5t-138 72.5q-104 67 -164 67q-117 0 -185 -165zM266 252l-131 36q47 126 135.5 196.5t204.5 70.5
q101 0 247 -86q16 -8 48.5 -26t49 -26.5t39 -16.5t40.5 -8q55 0 98.5 41.5t83.5 124.5l127 -33q-45 -126 -127.5 -197t-203.5 -71q-104 0 -256 97q-105 64 -165 64q-123 0 -190 -166z" />
    <glyph glyph-name="notequal" unicode="&#x2260;" horiz-adv-x="1360" 
d="M415 43l-137 21l155 255h-294l17 137h364l166 258h-498l17 138h563l167 271l141 -21l-154 -250h316l-17 -138h-382l-168 -258h518l-17 -137h-586z" />
    <glyph glyph-name="lessequal" unicode="&#x2264;" horiz-adv-x="1350" 
d="M1073 215l-875 465l12 96l992 444l-21 -173l-745 -321l658 -342zM94 0l15 130h975l-16 -130h-974z" />
    <glyph glyph-name="greaterequal" unicode="&#x2265;" horiz-adv-x="1350" 
d="M150 214l21 173l745 321l-659 341l20 171l876 -467l-12 -96zM114 0l15 130h975l-16 -130h-974z" />
    <glyph glyph-name="lozenge" unicode="&#x25ca;" horiz-adv-x="1248" 
d="M457 -42l-355 752l548 753h120l358 -752l-552 -753h-119zM538 132l416 578l-265 572l-415 -572z" />
    <glyph glyph-name="uniFB00" unicode="&#xfb00;" horiz-adv-x="1349" 
d="M1084 913l-113 -913h-171l113 913h-471l-113 -913h-171l113 913h-181l13 113h181l11 89q10 83 24 137t43 102.5t74.5 74.5t116.5 41t173 15h47l-18 -134q-61 0 -103.5 -4t-73.5 -15.5t-49.5 -25.5t-30.5 -41.5t-18 -55t-12 -73.5l-13 -110h471l11 89q10 83 24 137
t43 102.5t74.5 74.5t116.5 41t173 15h47l-18 -134q-61 0 -103.5 -4t-73.5 -15.5t-49.5 -25.5t-30.5 -41.5t-18 -55t-12 -73.5l-13 -110h248l-14 -113h-247z" />
    <glyph glyph-name="uniFB01" unicode="&#xfb01;" horiz-adv-x="1224" 
d="M159 0l112 912h-181l13 114h182l10 88q9 69 19.5 116.5t30.5 92.5t50 72.5t75.5 49.5t109 31t148.5 9h47l-18 -136q-61 0 -103.5 -4t-73 -15.5t-49 -25.5t-30.5 -41t-18 -54.5t-12 -74.5l-13 -108h491l-14 -114h-490l-113 -912h-173zM863 0l126 1026h183l-126 -1026h-183
zM1022 1285l20 171h182l-21 -171h-181z" />
    <glyph glyph-name="uniFB02" unicode="&#xfb02;" horiz-adv-x="1265" 
d="M178 0l112 913h-199l14 113h199l10 79q13 102 40.5 166.5t85 110.5t150.5 65t235 19h358l-180 -1466h-173l163 1331h-179q-129 0 -195 -19t-92.5 -59t-36.5 -121l-13 -106h247l-14 -113h-247l-112 -913h-173z" />
    <glyph glyph-name="uniFB03" unicode="&#xfb03;" horiz-adv-x="1830" 
d="M1565 0h-169l112 913h-442l-112 -913h-171l112 913h-453l-113 -913h-171l113 913h-181l13 113h181l11 88q10 83 24 137t43 102.5t74.5 75t117 41.5t172.5 15h47l-18 -135q-61 0 -103.5 -4t-73.5 -15.5t-49.5 -25.5t-30.5 -41.5t-18 -55t-12 -73.5l-13 -109h454l11 88
q8 69 19 116.5t30.5 92.5t49.5 72.5t75 49.5t108 31t148 9h46l-18 -135q-74 0 -121 -7.5t-77.5 -20t-47.5 -41.5t-24.5 -59.5t-14.5 -86.5l-13 -109h611zM1724 1295h-169l20 161h169z" />
    <glyph glyph-name="uniFB04" unicode="&#xfb04;" horiz-adv-x="1896" 
d="M160 0l112 913h-182l13 113h183l10 81q7 61 16 103.5t24 85t36.5 70.5t53.5 52t75.5 38t101.5 21.5t133 7.5h48l-21 -143q-72 0 -118 -7t-76 -19.5t-46.5 -41.5t-24.5 -60t-15 -89l-13 -99h245l-14 -113h-244l-113 -913h-184zM740 0l112 913h-199l14 113h199l10 79
q13 102 40.5 166.5t85 110.5t150.5 65t235 19h358l-180 -1466h-173l163 1331h-179q-129 0 -195 -19t-92.5 -59t-36.5 -121l-13 -106h247l-14 -113h-247l-112 -913h-173z" />
    <glyph glyph-name="NULL" horiz-adv-x="600" 
 />
    <glyph glyph-name="caron.alt" horiz-adv-x="600" 
d="M296 994l167 474h209l-226 -474h-150z" />
    <glyph glyph-name="fj" horiz-adv-x="1229" 
d="M997 1277l22 179h182l-22 -179h-182zM641 -423q-64 0 -125 12l18 151q52 -12 86 -12q95 0 151 75t75 233l121 990h184l-113 -922q-8 -65 -19.5 -120t-31 -118.5t-49.5 -112.5t-70.5 -90t-98.5 -63.5t-128 -22.5zM160 0l111 903h-183l16 123h182l11 84q9 71 19.5 119
t30.5 93.5t50 73t76.5 49.5t111 31t151.5 9h47l-22 -143q-61 0 -101.5 -3.5t-70.5 -14.5t-47 -24t-29.5 -41.5t-18 -56t-11.5 -77.5l-12 -99h244l-15 -123h-244l-111 -903h-185z" />
    <glyph glyph-name="foundryicon" horiz-adv-x="600" 
 />
    <glyph glyph-name="i.loclTRK" horiz-adv-x="534" 
d="M114 0l125 1026h185l-125 -1026h-185zM263 1256l22 182h188l-22 -182h-188z" />
    <glyph glyph-name="middot" horiz-adv-x="600" 
 />
    <glyph glyph-name="slashbar" horiz-adv-x="600" 
 />
  </font>
</defs>
</svg>
