<?xml version="1.0" standalone="no"?>
<!DOCTYPE svg PUBLIC "-//W3C//DTD SVG 1.1//EN" "http://www.w3.org/Graphics/SVG/1.1/DTD/svg11.dtd" >
<svg xmlns="http://www.w3.org/2000/svg" xmlns:xlink="http://www.w3.org/1999/xlink" version="1.1">
<metadata>
Created by FontForge 20170731 at Wed Feb 26 18:22:54 2014
 By Aleksey,,,
Digitized data Copyright (c) 2011-2014, vernon adams.
</metadata>
<defs>
<font id="Muli-LightItalic" horiz-adv-x="1260" >
  <font-face 
    font-family="Muli"
    font-weight="300"
    font-style="italic"
    font-stretch="normal"
    units-per-em="2048"
    panose-1="2 0 3 3 0 0 0 0 0 0"
    ascent="1638"
    descent="-410"
    x-height="1026"
    cap-height="1456"
    bbox="-180 -582 4037 2364"
    underline-thickness="0"
    underline-position="0"
    slope="-7"
    unicode-range="U+000D-FB04"
  />
<missing-glyph horiz-adv-x="748" 
d="M68 0v1365h544v-1365h-544zM136 68h408v1229h-408v-1229z" />
    <glyph glyph-name=".notdef" horiz-adv-x="748" 
d="M68 0v1365h544v-1365h-544zM136 68h408v1229h-408v-1229z" />
    <glyph glyph-name=".null" horiz-adv-x="0" 
 />
    <glyph glyph-name="uni000D" unicode="&#xd;" horiz-adv-x="240" 
 />
    <glyph glyph-name="space" unicode=" " horiz-adv-x="599" 
 />
    <glyph glyph-name="exclam" unicode="!" horiz-adv-x="512" 
d="M88 0l23 190h171l-23 -190h-171zM178 370l90 1086h169l-177 -1086h-82z" />
    <glyph glyph-name="quotedbl" unicode="&#x22;" horiz-adv-x="851" 
d="M385 942h88l88 514h-150zM332 942l26 514h150l-87 -514h-89z" />
    <glyph glyph-name="numbersign" unicode="#" horiz-adv-x="1349" 
d="M195 75l137 439h-256l19 91h267l95 309h-259l20 92h267l127 404h115l-126 -404h307l128 404h110l-128 -404h249l-23 -92h-253l-97 -309h254l-23 -91h-258l-139 -439h-110l135 439h-307l-141 -439h-110zM473 605h310l97 309h-308z" />
    <glyph glyph-name="dollar" unicode="$" horiz-adv-x="1170" 
d="M653 1357q-155 -8 -239.5 -85.5t-84.5 -222.5q0 -83 48 -128t176 -83q1 0 6 -1.5t13.5 -4t15.5 -4.5zM579 106q144 17 224 103t80 230q0 84 -51.5 133t-183.5 92zM1034 464q0 -216 -128 -341.5t-342 -141.5l-22 -179h-80l22 177q-87 2 -163 21t-127.5 48.5t-80 50.5
t-49.5 43l80 106q153 -141 355 -146l72 585q-70 19 -71 19q-168 48 -247.5 123.5t-79.5 210.5q0 206 136 321t359 120l18 144h80l-18 -146q64 -4 119.5 -16.5t89 -26.5t65 -35t43.5 -32t29 -28l-84 -102q-35 40 -105 75t-172 42l-68 -550q208 -61 288.5 -137t80.5 -205z" />
    <glyph glyph-name="percent" unicode="%" horiz-adv-x="1996" 
d="M479 714q206 0 246 324q7 61 7 97q0 231 -173 231q-214 0 -255 -329q-6 -48 -6 -89q0 -234 181 -234zM571 1466q140 0 213 -86t73 -245q0 -236 -106 -378t-285 -142q-144 0 -219 85t-75 243q0 236 109 379.5t290 143.5zM508 0l871 1456h118l-871 -1456h-118zM1445 90
q103 0 165 82.5t81 240.5q7 61 7 98q0 231 -173 231q-214 0 -255 -330q-6 -48 -6 -89q0 -233 181 -233zM1538 842q139 0 212 -87.5t73 -246.5q0 -233 -106.5 -375.5t-284.5 -142.5q-143 0 -218.5 86.5t-75.5 244.5q0 233 110 377t290 144z" />
    <glyph glyph-name="ampersand" unicode="&#x26;" horiz-adv-x="1503" 
d="M493 839q-62 79 -95.5 151.5t-33.5 156.5q0 106 50.5 183t129.5 113.5t176 36.5q79 0 144.5 -25t109 -81.5t43.5 -135.5q0 -25 -2 -38q-14 -112 -109 -209.5t-232 -170.5l347 -435q76 96 134 232t74 259l129 -14q-27 -155 -94.5 -308.5t-162.5 -267.5l14 -16
q14 -17 25 -29t32 -33.5t43 -38t49.5 -34.5t60 -31.5t65.5 -20.5l-108 -87q-37 6 -83.5 32.5t-88.5 63t-64.5 57.5t-36.5 36q-208 -206 -471 -206q-198 0 -319 97.5t-121 268.5q0 57 12.5 107.5t30.5 89t52 77.5t61 64t76 57.5t78.5 50t84.5 48.5zM548 107q123 0 213 43
t180 128l-381 472q-67 -34 -111.5 -63t-89.5 -70t-71 -93.5t-34 -117.5q-3 -21 -3 -42q0 -115 80 -186t217 -71zM497 1149q0 -136 107 -254q109 60 187 136t88 159q2 18 2 26q0 73 -50.5 110t-119.5 37q-94 0 -154 -56t-60 -158z" />
    <glyph glyph-name="quotesingle" unicode="'" horiz-adv-x="527" 
d="M186 933l31 523h153l-86 -523h-98z" />
    <glyph glyph-name="parenleft" unicode="(" horiz-adv-x="600" 
d="M312 -174q-172 325 -172 673q0 84 10 163q28 233 120 439.5t249 414.5h136q-311 -416 -363 -850q-10 -76 -10 -162q0 -360 166 -678h-136z" />
    <glyph glyph-name="parenright" unicode=")" horiz-adv-x="600" 
d="M-56 -194q310 414 364 850q10 87 10 159q0 358 -167 681h136q173 -326 173 -675q0 -84 -10 -161q-28 -234 -120 -441t-249 -413h-137z" />
    <glyph glyph-name="asterisk" unicode="*" horiz-adv-x="1151" 
d="M703 755l-124 274l-184 -264l-100 64l209 242l-256 78l49 119l246 -118l9 308h126l-41 -308l242 118l44 -119l-261 -78l161 -255z" />
    <glyph glyph-name="plus" unicode="+" horiz-adv-x="1159" 
d="M454 120l53 429h-387l15 124h387l50 405h130l-50 -405h391l-15 -124h-389l-53 -429h-132z" />
    <glyph glyph-name="comma" unicode="," horiz-adv-x="448" 
d="M57 -260l162 453h163l-215 -453h-110z" />
    <glyph glyph-name="hyphen" unicode="-" horiz-adv-x="638" 
d="M58 507l13 107h507l-13 -107h-507z" />
    <glyph glyph-name="period" unicode="." horiz-adv-x="546" 
d="M166 0l24 196h198l-24 -196h-198z" />
    <glyph glyph-name="slash" unicode="/" horiz-adv-x="821" 
d="M45 0l656 1456h127l-660 -1456h-123z" />
    <glyph glyph-name="zero" unicode="0" horiz-adv-x="1204" 
d="M533 101q160 0 257.5 162.5t134.5 463.5q15 118 15 217q0 200 -62.5 307.5t-190.5 107.5q-167 0 -270 -166t-140 -466q-14 -115 -14 -205q0 -204 67 -312.5t203 -108.5zM517 -23q-200 0 -303 142.5t-103 406.5q0 97 13 201q45 366 192.5 561t385.5 195q195 0 293.5 -139
t98.5 -402q0 -95 -14 -215q-44 -358 -187.5 -554t-375.5 -196z" />
    <glyph glyph-name="one" unicode="1" horiz-adv-x="1204" 
d="M186 0l14 119h287l144 1166q-36 -19 -82 -40t-72 -31.5t-89 -35t-75 -29.5l16 135q78 27 188.5 78t183.5 94h100l-164 -1337h267l-14 -119h-704z" />
    <glyph glyph-name="two" unicode="2" horiz-adv-x="1225" 
d="M123 0l14 120l531 515q139 134 198 226.5t70 199.5q3 24 3 46q0 115 -68 182.5t-209 67.5q-163 0 -376 -111l-35 114q223 123 432 123q199 0 300 -100.5t101 -256.5q0 -27 -3 -54q-8 -72 -33.5 -138t-72.5 -131t-99 -122.5t-133 -134.5l-436 -424h652l-15 -122h-821z" />
    <glyph glyph-name="three" unicode="3" horiz-adv-x="1204" 
d="M866 448q0 123 -87.5 189t-254.5 67h-91l13 128h92q346 0 381 280q2 22 2 31q0 101 -79 158.5t-207 57.5q-111 0 -212.5 -41.5t-168.5 -111.5l-61 94q82 88 201.5 135.5t265.5 47.5q180 0 292.5 -86t112.5 -235q0 -22 -3 -48q-14 -122 -99 -219.5t-219 -124.5
q128 -23 199.5 -110t71.5 -210q0 -25 -3 -52q-24 -192 -174.5 -306.5t-369.5 -114.5q-116 0 -213.5 29.5t-148.5 61.5l51 114q60 -33 148 -57t169 -24q174 0 283 93.5t109 253.5z" />
    <glyph glyph-name="four" unicode="4" horiz-adv-x="1204" 
d="M670 0l48 388h-656l12 106l716 962h208l-117 -950h210l-14 -118h-212l-48 -388h-147zM236 506h495l101 823q-65 -92 -596 -823z" />
    <glyph glyph-name="five" unicode="5" horiz-adv-x="1204" 
d="M489 -22q-245 0 -405 150l78 110q147 -138 346 -138q153 0 260.5 94.5t128.5 264.5q3 27 3 53q0 126 -72.5 202t-202.5 76q-84 0 -161.5 -34t-121.5 -92l-129 17l108 775h757l-16 -126h-621l-87 -525q52 53 133 82.5t165 29.5q185 0 293.5 -107t108.5 -284
q0 -128 -47.5 -234t-127 -173.5t-180.5 -104t-210 -36.5z" />
    <glyph glyph-name="six" unicode="6" horiz-adv-x="1204" 
d="M544 -23q-217 0 -323 141t-106 393q0 85 12 180q16 132 51 249t91.5 217t130 172t170 113t207.5 41q99 0 179.5 -30.5t132.5 -77.5l-67 -108q-45 41 -112.5 66.5t-146.5 25.5q-74 0 -137.5 -25t-110.5 -70t-84 -99t-63 -119.5t-42.5 -124t-27.5 -119.5q-4 -19 -11 -67
q54 77 159.5 134t237.5 57q174 0 282 -106t108 -286q0 -32 -5 -75q-25 -209 -169 -345.5t-356 -136.5zM920 524q0 128 -65 204.5t-198 76.5q-79 0 -149.5 -26t-118 -66.5t-77.5 -89t-36 -95.5q-6 -45 -6 -89q0 -151 71 -244.5t218 -93.5q161 0 261 120t100 303z" />
    <glyph glyph-name="seven" unicode="7" horiz-adv-x="1204" 
d="M284 0l696 1326h-726l15 130h893l-13 -112l-701 -1344h-164z" />
    <glyph glyph-name="eight" unicode="8" horiz-adv-x="1205" 
d="M697 1483q169 0 282 -86t113 -232q0 -23 -3 -45q-16 -131 -103 -222.5t-229 -133.5q137 -42 207 -127t70 -207q0 -107 -44.5 -194.5t-118.5 -143t-167 -85.5t-193 -30q-115 0 -210 39t-154.5 118.5t-59.5 187.5q0 24 3 49q17 143 113 244.5t257 146.5q-119 37 -183 116
t-64 191q0 128 69.5 224t178 143t236.5 47zM887 419q0 108 -77 175t-212 95q-106 -21 -184.5 -63t-128 -116.5t-49.5 -172.5q0 -113 79.5 -174.5t210.5 -61.5q156 0 258.5 84t102.5 234zM357 1080q0 -99 66.5 -161.5t192.5 -86.5q147 27 232 98.5t99 185.5q2 22 2 33
q0 102 -76 159.5t-190 57.5q-85 0 -157.5 -31t-120.5 -98t-48 -157z" />
    <glyph glyph-name="nine" unicode="9" horiz-adv-x="1207" 
d="M453 -23q-168 0 -318 97l68 114q116 -87 258 -87q87 0 160.5 35t124 91t89 131.5t59.5 151.5t32 157q2 9 5 31.5t4 27.5q-50 -76 -155 -130.5t-235 -54.5q-176 0 -282.5 106t-106.5 284q0 31 5 73q26 208 169 343.5t355 135.5q210 0 313.5 -136t103.5 -387
q0 -88 -12 -188q-29 -237 -110 -414t-216.5 -279t-310.5 -102zM309 937q0 -125 64 -199.5t197 -74.5q154 0 260 87t120 196q5 47 5 83q0 69 -15.5 126t-47.5 104t-88.5 73.5t-132.5 26.5q-163 0 -262.5 -119t-99.5 -303z" />
    <glyph glyph-name="colon" unicode=":" horiz-adv-x="508" 
d="M104 4l23 197h186l-23 -197h-186zM207 845l23 196h186l-23 -196h-186z" />
    <glyph glyph-name="semicolon" unicode=";" horiz-adv-x="546" 
d="M32 -260l160 453h165l-215 -453h-110zM211 830l24 197h208l-24 -197h-208z" />
    <glyph glyph-name="less" unicode="&#x3c;" horiz-adv-x="1150" 
d="M872 88l-799 461l11 84l911 412l-17 -137l-732 -323l643 -362z" />
    <glyph glyph-name="equal" unicode="=" horiz-adv-x="1165" 
d="M111 313l15 122h883l-16 -122h-882zM156 694l16 124h883l-15 -124h-884z" />
    <glyph glyph-name="greater" unicode="&#x3e;" horiz-adv-x="1149" 
d="M156 87l16 136l727 328l-637 357l16 136l799 -457l-10 -81z" />
    <glyph glyph-name="question" unicode="?" horiz-adv-x="1086" 
d="M330 358l17 146q6 48 33.5 96t67.5 88.5t87 81.5t94 82.5t86.5 83t67.5 91t34 100.5q2 24 2 34q0 96 -71 143.5t-186 47.5q-82 0 -160.5 -24.5t-129.5 -53.5l17 136q146 66 308 66q175 0 272.5 -72.5t97.5 -214.5q0 -71 -26.5 -136.5t-69.5 -117t-95 -99t-105.5 -91
t-98.5 -84.5t-76 -88t-37 -94l-15 -121h-114zM256 -12l24 194h175l-24 -194h-175z" />
    <glyph glyph-name="at" unicode="@" horiz-adv-x="1737" 
d="M1186 267q-69 0 -109 34.5t-40 99.5q0 29 9 65q-45 -86 -130.5 -139.5t-186.5 -53.5q-115 0 -188.5 75t-73.5 205q0 33 4 62q30 229 173.5 379.5t324.5 150.5q96 0 153.5 -49.5t58.5 -138.5l56 154h114l-188 -531q-36 -106 -43 -154q-1 -4 -1 -13q0 -31 19.5 -50
t55.5 -19q62 0 124.5 43t111 115t79 174t30.5 211q0 227 -149.5 360t-394.5 133q-300 0 -514 -192t-253 -509q-7 -63 -7 -104q0 -263 167.5 -410.5t444.5 -147.5q156 0 299.5 48.5t234.5 132.5l56 -59q-90 -102 -253 -159t-353 -57q-329 0 -523.5 171.5t-194.5 471.5
q0 58 7 113q22 178 100.5 327.5t197 252t273.5 159.5t328 57q291 0 463 -157t172 -419q0 -131 -40 -250t-104 -201.5t-145.5 -131.5t-164.5 -49zM963 1045q-138 0 -241.5 -129t-125.5 -311q-3 -24 -3 -45q0 -85 43 -135t118 -50q128 0 229 122t133 306q6 35 6 66
q0 84 -41.5 130t-117.5 46z" />
    <glyph glyph-name="A" unicode="A" horiz-adv-x="1364" 
d="M-39 0l725 1456h169l371 -1456h-161l-98 394h-649l-193 -394h-164zM372 509h567q-97 428 -186 802q-127 -268 -381 -802z" />
    <glyph glyph-name="B" unicode="B" horiz-adv-x="1354" 
d="M124 0l178 1456h399q508 0 508 -307q0 -23 -3 -49q-18 -139 -95 -224t-208 -109q139 -17 215.5 -97.5t76.5 -211.5q0 -32 -4 -59q-23 -184 -167 -291.5t-391 -107.5h-509zM1039 459q0 124 -87 180t-283 56h-310l-70 -571h343q198 0 302.5 84t104.5 251zM374 817h301
q171 0 264 65.5t111 206.5q2 13 2 37q0 108 -88 157t-264 49h-262z" />
    <glyph glyph-name="C" unicode="C" horiz-adv-x="1394" 
d="M725 -22q-126 0 -239 41.5t-199.5 118t-137.5 193.5t-51 259q0 53 8 119q28 231 140 407t285 270.5t381 94.5q266 0 422 -144l-72 -99q-143 120 -357 120q-256 0 -432 -180t-211 -469q-7 -63 -7 -105q0 -233 131.5 -367.5t357.5 -134.5q229 0 437 134l36 -113
q-229 -145 -492 -145z" />
    <glyph glyph-name="D" unicode="D" horiz-adv-x="1531" 
d="M288 124h265q307 0 484 153t213 442q8 67 8 120q0 493 -596 493h-225zM124 0l178 1456h366q366 0 556.5 -151t190.5 -453q0 -62 -9 -133q-42 -349 -266 -534t-607 -185h-409z" />
    <glyph glyph-name="E" unicode="E" horiz-adv-x="1211" 
d="M124 0l178 1456h841l-15 -124h-691l-64 -520h653l-15 -124h-654l-70 -564h722l-14 -124h-871z" />
    <glyph glyph-name="F" unicode="F" horiz-adv-x="1103" 
d="M124 0l178 1456h808l-14 -124h-659l-65 -524h608l-15 -124h-608l-84 -684h-149z" />
    <glyph glyph-name="G" unicode="G" horiz-adv-x="1520" 
d="M747 -21q-310 0 -479.5 162t-169.5 443q0 54 8 121q21 171 92.5 315.5t180 246t254 158t310.5 56.5q276 0 456 -146l-75 -105q-174 128 -394 128q-267 0 -450.5 -179.5t-218.5 -469.5q-7 -52 -7 -107q0 -232 133 -366t379 -134q222 0 374 61l57 461h-389l16 125h531
l-82 -667q-231 -103 -526 -103z" />
    <glyph glyph-name="H" unicode="H" horiz-adv-x="1558" 
d="M124 0l178 1456h152l-80 -650h834l79 650h148l-178 -1456h-149l83 683h-833l-84 -683h-150z" />
    <glyph glyph-name="I" unicode="I" horiz-adv-x="597" 
d="M141 0l178 1456h150l-178 -1456h-150z" />
    <glyph glyph-name="J" unicode="J" horiz-adv-x="727" 
d="M52 -319q-68 0 -162 22l29 118q89 -17 138 -17q127 0 179 66.5t75 255.5l164 1330h150l-164 -1330q-16 -129 -48.5 -216t-85 -137t-118 -71t-157.5 -21z" />
    <glyph glyph-name="K" unicode="K" horiz-adv-x="1264" 
d="M124 0l178 1456h149l-81 -669l752 669h185l-787 -700l655 -756h-184l-631 719l-87 -719h-149z" />
    <glyph glyph-name="L" unicode="L" horiz-adv-x="1077" 
d="M124 0l178 1456h149l-163 -1332h679l-15 -124h-828z" />
    <glyph glyph-name="M" unicode="M" horiz-adv-x="1886" 
d="M124 0l178 1456h185q19 -60 168 -535t223 -727q137 252 407.5 727t304.5 535h172l-178 -1456h-143l149 1212l-81 -154l-606 -1058h-100l-335 1054l-48 182l-152 -1236h-144z" />
    <glyph glyph-name="N" unicode="N" horiz-adv-x="1585" 
d="M124 0l178 1456h155l611 -1073l95 -181l154 1254h144l-178 -1456h-154l-614 1061l-96 184l-152 -1245h-143z" />
    <glyph glyph-name="O" unicode="O" horiz-adv-x="1599" 
d="M724 102q251 0 411.5 168t195.5 456q8 69 8 124q0 236 -119.5 372t-340.5 136q-250 0 -414.5 -172.5t-199.5 -459.5q-8 -67 -8 -120q0 -235 122 -369.5t345 -134.5zM710 -21q-287 0 -448.5 165t-161.5 451q0 71 8 131q42 343 254 549t533 206q282 0 442.5 -168.5
t160.5 -455.5q0 -71 -8 -131q-41 -342 -251.5 -544.5t-528.5 -202.5z" />
    <glyph glyph-name="P" unicode="P" horiz-adv-x="1240" 
d="M124 0l178 1456h425q247 0 368 -70.5t121 -244.5q0 -30 -5 -73q-25 -206 -162 -296.5t-397 -90.5h-295l-84 -681h-149zM372 804h294q194 0 286 60t110 203q3 28 3 52q0 116 -77 164.5t-242 48.5h-32h-277z" />
    <glyph glyph-name="Q" unicode="Q" horiz-adv-x="1599" 
d="M724 102q251 0 411.5 168t195.5 456q8 69 8 124q0 236 -119.5 372t-340.5 136q-250 0 -414.5 -172.5t-199.5 -459.5q-8 -67 -8 -120q0 -235 122 -369.5t345 -134.5zM710 -21q-287 0 -448.5 165t-161.5 451q0 71 8 131q42 343 254 549t533 206q282 0 442.5 -168.5
t160.5 -455.5q0 -71 -8 -131q-33 -269 -173.5 -455.5t-360.5 -255.5q34 -76 89.5 -162t94.5 -133l38 -48l-98 -89q-19 23 -49.5 62t-98.5 145.5t-105 196.5q-61 -8 -117 -8z" />
    <glyph glyph-name="R" unicode="R" horiz-adv-x="1367" 
d="M862 716q41 -10 71 -26.5t50 -36.5t36 -56t26 -69.5t25 -92.5l108 -435h-152l-101 418q-19 79 -34 119.5t-42.5 71.5t-66.5 41t-105 10h-323l-81 -660h-149l178 1456h450q223 0 336.5 -71.5t113.5 -240.5q0 -177 -88 -290.5t-252 -137.5zM1049 1123q0 112 -68 160.5
t-214 48.5h-27h-302l-68 -549h313q175 0 270.5 83.5t95.5 256.5z" />
    <glyph glyph-name="S" unicode="S" horiz-adv-x="1172" 
d="M883 439q0 89 -58 139.5t-210 95.5q-6 2 -115 32q-168 48 -247.5 123.5t-79.5 210.5q0 211 142.5 326t374.5 115q76 0 141.5 -11.5t105 -25.5t76 -37t50 -35t31.5 -31l-84 -102q-40 46 -121 82.5t-202 36.5q-169 0 -263.5 -78.5t-94.5 -230.5q0 -83 48 -128t176 -83
q5 -2 57.5 -16.5t55.5 -15.5q206 -58 287 -135.5t81 -206.5q0 -230 -146 -357.5t-383 -127.5q-92 0 -172 18.5t-134 48.5t-83.5 52t-51.5 44l80 106q159 -146 372 -146q172 0 269.5 89t97.5 248z" />
    <glyph glyph-name="T" unicode="T" horiz-adv-x="1121" 
d="M395 0l164 1332h-476l15 124h1102l-15 -124h-477l-163 -1332h-150z" />
    <glyph glyph-name="U" unicode="U" horiz-adv-x="1487" 
d="M647 -21q-257 0 -380 115.5t-123 330.5q0 57 7 112l113 919h149l-113 -925q-6 -48 -6 -91q0 -338 370 -338q204 0 323.5 107t145.5 320l114 927h149l-113 -918q-34 -268 -192 -413.5t-444 -145.5z" />
    <glyph glyph-name="V" unicode="V" horiz-adv-x="1365" 
d="M513 0l-362 1456h162q50 -216 151.5 -648.5t152.5 -648.5q90 195 192.5 410t230.5 481t195 406h157l-714 -1456h-165z" />
    <glyph glyph-name="W" unicode="W" horiz-adv-x="2029" 
d="M388 0l-209 1456h160l146 -1123l15 -173l66 171l471 1125h149q22 -129 102 -583t120 -704q114 315 467 1287h153l-552 -1456h-176l-212 1260l-526 -1260h-174z" />
    <glyph glyph-name="X" unicode="X" horiz-adv-x="1310" 
d="M-11 0l590 740l-396 716h175l323 -601l460 601h165l-555 -710l395 -746h-169l-325 626l-496 -626h-167z" />
    <glyph glyph-name="Y" unicode="Y" horiz-adv-x="1237" 
d="M452 0l71 583l-384 873h161l317 -743l504 743h159l-606 -870l-72 -586h-150z" />
    <glyph glyph-name="Z" unicode="Z" horiz-adv-x="1183" 
d="M27 0l9 82l926 1250h-739l15 124h931l-9 -78l-930 -1254h772l-15 -124h-960z" />
    <glyph glyph-name="bracketleft" unicode="[" horiz-adv-x="688" 
d="M87 -274l210 1721h404l-13 -107h-265l-184 -1508h265l-13 -106h-404z" />
    <glyph glyph-name="backslash" unicode="\" horiz-adv-x="813" 
d="M507 40l-325 1416h132l327 -1416h-134z" />
    <glyph glyph-name="bracketright" unicode="]" horiz-adv-x="688" 
d="M43 -274l13 106h266l185 1508h-267l13 107h406l-211 -1721h-405z" />
    <glyph glyph-name="asciicircum" unicode="^" horiz-adv-x="1675" 
d="M276 584l567 872h86l363 -872h-131l-293 725l-461 -725h-131z" />
    <glyph glyph-name="underscore" unicode="_" horiz-adv-x="894" 
d="M-6 -277l14 113h892l-14 -113h-892z" />
    <glyph glyph-name="grave" unicode="`" horiz-adv-x="589" 
d="M394 1174l-288 320h187l205 -320h-104z" />
    <glyph glyph-name="a" unicode="a" horiz-adv-x="1263" 
d="M651 1052q119 0 205 -58t119 -150l23 182h140l-126 -1026h-141l24 195q-59 -100 -157 -158t-221 -58q-201 0 -312.5 122.5t-111.5 323.5q0 273 158 450t400 177zM237 439q0 -158 80 -251t230 -93q163 0 265.5 115t126.5 312q5 47 5 80q0 154 -77 244t-218 90
q-185 0 -298.5 -139t-113.5 -358z" />
    <glyph glyph-name="b" unicode="b" horiz-adv-x="1266" 
d="M606 -21q-132 0 -226 63.5t-122 164.5l-29 -207h-143q3 19 18.5 122.5t21.5 146.5l151 1232h141l-83 -676q54 98 162.5 162.5t241.5 64.5q190 0 298 -116.5t108 -316.5q0 -141 -42.5 -262t-115 -203t-171.5 -128.5t-210 -46.5zM1000 607q0 153 -75 241t-214 88
q-184 0 -303 -138t-119 -357q0 -160 84.5 -253t234.5 -93q176 0 284 143t108 369z" />
    <glyph glyph-name="c" unicode="c" horiz-adv-x="1043" 
d="M237 434q0 -157 89.5 -248t246.5 -91q168 0 312 100l34 -99q-149 -117 -367 -117q-214 0 -337 120.5t-123 322.5q0 35 5 82q30 247 192.5 397.5t401.5 150.5q97 0 179.5 -29.5t131.5 -81.5l-61 -97q-94 92 -258 92q-190 0 -318 -137t-128 -365z" />
    <glyph glyph-name="d" unicode="d" 
d="M608 1052q127 0 218.5 -61.5t120.5 -155.5l81 666h142l-152 -1234q-12 -101 -25 -267h-143l21 207q-49 -100 -156 -164t-243 -64q-187 0 -297 118.5t-110 322.5q0 278 153 455t390 177zM915 598q0 155 -82 246.5t-229 91.5q-177 0 -285.5 -141t-108.5 -364
q0 -156 74.5 -246t214.5 -90q183 0 299.5 140t116.5 363z" />
    <glyph glyph-name="e" unicode="e" horiz-adv-x="1150" 
d="M1046 497h-805q-4 -31 -4 -67q0 -158 91 -246.5t250 -88.5q192 0 350 114l34 -102q-84 -61 -189.5 -94.5t-213.5 -33.5q-218 0 -342.5 119.5t-124.5 324.5q0 41 6 86q29 243 184.5 393t382.5 150q189 0 292 -111t103 -301q0 -76 -14 -143zM259 596h675q1 12 1 34
q0 145 -75 226.5t-206 81.5q-145 0 -251.5 -92t-143.5 -250z" />
    <glyph glyph-name="f" unicode="f" horiz-adv-x="665" 
d="M155 0l115 932h-179l12 94h178l15 121q10 78 24 129t41.5 95.5t71 69t110.5 38t162 13.5h41l-16 -113q-64 0 -107.5 -3.5t-75 -15.5t-49.5 -25t-30 -41t-17 -54t-11 -73l-18 -141h254l-11 -94h-254l-115 -932h-141z" />
    <glyph glyph-name="g" unicode="g" horiz-adv-x="1268" 
d="M472 -431q-194 0 -355 77l36 123q157 -83 330 -83q178 0 290 101t138 313l14 114q-55 -99 -157.5 -157t-232.5 -58q-191 0 -304 114t-113 312q0 43 6 90q30 243 177 390t371 147q125 0 210.5 -57.5t120.5 -149.5l29 181h142q-31 -177 -38 -233l-81 -666
q-34 -266 -186.5 -412t-396.5 -146zM971 601q0 155 -79 245t-222 90q-177 0 -291.5 -140.5t-114.5 -360.5q0 -152 76.5 -237.5t214.5 -85.5q186 0 301 135.5t115 353.5z" />
    <glyph glyph-name="h" unicode="h" horiz-adv-x="1246" 
d="M89 0l184 1501h141l-80 -655q62 93 169.5 149.5t232.5 56.5q148 0 238.5 -84.5t90.5 -244.5q0 -30 -5 -73l-80 -650h-142l79 637q6 45 6 83q0 110 -51 163t-162 53q-143 0 -265.5 -95t-137.5 -216l-77 -625h-141z" />
    <glyph glyph-name="i" unicode="i" horiz-adv-x="599" 
d="M185 0l126 1026h141l-126 -1026h-141zM348 1316l16 140h140l-17 -140h-139z" />
    <glyph glyph-name="j" unicode="j" horiz-adv-x="503" 
d="M286 1312l18 144h140l-18 -144h-140zM-70 -434q-69 0 -110 10l14 127q43 -8 74 -8q107 0 167 79t81 249l123 1003h144l-113 -917q-7 -58 -15 -104.5t-22.5 -105.5t-33 -103t-47.5 -89.5t-65 -74.5t-86.5 -47.5t-110.5 -18.5z" />
    <glyph glyph-name="k" unicode="k" horiz-adv-x="1078" 
d="M93 0l184 1501h141l-114 -933l552 458h191l-598 -486l511 -540h-186l-477 510l-63 -510h-141z" />
    <glyph glyph-name="l" unicode="l" horiz-adv-x="517" 
d="M99 0l184 1501h141l-184 -1501h-141z" />
    <glyph glyph-name="m" unicode="m" horiz-adv-x="1913" 
d="M125 0l101 819q6 48 17 207h140l-17 -186q59 102 160.5 157t222.5 55t196.5 -62t94.5 -181q69 117 177.5 180t234.5 63q152 0 229 -85t77 -246q0 -45 -6 -96l-78 -625h-141l76 618q6 47 6 86q0 232 -186 232q-140 0 -243 -89t-139 -240l-75 -607h-142l78 626q5 45 5 78
q0 111 -47.5 171.5t-144.5 60.5q-134 0 -233.5 -77.5t-139.5 -206.5l-81 -652h-142z" />
    <glyph glyph-name="n" unicode="n" horiz-adv-x="1251" 
d="M125 0l99 811q5 43 9.5 96.5t6.5 86.5l2 32h140l-17 -184q65 101 173 155.5t230 54.5q325 0 325 -342q0 -55 -7 -110l-74 -600h-142l75 600q6 52 6 96q0 121 -50.5 180.5t-162.5 59.5q-133 0 -242.5 -77t-148.5 -199l-81 -660h-141z" />
    <glyph glyph-name="o" unicode="o" horiz-adv-x="1244" 
d="M1004 591q0 161 -85 253t-245 92q-179 0 -292.5 -115t-137.5 -310q-5 -43 -5 -76q0 -158 85.5 -249t246.5 -91q197 0 315 137t118 359zM557 -21q-220 0 -342.5 120.5t-122.5 324.5q0 42 6 87q30 245 189.5 393t402.5 148q218 0 339.5 -121.5t121.5 -328.5q0 -44 -6 -91
q-30 -240 -188 -386t-400 -146z" />
    <glyph glyph-name="p" unicode="p" horiz-adv-x="1263" 
d="M662 -24q-130 0 -224.5 59.5t-119.5 153.5l-80 -648h-140l147 1202q14 113 26 283h146l-24 -215q49 102 161 170t242 68q188 0 294.5 -119.5t106.5 -320.5q0 -276 -152 -454.5t-383 -178.5zM1052 599q0 155 -74 244.5t-213 89.5q-181 0 -299 -145t-118 -368
q0 -153 82 -240.5t231 -87.5q177 0 284 141.5t107 365.5z" />
    <glyph glyph-name="q" unicode="q" horiz-adv-x="1258" 
d="M495 -24q-186 0 -294.5 119t-108.5 317q0 90 26 197q50 201 186.5 320.5t324.5 119.5q130 0 225 -68t119 -170l29 215h146q-26 -141 -44 -283l-153 -1202h-140l82 648q-49 -94 -158.5 -153.5t-239.5 -59.5zM942 585q0 158 -83.5 253t-227.5 95q-138 0 -234.5 -89.5
t-135.5 -244.5q-24 -96 -24 -179q0 -151 75.5 -239.5t212.5 -88.5q186 0 301.5 138t115.5 355z" />
    <glyph glyph-name="r" unicode="r" horiz-adv-x="786" 
d="M128 0l95 775q6 46 11 108.5t7 102.5l2 40h147l-16 -175q51 100 133 149t180 49q54 0 101 -10l-18 -127q-55 12 -103 12q-130 0 -218 -89t-110 -270l-70 -565h-141z" />
    <glyph glyph-name="s" unicode="s" horiz-adv-x="957" 
d="M698 295q0 59 -41.5 91.5t-143.5 67.5l-141 46q-110 38 -165 89t-55 144q0 83 33 146t90.5 100t129 55t156.5 18q195 0 314 -83l-54 -102q-118 69 -264 69q-263 0 -263 -184q0 -51 32 -77.5t119 -55.5q2 -1 146 -49q61 -22 101.5 -42t75 -48.5t50.5 -66t16 -87.5
q0 -90 -34.5 -159t-93 -109t-128 -59.5t-147.5 -19.5q-213 0 -359 120l58 107q138 -109 307 -109q49 0 91 8.5t82.5 29t64 61.5t23.5 99z" />
    <glyph glyph-name="t" unicode="t" horiz-adv-x="745" 
d="M565 -1q-5 0 -33 0.5t-32 0.5q-118 3 -185 30t-91.5 72.5t-24.5 121.5q0 39 9 116l73 592h-200l12 94h201l34 279l145 41l-40 -320h256l-12 -94h-255l-73 -598q-8 -59 -8 -93q0 -78 48 -103t190 -25z" />
    <glyph glyph-name="u" unicode="u" 
d="M505 -24q-172 0 -258 87.5t-86 249.5q0 43 6 89l76 624h141l-77 -626q-5 -42 -5 -70q0 -238 232 -238q79 0 148.5 27t115.5 69.5t74.5 92.5t34.5 98l80 647h141l-97 -787q-15 -127 -22 -239h-138l15 178q-145 -202 -381 -202z" />
    <glyph glyph-name="v" unicode="v" horiz-adv-x="1002" 
d="M369 0l-300 1026h151q11 -39 104.5 -375.5t136.5 -516.5l76 160l379 732h149l-552 -1026h-144z" />
    <glyph glyph-name="w" unicode="w" horiz-adv-x="1594" 
d="M294 0l-193 1026h150q15 -89 66.5 -395.5t81.5 -471.5q76 170 220.5 479.5t180.5 387.5h153q30 -144 90 -434t90 -434q57 145 171.5 434t171.5 434h143l-435 -1026h-151q-120 580 -179 871q-68 -146 -410 -871h-150z" />
    <glyph glyph-name="x" unicode="x" horiz-adv-x="1090" 
d="M-11 0l479 519l-326 509l157 -2l257 -412l375 412h154l-459 -509l347 -517h-154l-283 426l-394 -426h-153z" />
    <glyph glyph-name="y" unicode="y" horiz-adv-x="1024" 
d="M94 -425l-42 99q247 70 344 265l27 54l-282 1033h149l222 -875l433 875h141l-547 -1079q-70 -140 -181 -240t-264 -132z" />
    <glyph glyph-name="z" unicode="z" horiz-adv-x="952" 
d="M34 0l10 79l690 831h-568l14 116h749l-9 -77l-688 -834h587l-14 -115h-771z" />
    <glyph glyph-name="braceleft" unicode="{" horiz-adv-x="848" 
d="M551 1145l-34 -276q-26 -222 -211 -280q145 -52 145 -231q0 -33 -4 -61l-33 -272q-4 -36 -4 -51q0 -65 44 -92t165 -27h12l-13 -111q-104 1 -174 16t-108 45t-53 66t-15 86q0 33 4 61l32 267q5 43 5 73q0 89 -44.5 134.5t-155.5 57.5l10 84q131 13 187.5 73t72.5 183
l32 267q6 52 17.5 89t39.5 75.5t71.5 62.5t116 39t170.5 15l-14 -110h-9q-77 0 -125 -11.5t-74 -37.5t-36.5 -55t-16.5 -79z" />
    <glyph glyph-name="bar" unicode="|" horiz-adv-x="1317" 
d="M464 -499l252 2053h137l-252 -2053h-137z" />
    <glyph glyph-name="braceright" unicode="}" horiz-adv-x="816" 
d="M2 -256l14 111h9q77 0 125.5 11.5t74 37.5t36 55.5t16.5 78.5l34 276q28 223 211 279q-144 53 -144 230q0 34 4 63l33 272q4 36 4 50q0 66 -44 93t-166 27h-12l14 110q104 0 174 -15t108 -45t53 -66t15 -86q0 -33 -4 -61l-33 -267q-5 -43 -5 -72q0 -89 45 -135t156 -58
l-11 -84q-131 -13 -187 -73t-72 -183l-33 -267q-6 -52 -17.5 -89t-39.5 -76t-71.5 -63t-116 -39t-170.5 -15z" />
    <glyph glyph-name="asciitilde" unicode="~" horiz-adv-x="1085" 
d="M127 396l-90 46q36 107 107 163.5t188 56.5q77 0 231 -58q15 -6 55 -21.5t52.5 -20t37 -12.5t40 -10.5t31.5 -2.5q66 0 116.5 51t78.5 127l100 -33q-43 -122 -122 -193.5t-190 -71.5q-10 0 -20 1t-22.5 3.5t-21.5 4.5t-24.5 7t-23.5 7.5t-25.5 9t-24 9t-27 10.5t-25.5 10
q-85 35 -133 49.5t-96 14.5q-79 0 -123 -36t-69 -111z" />
    <glyph glyph-name="uni007F" horiz-adv-x="1521" 
d="M286 124h801l148 1206h-801zM99 0l178 1456h1145l-178 -1456h-1145z" />
    <glyph glyph-name="uni00A0" unicode="&#xa0;" horiz-adv-x="599" 
 />
    <glyph glyph-name="exclamdown" unicode="&#xa1;" horiz-adv-x="481" 
d="M244 1122h171l-25 -190h-171zM241 752h82l-94 -1086h-169z" />
    <glyph glyph-name="cent" unicode="&#xa2;" horiz-adv-x="999" 
d="M485 -196l177 1449h79l-177 -1449h-79zM237 434q0 -157 89.5 -248t246.5 -91q168 0 312 100l34 -99q-149 -117 -367 -117q-214 0 -337 120.5t-123 322.5q0 35 5 82q30 247 192.5 397.5t401.5 150.5q97 0 179.5 -29.5t131.5 -81.5l-61 -97q-94 92 -258 92
q-190 0 -318 -137t-128 -365z" />
    <glyph glyph-name="sterling" unicode="&#xa3;" horiz-adv-x="1170" 
d="M59 0l16 127q97 58 158 185t77 258l17 135h-195l12 100h195l20 165q61 507 483 507q98 0 161.5 -22t87.5 -53l-56 -106q-19 18 -71.5 36t-119.5 18q-154 0 -232.5 -91t-99.5 -255l-24 -199h377l-12 -100h-375l-16 -135q-11 -89 -37.5 -170t-58.5 -135t-59.5 -88.5
t-49.5 -50.5h681l-15 -126h-864z" />
    <glyph glyph-name="currency" unicode="&#xa4;" horiz-adv-x="1218" 
d="M344 1279l-171 195l57 51l173 -196q115 83 253 83q135 0 233 -82l219 195l45 -51l-217 -193q68 -90 68 -206q0 -164 -122 -293l163 -185l-57 -51l-163 186q-121 -90 -263 -90q-144 0 -241 91l-210 -187l-45 51l210 187q-61 86 -61 196q0 170 129 299zM913 1070
q0 115 -74.5 189.5t-192.5 74.5q-139 0 -241 -100t-102 -249q0 -117 74 -194.5t192 -77.5q139 0 241.5 104t102.5 253z" />
    <glyph glyph-name="yen" unicode="&#xa5;" horiz-adv-x="1182" 
d="M155 315l11 91h345l16 139h-344l11 94h761l-11 -94h-338l-16 -139h336l-12 -91h-759zM452 0l71 583l-384 873h161l317 -743l504 743h159l-606 -870l-72 -586h-150z" />
    <glyph glyph-name="brokenbar" unicode="&#xa6;" horiz-adv-x="500" 
d="M77 -499l109 887h128l-109 -887h-128zM225 702l104 852h128l-104 -852h-128z" />
    <glyph glyph-name="section" unicode="&#xa7;" horiz-adv-x="1046" 
d="M677 222q0 15 -3.5 29t-12.5 27t-18 23.5t-27 23t-31.5 21.5t-39.5 23t-43 23t-50 25.5t-54 27.5q-106 55 -155 106t-49 129q0 102 75 174.5t185 104.5q-92 55 -131 102.5t-39 117.5q0 79 35 141t93 99t128 55.5t146 18.5q120 0 219 -39l-12 -103q-98 40 -206 40
q-72 0 -130.5 -18.5t-99 -63.5t-40.5 -112q0 -51 43 -89.5t164 -102.5q140 -75 181 -106q83 -66 84 -150q0 -172 -240 -294q79 -43 120.5 -94t41.5 -121q0 -10 -2 -30q-12 -97 -70.5 -164.5t-143.5 -98t-190 -30.5q-146 0 -284 53l15 112q148 -62 276 -62q116 0 190.5 52
t74.5 150zM567 503q82 39 133 96.5t51 130.5q0 48 -38.5 79t-136.5 82l-36 18q-100 -37 -159.5 -85t-59.5 -117q0 -27 13 -50.5t29 -40t55 -39t64.5 -35t84.5 -39.5z" />
    <glyph glyph-name="dieresis" unicode="&#xa8;" horiz-adv-x="743" 
d="M107 1196l19 148h142l-19 -148h-142zM477 1196l18 148h143l-19 -148h-142z" />
    <glyph glyph-name="copyright" unicode="&#xa9;" horiz-adv-x="1738" 
d="M955 1179q74 0 138.5 -24.5t105.5 -68.5l-51 -82q-36 34 -91.5 54t-113.5 20q-45 0 -89 -11t-89 -38t-81 -67t-62.5 -103t-36.5 -141q-4 -29 -4 -65q0 -131 70.5 -204t192.5 -73q148 0 256 76l28 -86q-118 -90 -292 -90q-172 0 -276 97t-104 270q0 122 40.5 224
t109.5 169.5t159 105t190 37.5zM789 60q176 0 337.5 90t267 242.5t127.5 329.5q5 45 5 81q0 161 -73.5 294.5t-205.5 211.5t-295 78q-133 0 -261 -53.5t-226.5 -143t-165 -212.5t-83.5 -256q-5 -45 -5 -80q0 -160 74 -293t207 -211t297 -78zM775 -32q-189 0 -343.5 88
t-241.5 240t-87 337q0 45 6 93q19 154 96.5 294.5t192 242t262 162t301.5 60.5q191 0 346 -88.5t242 -241t87 -337.5q0 -46 -6 -92q-26 -205 -150 -380t-311.5 -276.5t-393.5 -101.5z" />
    <glyph glyph-name="ordfeminine" unicode="&#xaa;" horiz-adv-x="741" 
d="M378 1189h172l3 26q4 28 4 56q0 61 -30 88t-103 27q-57 0 -119 -13.5t-95 -26.5l-33 -14l-20 81q14 8 39 19t99 29.5t142 18.5q106 0 171.5 -48.5t65.5 -147.5q0 -11 -11.5 -102.5t-22.5 -178t-12 -86.5q-3 -23 -9 -121h-117l10 93q-37 -51 -99.5 -79.5t-132.5 -28.5
q-101 0 -160 48.5t-59 128.5q0 111 82.5 171t234.5 60zM180 973q0 -99 127 -99q104 0 162.5 61t69.5 151l3 27h-48q-40 0 -63.5 -0.5t-56 -1.5t-51 -3.5t-42 -7.5t-36.5 -12t-27.5 -17.5t-21.5 -24.5t-11.5 -32t-4.5 -41z" />
    <glyph glyph-name="guillemotleft" unicode="&#xab;" horiz-adv-x="1079" 
d="M343 178l-222 366l318 372h138l-299 -371l200 -367h-135zM765 178l-221 366l317 372h138l-300 -371l201 -367h-135z" />
    <glyph glyph-name="logicalnot" unicode="&#xac;" horiz-adv-x="1468" 
d="M1101 242l52 428h-914l15 124h1043l-68 -552h-128z" />
    <glyph glyph-name="uni00AD" unicode="&#xad;" horiz-adv-x="636" 
d="M58 507l13 107h507l-13 -107h-507z" />
    <glyph glyph-name="registered" unicode="&#xae;" horiz-adv-x="1738" 
d="M503 269l114 928h262q199 0 290.5 -55.5t91.5 -163.5q0 -24 -2 -37q-12 -104 -69 -165t-190 -84l173 -423h-151l-155 410h-183l-50 -410h-131zM1120 967q0 75 -55 98t-212 23h-121l-39 -318h135q161 0 226.5 39.5t65.5 157.5zM789 60q176 0 337.5 90t267 242.5
t127.5 329.5q5 45 5 81q0 161 -73.5 294.5t-205.5 211.5t-295 78q-133 0 -261 -53.5t-226.5 -143t-165 -212.5t-83.5 -256q-5 -45 -5 -80q0 -160 74 -293t207 -211t297 -78zM775 -32q-189 0 -343.5 88t-241.5 240t-87 337q0 45 6 93q19 154 96.5 294.5t192 242t262 162
t301.5 60.5q191 0 346 -88.5t242 -241t87 -337.5q0 -46 -6 -92q-26 -205 -150 -380t-311.5 -276.5t-393.5 -101.5z" />
    <glyph glyph-name="macron" unicode="&#xaf;" horiz-adv-x="697" 
d="M64 1239l12 99h557l-12 -99h-557z" />
    <glyph glyph-name="degree" unicode="&#xb0;" horiz-adv-x="833" 
d="M606 1178q0 71 -43.5 117t-122.5 46q-93 0 -153.5 -63.5t-60.5 -155.5q0 -72 43 -118.5t124 -46.5q96 0 154.5 64t58.5 157zM452 1439q118 0 191 -72t73 -180q0 -138 -99 -234t-236 -96q-117 0 -190.5 73t-73.5 182q0 138 99 232.5t236 94.5z" />
    <glyph glyph-name="plusminus" unicode="&#xb1;" horiz-adv-x="1206" 
d="M506 232l45 363h-348l15 125h347l44 364h127l-44 -364h335l-15 -125h-333l-45 -363h-128zM112 0l14 112h863l-13 -112h-864z" />
    <glyph glyph-name="uni00B2" unicode="&#xb2;" horiz-adv-x="1028" 
d="M199 625l11 85l318 286q90 81 127.5 134.5t43.5 105.5q1 6 1 18q0 49 -33.5 79.5t-103.5 30.5q-68 0 -122 -36t-80 -111l-71 43q31 92 108 144t180 52q108 0 168.5 -51.5t60.5 -135.5q0 -10 -2 -30q-9 -80 -59 -149t-162 -167l-238 -209h396l-12 -89h-531z" />
    <glyph glyph-name="uni00B3" unicode="&#xb3;" horiz-adv-x="971" 
d="M610 869q0 61 -46 95t-133 34h-85l12 92h82q92 0 145 40.5t53 116.5q0 55 -37 86t-101 31q-116 0 -202 -80l-43 68q44 47 114.5 75.5t145.5 28.5q104 0 167 -51.5t63 -141.5q0 -80 -42 -136t-124 -78q67 -18 102.5 -64.5t35.5 -111.5q0 -9 -2 -27q-15 -112 -97.5 -177.5
t-201.5 -65.5q-73 0 -139 24.5t-106 67.5l56 80q37 -37 90.5 -59t106.5 -22q79 0 132.5 48t53.5 127z" />
    <glyph glyph-name="acute" unicode="&#xb4;" horiz-adv-x="607" 
d="M76 1173l255 321h185l-335 -321h-105z" />
    <glyph glyph-name="mu" unicode="&#xb5;" 
d="M238 -304l-141 2l163 1328h141l-77 -626q-5 -42 -5 -70q0 -238 233 -238q79 0 148.5 27t115.5 69.5t74.5 92t34.5 98.5l79 647h141l-96 -787q-15 -121 -23 -239h-138l15 178q-145 -202 -381 -202q-160 0 -240 81z" />
    <glyph glyph-name="paragraph" unicode="&#xb6;" horiz-adv-x="1201" 
d="M404 -180l123 1008h-7q-129 0 -223.5 72t-94.5 198q0 25 2 38q11 91 51.5 155t108 99.5t150.5 51t192 15.5h421l-13 -109h-97l-187 -1528h-105l187 1528h-217l-187 -1528h-104z" />
    <glyph glyph-name="periodcentered" unicode="&#xb7;" horiz-adv-x="509" 
d="M252 525l23 180h163l-22 -180h-164z" />
    <glyph glyph-name="cedilla" unicode="&#xb8;" horiz-adv-x="529" 
d="M44 -384l22 77q20 -10 64.5 -19t83.5 -9q114 0 114 78q0 32 -41 50.5t-117 18.5h-14l57 195h78l-38 -136q198 -16 198 -126q0 -58 -37.5 -96.5t-88.5 -52.5t-112 -14q-90 0 -169 34z" />
    <glyph glyph-name="uni00B9" unicode="&#xb9;" horiz-adv-x="976" 
d="M232 633l12 90h152l74 609q-4 -2 -167 -72l13 101q13 4 91 40t91 43l89 4l-89 -726h140l-11 -89h-395z" />
    <glyph glyph-name="ordmasculine" unicode="&#xba;" horiz-adv-x="868" 
d="M665 1172q0 95 -52.5 147.5t-148.5 52.5q-114 0 -185 -78.5t-71 -209.5q0 -95 51 -146.5t149 -51.5q114 0 185.5 78.5t71.5 207.5zM393 779q-154 0 -235.5 82.5t-81.5 216.5q0 26 3 55q19 152 126.5 251t274.5 99q151 0 231.5 -82t80.5 -216q0 -175 -110.5 -290.5
t-288.5 -115.5z" />
    <glyph glyph-name="guillemotright" unicode="&#xbb;" horiz-adv-x="1079" 
d="M78 174l300 370l-201 368h135l222 -367l-317 -371h-139zM501 174l300 370l-201 368h135l221 -367l-317 -371h-138z" />
    <glyph glyph-name="onequarter" unicode="&#xbc;" horiz-adv-x="1812" 
d="M160 640l11 87h160l76 617l-174 -70l13 96q9 3 96 42.5t93 43.5h93l-89 -730h145l-11 -86h-413zM1314 0l22 187h-386l11 82l435 524h122l-63 -515h97l-12 -91h-99l-22 -187h-105zM318 0l1094 1456h113l-1085 -1456h-122zM1070 278h276l48 392z" />
    <glyph glyph-name="onehalf" unicode="&#xbd;" horiz-adv-x="1845" 
d="M1011 0l11 98l318 278q96 85 129.5 132t38.5 102q0 2 0.5 7t0.5 8q0 50 -32 81t-102 31q-67 0 -122.5 -35t-83.5 -108l-68 49q34 89 111.5 139.5t178.5 50.5q109 0 170 -53t61 -141q0 -18 -1 -27q-9 -87 -55.5 -149.5t-168.5 -165.5l-230 -200h391l-11 -97h-536zM275 0
l1094 1456h113l-1085 -1456h-122zM156 640l11 87h160l76 617l-173 -70l13 96q9 3 95.5 42.5t92.5 43.5h93l-89 -730h145l-11 -86h-413z" />
    <glyph glyph-name="threequarters" unicode="&#xbe;" horiz-adv-x="1863" 
d="M613 870q0 60 -45.5 94t-129.5 34h-88l12 91h86q89 0 141 42t52 116q0 55 -38 88t-101 33q-114 0 -201 -80l-44 66q46 47 116.5 75t145.5 28q106 0 169.5 -51.5t63.5 -142.5q0 -77 -42.5 -131.5t-121.5 -79.5q65 -19 100.5 -66t35.5 -110q0 -124 -89 -198t-214 -74
q-74 0 -140 24.5t-107 67.5l57 79q83 -81 196 -81q78 0 132 49.5t54 126.5zM1347 0l23 187h-386l10 82l435 524h123l-63 -515h96l-12 -91h-98l-23 -187h-105zM380 0l1095 1456h113l-1085 -1456h-123zM1104 278h275l48 392z" />
    <glyph glyph-name="questiondown" unicode="&#xbf;" horiz-adv-x="1032" 
d="M705 755l-17 -146q-6 -48 -33.5 -96t-67.5 -88.5t-87 -81.5t-94 -82.5t-86.5 -83t-67.5 -91t-34 -100.5q-2 -24 -2 -34q0 -96 71 -143.5t186 -47.5q82 0 160.5 24.5t129.5 53.5l-17 -136q-146 -66 -308 -66q-175 0 -272.5 72.5t-97.5 214.5q0 71 26.5 136.5t69.5 117
t95 99t105.5 91t98.5 84.5t76 88t37 94l15 121h114zM779 1125l-24 -194h-175l24 194h175z" />
    <glyph glyph-name="Agrave" unicode="&#xc0;" horiz-adv-x="1364" 
d="M734 1604l-288 320h187l205 -320h-104zM-39 0l725 1456h169l371 -1456h-161l-98 394h-649l-193 -394h-164zM372 509h567q-97 428 -186 802q-127 -268 -381 -802z" />
    <glyph glyph-name="Aacute" unicode="&#xc1;" horiz-adv-x="1364" 
d="M742 1603l255 321h185l-335 -321h-105zM-39 0l725 1456h169l371 -1456h-161l-98 394h-649l-193 -394h-164zM372 509h567q-97 428 -186 802q-127 -268 -381 -802z" />
    <glyph glyph-name="Acircumflex" unicode="&#xc2;" horiz-adv-x="1364" 
d="M520 1615l258 309h110l180 -309h-106l-146 201l-196 -201h-100zM-39 0l725 1456h169l371 -1456h-161l-98 394h-649l-193 -394h-164zM372 509h567q-97 428 -186 802q-127 -268 -381 -802z" />
    <glyph glyph-name="Atilde" unicode="&#xc3;" horiz-adv-x="1364" 
d="M660 1733q-62 0 -77 -87h-90q11 89 57 139t116 50q54 0 154.5 -49.5t133.5 -49.5q28 0 41 21.5t20 71.5h94q-11 -89 -51 -142t-110 -53q-49 0 -151.5 49.5t-136.5 49.5zM-39 0l725 1456h169l371 -1456h-161l-98 394h-649l-193 -394h-164zM372 509h567q-97 428 -186 802
q-127 -268 -381 -802z" />
    <glyph glyph-name="Adieresis" unicode="&#xc4;" horiz-adv-x="1364" 
d="M535 1626l19 148h142l-19 -148h-142zM905 1626l18 148h143l-19 -148h-142zM-39 0l725 1456h169l371 -1456h-161l-98 394h-649l-193 -394h-164zM372 509h567q-97 428 -186 802q-127 -268 -381 -802z" />
    <glyph glyph-name="Aring" unicode="&#xc5;" horiz-adv-x="1364" 
d="M913 1762q0 42 -26 69.5t-68 27.5q-47 0 -83.5 -36t-36.5 -89q0 -42 26 -69.5t67 -27.5q48 0 84.5 36t36.5 89zM829 1930q73 0 120 -44.5t47 -113.5q0 -89 -63 -147.5t-149 -58.5q-74 0 -120.5 44.5t-46.5 114.5q0 88 63.5 146.5t148.5 58.5zM-39 0l725 1456h169
l371 -1456h-161l-98 394h-649l-193 -394h-164zM372 509h567q-97 428 -186 802q-127 -268 -381 -802z" />
    <glyph glyph-name="AE" unicode="&#xc6;" horiz-adv-x="1961" 
d="M-59 0l1017 1456h963l-15 -126h-711l-21 -518h617l-14 -117h-609l-19 -572h633l-14 -123h-758l14 430h-632l-297 -430h-154zM461 542h564l37 788h-57z" />
    <glyph glyph-name="Ccedilla" unicode="&#xc7;" horiz-adv-x="1394" 
d="M513 -384l22 77q20 -10 64.5 -19t83.5 -9q114 0 114 78q0 32 -41 50.5t-117 18.5h-14l57 195h78l-38 -136q198 -16 198 -126q0 -58 -37.5 -96.5t-88.5 -52.5t-112 -14q-90 0 -169 34zM725 -22q-126 0 -239 41.5t-199.5 118t-137.5 193.5t-51 259q0 53 8 119
q28 231 140 407t285 270.5t381 94.5q266 0 422 -144l-72 -99q-143 120 -357 120q-256 0 -432 -180t-211 -469q-7 -63 -7 -105q0 -233 131.5 -367.5t357.5 -134.5q229 0 437 134l36 -113q-229 -145 -492 -145z" />
    <glyph glyph-name="Egrave" unicode="&#xc8;" horiz-adv-x="1212" 
d="M694 1604l-288 320h187l205 -320h-104zM124 0l178 1456h841l-15 -124h-691l-64 -520h653l-15 -124h-654l-70 -564h722l-14 -124h-871z" />
    <glyph glyph-name="Eacute" unicode="&#xc9;" horiz-adv-x="1212" 
d="M702 1603l255 321h185l-335 -321h-105zM124 0l178 1456h841l-15 -124h-691l-64 -520h653l-15 -124h-654l-70 -564h722l-14 -124h-871z" />
    <glyph glyph-name="Ecircumflex" unicode="&#xca;" horiz-adv-x="1212" 
d="M480 1615l258 309h110l180 -309h-106l-146 201l-196 -201h-100zM124 0l178 1456h841l-15 -124h-691l-64 -520h653l-15 -124h-654l-70 -564h722l-14 -124h-871z" />
    <glyph glyph-name="Edieresis" unicode="&#xcb;" horiz-adv-x="1212" 
d="M495 1626l19 148h142l-19 -148h-142zM865 1626l18 148h143l-19 -148h-142zM124 0l178 1456h841l-15 -124h-691l-64 -520h653l-15 -124h-654l-70 -564h722l-14 -124h-871z" />
    <glyph glyph-name="Igrave" unicode="&#xcc;" horiz-adv-x="597" 
d="M361 1604l-288 320h187l205 -320h-104zM141 0l178 1456h150l-178 -1456h-150z" />
    <glyph glyph-name="Iacute" unicode="&#xcd;" horiz-adv-x="597" 
d="M369 1603l255 321h185l-335 -321h-105zM141 0l178 1456h150l-178 -1456h-150z" />
    <glyph glyph-name="Icircumflex" unicode="&#xce;" horiz-adv-x="597" 
d="M148 1615l258 309h110l180 -309h-106l-146 201l-196 -201h-100zM141 0l178 1456h150l-178 -1456h-150z" />
    <glyph glyph-name="Idieresis" unicode="&#xcf;" horiz-adv-x="597" 
d="M162 1626l19 148h142l-19 -148h-142zM532 1626l18 148h143l-19 -148h-142zM141 0l178 1456h150l-178 -1456h-150z" />
    <glyph glyph-name="Eth" unicode="&#xd0;" horiz-adv-x="1531" 
d="M53 711l13 107h507l-13 -107h-507zM288 124h265q307 0 484 153t213 442q8 67 8 120q0 493 -596 493h-225zM124 0l178 1456h366q366 0 556.5 -151t190.5 -453q0 -62 -9 -133q-42 -349 -266 -534t-607 -185h-409z" />
    <glyph glyph-name="Ntilde" unicode="&#xd1;" horiz-adv-x="1585" 
d="M792 1733q-62 0 -77 -87h-90q11 89 57 139t116 50q54 0 154.5 -49.5t133.5 -49.5q28 0 41 21.5t20 71.5h94q-11 -89 -51 -142t-110 -53q-49 0 -151.5 49.5t-136.5 49.5zM124 0l178 1456h155l611 -1073l95 -181l154 1254h144l-178 -1456h-154l-614 1061l-96 184
l-152 -1245h-143z" />
    <glyph glyph-name="Ograve" unicode="&#xd2;" horiz-adv-x="1599" 
d="M854 1604l-288 320h187l205 -320h-104zM724 102q251 0 411.5 168t195.5 456q8 69 8 124q0 236 -119.5 372t-340.5 136q-250 0 -414.5 -172.5t-199.5 -459.5q-8 -67 -8 -120q0 -235 122 -369.5t345 -134.5zM710 -21q-287 0 -448.5 165t-161.5 451q0 71 8 131
q42 343 254 549t533 206q282 0 442.5 -168.5t160.5 -455.5q0 -71 -8 -131q-41 -342 -251.5 -544.5t-528.5 -202.5z" />
    <glyph glyph-name="Oacute" unicode="&#xd3;" horiz-adv-x="1599" 
d="M862 1603l255 321h185l-335 -321h-105zM724 102q251 0 411.5 168t195.5 456q8 69 8 124q0 236 -119.5 372t-340.5 136q-250 0 -414.5 -172.5t-199.5 -459.5q-8 -67 -8 -120q0 -235 122 -369.5t345 -134.5zM710 -21q-287 0 -448.5 165t-161.5 451q0 71 8 131
q42 343 254 549t533 206q282 0 442.5 -168.5t160.5 -455.5q0 -71 -8 -131q-41 -342 -251.5 -544.5t-528.5 -202.5z" />
    <glyph glyph-name="Ocircumflex" unicode="&#xd4;" horiz-adv-x="1599" 
d="M640 1615l258 309h110l180 -309h-106l-146 201l-196 -201h-100zM724 102q251 0 411.5 168t195.5 456q8 69 8 124q0 236 -119.5 372t-340.5 136q-250 0 -414.5 -172.5t-199.5 -459.5q-8 -67 -8 -120q0 -235 122 -369.5t345 -134.5zM710 -21q-287 0 -448.5 165t-161.5 451
q0 71 8 131q42 343 254 549t533 206q282 0 442.5 -168.5t160.5 -455.5q0 -71 -8 -131q-41 -342 -251.5 -544.5t-528.5 -202.5z" />
    <glyph glyph-name="Otilde" unicode="&#xd5;" horiz-adv-x="1599" 
d="M780 1733q-62 0 -77 -87h-90q11 89 57 139t116 50q54 0 154.5 -49.5t133.5 -49.5q28 0 41 21.5t20 71.5h94q-11 -89 -51 -142t-110 -53q-49 0 -151.5 49.5t-136.5 49.5zM724 102q251 0 411.5 168t195.5 456q8 69 8 124q0 236 -119.5 372t-340.5 136q-250 0 -414.5 -172.5
t-199.5 -459.5q-8 -67 -8 -120q0 -235 122 -369.5t345 -134.5zM710 -21q-287 0 -448.5 165t-161.5 451q0 71 8 131q42 343 254 549t533 206q282 0 442.5 -168.5t160.5 -455.5q0 -71 -8 -131q-41 -342 -251.5 -544.5t-528.5 -202.5z" />
    <glyph glyph-name="Odieresis" unicode="&#xd6;" horiz-adv-x="1599" 
d="M655 1626l19 148h142l-19 -148h-142zM1025 1626l18 148h143l-19 -148h-142zM724 102q251 0 411.5 168t195.5 456q8 69 8 124q0 236 -119.5 372t-340.5 136q-250 0 -414.5 -172.5t-199.5 -459.5q-8 -67 -8 -120q0 -235 122 -369.5t345 -134.5zM710 -21q-287 0 -448.5 165
t-161.5 451q0 71 8 131q42 343 254 549t533 206q282 0 442.5 -168.5t160.5 -455.5q0 -71 -8 -131q-41 -342 -251.5 -544.5t-528.5 -202.5z" />
    <glyph glyph-name="multiply" unicode="&#xd7;" horiz-adv-x="1204" 
d="M254 162l-77 90l341 304l-266 303l100 90l266 -304l340 304l79 -92l-342 -301l267 -302l-101 -92l-265 302z" />
    <glyph glyph-name="Oslash" unicode="&#xd8;" horiz-adv-x="1599" 
d="M415 203l723 1087q-107 68 -259 68q-250 0 -414.5 -172.5t-199.5 -459.5q-8 -67 -8 -120q0 -270 158 -403zM724 102q251 0 411.5 168t195.5 456q8 69 8 124q0 255 -136 389l-719 -1083q103 -54 240 -54zM285 -143l-73 41l123 184q-114 78 -174.5 209t-60.5 304
q0 71 8 131q42 343 254 549t533 206q184 0 320 -75l122 183l71 -41l-124 -187q104 -81 159 -210t55 -294q0 -71 -8 -131q-41 -342 -251.5 -544.5t-528.5 -202.5q-171 0 -303 62z" />
    <glyph glyph-name="Ugrave" unicode="&#xd9;" horiz-adv-x="1488" 
d="M800 1604l-288 320h187l205 -320h-104zM647 -21q-257 0 -380 115.5t-123 330.5q0 57 7 112l113 919h149l-113 -925q-6 -48 -6 -91q0 -338 370 -338q204 0 323.5 107t145.5 320l114 927h149l-113 -918q-34 -268 -192 -413.5t-444 -145.5z" />
    <glyph glyph-name="Uacute" unicode="&#xda;" horiz-adv-x="1488" 
d="M808 1603l255 321h185l-335 -321h-105zM647 -21q-257 0 -380 115.5t-123 330.5q0 57 7 112l113 919h149l-113 -925q-6 -48 -6 -91q0 -338 370 -338q204 0 323.5 107t145.5 320l114 927h149l-113 -918q-34 -268 -192 -413.5t-444 -145.5z" />
    <glyph glyph-name="Ucircumflex" unicode="&#xdb;" horiz-adv-x="1488" 
d="M587 1615l258 309h110l180 -309h-106l-146 201l-196 -201h-100zM647 -21q-257 0 -380 115.5t-123 330.5q0 57 7 112l113 919h149l-113 -925q-6 -48 -6 -91q0 -338 370 -338q204 0 323.5 107t145.5 320l114 927h149l-113 -918q-34 -268 -192 -413.5t-444 -145.5z" />
    <glyph glyph-name="Udieresis" unicode="&#xdc;" horiz-adv-x="1488" 
d="M602 1626l19 148h142l-19 -148h-142zM972 1626l18 148h143l-19 -148h-142zM647 -21q-257 0 -380 115.5t-123 330.5q0 57 7 112l113 919h149l-113 -925q-6 -48 -6 -91q0 -338 370 -338q204 0 323.5 107t145.5 320l114 927h149l-113 -918q-34 -268 -192 -413.5t-444 -145.5
z" />
    <glyph glyph-name="Yacute" unicode="&#xdd;" horiz-adv-x="1237" 
d="M686 1603l255 321h185l-335 -321h-105zM452 0l71 583l-384 873h161l317 -743l504 743h159l-606 -870l-72 -586h-150z" />
    <glyph glyph-name="Thorn" unicode="&#xde;" horiz-adv-x="1267" 
d="M597 352h-285l-43 -352h-151l178 1456h151l-30 -245h223q101 0 180.5 -9t154 -32.5t123.5 -63t78.5 -103t29.5 -149.5q0 -130 -47 -228.5t-131 -157t-192 -87.5t-239 -29zM1043 832q0 58 -19 101.5t-52.5 71.5t-85.5 45t-111 23.5t-136 6.5h-237l-74 -596h282
q128 0 223 35t152.5 114.5t57.5 198.5z" />
    <glyph glyph-name="germandbls" unicode="&#xdf;" horiz-adv-x="1246" 
d="M967 382q0 132 -99.5 223t-317.5 173l14 112q101 26 168 56.5t104.5 69.5t54 79t23.5 96q2 18 2 27q0 85 -63.5 134.5t-173.5 49.5q-135 0 -217.5 -93t-103.5 -264l-128 -1045h-140l129 1044q29 231 152 352.5t324 121.5q169 0 266 -76.5t97 -206.5q0 -27 -2 -41
q-17 -135 -93.5 -212t-234.5 -127q-14 -8 -54 -18q443 -126 443 -443q0 -127 -59.5 -224t-159 -146.5t-221.5 -49.5q-84 0 -167.5 20t-137.5 43l33 114q146 -61 264 -61q135 0 216.5 76.5t81.5 215.5z" />
    <glyph glyph-name="agrave" unicode="&#xe0;" horiz-adv-x="1263" 
d="M616 1174l-288 320h187l205 -320h-104zM651 1052q119 0 205 -58t119 -150l23 182h140l-126 -1026h-141l24 195q-59 -100 -157 -158t-221 -58q-201 0 -312.5 122.5t-111.5 323.5q0 273 158 450t400 177zM237 439q0 -158 80 -251t230 -93q163 0 265.5 115t126.5 312
q5 47 5 80q0 154 -77 244t-218 90q-185 0 -298.5 -139t-113.5 -358z" />
    <glyph glyph-name="aacute" unicode="&#xe1;" horiz-adv-x="1263" 
d="M624 1173l255 321h185l-335 -321h-105zM651 1052q119 0 205 -58t119 -150l23 182h140l-126 -1026h-141l24 195q-59 -100 -157 -158t-221 -58q-201 0 -312.5 122.5t-111.5 323.5q0 273 158 450t400 177zM237 439q0 -158 80 -251t230 -93q163 0 265.5 115t126.5 312
q5 47 5 80q0 154 -77 244t-218 90q-185 0 -298.5 -139t-113.5 -358z" />
    <glyph glyph-name="acircumflex" unicode="&#xe2;" horiz-adv-x="1263" 
d="M402 1185l258 309h110l180 -309h-106l-146 201l-196 -201h-100zM651 1052q119 0 205 -58t119 -150l23 182h140l-126 -1026h-141l24 195q-59 -100 -157 -158t-221 -58q-201 0 -312.5 122.5t-111.5 323.5q0 273 158 450t400 177zM237 439q0 -158 80 -251t230 -93
q163 0 265.5 115t126.5 312q5 47 5 80q0 154 -77 244t-218 90q-185 0 -298.5 -139t-113.5 -358z" />
    <glyph glyph-name="atilde" unicode="&#xe3;" horiz-adv-x="1263" 
d="M542 1303q-62 0 -77 -87h-90q11 89 57 139t116 50q54 0 154.5 -49.5t133.5 -49.5q28 0 41 21.5t20 71.5h94q-11 -89 -51 -142t-110 -53q-49 0 -151.5 49.5t-136.5 49.5zM651 1052q119 0 205 -58t119 -150l23 182h140l-126 -1026h-141l24 195q-59 -100 -157 -158t-221 -58
q-201 0 -312.5 122.5t-111.5 323.5q0 273 158 450t400 177zM237 439q0 -158 80 -251t230 -93q163 0 265.5 115t126.5 312q5 47 5 80q0 154 -77 244t-218 90q-185 0 -298.5 -139t-113.5 -358z" />
    <glyph glyph-name="adieresis" unicode="&#xe4;" horiz-adv-x="1263" 
d="M417 1196l19 148h142l-19 -148h-142zM787 1196l18 148h143l-19 -148h-142zM651 1052q119 0 205 -58t119 -150l23 182h140l-126 -1026h-141l24 195q-59 -100 -157 -158t-221 -58q-201 0 -312.5 122.5t-111.5 323.5q0 273 158 450t400 177zM237 439q0 -158 80 -251t230 -93
q163 0 265.5 115t126.5 312q5 47 5 80q0 154 -77 244t-218 90q-185 0 -298.5 -139t-113.5 -358z" />
    <glyph glyph-name="aring" unicode="&#xe5;" horiz-adv-x="1263" 
d="M795 1332q0 42 -26 69.5t-68 27.5q-47 0 -83.5 -36t-36.5 -89q0 -42 26 -69.5t67 -27.5q48 0 84.5 36t36.5 89zM711 1500q73 0 120 -44.5t47 -113.5q0 -89 -63 -147.5t-149 -58.5q-74 0 -120.5 44.5t-46.5 114.5q0 88 63.5 146.5t148.5 58.5zM651 1052q119 0 205 -58
t119 -150l23 182h140l-126 -1026h-141l24 195q-59 -100 -157 -158t-221 -58q-201 0 -312.5 122.5t-111.5 323.5q0 273 158 450t400 177zM237 439q0 -158 80 -251t230 -93q163 0 265.5 115t126.5 312q5 47 5 80q0 154 -77 244t-218 90q-185 0 -298.5 -139t-113.5 -358z" />
    <glyph glyph-name="ae" unicode="&#xe6;" horiz-adv-x="1801" 
d="M1349 1052q175 0 272 -110t97 -308q0 -60 -11 -137h-739l-4 -31q-3 -31 -3 -62q0 -140 71.5 -224.5t220.5 -84.5q85 0 168.5 28.5t124.5 56.5l41 28l33 -102q-6 -5 -17.5 -13.5t-50.5 -30.5t-81 -39t-106.5 -30.5t-130.5 -13.5q-145 0 -243.5 74t-130.5 200
q-57 -117 -176 -196t-281 -79q-155 0 -248 70t-93 193q0 25 2 39q10 81 44 138t84 91.5t130.5 54t164.5 26t205 6.5h135q4 31 4 66q0 125 -64 200t-185 75q-167 0 -347 -84l-32 105q194 94 407 94q129 0 219.5 -66.5t108.5 -182.5q66 114 174.5 181.5t236.5 67.5zM425 93
q170 0 270.5 113t122.5 290h-188q-212 0 -311 -43t-115 -166q-2 -18 -2 -27q0 -85 62.5 -126t160.5 -41zM981 595h615l1 23q0 4 0.5 12.5t0.5 12.5q0 58 -15 109t-45.5 93.5t-82 67.5t-118.5 25q-70 0 -132.5 -30t-107 -79t-75 -109.5t-41.5 -124.5z" />
    <glyph glyph-name="ccedilla" unicode="&#xe7;" horiz-adv-x="1043" 
d="M334 -384l22 77q20 -10 64.5 -19t83.5 -9q114 0 114 78q0 32 -41 50.5t-117 18.5h-14l57 195h78l-38 -136q198 -16 198 -126q0 -58 -37.5 -96.5t-88.5 -52.5t-112 -14q-90 0 -169 34zM237 434q0 -157 89.5 -248t246.5 -91q168 0 312 100l34 -99q-149 -117 -367 -117
q-214 0 -337 120.5t-123 322.5q0 35 5 82q30 247 192.5 397.5t401.5 150.5q97 0 179.5 -29.5t131.5 -81.5l-61 -97q-94 92 -258 92q-190 0 -318 -137t-128 -365z" />
    <glyph glyph-name="egrave" unicode="&#xe8;" horiz-adv-x="1149" 
d="M614 1174l-288 320h187l205 -320h-104zM1046 497h-805q-4 -31 -4 -67q0 -158 91 -246.5t250 -88.5q192 0 350 114l34 -102q-84 -61 -189.5 -94.5t-213.5 -33.5q-218 0 -342.5 119.5t-124.5 324.5q0 41 6 86q29 243 184.5 393t382.5 150q189 0 292 -111t103 -301
q0 -76 -14 -143zM259 596h675q1 12 1 34q0 145 -75 226.5t-206 81.5q-145 0 -251.5 -92t-143.5 -250z" />
    <glyph glyph-name="eacute" unicode="&#xe9;" horiz-adv-x="1149" 
d="M1046 497h-805q-4 -31 -4 -67q0 -158 91 -246.5t250 -88.5q192 0 350 114l34 -102q-84 -61 -189.5 -94.5t-213.5 -33.5q-218 0 -342.5 119.5t-124.5 324.5q0 41 6 86q29 243 184.5 393t382.5 150q189 0 292 -111t103 -301q0 -76 -14 -143zM259 596h675q1 12 1 34
q0 145 -75 226.5t-206 81.5q-145 0 -251.5 -92t-143.5 -250zM622 1173l255 321h185l-335 -321h-105z" />
    <glyph glyph-name="ecircumflex" unicode="&#xea;" horiz-adv-x="1149" 
d="M1046 497h-805q-4 -31 -4 -67q0 -158 91 -246.5t250 -88.5q192 0 350 114l34 -102q-84 -61 -189.5 -94.5t-213.5 -33.5q-218 0 -342.5 119.5t-124.5 324.5q0 41 6 86q29 243 184.5 393t382.5 150q189 0 292 -111t103 -301q0 -76 -14 -143zM259 596h675q1 12 1 34
q0 145 -75 226.5t-206 81.5q-145 0 -251.5 -92t-143.5 -250zM400 1185l258 309h110l180 -309h-106l-146 201l-196 -201h-100z" />
    <glyph glyph-name="edieresis" unicode="&#xeb;" horiz-adv-x="1149" 
d="M1046 497h-805q-4 -31 -4 -67q0 -158 91 -246.5t250 -88.5q192 0 350 114l34 -102q-84 -61 -189.5 -94.5t-213.5 -33.5q-218 0 -342.5 119.5t-124.5 324.5q0 41 6 86q29 243 184.5 393t382.5 150q189 0 292 -111t103 -301q0 -76 -14 -143zM259 596h675q1 12 1 34
q0 145 -75 226.5t-206 81.5q-145 0 -251.5 -92t-143.5 -250zM415 1196l19 148h142l-19 -148h-142zM785 1196l18 148h143l-19 -148h-142z" />
    <glyph glyph-name="igrave" unicode="&#xec;" horiz-adv-x="503" 
d="M278 1174l-288 320h187l205 -320h-104zM119 0l125 1026h143l-125 -1026h-143z" />
    <glyph glyph-name="iacute" unicode="&#xed;" horiz-adv-x="503" 
d="M119 0l125 1026h143l-125 -1026h-143zM286 1173l255 321h185l-335 -321h-105z" />
    <glyph glyph-name="icircumflex" unicode="&#xee;" horiz-adv-x="503" 
d="M119 0l125 1026h143l-125 -1026h-143zM65 1185l258 309h110l180 -309h-106l-146 201l-196 -201h-100z" />
    <glyph glyph-name="idieresis" unicode="&#xef;" horiz-adv-x="503" 
d="M119 0l125 1026h143l-125 -1026h-143zM80 1196l19 148h142l-19 -148h-142zM450 1196l18 148h143l-19 -148h-142z" />
    <glyph glyph-name="eth" unicode="&#xf0;" horiz-adv-x="1227" 
d="M511 -22q-205 0 -322 109t-117 289q0 36 4 67q26 206 172.5 330.5t364.5 124.5q134 0 224 -58t126 -139q2 32 2 49q0 137 -54 270t-167 229l-207 -133l-47 84l174 112q-130 87 -303 138l70 101q198 -55 349 -166l207 133l48 -83l-178 -115q235 -217 235 -566
q0 -68 -9 -141q-38 -304 -185.5 -469.5t-386.5 -165.5zM219 387q0 -133 83 -210.5t226 -77.5q159 0 261.5 103.5t123.5 277.5q2 13 2 37q0 118 -88.5 191t-225.5 73q-167 0 -274.5 -107t-107.5 -287z" />
    <glyph glyph-name="ntilde" unicode="&#xf1;" horiz-adv-x="1251" 
d="M624 1303q-62 0 -77 -87h-90q11 89 57 139t116 50q54 0 154.5 -49.5t133.5 -49.5q28 0 41 21.5t20 71.5h94q-11 -89 -51 -142t-110 -53q-49 0 -151.5 49.5t-136.5 49.5zM125 0l99 811q5 43 9.5 96.5t6.5 86.5l2 32h140l-17 -184q65 101 173 155.5t230 54.5
q325 0 325 -342q0 -55 -7 -110l-74 -600h-142l75 600q6 52 6 96q0 121 -50.5 180.5t-162.5 59.5q-133 0 -242.5 -77t-148.5 -199l-81 -660h-141z" />
    <glyph glyph-name="ograve" unicode="&#xf2;" horiz-adv-x="1244" 
d="M1004 591q0 161 -85 253t-245 92q-179 0 -292.5 -115t-137.5 -310q-5 -43 -5 -76q0 -158 85.5 -249t246.5 -91q197 0 315 137t118 359zM557 -21q-220 0 -342.5 120.5t-122.5 324.5q0 42 6 87q30 245 189.5 393t402.5 148q218 0 339.5 -121.5t121.5 -328.5q0 -44 -6 -91
q-30 -240 -188 -386t-400 -146zM650 1174l-288 320h187l205 -320h-104z" />
    <glyph glyph-name="oacute" unicode="&#xf3;" horiz-adv-x="1244" 
d="M1004 591q0 161 -85 253t-245 92q-179 0 -292.5 -115t-137.5 -310q-5 -43 -5 -76q0 -158 85.5 -249t246.5 -91q197 0 315 137t118 359zM557 -21q-220 0 -342.5 120.5t-122.5 324.5q0 42 6 87q30 245 189.5 393t402.5 148q218 0 339.5 -121.5t121.5 -328.5q0 -44 -6 -91
q-30 -240 -188 -386t-400 -146zM658 1173l255 321h185l-335 -321h-105z" />
    <glyph glyph-name="ocircumflex" unicode="&#xf4;" horiz-adv-x="1244" 
d="M1004 591q0 161 -85 253t-245 92q-179 0 -292.5 -115t-137.5 -310q-5 -43 -5 -76q0 -158 85.5 -249t246.5 -91q197 0 315 137t118 359zM557 -21q-220 0 -342.5 120.5t-122.5 324.5q0 42 6 87q30 245 189.5 393t402.5 148q218 0 339.5 -121.5t121.5 -328.5q0 -44 -6 -91
q-30 -240 -188 -386t-400 -146zM437 1185l258 309h110l180 -309h-106l-146 201l-196 -201h-100z" />
    <glyph glyph-name="otilde" unicode="&#xf5;" horiz-adv-x="1244" 
d="M577 1303q-62 0 -77 -87h-90q11 89 57 139t116 50q54 0 154.5 -49.5t133.5 -49.5q28 0 41 21.5t20 71.5h94q-11 -89 -51 -142t-110 -53q-49 0 -151.5 49.5t-136.5 49.5zM1004 591q0 161 -85 253t-245 92q-179 0 -292.5 -115t-137.5 -310q-5 -43 -5 -76q0 -158 85.5 -249
t246.5 -91q197 0 315 137t118 359zM557 -21q-220 0 -342.5 120.5t-122.5 324.5q0 42 6 87q30 245 189.5 393t402.5 148q218 0 339.5 -121.5t121.5 -328.5q0 -44 -6 -91q-30 -240 -188 -386t-400 -146z" />
    <glyph glyph-name="odieresis" unicode="&#xf6;" horiz-adv-x="1244" 
d="M1004 591q0 161 -85 253t-245 92q-179 0 -292.5 -115t-137.5 -310q-5 -43 -5 -76q0 -158 85.5 -249t246.5 -91q197 0 315 137t118 359zM557 -21q-220 0 -342.5 120.5t-122.5 324.5q0 42 6 87q30 245 189.5 393t402.5 148q218 0 339.5 -121.5t121.5 -328.5q0 -44 -6 -91
q-30 -240 -188 -386t-400 -146zM452 1196l19 148h142l-19 -148h-142zM822 1196l18 148h143l-19 -148h-142z" />
    <glyph glyph-name="divide" unicode="&#xf7;" horiz-adv-x="1146" 
d="M428 30l23 196h196l-24 -196h-195zM135 493l15 124h885l-15 -124h-885zM533 880l24 197h195l-23 -197h-196z" />
    <glyph glyph-name="oslash" unicode="&#xf8;" horiz-adv-x="1242" 
d="M247 -221l-61 28l127 224q-107 53 -164 154.5t-57 238.5q0 42 6 87q30 245 189.5 393t402.5 148q101 0 185 -28l121 214l64 -30l-120 -212q103 -55 157 -156t54 -238q0 -44 -6 -91q-30 -240 -188 -386t-400 -146q-98 0 -181 26zM377 144l435 769q-61 23 -138 23
q-179 0 -292.5 -115t-137.5 -310q-5 -43 -5 -76q0 -205 138 -291zM438 115q60 -20 133 -20q197 0 315 137t118 359q0 203 -130 291z" />
    <glyph glyph-name="ugrave" unicode="&#xf9;" 
d="M505 -24q-172 0 -258 87.5t-86 249.5q0 43 6 89l76 624h141l-77 -626q-5 -42 -5 -70q0 -238 232 -238q79 0 148.5 27t115.5 69.5t74.5 92.5t34.5 98l80 647h141l-97 -787q-15 -127 -22 -239h-138l15 178q-145 -202 -381 -202zM657 1174l-288 320h187l205 -320h-104z" />
    <glyph glyph-name="uacute" unicode="&#xfa;" 
d="M505 -24q-172 0 -258 87.5t-86 249.5q0 43 6 89l76 624h141l-77 -626q-5 -42 -5 -70q0 -238 232 -238q79 0 148.5 27t115.5 69.5t74.5 92.5t34.5 98l80 647h141l-97 -787q-15 -127 -22 -239h-138l15 178q-145 -202 -381 -202zM665 1173l255 321h185l-335 -321h-105z" />
    <glyph glyph-name="ucircumflex" unicode="&#xfb;" 
d="M505 -24q-172 0 -258 87.5t-86 249.5q0 43 6 89l76 624h141l-77 -626q-5 -42 -5 -70q0 -238 232 -238q79 0 148.5 27t115.5 69.5t74.5 92.5t34.5 98l80 647h141l-97 -787q-15 -127 -22 -239h-138l15 178q-145 -202 -381 -202zM444 1185l258 309h110l180 -309h-106
l-146 201l-196 -201h-100z" />
    <glyph glyph-name="udieresis" unicode="&#xfc;" 
d="M505 -24q-172 0 -258 87.5t-86 249.5q0 43 6 89l76 624h141l-77 -626q-5 -42 -5 -70q0 -238 232 -238q79 0 148.5 27t115.5 69.5t74.5 92.5t34.5 98l80 647h141l-97 -787q-15 -127 -22 -239h-138l15 178q-145 -202 -381 -202zM458 1196l19 148h142l-19 -148h-142z
M828 1196l18 148h143l-19 -148h-142z" />
    <glyph glyph-name="yacute" unicode="&#xfd;" horiz-adv-x="1024" 
d="M94 -425l-42 99q247 70 344 265l27 54l-282 1033h149l222 -875l433 875h141l-547 -1079q-70 -140 -181 -240t-264 -132zM595 1173l255 321h185l-335 -321h-105z" />
    <glyph glyph-name="thorn" unicode="&#xfe;" horiz-adv-x="1242" 
d="M602 -23q-116 0 -205 50.5t-128 141.5l-74 -603h-149l233 1888h148l-72 -599q62 94 161 145t218 51q199 0 306.5 -116t107.5 -317q0 -184 -67.5 -329.5t-192.5 -228.5t-286 -83zM995 604q0 153 -73.5 241t-213.5 88q-94 0 -167.5 -35.5t-120 -97.5t-73.5 -135.5
t-38 -159.5q-5 -47 -5 -80q0 -153 76.5 -242.5t222.5 -89.5q174 0 283 144.5t109 366.5z" />
    <glyph glyph-name="ydieresis" unicode="&#xff;" horiz-adv-x="1024" 
d="M94 -425l-42 99q247 70 344 265l27 54l-282 1033h149l222 -875l433 875h141l-547 -1079q-70 -140 -181 -240t-264 -132zM388 1196l19 148h142l-19 -148h-142zM758 1196l18 148h143l-19 -148h-142z" />
    <glyph glyph-name="Amacron" unicode="&#x100;" horiz-adv-x="1364" 
d="M524 1669l12 99h557l-12 -99h-557zM-39 0l725 1456h169l371 -1456h-161l-98 394h-649l-193 -394h-164zM372 509h567q-97 428 -186 802q-127 -268 -381 -802z" />
    <glyph glyph-name="amacron" unicode="&#x101;" horiz-adv-x="1263" 
d="M406 1239l12 99h557l-12 -99h-557zM651 1052q119 0 205 -58t119 -150l23 182h140l-126 -1026h-141l24 195q-59 -100 -157 -158t-221 -58q-201 0 -312.5 122.5t-111.5 323.5q0 273 158 450t400 177zM237 439q0 -158 80 -251t230 -93q163 0 265.5 115t126.5 312q5 47 5 80
q0 154 -77 244t-218 90q-185 0 -298.5 -139t-113.5 -358z" />
    <glyph glyph-name="Abreve" unicode="&#x102;" horiz-adv-x="1364" 
d="M786 1601q-114 0 -167 52t-53 163v22h104q0 -4 -0.5 -10t-0.5 -9q0 -59 32 -86.5t97 -27.5q68 0 105 32.5t56 100.5h101q-46 -237 -274 -237zM-39 0l725 1456h169l371 -1456h-161l-98 394h-649l-193 -394h-164zM372 509h567q-97 428 -186 802q-127 -268 -381 -802z" />
    <glyph glyph-name="abreve" unicode="&#x103;" horiz-adv-x="1263" 
d="M668 1171q-114 0 -167 52t-53 163v22h104q0 -4 -0.5 -10t-0.5 -9q0 -59 32 -86.5t97 -27.5q68 0 105 32.5t56 100.5h101q-46 -237 -274 -237zM651 1052q119 0 205 -58t119 -150l23 182h140l-126 -1026h-141l24 195q-59 -100 -157 -158t-221 -58q-201 0 -312.5 122.5
t-111.5 323.5q0 273 158 450t400 177zM237 439q0 -158 80 -251t230 -93q163 0 265.5 115t126.5 312q5 47 5 80q0 154 -77 244t-218 90q-185 0 -298.5 -139t-113.5 -358z" />
    <glyph glyph-name="Aogonek" unicode="&#x104;" horiz-adv-x="1364" 
d="M1099 -436q-91 0 -151 47t-60 124q0 14 1 22q9 70 70 136.5t152 116.5l93 -3q-78 -51 -127 -116t-55 -115q-1 -5 -1 -16q0 -42 29 -66.5t82 -24.5q47 0 108 18l-13 -104q-66 -19 -128 -19zM-39 0l725 1456h169l371 -1456h-161l-98 394h-649l-193 -394h-164zM372 509h567
q-97 428 -186 802q-127 -268 -381 -802z" />
    <glyph glyph-name="aogonek" unicode="&#x105;" horiz-adv-x="1263" 
d="M896 -436q-91 0 -151 47t-60 124q0 14 1 22q9 70 70 136.5t152 116.5l93 -3q-78 -51 -127 -116t-55 -115q-1 -5 -1 -16q0 -42 29 -66.5t82 -24.5q47 0 108 18l-13 -104q-66 -19 -128 -19zM651 1052q119 0 205 -58t119 -150l23 182h140l-126 -1026h-141l24 195
q-59 -100 -157 -158t-221 -58q-201 0 -312.5 122.5t-111.5 323.5q0 273 158 450t400 177zM237 439q0 -158 80 -251t230 -93q163 0 265.5 115t126.5 312q5 47 5 80q0 154 -77 244t-218 90q-185 0 -298.5 -139t-113.5 -358z" />
    <glyph glyph-name="Cacute" unicode="&#x106;" horiz-adv-x="1394" 
d="M870 1603l255 321h185l-335 -321h-105zM725 -22q-126 0 -239 41.5t-199.5 118t-137.5 193.5t-51 259q0 53 8 119q28 231 140 407t285 270.5t381 94.5q266 0 422 -144l-72 -99q-143 120 -357 120q-256 0 -432 -180t-211 -469q-7 -63 -7 -105q0 -233 131.5 -367.5
t357.5 -134.5q229 0 437 134l36 -113q-229 -145 -492 -145z" />
    <glyph glyph-name="cacute" unicode="&#x107;" horiz-adv-x="1043" 
d="M237 434q0 -157 89.5 -248t246.5 -91q168 0 312 100l34 -99q-149 -117 -367 -117q-214 0 -337 120.5t-123 322.5q0 35 5 82q30 247 192.5 397.5t401.5 150.5q97 0 179.5 -29.5t131.5 -81.5l-61 -97q-94 92 -258 92q-190 0 -318 -137t-128 -365zM624 1173l255 321h185
l-335 -321h-105z" />
    <glyph glyph-name="Ccircumflex" unicode="&#x108;" horiz-adv-x="1394" 
d="M649 1615l258 309h110l180 -309h-106l-146 201l-196 -201h-100zM725 -22q-126 0 -239 41.5t-199.5 118t-137.5 193.5t-51 259q0 53 8 119q28 231 140 407t285 270.5t381 94.5q266 0 422 -144l-72 -99q-143 120 -357 120q-256 0 -432 -180t-211 -469q-7 -63 -7 -105
q0 -233 131.5 -367.5t357.5 -134.5q229 0 437 134l36 -113q-229 -145 -492 -145z" />
    <glyph glyph-name="ccircumflex" unicode="&#x109;" horiz-adv-x="1043" 
d="M403 1185l258 309h110l180 -309h-106l-146 201l-196 -201h-100zM237 434q0 -157 89.5 -248t246.5 -91q168 0 312 100l34 -99q-149 -117 -367 -117q-214 0 -337 120.5t-123 322.5q0 35 5 82q30 247 192.5 397.5t401.5 150.5q97 0 179.5 -29.5t131.5 -81.5l-61 -97
q-94 92 -258 92q-190 0 -318 -137t-128 -365z" />
    <glyph glyph-name="Cdotaccent" unicode="&#x10a;" horiz-adv-x="1394" 
d="M848 1677l19 154h155l-19 -154h-155zM725 -22q-126 0 -239 41.5t-199.5 118t-137.5 193.5t-51 259q0 53 8 119q28 231 140 407t285 270.5t381 94.5q266 0 422 -144l-72 -99q-143 120 -357 120q-256 0 -432 -180t-211 -469q-7 -63 -7 -105q0 -233 131.5 -367.5
t357.5 -134.5q229 0 437 134l36 -113q-229 -145 -492 -145z" />
    <glyph glyph-name="cdotaccent" unicode="&#x10b;" horiz-adv-x="1043" 
d="M602 1247l19 154h155l-19 -154h-155zM237 434q0 -157 89.5 -248t246.5 -91q168 0 312 100l34 -99q-149 -117 -367 -117q-214 0 -337 120.5t-123 322.5q0 35 5 82q30 247 192.5 397.5t401.5 150.5q97 0 179.5 -29.5t131.5 -81.5l-61 -97q-94 92 -258 92q-190 0 -318 -137
t-128 -365z" />
    <glyph glyph-name="Ccaron" unicode="&#x10c;" horiz-adv-x="1394" 
d="M851 1615l-191 309h121l146 -226l206 226h128l-266 -309h-144zM725 -22q-126 0 -239 41.5t-199.5 118t-137.5 193.5t-51 259q0 53 8 119q28 231 140 407t285 270.5t381 94.5q266 0 422 -144l-72 -99q-143 120 -357 120q-256 0 -432 -180t-211 -469q-7 -63 -7 -105
q0 -233 131.5 -367.5t357.5 -134.5q229 0 437 134l36 -113q-229 -145 -492 -145z" />
    <glyph glyph-name="ccaron" unicode="&#x10d;" horiz-adv-x="1043" 
d="M605 1185l-191 309h121l146 -226l206 226h128l-266 -309h-144zM237 434q0 -157 89.5 -248t246.5 -91q168 0 312 100l34 -99q-149 -117 -367 -117q-214 0 -337 120.5t-123 322.5q0 35 5 82q30 247 192.5 397.5t401.5 150.5q97 0 179.5 -29.5t131.5 -81.5l-61 -97
q-94 92 -258 92q-190 0 -318 -137t-128 -365z" />
    <glyph glyph-name="Dcaron" unicode="&#x10e;" horiz-adv-x="1531" 
d="M758 1615l-191 309h121l146 -226l206 226h128l-266 -309h-144zM288 124h265q307 0 484 153t213 442q8 67 8 120q0 493 -596 493h-225zM124 0l178 1456h366q366 0 556.5 -151t190.5 -453q0 -62 -9 -133q-42 -349 -266 -534t-607 -185h-409z" />
    <glyph glyph-name="dcaron" unicode="&#x10f;" 
d="M608 1052q127 0 218.5 -61.5t120.5 -155.5l81 666h142l-152 -1234q-12 -101 -25 -267h-143l21 207q-49 -100 -156 -164t-243 -64q-187 0 -297 118.5t-110 322.5q0 278 153 455t390 177zM915 598q0 155 -82 246.5t-229 91.5q-177 0 -285.5 -141t-108.5 -364
q0 -156 74.5 -246t214.5 -90q183 0 299.5 140t116.5 363zM1203 1038l162 453h163l-215 -453h-110z" />
    <glyph glyph-name="Dcroat" unicode="&#x110;" horiz-adv-x="1531" 
d="M53 711l13 107h507l-13 -107h-507zM288 124h265q307 0 484 153t213 442q8 67 8 120q0 493 -596 493h-225zM124 0l178 1456h366q366 0 556.5 -151t190.5 -453q0 -62 -9 -133q-42 -349 -266 -534t-607 -185h-409z" />
    <glyph glyph-name="dcroat" unicode="&#x111;" 
d="M768 1207l12 99h557l-12 -99h-557zM608 1052q127 0 218.5 -61.5t120.5 -155.5l81 666h142l-152 -1234q-12 -101 -25 -267h-143l21 207q-49 -100 -156 -164t-243 -64q-187 0 -297 118.5t-110 322.5q0 278 153 455t390 177zM915 598q0 155 -82 246.5t-229 91.5
q-177 0 -285.5 -141t-108.5 -364q0 -156 74.5 -246t214.5 -90q183 0 299.5 140t116.5 363z" />
    <glyph glyph-name="Emacron" unicode="&#x112;" horiz-adv-x="1212" 
d="M484 1669l12 99h557l-12 -99h-557zM124 0l178 1456h841l-15 -124h-691l-64 -520h653l-15 -124h-654l-70 -564h722l-14 -124h-871z" />
    <glyph glyph-name="emacron" unicode="&#x113;" horiz-adv-x="1149" 
d="M404 1239l12 99h557l-12 -99h-557zM1046 497h-805q-4 -31 -4 -67q0 -158 91 -246.5t250 -88.5q192 0 350 114l34 -102q-84 -61 -189.5 -94.5t-213.5 -33.5q-218 0 -342.5 119.5t-124.5 324.5q0 41 6 86q29 243 184.5 393t382.5 150q189 0 292 -111t103 -301
q0 -76 -14 -143zM259 596h675q1 12 1 34q0 145 -75 226.5t-206 81.5q-145 0 -251.5 -92t-143.5 -250z" />
    <glyph glyph-name="Ebreve" unicode="&#x114;" horiz-adv-x="1212" 
d="M746 1601q-114 0 -167 52t-53 163v22h104q0 -4 -0.5 -10t-0.5 -9q0 -59 32 -86.5t97 -27.5q68 0 105 32.5t56 100.5h101q-46 -237 -274 -237zM124 0l178 1456h841l-15 -124h-691l-64 -520h653l-15 -124h-654l-70 -564h722l-14 -124h-871z" />
    <glyph glyph-name="ebreve" unicode="&#x115;" horiz-adv-x="1149" 
d="M1046 497h-805q-4 -31 -4 -67q0 -158 91 -246.5t250 -88.5q192 0 350 114l34 -102q-84 -61 -189.5 -94.5t-213.5 -33.5q-218 0 -342.5 119.5t-124.5 324.5q0 41 6 86q29 243 184.5 393t382.5 150q189 0 292 -111t103 -301q0 -76 -14 -143zM259 596h675q1 12 1 34
q0 145 -75 226.5t-206 81.5q-145 0 -251.5 -92t-143.5 -250zM666 1171q-114 0 -167 52t-53 163v22h104q0 -4 -0.5 -10t-0.5 -9q0 -59 32 -86.5t97 -27.5q68 0 105 32.5t56 100.5h101q-46 -237 -274 -237z" />
    <glyph glyph-name="Edotaccent" unicode="&#x116;" horiz-adv-x="1212" 
d="M679 1677l19 154h155l-19 -154h-155zM124 0l178 1456h841l-15 -124h-691l-64 -520h653l-15 -124h-654l-70 -564h722l-14 -124h-871z" />
    <glyph glyph-name="edotaccent" unicode="&#x117;" horiz-adv-x="1149" 
d="M1046 497h-805q-4 -31 -4 -67q0 -158 91 -246.5t250 -88.5q192 0 350 114l34 -102q-84 -61 -189.5 -94.5t-213.5 -33.5q-218 0 -342.5 119.5t-124.5 324.5q0 41 6 86q29 243 184.5 393t382.5 150q189 0 292 -111t103 -301q0 -76 -14 -143zM259 596h675q1 12 1 34
q0 145 -75 226.5t-206 81.5q-145 0 -251.5 -92t-143.5 -250zM599 1247l19 154h155l-19 -154h-155z" />
    <glyph glyph-name="Eogonek" unicode="&#x118;" horiz-adv-x="1212" 
d="M717 -436q-91 0 -151 47t-60 124q0 14 1 22q9 70 70 136.5t152 116.5l93 -3q-78 -51 -127 -116t-55 -115q-1 -5 -1 -16q0 -42 29 -66.5t82 -24.5q47 0 108 18l-13 -104q-66 -19 -128 -19zM124 0l178 1456h841l-15 -124h-691l-64 -520h653l-15 -124h-654l-70 -564h722
l-14 -124h-871z" />
    <glyph glyph-name="eogonek" unicode="&#x119;" horiz-adv-x="1149" 
d="M591 -436q-91 0 -151 47t-60 124q0 14 1 22q9 70 70 136.5t152 116.5l93 -3q-78 -51 -127 -116t-55 -115q-1 -5 -1 -16q0 -42 29 -66.5t82 -24.5q47 0 108 18l-13 -104q-66 -19 -128 -19zM1046 497h-805q-4 -31 -4 -67q0 -158 91 -246.5t250 -88.5q192 0 350 114l34 -102
q-84 -61 -189.5 -94.5t-213.5 -33.5q-218 0 -342.5 119.5t-124.5 324.5q0 41 6 86q29 243 184.5 393t382.5 150q189 0 292 -111t103 -301q0 -76 -14 -143zM259 596h675q1 12 1 34q0 145 -75 226.5t-206 81.5q-145 0 -251.5 -92t-143.5 -250z" />
    <glyph glyph-name="Ecaron" unicode="&#x11a;" horiz-adv-x="1212" 
d="M682 1615l-191 309h121l146 -226l206 226h128l-266 -309h-144zM124 0l178 1456h841l-15 -124h-691l-64 -520h653l-15 -124h-654l-70 -564h722l-14 -124h-871z" />
    <glyph glyph-name="ecaron" unicode="&#x11b;" horiz-adv-x="1149" 
d="M1046 497h-805q-4 -31 -4 -67q0 -158 91 -246.5t250 -88.5q192 0 350 114l34 -102q-84 -61 -189.5 -94.5t-213.5 -33.5q-218 0 -342.5 119.5t-124.5 324.5q0 41 6 86q29 243 184.5 393t382.5 150q189 0 292 -111t103 -301q0 -76 -14 -143zM259 596h675q1 12 1 34
q0 145 -75 226.5t-206 81.5q-145 0 -251.5 -92t-143.5 -250zM602 1185l-191 309h121l146 -226l206 226h128l-266 -309h-144z" />
    <glyph glyph-name="Gcircumflex" unicode="&#x11c;" horiz-adv-x="1520" 
d="M683 1615l258 309h110l180 -309h-106l-146 201l-196 -201h-100zM747 -21q-310 0 -479.5 162t-169.5 443q0 54 8 121q21 171 92.5 315.5t180 246t254 158t310.5 56.5q276 0 456 -146l-75 -105q-174 128 -394 128q-267 0 -450.5 -179.5t-218.5 -469.5q-7 -52 -7 -107
q0 -232 133 -366t379 -134q222 0 374 61l57 461h-389l16 125h531l-82 -667q-231 -103 -526 -103z" />
    <glyph glyph-name="gcircumflex" unicode="&#x11d;" horiz-adv-x="1268" 
d="M472 -431q-194 0 -355 77l36 123q157 -83 330 -83q178 0 290 101t138 313l14 114q-55 -99 -157.5 -157t-232.5 -58q-191 0 -304 114t-113 312q0 43 6 90q30 243 177 390t371 147q125 0 210.5 -57.5t120.5 -149.5l29 181h142q-31 -177 -38 -233l-81 -666
q-34 -266 -186.5 -412t-396.5 -146zM971 601q0 155 -79 245t-222 90q-177 0 -291.5 -140.5t-114.5 -360.5q0 -152 76.5 -237.5t214.5 -85.5q186 0 301 135.5t115 353.5zM403 1185l258 309h110l180 -309h-106l-146 201l-196 -201h-100z" />
    <glyph glyph-name="Gbreve" unicode="&#x11e;" horiz-adv-x="1520" 
d="M948 1601q-114 0 -167 52t-53 163v22h104q0 -4 -0.5 -10t-0.5 -9q0 -59 32 -86.5t97 -27.5q68 0 105 32.5t56 100.5h101q-46 -237 -274 -237zM747 -21q-310 0 -479.5 162t-169.5 443q0 54 8 121q21 171 92.5 315.5t180 246t254 158t310.5 56.5q276 0 456 -146l-75 -105
q-174 128 -394 128q-267 0 -450.5 -179.5t-218.5 -469.5q-7 -52 -7 -107q0 -232 133 -366t379 -134q222 0 374 61l57 461h-389l16 125h531l-82 -667q-231 -103 -526 -103z" />
    <glyph glyph-name="gbreve" unicode="&#x11f;" horiz-adv-x="1268" 
d="M472 -431q-194 0 -355 77l36 123q157 -83 330 -83q178 0 290 101t138 313l14 114q-55 -99 -157.5 -157t-232.5 -58q-191 0 -304 114t-113 312q0 43 6 90q30 243 177 390t371 147q125 0 210.5 -57.5t120.5 -149.5l29 181h142q-31 -177 -38 -233l-81 -666
q-34 -266 -186.5 -412t-396.5 -146zM971 601q0 155 -79 245t-222 90q-177 0 -291.5 -140.5t-114.5 -360.5q0 -152 76.5 -237.5t214.5 -85.5q186 0 301 135.5t115 353.5zM669 1171q-114 0 -167 52t-53 163v22h104q0 -4 -0.5 -10t-0.5 -9q0 -59 32 -86.5t97 -27.5
q68 0 105 32.5t56 100.5h101q-46 -237 -274 -237z" />
    <glyph glyph-name="Gdotaccent" unicode="&#x120;" horiz-adv-x="1520" 
d="M882 1677l19 154h155l-19 -154h-155zM747 -21q-310 0 -479.5 162t-169.5 443q0 54 8 121q21 171 92.5 315.5t180 246t254 158t310.5 56.5q276 0 456 -146l-75 -105q-174 128 -394 128q-267 0 -450.5 -179.5t-218.5 -469.5q-7 -52 -7 -107q0 -232 133 -366t379 -134
q222 0 374 61l57 461h-389l16 125h531l-82 -667q-231 -103 -526 -103z" />
    <glyph glyph-name="gdotaccent" unicode="&#x121;" horiz-adv-x="1268" 
d="M472 -431q-194 0 -355 77l36 123q157 -83 330 -83q178 0 290 101t138 313l14 114q-55 -99 -157.5 -157t-232.5 -58q-191 0 -304 114t-113 312q0 43 6 90q30 243 177 390t371 147q125 0 210.5 -57.5t120.5 -149.5l29 181h142q-31 -177 -38 -233l-81 -666
q-34 -266 -186.5 -412t-396.5 -146zM971 601q0 155 -79 245t-222 90q-177 0 -291.5 -140.5t-114.5 -360.5q0 -152 76.5 -237.5t214.5 -85.5q186 0 301 135.5t115 353.5zM602 1247l19 154h155l-19 -154h-155z" />
    <glyph glyph-name="Gcommaaccent" unicode="&#x122;" horiz-adv-x="1520" 
d="M486 -582l163 453h163l-216 -453h-110zM747 -21q-310 0 -479.5 162t-169.5 443q0 54 8 121q21 171 92.5 315.5t180 246t254 158t310.5 56.5q276 0 456 -146l-75 -105q-174 128 -394 128q-267 0 -450.5 -179.5t-218.5 -469.5q-7 -52 -7 -107q0 -232 133 -366t379 -134
q222 0 374 61l57 461h-389l16 125h531l-82 -667q-231 -103 -526 -103z" />
    <glyph glyph-name="gcommaaccent" unicode="&#x123;" horiz-adv-x="1268" 
d="M923 1682l-163 -461h-163l215 461h111zM472 -431q-194 0 -355 77l36 123q157 -83 330 -83q178 0 290 101t138 313l14 114q-55 -99 -157.5 -157t-232.5 -58q-191 0 -304 114t-113 312q0 43 6 90q30 243 177 390t371 147q125 0 210.5 -57.5t120.5 -149.5l29 181h142
q-31 -177 -38 -233l-81 -666q-34 -266 -186.5 -412t-396.5 -146zM971 601q0 155 -79 245t-222 90q-177 0 -291.5 -140.5t-114.5 -360.5q0 -152 76.5 -237.5t214.5 -85.5q186 0 301 135.5t115 353.5z" />
    <glyph glyph-name="Hcircumflex" unicode="&#x124;" horiz-adv-x="1558" 
d="M623 1615l258 309h110l180 -309h-106l-146 201l-196 -201h-100zM124 0l178 1456h152l-80 -650h834l79 650h148l-178 -1456h-149l83 683h-833l-84 -683h-150z" />
    <glyph glyph-name="hcircumflex" unicode="&#x125;" horiz-adv-x="1246" 
d="M89 0l184 1501h141l-80 -655q62 93 169.5 149.5t232.5 56.5q148 0 238.5 -84.5t90.5 -244.5q0 -30 -5 -73l-80 -650h-142l79 637q6 45 6 83q0 110 -51 163t-162 53q-143 0 -265.5 -95t-137.5 -216l-77 -625h-141zM484 1185l258 309h110l180 -309h-106l-146 201l-196 -201
h-100z" />
    <glyph glyph-name="Hbar" unicode="&#x126;" horiz-adv-x="1580" 
d="M174 1192l9 82h1341l-10 -82h-1340zM124 0l178 1456h152l-80 -650h834l79 650h148l-178 -1456h-149l83 683h-833l-84 -683h-150z" />
    <glyph glyph-name="hbar" unicode="&#x127;" horiz-adv-x="1246" 
d="M39 1205l12 99h557l-12 -99h-557zM89 0l184 1501h141l-80 -655q62 93 169.5 149.5t232.5 56.5q148 0 238.5 -84.5t90.5 -244.5q0 -30 -5 -73l-80 -650h-142l79 637q6 45 6 83q0 110 -51 163t-162 53q-143 0 -265.5 -95t-137.5 -216l-77 -625h-141z" />
    <glyph glyph-name="Itilde" unicode="&#x128;" horiz-adv-x="597" 
d="M288 1733q-62 0 -77 -87h-90q11 89 57 139t116 50q54 0 154.5 -49.5t133.5 -49.5q28 0 41 21.5t20 71.5h94q-11 -89 -51 -142t-110 -53q-49 0 -151.5 49.5t-136.5 49.5zM141 0l178 1456h150l-178 -1456h-150z" />
    <glyph glyph-name="itilde" unicode="&#x129;" horiz-adv-x="503" 
d="M205 1303q-62 0 -77 -87h-90q11 89 57 139t116 50q54 0 154.5 -49.5t133.5 -49.5q28 0 41 21.5t20 71.5h94q-11 -89 -51 -142t-110 -53q-49 0 -151.5 49.5t-136.5 49.5zM119 0l125 1026h143l-125 -1026h-143z" />
    <glyph glyph-name="Imacron" unicode="&#x12a;" horiz-adv-x="597" 
d="M152 1669l12 99h557l-12 -99h-557zM141 0l178 1456h150l-178 -1456h-150z" />
    <glyph glyph-name="imacron" unicode="&#x12b;" horiz-adv-x="503" 
d="M69 1239l12 99h557l-12 -99h-557zM119 0l125 1026h143l-125 -1026h-143z" />
    <glyph glyph-name="Ibreve" unicode="&#x12c;" horiz-adv-x="597" 
d="M413 1601q-114 0 -167 52t-53 163v22h104q0 -4 -0.5 -10t-0.5 -9q0 -59 32 -86.5t97 -27.5q68 0 105 32.5t56 100.5h101q-46 -237 -274 -237zM141 0l178 1456h150l-178 -1456h-150z" />
    <glyph glyph-name="ibreve" unicode="&#x12d;" horiz-adv-x="503" 
d="M119 0l125 1026h143l-125 -1026h-143zM330 1171q-114 0 -167 52t-53 163v22h104q0 -4 -0.5 -10t-0.5 -9q0 -59 32 -86.5t97 -27.5q68 0 105 32.5t56 100.5h101q-46 -237 -274 -237z" />
    <glyph glyph-name="Iogonek" unicode="&#x12e;" horiz-adv-x="597" 
d="M254 -436q-91 0 -151 47t-60 124q0 14 1 22q9 70 70 136.5t152 116.5l93 -3q-78 -51 -127 -116t-55 -115q-1 -5 -1 -16q0 -42 29 -66.5t82 -24.5q47 0 108 18l-13 -104q-66 -19 -128 -19zM141 0l178 1456h150l-178 -1456h-150z" />
    <glyph glyph-name="iogonek" unicode="&#x12f;" horiz-adv-x="503" 
d="M151 -436q-91 0 -151 47t-60 124q0 14 1 22q9 70 70 136.5t152 116.5l93 -3q-78 -51 -127 -116t-55 -115q-1 -5 -1 -16q0 -42 29 -66.5t82 -24.5q47 0 108 18l-13 -104q-66 -19 -128 -19zM119 0l125 1026h143l-125 -1026h-143zM264 1247l19 154h155l-19 -154h-155z" />
    <glyph glyph-name="Idotaccent" unicode="&#x130;" horiz-adv-x="597" 
d="M347 1677l19 154h155l-19 -154h-155zM141 0l178 1456h150l-178 -1456h-150z" />
    <glyph glyph-name="dotlessi" unicode="&#x131;" horiz-adv-x="503" 
d="M119 0l125 1026h143l-125 -1026h-143z" />
    <glyph glyph-name="IJ" unicode="&#x132;" horiz-adv-x="1323" 
d="M649 -319q-68 0 -162 22l29 118q89 -17 138 -17q127 0 179 66.5t75 255.5l164 1330h150l-164 -1330q-16 -129 -48.5 -216t-85 -137t-118 -71t-157.5 -21zM141 0l178 1456h150l-178 -1456h-150z" />
    <glyph glyph-name="ij" unicode="&#x133;" horiz-adv-x="1008" 
d="M791 1312l18 144h140l-18 -144h-140zM435 -434q-69 0 -110 10l14 127q43 -8 74 -8q107 0 167 79t81 249l123 1003h144l-113 -917q-7 -58 -15 -104.5t-22.5 -105.5t-33 -103t-47.5 -89.5t-65 -74.5t-86.5 -47.5t-110.5 -18.5zM185 0l126 1026h141l-126 -1026h-141z
M348 1316l16 140h140l-17 -140h-139z" />
    <glyph glyph-name="Jcircumflex" unicode="&#x134;" horiz-adv-x="727" 
d="M270 1615l258 309h110l180 -309h-106l-146 201l-196 -201h-100zM52 -319q-68 0 -162 22l29 118q89 -17 138 -17q127 0 179 66.5t75 255.5l164 1330h150l-164 -1330q-16 -129 -48.5 -216t-85 -137t-118 -71t-157.5 -21z" />
    <glyph glyph-name="jcircumflex" unicode="&#x135;" horiz-adv-x="503" 
d="M-70 -434q-69 0 -110 10l14 127q43 -8 74 -8q107 0 167 79t81 249l123 1003h144l-113 -917q-7 -58 -15 -104.5t-22.5 -105.5t-33 -103t-47.5 -89.5t-65 -74.5t-86.5 -47.5t-110.5 -18.5zM102 1185l258 309h110l180 -309h-106l-146 201l-196 -201h-100z" />
    <glyph glyph-name="Kcommaaccent" unicode="&#x136;" horiz-adv-x="1264" 
d="M366 -582l163 453h163l-216 -453h-110zM124 0l178 1456h149l-81 -669l752 669h185l-787 -700l655 -756h-184l-631 719l-87 -719h-149z" />
    <glyph glyph-name="kcommaaccent" unicode="&#x137;" horiz-adv-x="1078" 
d="M239 -582l163 453h163l-216 -453h-110zM93 0l184 1501h141l-114 -933l552 458h191l-598 -486l511 -540h-186l-477 510l-63 -510h-141z" />
    <glyph glyph-name="kgreenlandic" unicode="&#x138;" horiz-adv-x="1082" 
d="M124 0l126 1026h143l-58 -478l553 478h192l-605 -510l518 -516h-187l-479 484l-60 -484h-143z" />
    <glyph glyph-name="Lacute" unicode="&#x139;" horiz-adv-x="1077" 
d="M360 1603l255 321h185l-335 -321h-105zM124 0l178 1456h149l-163 -1332h679l-15 -124h-828z" />
    <glyph glyph-name="lacute" unicode="&#x13a;" horiz-adv-x="517" 
d="M99 0l184 1501h141l-184 -1501h-141zM316 1603l255 321h185l-335 -321h-105z" />
    <glyph glyph-name="Lcommaaccent" unicode="&#x13b;" horiz-adv-x="1077" 
d="M317 -582l163 453h163l-216 -453h-110zM124 0l178 1456h149l-163 -1332h679l-15 -124h-828z" />
    <glyph glyph-name="lcommaaccent" unicode="&#x13c;" horiz-adv-x="517" 
d="M30 -582l163 453h163l-216 -453h-110zM99 0l184 1501h141l-184 -1501h-141z" />
    <glyph glyph-name="Lcaron" unicode="&#x13d;" horiz-adv-x="1077" 
d="M608 1038l162 453h163l-215 -453h-110zM124 0l178 1456h149l-163 -1332h679l-15 -124h-828z" />
    <glyph glyph-name="lcaron" unicode="&#x13e;" horiz-adv-x="517" 
d="M99 0l184 1501h141l-184 -1501h-141zM514 1038l162 453h163l-215 -453h-110z" />
    <glyph glyph-name="Ldot" unicode="&#x13f;" horiz-adv-x="1077" 
d="M546 668l23 180h163l-22 -180h-164zM124 0l178 1456h149l-163 -1332h679l-15 -124h-828z" />
    <glyph glyph-name="ldot" unicode="&#x140;" horiz-adv-x="517" 
d="M484 676l23 180h163l-22 -180h-164zM99 0l184 1501h141l-184 -1501h-141z" />
    <glyph glyph-name="Lslash" unicode="&#x141;" horiz-adv-x="1108" 
d="M31 505l14 117l641 371l-15 -117zM124 0l178 1456h149l-163 -1332h679l-15 -124h-828z" />
    <glyph glyph-name="lslash" unicode="&#x142;" horiz-adv-x="503" 
d="M89 0l83 681l-195 -100l15 118l195 100l87 701h143l-77 -621l202 102l-15 -117l-201 -102l-94 -762h-143z" />
    <glyph glyph-name="Nacute" unicode="&#x143;" horiz-adv-x="1585" 
d="M874 1603l255 321h185l-335 -321h-105zM124 0l178 1456h155l611 -1073l95 -181l154 1254h144l-178 -1456h-154l-614 1061l-96 184l-152 -1245h-143z" />
    <glyph glyph-name="nacute" unicode="&#x144;" horiz-adv-x="1251" 
d="M125 0l99 811q5 43 9.5 96.5t6.5 86.5l2 32h140l-17 -184q65 101 173 155.5t230 54.5q325 0 325 -342q0 -55 -7 -110l-74 -600h-142l75 600q6 52 6 96q0 121 -50.5 180.5t-162.5 59.5q-133 0 -242.5 -77t-148.5 -199l-81 -660h-141zM706 1173l255 321h185l-335 -321h-105
z" />
    <glyph glyph-name="Ncommaaccent" unicode="&#x145;" horiz-adv-x="1585" 
d="M481 -582l163 453h163l-216 -453h-110zM124 0l178 1456h155l611 -1073l95 -181l154 1254h144l-178 -1456h-154l-614 1061l-96 184l-152 -1245h-143z" />
    <glyph glyph-name="ncommaaccent" unicode="&#x146;" horiz-adv-x="1251" 
d="M338 -582l163 453h163l-216 -453h-110zM125 0l99 811q5 43 9.5 96.5t6.5 86.5l2 32h140l-17 -184q65 101 173 155.5t230 54.5q325 0 325 -342q0 -55 -7 -110l-74 -600h-142l75 600q6 52 6 96q0 121 -50.5 180.5t-162.5 59.5q-133 0 -242.5 -77t-148.5 -199l-81 -660h-141
z" />
    <glyph glyph-name="Ncaron" unicode="&#x147;" horiz-adv-x="1585" 
d="M854 1615l-191 309h121l146 -226l206 226h128l-266 -309h-144zM124 0l178 1456h155l611 -1073l95 -181l154 1254h144l-178 -1456h-154l-614 1061l-96 184l-152 -1245h-143z" />
    <glyph glyph-name="ncaron" unicode="&#x148;" horiz-adv-x="1251" 
d="M125 0l99 811q5 43 9.5 96.5t6.5 86.5l2 32h140l-17 -184q65 101 173 155.5t230 54.5q325 0 325 -342q0 -55 -7 -110l-74 -600h-142l75 600q6 52 6 96q0 121 -50.5 180.5t-162.5 59.5q-133 0 -242.5 -77t-148.5 -199l-81 -660h-141zM686 1185l-191 309h121l146 -226
l206 226h128l-266 -309h-144z" />
    <glyph glyph-name="napostrophe" unicode="&#x149;" horiz-adv-x="1250" 
d="M125 0l99 811q5 43 9.5 96.5t6.5 86.5l2 32h140l-17 -184q65 101 173 155.5t230 54.5q325 0 325 -342q0 -55 -7 -110l-74 -600h-142l75 600q6 52 6 96q0 121 -50.5 180.5t-162.5 59.5q-133 0 -242.5 -77t-148.5 -199l-81 -660h-141zM44 1213l118 563h169l-186 -563h-101z
" />
    <glyph glyph-name="Eng" unicode="&#x14a;" horiz-adv-x="1536" 
d="M1494 1456l-176 -1428q-11 -87 -30 -153t-55 -126t-88 -98.5t-131 -60.5t-183 -22q-161 0 -391 53l30 119q219 -58 375 -58q144 0 222.5 63.5t94.5 198.5l10 84l-630 1063l-85 160l-154 -1251h-144l178 1456h157l608 -1045l96 -177l150 1222h146z" />
    <glyph glyph-name="eng" unicode="&#x14b;" horiz-adv-x="1265" 
d="M566 -399q-160 0 -381 51l27 118q222 -58 358 -58q80 0 138 20t94.5 52t61 89t37 114.5t23.5 144.5l47 383q13 111 13 166q0 124 -50.5 187t-178.5 63q-79 0 -152.5 -31.5t-120 -76t-75.5 -88.5t-33 -75l-82 -660h-143l100 811l23 215h143l-12 -141q147 165 392 165
q94 0 160.5 -26t103.5 -76t53 -112.5t16 -144.5q0 -62 -10 -149l-48 -399q-13 -107 -32.5 -185t-56.5 -148.5t-90.5 -114t-135 -69t-189.5 -25.5z" />
    <glyph glyph-name="Omacron" unicode="&#x14c;" horiz-adv-x="1599" 
d="M644 1669l12 99h557l-12 -99h-557zM724 102q251 0 411.5 168t195.5 456q8 69 8 124q0 236 -119.5 372t-340.5 136q-250 0 -414.5 -172.5t-199.5 -459.5q-8 -67 -8 -120q0 -235 122 -369.5t345 -134.5zM710 -21q-287 0 -448.5 165t-161.5 451q0 71 8 131q42 343 254 549
t533 206q282 0 442.5 -168.5t160.5 -455.5q0 -71 -8 -131q-41 -342 -251.5 -544.5t-528.5 -202.5z" />
    <glyph glyph-name="omacron" unicode="&#x14d;" horiz-adv-x="1244" 
d="M1004 591q0 161 -85 253t-245 92q-179 0 -292.5 -115t-137.5 -310q-5 -43 -5 -76q0 -158 85.5 -249t246.5 -91q197 0 315 137t118 359zM557 -21q-220 0 -342.5 120.5t-122.5 324.5q0 42 6 87q30 245 189.5 393t402.5 148q218 0 339.5 -121.5t121.5 -328.5q0 -44 -6 -91
q-30 -240 -188 -386t-400 -146zM441 1239l12 99h557l-12 -99h-557z" />
    <glyph glyph-name="Obreve" unicode="&#x14e;" horiz-adv-x="1599" 
d="M906 1601q-114 0 -167 52t-53 163v22h104q0 -4 -0.5 -10t-0.5 -9q0 -59 32 -86.5t97 -27.5q68 0 105 32.5t56 100.5h101q-46 -237 -274 -237zM724 102q251 0 411.5 168t195.5 456q8 69 8 124q0 236 -119.5 372t-340.5 136q-250 0 -414.5 -172.5t-199.5 -459.5
q-8 -67 -8 -120q0 -235 122 -369.5t345 -134.5zM710 -21q-287 0 -448.5 165t-161.5 451q0 71 8 131q42 343 254 549t533 206q282 0 442.5 -168.5t160.5 -455.5q0 -71 -8 -131q-41 -342 -251.5 -544.5t-528.5 -202.5z" />
    <glyph glyph-name="obreve" unicode="&#x14f;" horiz-adv-x="1244" 
d="M1004 591q0 161 -85 253t-245 92q-179 0 -292.5 -115t-137.5 -310q-5 -43 -5 -76q0 -158 85.5 -249t246.5 -91q197 0 315 137t118 359zM557 -21q-220 0 -342.5 120.5t-122.5 324.5q0 42 6 87q30 245 189.5 393t402.5 148q218 0 339.5 -121.5t121.5 -328.5q0 -44 -6 -91
q-30 -240 -188 -386t-400 -146zM702 1171q-114 0 -167 52t-53 163v22h104q0 -4 -0.5 -10t-0.5 -9q0 -59 32 -86.5t97 -27.5q68 0 105 32.5t56 100.5h101q-46 -237 -274 -237z" />
    <glyph glyph-name="Ohungarumlaut" unicode="&#x150;" horiz-adv-x="1599" 
d="M704 1597l243 327h149l-290 -327h-102zM997 1597l255 327h161l-312 -327h-104zM724 102q251 0 411.5 168t195.5 456q8 69 8 124q0 236 -119.5 372t-340.5 136q-250 0 -414.5 -172.5t-199.5 -459.5q-8 -67 -8 -120q0 -235 122 -369.5t345 -134.5zM710 -21
q-287 0 -448.5 165t-161.5 451q0 71 8 131q42 343 254 549t533 206q282 0 442.5 -168.5t160.5 -455.5q0 -71 -8 -131q-41 -342 -251.5 -544.5t-528.5 -202.5z" />
    <glyph glyph-name="ohungarumlaut" unicode="&#x151;" horiz-adv-x="1244" 
d="M1004 591q0 161 -85 253t-245 92q-179 0 -292.5 -115t-137.5 -310q-5 -43 -5 -76q0 -158 85.5 -249t246.5 -91q197 0 315 137t118 359zM557 -21q-220 0 -342.5 120.5t-122.5 324.5q0 42 6 87q30 245 189.5 393t402.5 148q218 0 339.5 -121.5t121.5 -328.5q0 -44 -6 -91
q-30 -240 -188 -386t-400 -146zM501 1167l243 327h149l-290 -327h-102zM794 1167l255 327h161l-312 -327h-104z" />
    <glyph glyph-name="OE" unicode="&#x152;" horiz-adv-x="2043" 
d="M709 -21q-199 0 -337.5 78.5t-205 215t-66.5 321.5q0 73 8 134q20 162 86 300.5t168 239t242.5 157.5t303.5 57q101 0 190.5 -32t140.5 -88l11 94h795l-16 -132h-643l-63 -512h604l-16 -132h-606l-67 -548h675l-17 -132h-825l15 115q-57 -57 -157 -96.5t-220 -39.5z
M1102 246l120 979q-45 57 -125 94.5t-191 37.5q-114 0 -212.5 -35.5t-170.5 -96t-127 -141.5t-87 -171t-44 -187q-7 -56 -7 -118q0 -108 27 -197.5t82.5 -161t151 -111t223.5 -39.5q118 0 210 41t150 106z" />
    <glyph glyph-name="oe" unicode="&#x153;" horiz-adv-x="1962" 
d="M543 -21q-216 0 -337.5 120.5t-121.5 323.5q0 49 5 85q30 244 189 394t400 150q144 0 241.5 -68.5t134.5 -189.5q59 122 174.5 190.5t263.5 68.5q182 0 283 -111.5t101 -304.5q0 -47 -6 -96l-7 -52h-775q0 -1 -2 -15t-2 -15q-2 -16 -2 -48q0 -146 85.5 -231t236.5 -85
q95 0 185.5 34.5t153.5 76.5l34 -102q-67 -47 -173.5 -86t-228.5 -39q-139 0 -247 69t-144 183q-61 -115 -181 -183.5t-260 -68.5zM959 598q0 156 -76.5 247t-219.5 91q-170 0 -284.5 -118.5t-138.5 -312.5q-4 -33 -4 -72q0 -155 84 -246.5t239 -91.5q179 0 289.5 142
t110.5 361zM1754 647q0 131 -74 210t-202 79q-144 0 -249 -95.5t-127 -244.5h648q0 7 2 25t2 26z" />
    <glyph glyph-name="Racute" unicode="&#x154;" horiz-adv-x="1367" 
d="M681 1603l255 321h185l-335 -321h-105zM862 716q41 -10 71 -26.5t50 -36.5t36 -56t26 -69.5t25 -92.5l108 -435h-152l-101 418q-19 79 -34 119.5t-42.5 71.5t-66.5 41t-105 10h-323l-81 -660h-149l178 1456h450q223 0 336.5 -71.5t113.5 -240.5q0 -177 -88 -290.5
t-252 -137.5zM1049 1123q0 112 -68 160.5t-214 48.5h-27h-302l-68 -549h313q175 0 270.5 83.5t95.5 256.5z" />
    <glyph glyph-name="racute" unicode="&#x155;" horiz-adv-x="786" 
d="M128 0l95 775q6 46 11 108.5t7 102.5l2 40h147l-16 -175q51 100 133 149t180 49q54 0 101 -10l-18 -127q-55 12 -103 12q-130 0 -218 -89t-110 -270l-70 -565h-141zM531 1173l255 321h185l-335 -321h-105z" />
    <glyph glyph-name="Rcommaaccent" unicode="&#x156;" horiz-adv-x="1367" 
d="M366 -582l163 453h163l-216 -453h-110zM862 716q41 -10 71 -26.5t50 -36.5t36 -56t26 -69.5t25 -92.5l108 -435h-152l-101 418q-19 79 -34 119.5t-42.5 71.5t-66.5 41t-105 10h-323l-81 -660h-149l178 1456h450q223 0 336.5 -71.5t113.5 -240.5q0 -177 -88 -290.5
t-252 -137.5zM1049 1123q0 112 -68 160.5t-214 48.5h-27h-302l-68 -549h313q175 0 270.5 83.5t95.5 256.5z" />
    <glyph glyph-name="rcommaaccent" unicode="&#x157;" horiz-adv-x="786" 
d="M-12 -582l163 453h163l-216 -453h-110zM128 0l95 775q6 46 11 108.5t7 102.5l2 40h147l-16 -175q51 100 133 149t180 49q54 0 101 -10l-18 -127q-55 12 -103 12q-130 0 -218 -89t-110 -270l-70 -565h-141z" />
    <glyph glyph-name="Rcaron" unicode="&#x158;" horiz-adv-x="1367" 
d="M662 1615l-191 309h121l146 -226l206 226h128l-266 -309h-144zM862 716q41 -10 71 -26.5t50 -36.5t36 -56t26 -69.5t25 -92.5l108 -435h-152l-101 418q-19 79 -34 119.5t-42.5 71.5t-66.5 41t-105 10h-323l-81 -660h-149l178 1456h450q223 0 336.5 -71.5t113.5 -240.5
q0 -177 -88 -290.5t-252 -137.5zM1049 1123q0 112 -68 160.5t-214 48.5h-27h-302l-68 -549h313q175 0 270.5 83.5t95.5 256.5z" />
    <glyph glyph-name="rcaron" unicode="&#x159;" horiz-adv-x="786" 
d="M128 0l95 775q6 46 11 108.5t7 102.5l2 40h147l-16 -175q51 100 133 149t180 49q54 0 101 -10l-18 -127q-55 12 -103 12q-130 0 -218 -89t-110 -270l-70 -565h-141zM511 1185l-191 309h121l146 -226l206 226h128l-266 -309h-144z" />
    <glyph glyph-name="Sacute" unicode="&#x15a;" horiz-adv-x="1172" 
d="M674 1603l255 321h185l-335 -321h-105zM883 439q0 89 -58 139.5t-210 95.5q-6 2 -115 32q-168 48 -247.5 123.5t-79.5 210.5q0 211 142.5 326t374.5 115q76 0 141.5 -11.5t105 -25.5t76 -37t50 -35t31.5 -31l-84 -102q-40 46 -121 82.5t-202 36.5q-169 0 -263.5 -78.5
t-94.5 -230.5q0 -83 48 -128t176 -83q5 -2 57.5 -16.5t55.5 -15.5q206 -58 287 -135.5t81 -206.5q0 -230 -146 -357.5t-383 -127.5q-92 0 -172 18.5t-134 48.5t-83.5 52t-51.5 44l80 106q159 -146 372 -146q172 0 269.5 89t97.5 248z" />
    <glyph glyph-name="sacute" unicode="&#x15b;" horiz-adv-x="957" 
d="M698 295q0 59 -41.5 91.5t-143.5 67.5l-141 46q-110 38 -165 89t-55 144q0 83 33 146t90.5 100t129 55t156.5 18q195 0 314 -83l-54 -102q-118 69 -264 69q-263 0 -263 -184q0 -51 32 -77.5t119 -55.5q2 -1 146 -49q61 -22 101.5 -42t75 -48.5t50.5 -66t16 -87.5
q0 -90 -34.5 -159t-93 -109t-128 -59.5t-147.5 -19.5q-213 0 -359 120l58 107q138 -109 307 -109q49 0 91 8.5t82.5 29t64 61.5t23.5 99zM510 1173l255 321h185l-335 -321h-105z" />
    <glyph glyph-name="Scircumflex" unicode="&#x15c;" horiz-adv-x="1172" 
d="M453 1615l258 309h110l180 -309h-106l-146 201l-196 -201h-100zM883 439q0 89 -58 139.5t-210 95.5q-6 2 -115 32q-168 48 -247.5 123.5t-79.5 210.5q0 211 142.5 326t374.5 115q76 0 141.5 -11.5t105 -25.5t76 -37t50 -35t31.5 -31l-84 -102q-40 46 -121 82.5t-202 36.5
q-169 0 -263.5 -78.5t-94.5 -230.5q0 -83 48 -128t176 -83q5 -2 57.5 -16.5t55.5 -15.5q206 -58 287 -135.5t81 -206.5q0 -230 -146 -357.5t-383 -127.5q-92 0 -172 18.5t-134 48.5t-83.5 52t-51.5 44l80 106q159 -146 372 -146q172 0 269.5 89t97.5 248z" />
    <glyph glyph-name="scircumflex" unicode="&#x15d;" horiz-adv-x="957" 
d="M698 295q0 59 -41.5 91.5t-143.5 67.5l-141 46q-110 38 -165 89t-55 144q0 83 33 146t90.5 100t129 55t156.5 18q195 0 314 -83l-54 -102q-118 69 -264 69q-263 0 -263 -184q0 -51 32 -77.5t119 -55.5q2 -1 146 -49q61 -22 101.5 -42t75 -48.5t50.5 -66t16 -87.5
q0 -90 -34.5 -159t-93 -109t-128 -59.5t-147.5 -19.5q-213 0 -359 120l58 107q138 -109 307 -109q49 0 91 8.5t82.5 29t64 61.5t23.5 99zM288 1185l258 309h110l180 -309h-106l-146 201l-196 -201h-100z" />
    <glyph glyph-name="Scedilla" unicode="&#x15e;" horiz-adv-x="1172" 
d="M323 -384l22 77q20 -10 64.5 -19t83.5 -9q114 0 114 78q0 32 -41 50.5t-117 18.5h-14l57 195h78l-38 -136q198 -16 198 -126q0 -58 -37.5 -96.5t-88.5 -52.5t-112 -14q-90 0 -169 34zM883 439q0 89 -58 139.5t-210 95.5q-6 2 -115 32q-168 48 -247.5 123.5t-79.5 210.5
q0 211 142.5 326t374.5 115q76 0 141.5 -11.5t105 -25.5t76 -37t50 -35t31.5 -31l-84 -102q-40 46 -121 82.5t-202 36.5q-169 0 -263.5 -78.5t-94.5 -230.5q0 -83 48 -128t176 -83q5 -2 57.5 -16.5t55.5 -15.5q206 -58 287 -135.5t81 -206.5q0 -230 -146 -357.5t-383 -127.5
q-92 0 -172 18.5t-134 48.5t-83.5 52t-51.5 44l80 106q159 -146 372 -146q172 0 269.5 89t97.5 248z" />
    <glyph glyph-name="scedilla" unicode="&#x15f;" horiz-adv-x="957" 
d="M698 295q0 59 -41.5 91.5t-143.5 67.5l-141 46q-110 38 -165 89t-55 144q0 83 33 146t90.5 100t129 55t156.5 18q195 0 314 -83l-54 -102q-118 69 -264 69q-263 0 -263 -184q0 -51 32 -77.5t119 -55.5q2 -1 146 -49q61 -22 101.5 -42t75 -48.5t50.5 -66t16 -87.5
q0 -90 -34.5 -159t-93 -109t-128 -59.5t-147.5 -19.5q-213 0 -359 120l58 107q138 -109 307 -109q49 0 91 8.5t82.5 29t64 61.5t23.5 99zM246 -384l22 77q20 -10 64.5 -19t83.5 -9q114 0 114 78q0 32 -41 50.5t-117 18.5h-14l57 195h78l-38 -136q198 -16 198 -126
q0 -58 -37.5 -96.5t-88.5 -52.5t-112 -14q-90 0 -169 34z" />
    <glyph glyph-name="Scaron" unicode="&#x160;" horiz-adv-x="1172" 
d="M655 1615l-191 309h121l146 -226l206 226h128l-266 -309h-144zM883 439q0 89 -58 139.5t-210 95.5q-6 2 -115 32q-168 48 -247.5 123.5t-79.5 210.5q0 211 142.5 326t374.5 115q76 0 141.5 -11.5t105 -25.5t76 -37t50 -35t31.5 -31l-84 -102q-40 46 -121 82.5t-202 36.5
q-169 0 -263.5 -78.5t-94.5 -230.5q0 -83 48 -128t176 -83q5 -2 57.5 -16.5t55.5 -15.5q206 -58 287 -135.5t81 -206.5q0 -230 -146 -357.5t-383 -127.5q-92 0 -172 18.5t-134 48.5t-83.5 52t-51.5 44l80 106q159 -146 372 -146q172 0 269.5 89t97.5 248z" />
    <glyph glyph-name="scaron" unicode="&#x161;" horiz-adv-x="957" 
d="M698 295q0 59 -41.5 91.5t-143.5 67.5l-141 46q-110 38 -165 89t-55 144q0 83 33 146t90.5 100t129 55t156.5 18q195 0 314 -83l-54 -102q-118 69 -264 69q-263 0 -263 -184q0 -51 32 -77.5t119 -55.5q2 -1 146 -49q61 -22 101.5 -42t75 -48.5t50.5 -66t16 -87.5
q0 -90 -34.5 -159t-93 -109t-128 -59.5t-147.5 -19.5q-213 0 -359 120l58 107q138 -109 307 -109q49 0 91 8.5t82.5 29t64 61.5t23.5 99zM490 1185l-191 309h121l146 -226l206 226h128l-266 -309h-144z" />
    <glyph glyph-name="Tcommaaccent" unicode="&#x162;" horiz-adv-x="1121" 
d="M270 -384l22 77q20 -10 64.5 -19t83.5 -9q114 0 114 78q0 32 -41 50.5t-117 18.5h-14l57 195h78l-38 -136q198 -16 198 -126q0 -58 -37.5 -96.5t-88.5 -52.5t-112 -14q-90 0 -169 34zM395 0l164 1332h-476l15 124h1102l-15 -124h-477l-163 -1332h-150z" />
    <glyph glyph-name="tcommaaccent" unicode="&#x163;" horiz-adv-x="745" 
d="M565 -1q-5 0 -33 0.5t-32 0.5q-118 3 -185 30t-91.5 72.5t-24.5 121.5q0 39 9 116l73 592h-200l12 94h201l34 279l145 41l-40 -320h256l-12 -94h-255l-73 -598q-8 -59 -8 -93q0 -78 48 -103t190 -25zM197 -365l22 77q20 -10 64.5 -19t83.5 -9q114 0 114 78q0 32 -41 50.5
t-117 18.5h-14l57 195h78l-38 -136q198 -16 198 -126q0 -58 -37.5 -96.5t-88.5 -52.5t-112 -14q-90 0 -169 34z" />
    <glyph glyph-name="Tcaron" unicode="&#x164;" horiz-adv-x="1121" 
d="M600 1615l-191 309h121l146 -226l206 226h128l-266 -309h-144zM395 0l164 1332h-476l15 124h1102l-15 -124h-477l-163 -1332h-150z" />
    <glyph glyph-name="tcaron" unicode="&#x165;" horiz-adv-x="745" 
d="M565 -1q-5 0 -33 0.5t-32 0.5q-118 3 -185 30t-91.5 72.5t-24.5 121.5q0 39 9 116l73 592h-200l12 94h201l34 279l145 41l-40 -320h256l-12 -94h-255l-73 -598q-8 -59 -8 -93q0 -78 48 -103t190 -25zM616 1284l162 453h163l-215 -453h-110z" />
    <glyph glyph-name="Tbar" unicode="&#x166;" horiz-adv-x="1121" 
d="M280 710l12 99h557l-12 -99h-557zM395 0l164 1332h-476l15 124h1102l-15 -124h-477l-163 -1332h-150z" />
    <glyph glyph-name="tbar" unicode="&#x167;" horiz-adv-x="745" 
d="M565 -1q-5 0 -33 0.5t-32 0.5q-118 3 -185 30t-91.5 72.5t-24.5 121.5q0 39 9 116l73 592h-200l12 94h201l34 279l145 41l-40 -320h256l-12 -94h-255l-73 -598q-8 -59 -8 -93q0 -78 48 -103t190 -25zM36 550l12 99h557l-12 -99h-557z" />
    <glyph glyph-name="Utilde" unicode="&#x168;" horiz-adv-x="1488" 
d="M727 1733q-62 0 -77 -87h-90q11 89 57 139t116 50q54 0 154.5 -49.5t133.5 -49.5q28 0 41 21.5t20 71.5h94q-11 -89 -51 -142t-110 -53q-49 0 -151.5 49.5t-136.5 49.5zM647 -21q-257 0 -380 115.5t-123 330.5q0 57 7 112l113 919h149l-113 -925q-6 -48 -6 -91
q0 -338 370 -338q204 0 323.5 107t145.5 320l114 927h149l-113 -918q-34 -268 -192 -413.5t-444 -145.5z" />
    <glyph glyph-name="utilde" unicode="&#x169;" 
d="M505 -24q-172 0 -258 87.5t-86 249.5q0 43 6 89l76 624h141l-77 -626q-5 -42 -5 -70q0 -238 232 -238q79 0 148.5 27t115.5 69.5t74.5 92.5t34.5 98l80 647h141l-97 -787q-15 -127 -22 -239h-138l15 178q-145 -202 -381 -202zM584 1303q-62 0 -77 -87h-90q11 89 57 139
t116 50q54 0 154.5 -49.5t133.5 -49.5q28 0 41 21.5t20 71.5h94q-11 -89 -51 -142t-110 -53q-49 0 -151.5 49.5t-136.5 49.5z" />
    <glyph glyph-name="Umacron" unicode="&#x16a;" horiz-adv-x="1488" 
d="M591 1669l12 99h557l-12 -99h-557zM647 -21q-257 0 -380 115.5t-123 330.5q0 57 7 112l113 919h149l-113 -925q-6 -48 -6 -91q0 -338 370 -338q204 0 323.5 107t145.5 320l114 927h149l-113 -918q-34 -268 -192 -413.5t-444 -145.5z" />
    <glyph glyph-name="umacron" unicode="&#x16b;" 
d="M505 -24q-172 0 -258 87.5t-86 249.5q0 43 6 89l76 624h141l-77 -626q-5 -42 -5 -70q0 -238 232 -238q79 0 148.5 27t115.5 69.5t74.5 92.5t34.5 98l80 647h141l-97 -787q-15 -127 -22 -239h-138l15 178q-145 -202 -381 -202zM448 1239l12 99h557l-12 -99h-557z" />
    <glyph glyph-name="Ubreve" unicode="&#x16c;" horiz-adv-x="1488" 
d="M852 1601q-114 0 -167 52t-53 163v22h104q0 -4 -0.5 -10t-0.5 -9q0 -59 32 -86.5t97 -27.5q68 0 105 32.5t56 100.5h101q-46 -237 -274 -237zM647 -21q-257 0 -380 115.5t-123 330.5q0 57 7 112l113 919h149l-113 -925q-6 -48 -6 -91q0 -338 370 -338q204 0 323.5 107
t145.5 320l114 927h149l-113 -918q-34 -268 -192 -413.5t-444 -145.5z" />
    <glyph glyph-name="ubreve" unicode="&#x16d;" 
d="M505 -24q-172 0 -258 87.5t-86 249.5q0 43 6 89l76 624h141l-77 -626q-5 -42 -5 -70q0 -238 232 -238q79 0 148.5 27t115.5 69.5t74.5 92.5t34.5 98l80 647h141l-97 -787q-15 -127 -22 -239h-138l15 178q-145 -202 -381 -202zM709 1171q-114 0 -167 52t-53 163v22h104
q0 -4 -0.5 -10t-0.5 -9q0 -59 32 -86.5t97 -27.5q68 0 105 32.5t56 100.5h101q-46 -237 -274 -237z" />
    <glyph glyph-name="Uring" unicode="&#x16e;" horiz-adv-x="1488" 
d="M980 1762q0 42 -26 69.5t-68 27.5q-47 0 -83.5 -36t-36.5 -89q0 -42 26 -69.5t67 -27.5q48 0 84.5 36t36.5 89zM896 1930q73 0 120 -44.5t47 -113.5q0 -89 -63 -147.5t-149 -58.5q-74 0 -120.5 44.5t-46.5 114.5q0 88 63.5 146.5t148.5 58.5zM647 -21q-257 0 -380 115.5
t-123 330.5q0 57 7 112l113 919h149l-113 -925q-6 -48 -6 -91q0 -338 370 -338q204 0 323.5 107t145.5 320l114 927h149l-113 -918q-34 -268 -192 -413.5t-444 -145.5z" />
    <glyph glyph-name="uring" unicode="&#x16f;" 
d="M505 -24q-172 0 -258 87.5t-86 249.5q0 43 6 89l76 624h141l-77 -626q-5 -42 -5 -70q0 -238 232 -238q79 0 148.5 27t115.5 69.5t74.5 92.5t34.5 98l80 647h141l-97 -787q-15 -127 -22 -239h-138l15 178q-145 -202 -381 -202zM836 1332q0 42 -26 69.5t-68 27.5
q-47 0 -83.5 -36t-36.5 -89q0 -42 26 -69.5t67 -27.5q48 0 84.5 36t36.5 89zM752 1500q73 0 120 -44.5t47 -113.5q0 -89 -63 -147.5t-149 -58.5q-74 0 -120.5 44.5t-46.5 114.5q0 88 63.5 146.5t148.5 58.5z" />
    <glyph glyph-name="Uhungarumlaut" unicode="&#x170;" horiz-adv-x="1488" 
d="M651 1597l243 327h149l-290 -327h-102zM944 1597l255 327h161l-312 -327h-104zM647 -21q-257 0 -380 115.5t-123 330.5q0 57 7 112l113 919h149l-113 -925q-6 -48 -6 -91q0 -338 370 -338q204 0 323.5 107t145.5 320l114 927h149l-113 -918q-34 -268 -192 -413.5
t-444 -145.5z" />
    <glyph glyph-name="uhungarumlaut" unicode="&#x171;" 
d="M505 -24q-172 0 -258 87.5t-86 249.5q0 43 6 89l76 624h141l-77 -626q-5 -42 -5 -70q0 -238 232 -238q79 0 148.5 27t115.5 69.5t74.5 92.5t34.5 98l80 647h141l-97 -787q-15 -127 -22 -239h-138l15 178q-145 -202 -381 -202zM508 1167l243 327h149l-290 -327h-102z
M801 1167l255 327h161l-312 -327h-104z" />
    <glyph glyph-name="Uogonek" unicode="&#x172;" horiz-adv-x="1488" 
d="M661 -436q-91 0 -151 47t-60 124q0 14 1 22q9 70 70 136.5t152 116.5l93 -3q-78 -51 -127 -116t-55 -115q-1 -5 -1 -16q0 -42 29 -66.5t82 -24.5q47 0 108 18l-13 -104q-66 -19 -128 -19zM647 -21q-257 0 -380 115.5t-123 330.5q0 57 7 112l113 919h149l-113 -925
q-6 -48 -6 -91q0 -338 370 -338q204 0 323.5 107t145.5 320l114 927h149l-113 -918q-34 -268 -192 -413.5t-444 -145.5z" />
    <glyph glyph-name="uogonek" unicode="&#x173;" 
d="M505 -24q-172 0 -258 87.5t-86 249.5q0 43 6 89l76 624h141l-77 -626q-5 -42 -5 -70q0 -238 232 -238q79 0 148.5 27t115.5 69.5t74.5 92.5t34.5 98l80 647h141l-97 -787q-15 -127 -22 -239h-138l15 178q-145 -202 -381 -202zM887 -436q-91 0 -151 47t-60 124q0 14 1 22
q9 70 70 136.5t152 116.5l93 -3q-78 -51 -127 -116t-55 -115q-1 -5 -1 -16q0 -42 29 -66.5t82 -24.5q47 0 108 18l-13 -104q-66 -19 -128 -19z" />
    <glyph glyph-name="Wcircumflex" unicode="&#x174;" horiz-adv-x="2029" 
d="M865 1615l258 309h110l180 -309h-106l-146 201l-196 -201h-100zM388 0l-209 1456h160l146 -1123l15 -173l66 171l471 1125h149q22 -129 102 -583t120 -704q114 315 467 1287h153l-552 -1456h-176l-212 1260l-526 -1260h-174z" />
    <glyph glyph-name="wcircumflex" unicode="&#x175;" horiz-adv-x="1595" 
d="M294 0l-193 1026h150q15 -89 66.5 -395.5t81.5 -471.5q76 170 220.5 479.5t180.5 387.5h153q30 -144 90 -434t90 -434q57 145 171.5 434t171.5 434h143l-435 -1026h-151q-120 580 -179 871q-68 -146 -410 -871h-150zM628 1185l258 309h110l180 -309h-106l-146 201
l-196 -201h-100z" />
    <glyph glyph-name="Ycircumflex" unicode="&#x176;" horiz-adv-x="1237" 
d="M465 1615l258 309h110l180 -309h-106l-146 201l-196 -201h-100zM452 0l71 583l-384 873h161l317 -743l504 743h159l-606 -870l-72 -586h-150z" />
    <glyph glyph-name="ycircumflex" unicode="&#x177;" horiz-adv-x="1024" 
d="M94 -425l-42 99q247 70 344 265l27 54l-282 1033h149l222 -875l433 875h141l-547 -1079q-70 -140 -181 -240t-264 -132zM373 1185l258 309h110l180 -309h-106l-146 201l-196 -201h-100z" />
    <glyph glyph-name="Ydieresis" unicode="&#x178;" horiz-adv-x="1237" 
d="M479 1626l19 148h142l-19 -148h-142zM849 1626l18 148h143l-19 -148h-142zM452 0l71 583l-384 873h161l317 -743l504 743h159l-606 -870l-72 -586h-150z" />
    <glyph glyph-name="Zacute" unicode="&#x179;" horiz-adv-x="1183" 
d="M676 1603l255 321h185l-335 -321h-105zM27 0l9 82l926 1250h-739l15 124h931l-9 -78l-930 -1254h772l-15 -124h-960z" />
    <glyph glyph-name="zacute" unicode="&#x17a;" horiz-adv-x="952" 
d="M34 0l10 79l690 831h-568l14 116h749l-9 -77l-688 -834h587l-14 -115h-771zM516 1173l255 321h185l-335 -321h-105z" />
    <glyph glyph-name="Zdotaccent" unicode="&#x17b;" horiz-adv-x="1183" 
d="M654 1677l19 154h155l-19 -154h-155zM27 0l9 82l926 1250h-739l15 124h931l-9 -78l-930 -1254h772l-15 -124h-960z" />
    <glyph glyph-name="zdotaccent" unicode="&#x17c;" horiz-adv-x="952" 
d="M34 0l10 79l690 831h-568l14 116h749l-9 -77l-688 -834h587l-14 -115h-771zM494 1247l19 154h155l-19 -154h-155z" />
    <glyph glyph-name="Zcaron" unicode="&#x17d;" horiz-adv-x="1183" 
d="M656 1615l-191 309h121l146 -226l206 226h128l-266 -309h-144zM27 0l9 82l926 1250h-739l15 124h931l-9 -78l-930 -1254h772l-15 -124h-960z" />
    <glyph glyph-name="zcaron" unicode="&#x17e;" horiz-adv-x="952" 
d="M34 0l10 79l690 831h-568l14 116h749l-9 -77l-688 -834h587l-14 -115h-771zM497 1185l-191 309h121l146 -226l206 226h128l-266 -309h-144z" />
    <glyph glyph-name="longs" unicode="&#x17f;" horiz-adv-x="957" 
d="M698 295q0 59 -41.5 91.5t-143.5 67.5l-141 46q-110 38 -165 89t-55 144q0 83 33 146t90.5 100t129 55t156.5 18q195 0 314 -83l-54 -102q-118 69 -264 69q-263 0 -263 -184q0 -51 32 -77.5t119 -55.5q2 -1 146 -49q61 -22 101.5 -42t75 -48.5t50.5 -66t16 -87.5
q0 -90 -34.5 -159t-93 -109t-128 -59.5t-147.5 -19.5q-213 0 -359 120l58 107q138 -109 307 -109q49 0 91 8.5t82.5 29t64 61.5t23.5 99z" />
    <glyph glyph-name="florin" unicode="&#x192;" horiz-adv-x="1043" 
d="M90 -288q-44 0 -100 15l24 109q40 -12 67 -12q152 0 207 176l279 924h-163l25 100h167l35 115q20 76 47 133.5t68.5 106.5t103.5 75t143 26q27 0 60.5 -6.5t54.5 -13.5l20 -6l-28 -106q-68 19 -106 19q-94 0 -138.5 -42.5t-70.5 -127.5l-58 -173h228l-32 -100h-222
l-244 -813q-50 -170 -81 -230q-59 -118 -165 -152q-52 -17 -121 -17z" />
    <glyph glyph-name="uni01C4" unicode="&#x1c4;" horiz-adv-x="2714" 
d="M2187 1615l-191 309h121l146 -226l206 226h128l-266 -309h-144zM1558 0l9 82l926 1250h-739l15 124h931l-9 -78l-930 -1254h772l-15 -124h-960zM288 124h265q307 0 484 153t213 442q8 67 8 120q0 493 -596 493h-225zM124 0l178 1456h366q366 0 556.5 -151t190.5 -453
q0 -62 -9 -133q-42 -349 -266 -534t-607 -185h-409z" />
    <glyph glyph-name="uni01C5" unicode="&#x1c5;" horiz-adv-x="2483" 
d="M1565 0l10 79l690 831h-568l14 116h749l-9 -77l-688 -834h587l-14 -115h-771zM2028 1185l-191 309h121l146 -226l206 226h128l-266 -309h-144zM288 124h265q307 0 484 153t213 442q8 67 8 120q0 493 -596 493h-225zM124 0l178 1456h366q366 0 556.5 -151t190.5 -453
q0 -62 -9 -133q-42 -349 -266 -534t-607 -185h-409z" />
    <glyph glyph-name="uni01C6" unicode="&#x1c6;" horiz-adv-x="2212" 
d="M1294 0l10 79l690 831h-568l14 116h749l-9 -77l-688 -834h587l-14 -115h-771zM1757 1185l-191 309h121l146 -226l206 226h128l-266 -309h-144zM608 1052q127 0 218.5 -61.5t120.5 -155.5l81 666h142l-152 -1234q-12 -101 -25 -267h-143l21 207q-49 -100 -156 -164
t-243 -64q-187 0 -297 118.5t-110 322.5q0 278 153 455t390 177zM915 598q0 155 -82 246.5t-229 91.5q-177 0 -285.5 -141t-108.5 -364q0 -156 74.5 -246t214.5 -90q183 0 299.5 140t116.5 363z" />
    <glyph glyph-name="uni01C7" unicode="&#x1c7;" horiz-adv-x="1804" 
d="M124 0l178 1456h149l-163 -1332h679l-15 -124h-828zM1129 -319q-68 0 -162 22l29 118q89 -17 138 -17q127 0 179 66.5t75 255.5l164 1330h150l-164 -1330q-16 -129 -48.5 -216t-85 -137t-118 -71t-157.5 -21z" />
    <glyph glyph-name="uni01C8" unicode="&#x1c8;" horiz-adv-x="1580" 
d="M1363 1312l18 144h140l-18 -144h-140zM1007 -434q-69 0 -110 10l14 127q43 -8 74 -8q107 0 167 79t81 249l123 1003h144l-113 -917q-7 -58 -15 -104.5t-22.5 -105.5t-33 -103t-47.5 -89.5t-65 -74.5t-86.5 -47.5t-110.5 -18.5zM124 0l178 1456h149l-163 -1332h679
l-15 -124h-828z" />
    <glyph glyph-name="uni01C9" unicode="&#x1c9;" horiz-adv-x="1020" 
d="M99 0l184 1501h141l-184 -1501h-141zM803 1312l18 144h140l-18 -144h-140zM447 -434q-69 0 -110 10l14 127q43 -8 74 -8q107 0 167 79t81 249l123 1003h144l-113 -917q-7 -58 -15 -104.5t-22.5 -105.5t-33 -103t-47.5 -89.5t-65 -74.5t-86.5 -47.5t-110.5 -18.5z" />
    <glyph glyph-name="uni01CA" unicode="&#x1ca;" horiz-adv-x="2312" 
d="M124 0l178 1456h155l611 -1073l95 -181l154 1254h144l-178 -1456h-154l-614 1061l-96 184l-152 -1245h-143zM1637 -319q-68 0 -162 22l29 118q89 -17 138 -17q127 0 179 66.5t75 255.5l164 1330h150l-164 -1330q-16 -129 -48.5 -216t-85 -137t-118 -71t-157.5 -21z" />
    <glyph glyph-name="uni01CB" unicode="&#x1cb;" horiz-adv-x="2088" 
d="M1871 1312l18 144h140l-18 -144h-140zM1515 -434q-69 0 -110 10l14 127q43 -8 74 -8q107 0 167 79t81 249l123 1003h144l-113 -917q-7 -58 -15 -104.5t-22.5 -105.5t-33 -103t-47.5 -89.5t-65 -74.5t-86.5 -47.5t-110.5 -18.5zM124 0l178 1456h155l611 -1073l95 -181
l154 1254h144l-178 -1456h-154l-614 1061l-96 184l-152 -1245h-143z" />
    <glyph glyph-name="uni01CC" unicode="&#x1cc;" horiz-adv-x="1754" 
d="M125 0l99 811q5 43 9.5 96.5t6.5 86.5l2 32h140l-17 -184q65 101 173 155.5t230 54.5q325 0 325 -342q0 -55 -7 -110l-74 -600h-142l75 600q6 52 6 96q0 121 -50.5 180.5t-162.5 59.5q-133 0 -242.5 -77t-148.5 -199l-81 -660h-141zM1537 1312l18 144h140l-18 -144h-140z
M1181 -434q-69 0 -110 10l14 127q43 -8 74 -8q107 0 167 79t81 249l123 1003h144l-113 -917q-7 -58 -15 -104.5t-22.5 -105.5t-33 -103t-47.5 -89.5t-65 -74.5t-86.5 -47.5t-110.5 -18.5z" />
    <glyph glyph-name="uni01CD" unicode="&#x1cd;" horiz-adv-x="1364" 
d="M722 1615l-191 309h121l146 -226l206 226h128l-266 -309h-144zM-39 0l725 1456h169l371 -1456h-161l-98 394h-649l-193 -394h-164zM372 509h567q-97 428 -186 802q-127 -268 -381 -802z" />
    <glyph glyph-name="uni01CE" unicode="&#x1ce;" horiz-adv-x="1263" 
d="M604 1185l-191 309h121l146 -226l206 226h128l-266 -309h-144zM651 1052q119 0 205 -58t119 -150l23 182h140l-126 -1026h-141l24 195q-59 -100 -157 -158t-221 -58q-201 0 -312.5 122.5t-111.5 323.5q0 273 158 450t400 177zM237 439q0 -158 80 -251t230 -93
q163 0 265.5 115t126.5 312q5 47 5 80q0 154 -77 244t-218 90q-185 0 -298.5 -139t-113.5 -358z" />
    <glyph glyph-name="uni01CF" unicode="&#x1cf;" horiz-adv-x="597" 
d="M349 1615l-191 309h121l146 -226l206 226h128l-266 -309h-144zM141 0l178 1456h150l-178 -1456h-150z" />
    <glyph glyph-name="uni01D0" unicode="&#x1d0;" horiz-adv-x="503" 
d="M119 0l125 1026h143l-125 -1026h-143zM267 1185l-191 309h121l146 -226l206 226h128l-266 -309h-144z" />
    <glyph glyph-name="uni01D1" unicode="&#x1d1;" horiz-adv-x="1599" 
d="M842 1615l-191 309h121l146 -226l206 226h128l-266 -309h-144zM724 102q251 0 411.5 168t195.5 456q8 69 8 124q0 236 -119.5 372t-340.5 136q-250 0 -414.5 -172.5t-199.5 -459.5q-8 -67 -8 -120q0 -235 122 -369.5t345 -134.5zM710 -21q-287 0 -448.5 165t-161.5 451
q0 71 8 131q42 343 254 549t533 206q282 0 442.5 -168.5t160.5 -455.5q0 -71 -8 -131q-41 -342 -251.5 -544.5t-528.5 -202.5z" />
    <glyph glyph-name="uni01D2" unicode="&#x1d2;" horiz-adv-x="1244" 
d="M1004 591q0 161 -85 253t-245 92q-179 0 -292.5 -115t-137.5 -310q-5 -43 -5 -76q0 -158 85.5 -249t246.5 -91q197 0 315 137t118 359zM557 -21q-220 0 -342.5 120.5t-122.5 324.5q0 42 6 87q30 245 189.5 393t402.5 148q218 0 339.5 -121.5t121.5 -328.5q0 -44 -6 -91
q-30 -240 -188 -386t-400 -146zM639 1185l-191 309h121l146 -226l206 226h128l-266 -309h-144z" />
    <glyph glyph-name="uni01D3" unicode="&#x1d3;" horiz-adv-x="1488" 
d="M789 1615l-191 309h121l146 -226l206 226h128l-266 -309h-144zM647 -21q-257 0 -380 115.5t-123 330.5q0 57 7 112l113 919h149l-113 -925q-6 -48 -6 -91q0 -338 370 -338q204 0 323.5 107t145.5 320l114 927h149l-113 -918q-34 -268 -192 -413.5t-444 -145.5z" />
    <glyph glyph-name="uni01D4" unicode="&#x1d4;" 
d="M505 -24q-172 0 -258 87.5t-86 249.5q0 43 6 89l76 624h141l-77 -626q-5 -42 -5 -70q0 -238 232 -238q79 0 148.5 27t115.5 69.5t74.5 92.5t34.5 98l80 647h141l-97 -787q-15 -127 -22 -239h-138l15 178q-145 -202 -381 -202zM645 1185l-191 309h121l146 -226l206 226
h128l-266 -309h-144z" />
    <glyph glyph-name="uni01E2" unicode="&#x1e2;" horiz-adv-x="1961" 
d="M1149 1669l12 99h557l-12 -99h-557zM-59 0l1017 1456h963l-15 -126h-711l-21 -518h617l-14 -117h-609l-19 -572h633l-14 -123h-758l14 430h-632l-297 -430h-154zM461 542h564l37 788h-57z" />
    <glyph glyph-name="uni01E3" unicode="&#x1e3;" horiz-adv-x="1801" 
d="M727 1239l12 99h557l-12 -99h-557zM1349 1052q175 0 272 -110t97 -308q0 -60 -11 -137h-739l-4 -31q-3 -31 -3 -62q0 -140 71.5 -224.5t220.5 -84.5q85 0 168.5 28.5t124.5 56.5l41 28l33 -102q-6 -5 -17.5 -13.5t-50.5 -30.5t-81 -39t-106.5 -30.5t-130.5 -13.5
q-145 0 -243.5 74t-130.5 200q-57 -117 -176 -196t-281 -79q-155 0 -248 70t-93 193q0 25 2 39q10 81 44 138t84 91.5t130.5 54t164.5 26t205 6.5h135q4 31 4 66q0 125 -64 200t-185 75q-167 0 -347 -84l-32 105q194 94 407 94q129 0 219.5 -66.5t108.5 -182.5
q66 114 174.5 181.5t236.5 67.5zM425 93q170 0 270.5 113t122.5 290h-188q-212 0 -311 -43t-115 -166q-2 -18 -2 -27q0 -85 62.5 -126t160.5 -41zM981 595h615l1 23q0 4 0.5 12.5t0.5 12.5q0 58 -15 109t-45.5 93.5t-82 67.5t-118.5 25q-70 0 -132.5 -30t-107 -79
t-75 -109.5t-41.5 -124.5z" />
    <glyph glyph-name="Gcaron" unicode="&#x1e6;" horiz-adv-x="1520" 
d="M885 1615l-191 309h121l146 -226l206 226h128l-266 -309h-144zM747 -21q-310 0 -479.5 162t-169.5 443q0 54 8 121q21 171 92.5 315.5t180 246t254 158t310.5 56.5q276 0 456 -146l-75 -105q-174 128 -394 128q-267 0 -450.5 -179.5t-218.5 -469.5q-7 -52 -7 -107
q0 -232 133 -366t379 -134q222 0 374 61l57 461h-389l16 125h531l-82 -667q-231 -103 -526 -103z" />
    <glyph glyph-name="gcaron" unicode="&#x1e7;" horiz-adv-x="1268" 
d="M472 -431q-194 0 -355 77l36 123q157 -83 330 -83q178 0 290 101t138 313l14 114q-55 -99 -157.5 -157t-232.5 -58q-191 0 -304 114t-113 312q0 43 6 90q30 243 177 390t371 147q125 0 210.5 -57.5t120.5 -149.5l29 181h142q-31 -177 -38 -233l-81 -666
q-34 -266 -186.5 -412t-396.5 -146zM971 601q0 155 -79 245t-222 90q-177 0 -291.5 -140.5t-114.5 -360.5q0 -152 76.5 -237.5t214.5 -85.5q186 0 301 135.5t115 353.5zM605 1185l-191 309h121l146 -226l206 226h128l-266 -309h-144z" />
    <glyph glyph-name="uni01E8" unicode="&#x1e8;" horiz-adv-x="1264" 
d="M699 1615l-191 309h121l146 -226l206 226h128l-266 -309h-144zM124 0l178 1456h149l-81 -669l752 669h185l-787 -700l655 -756h-184l-631 719l-87 -719h-149z" />
    <glyph glyph-name="uni01E9" unicode="&#x1e9;" horiz-adv-x="1078" 
d="M93 0l184 1501h141l-114 -933l552 458h191l-598 -486l511 -540h-186l-477 510l-63 -510h-141zM663 1185l-191 309h121l146 -226l206 226h128l-266 -309h-144z" />
    <glyph glyph-name="uni01EA" unicode="&#x1ea;" horiz-adv-x="1599" 
d="M727 -436q-91 0 -151 47t-60 124q0 14 1 22q9 70 70 136.5t152 116.5l93 -3q-78 -51 -127 -116t-55 -115q-1 -5 -1 -16q0 -42 29 -66.5t82 -24.5q47 0 108 18l-13 -104q-66 -19 -128 -19zM724 102q251 0 411.5 168t195.5 456q8 69 8 124q0 236 -119.5 372t-340.5 136
q-250 0 -414.5 -172.5t-199.5 -459.5q-8 -67 -8 -120q0 -235 122 -369.5t345 -134.5zM710 -21q-287 0 -448.5 165t-161.5 451q0 71 8 131q42 343 254 549t533 206q282 0 442.5 -168.5t160.5 -455.5q0 -71 -8 -131q-41 -342 -251.5 -544.5t-528.5 -202.5z" />
    <glyph glyph-name="uni01EB" unicode="&#x1eb;" horiz-adv-x="1244" 
d="M524 -436q-91 0 -151 47t-60 124q0 14 1 22q9 70 70 136.5t152 116.5l93 -3q-78 -51 -127 -116t-55 -115q-1 -5 -1 -16q0 -42 29 -66.5t82 -24.5q47 0 108 18l-13 -104q-66 -19 -128 -19zM1004 591q0 161 -85 253t-245 92q-179 0 -292.5 -115t-137.5 -310q-5 -43 -5 -76
q0 -158 85.5 -249t246.5 -91q197 0 315 137t118 359zM557 -21q-220 0 -342.5 120.5t-122.5 324.5q0 42 6 87q30 245 189.5 393t402.5 148q218 0 339.5 -121.5t121.5 -328.5q0 -44 -6 -91q-30 -240 -188 -386t-400 -146z" />
    <glyph glyph-name="uni01F0" unicode="&#x1f0;" horiz-adv-x="503" 
d="M-70 -434q-69 0 -110 10l14 127q43 -8 74 -8q107 0 167 79t81 249l123 1003h144l-113 -917q-7 -58 -15 -104.5t-22.5 -105.5t-33 -103t-47.5 -89.5t-65 -74.5t-86.5 -47.5t-110.5 -18.5zM304 1185l-191 309h121l146 -226l206 226h128l-266 -309h-144z" />
    <glyph glyph-name="uni01F1" unicode="&#x1f1;" horiz-adv-x="2714" 
d="M1558 0l9 82l926 1250h-739l15 124h931l-9 -78l-930 -1254h772l-15 -124h-960zM288 124h265q307 0 484 153t213 442q8 67 8 120q0 493 -596 493h-225zM124 0l178 1456h366q366 0 556.5 -151t190.5 -453q0 -62 -9 -133q-42 -349 -266 -534t-607 -185h-409z" />
    <glyph glyph-name="uni01F2" unicode="&#x1f2;" horiz-adv-x="2483" 
d="M1565 0l10 79l690 831h-568l14 116h749l-9 -77l-688 -834h587l-14 -115h-771zM288 124h265q307 0 484 153t213 442q8 67 8 120q0 493 -596 493h-225zM124 0l178 1456h366q366 0 556.5 -151t190.5 -453q0 -62 -9 -133q-42 -349 -266 -534t-607 -185h-409z" />
    <glyph glyph-name="uni01F3" unicode="&#x1f3;" horiz-adv-x="2212" 
d="M1294 0l10 79l690 831h-568l14 116h749l-9 -77l-688 -834h587l-14 -115h-771zM608 1052q127 0 218.5 -61.5t120.5 -155.5l81 666h142l-152 -1234q-12 -101 -25 -267h-143l21 207q-49 -100 -156 -164t-243 -64q-187 0 -297 118.5t-110 322.5q0 278 153 455t390 177z
M915 598q0 155 -82 246.5t-229 91.5q-177 0 -285.5 -141t-108.5 -364q0 -156 74.5 -246t214.5 -90q183 0 299.5 140t116.5 363z" />
    <glyph glyph-name="uni01F4" unicode="&#x1f4;" horiz-adv-x="1520" 
d="M904 1603l255 321h185l-335 -321h-105zM747 -21q-310 0 -479.5 162t-169.5 443q0 54 8 121q21 171 92.5 315.5t180 246t254 158t310.5 56.5q276 0 456 -146l-75 -105q-174 128 -394 128q-267 0 -450.5 -179.5t-218.5 -469.5q-7 -52 -7 -107q0 -232 133 -366t379 -134
q222 0 374 61l57 461h-389l16 125h531l-82 -667q-231 -103 -526 -103z" />
    <glyph glyph-name="uni01F5" unicode="&#x1f5;" horiz-adv-x="1268" 
d="M472 -431q-194 0 -355 77l36 123q157 -83 330 -83q178 0 290 101t138 313l14 114q-55 -99 -157.5 -157t-232.5 -58q-191 0 -304 114t-113 312q0 43 6 90q30 243 177 390t371 147q125 0 210.5 -57.5t120.5 -149.5l29 181h142q-31 -177 -38 -233l-81 -666
q-34 -266 -186.5 -412t-396.5 -146zM971 601q0 155 -79 245t-222 90q-177 0 -291.5 -140.5t-114.5 -360.5q0 -152 76.5 -237.5t214.5 -85.5q186 0 301 135.5t115 353.5zM625 1173l255 321h185l-335 -321h-105z" />
    <glyph glyph-name="uni01F8" unicode="&#x1f8;" horiz-adv-x="1585" 
d="M866 1604l-288 320h187l205 -320h-104zM124 0l178 1456h155l611 -1073l95 -181l154 1254h144l-178 -1456h-154l-614 1061l-96 184l-152 -1245h-143z" />
    <glyph glyph-name="uni01F9" unicode="&#x1f9;" horiz-adv-x="1251" 
d="M125 0l99 811q5 43 9.5 96.5t6.5 86.5l2 32h140l-17 -184q65 101 173 155.5t230 54.5q325 0 325 -342q0 -55 -7 -110l-74 -600h-142l75 600q6 52 6 96q0 121 -50.5 180.5t-162.5 59.5q-133 0 -242.5 -77t-148.5 -199l-81 -660h-141zM698 1174l-288 320h187l205 -320h-104
z" />
    <glyph glyph-name="Aringacute" unicode="&#x1fa;" horiz-adv-x="1364" 
d="M913 1762q0 42 -26 69.5t-68 27.5q-47 0 -83.5 -36t-36.5 -89q0 -42 26 -69.5t67 -27.5q48 0 84.5 36t36.5 89zM829 1930q73 0 120 -44.5t47 -113.5q0 -89 -63 -147.5t-149 -58.5q-74 0 -120.5 44.5t-46.5 114.5q0 88 63.5 146.5t148.5 58.5zM794 2043l255 321h185
l-335 -321h-105zM-39 0l725 1456h169l371 -1456h-161l-98 394h-649l-193 -394h-164zM372 509h567q-97 428 -186 802q-127 -268 -381 -802z" />
    <glyph glyph-name="aringacute" unicode="&#x1fb;" horiz-adv-x="1263" 
d="M795 1332q0 42 -26 69.5t-68 27.5q-47 0 -83.5 -36t-36.5 -89q0 -42 26 -69.5t67 -27.5q48 0 84.5 36t36.5 89zM711 1500q73 0 120 -44.5t47 -113.5q0 -89 -63 -147.5t-149 -58.5q-74 0 -120.5 44.5t-46.5 114.5q0 88 63.5 146.5t148.5 58.5zM676 1613l255 321h185
l-335 -321h-105zM651 1052q119 0 205 -58t119 -150l23 182h140l-126 -1026h-141l24 195q-59 -100 -157 -158t-221 -58q-201 0 -312.5 122.5t-111.5 323.5q0 273 158 450t400 177zM237 439q0 -158 80 -251t230 -93q163 0 265.5 115t126.5 312q5 47 5 80q0 154 -77 244
t-218 90q-185 0 -298.5 -139t-113.5 -358z" />
    <glyph glyph-name="AEacute" unicode="&#x1fc;" horiz-adv-x="1961" 
d="M1367 1603l255 321h185l-335 -321h-105zM-59 0l1017 1456h963l-15 -126h-711l-21 -518h617l-14 -117h-609l-19 -572h633l-14 -123h-758l14 430h-632l-297 -430h-154zM461 542h564l37 788h-57z" />
    <glyph glyph-name="aeacute" unicode="&#x1fd;" horiz-adv-x="1801" 
d="M1349 1052q175 0 272 -110t97 -308q0 -60 -11 -137h-739l-4 -31q-3 -31 -3 -62q0 -140 71.5 -224.5t220.5 -84.5q85 0 168.5 28.5t124.5 56.5l41 28l33 -102q-6 -5 -17.5 -13.5t-50.5 -30.5t-81 -39t-106.5 -30.5t-130.5 -13.5q-145 0 -243.5 74t-130.5 200
q-57 -117 -176 -196t-281 -79q-155 0 -248 70t-93 193q0 25 2 39q10 81 44 138t84 91.5t130.5 54t164.5 26t205 6.5h135q4 31 4 66q0 125 -64 200t-185 75q-167 0 -347 -84l-32 105q194 94 407 94q129 0 219.5 -66.5t108.5 -182.5q66 114 174.5 181.5t236.5 67.5zM425 93
q170 0 270.5 113t122.5 290h-188q-212 0 -311 -43t-115 -166q-2 -18 -2 -27q0 -85 62.5 -126t160.5 -41zM981 595h615l1 23q0 4 0.5 12.5t0.5 12.5q0 58 -15 109t-45.5 93.5t-82 67.5t-118.5 25q-70 0 -132.5 -30t-107 -79t-75 -109.5t-41.5 -124.5zM945 1173l255 321h185
l-335 -321h-105z" />
    <glyph glyph-name="Oslashacute" unicode="&#x1fe;" horiz-adv-x="1599" 
d="M862 1603l255 321h185l-335 -321h-105zM415 203l723 1087q-107 68 -259 68q-250 0 -414.5 -172.5t-199.5 -459.5q-8 -67 -8 -120q0 -270 158 -403zM724 102q251 0 411.5 168t195.5 456q8 69 8 124q0 255 -136 389l-719 -1083q103 -54 240 -54zM285 -143l-73 41l123 184
q-114 78 -174.5 209t-60.5 304q0 71 8 131q42 343 254 549t533 206q184 0 320 -75l122 183l71 -41l-124 -187q104 -81 159 -210t55 -294q0 -71 -8 -131q-41 -342 -251.5 -544.5t-528.5 -202.5q-171 0 -303 62z" />
    <glyph glyph-name="oslashacute" unicode="&#x1ff;" horiz-adv-x="1242" 
d="M247 -221l-61 28l127 224q-107 53 -164 154.5t-57 238.5q0 42 6 87q30 245 189.5 393t402.5 148q101 0 185 -28l121 214l64 -30l-120 -212q103 -55 157 -156t54 -238q0 -44 -6 -91q-30 -240 -188 -386t-400 -146q-98 0 -181 26zM377 144l435 769q-61 23 -138 23
q-179 0 -292.5 -115t-137.5 -310q-5 -43 -5 -76q0 -205 138 -291zM438 115q60 -20 133 -20q197 0 315 137t118 359q0 203 -130 291zM658 1173l255 321h185l-335 -321h-105z" />
    <glyph glyph-name="uni0200" unicode="&#x200;" horiz-adv-x="1364" 
d="M609 1604l-249 353h148l193 -353h-92zM915 1604l-237 353h148l179 -353h-90zM-39 0l725 1456h169l371 -1456h-161l-98 394h-649l-193 -394h-164zM372 509h567q-97 428 -186 802q-127 -268 -381 -802z" />
    <glyph glyph-name="uni0201" unicode="&#x201;" horiz-adv-x="1263" 
d="M491 1174l-249 353h148l193 -353h-92zM797 1174l-237 353h148l179 -353h-90zM651 1052q119 0 205 -58t119 -150l23 182h140l-126 -1026h-141l24 195q-59 -100 -157 -158t-221 -58q-201 0 -312.5 122.5t-111.5 323.5q0 273 158 450t400 177zM237 439q0 -158 80 -251
t230 -93q163 0 265.5 115t126.5 312q5 47 5 80q0 154 -77 244t-218 90q-185 0 -298.5 -139t-113.5 -358z" />
    <glyph glyph-name="uni0202" unicode="&#x202;" horiz-adv-x="1364" 
d="M529 1641q19 107 104.5 166.5t188.5 59.5q101 0 171.5 -55.5t70.5 -156.5v-14h-85q-1 63 -50 98.5t-117 35.5t-124 -35t-72 -99h-87zM-39 0l725 1456h169l371 -1456h-161l-98 394h-649l-193 -394h-164zM372 509h567q-97 428 -186 802q-127 -268 -381 -802z" />
    <glyph glyph-name="uni0203" unicode="&#x203;" horiz-adv-x="1263" 
d="M411 1211q19 107 104.5 166.5t188.5 59.5q101 0 171.5 -55.5t70.5 -156.5v-14h-85q-1 63 -50 98.5t-117 35.5t-124 -35t-72 -99h-87zM651 1052q119 0 205 -58t119 -150l23 182h140l-126 -1026h-141l24 195q-59 -100 -157 -158t-221 -58q-201 0 -312.5 122.5t-111.5 323.5
q0 273 158 450t400 177zM237 439q0 -158 80 -251t230 -93q163 0 265.5 115t126.5 312q5 47 5 80q0 154 -77 244t-218 90q-185 0 -298.5 -139t-113.5 -358z" />
    <glyph glyph-name="uni0204" unicode="&#x204;" horiz-adv-x="1212" 
d="M569 1604l-249 353h148l193 -353h-92zM875 1604l-237 353h148l179 -353h-90zM124 0l178 1456h841l-15 -124h-691l-64 -520h653l-15 -124h-654l-70 -564h722l-14 -124h-871z" />
    <glyph glyph-name="uni0205" unicode="&#x205;" horiz-adv-x="1149" 
d="M489 1174l-249 353h148l193 -353h-92zM795 1174l-237 353h148l179 -353h-90zM1046 497h-805q-4 -31 -4 -67q0 -158 91 -246.5t250 -88.5q192 0 350 114l34 -102q-84 -61 -189.5 -94.5t-213.5 -33.5q-218 0 -342.5 119.5t-124.5 324.5q0 41 6 86q29 243 184.5 393
t382.5 150q189 0 292 -111t103 -301q0 -76 -14 -143zM259 596h675q1 12 1 34q0 145 -75 226.5t-206 81.5q-145 0 -251.5 -92t-143.5 -250z" />
    <glyph glyph-name="uni0206" unicode="&#x206;" horiz-adv-x="1212" 
d="M489 1641q19 107 104.5 166.5t188.5 59.5q101 0 171.5 -55.5t70.5 -156.5v-14h-85q-1 63 -50 98.5t-117 35.5t-124 -35t-72 -99h-87zM124 0l178 1456h841l-15 -124h-691l-64 -520h653l-15 -124h-654l-70 -564h722l-14 -124h-871z" />
    <glyph glyph-name="uni0207" unicode="&#x207;" horiz-adv-x="1149" 
d="M409 1211q19 107 104.5 166.5t188.5 59.5q101 0 171.5 -55.5t70.5 -156.5v-14h-85q-1 63 -50 98.5t-117 35.5t-124 -35t-72 -99h-87zM1046 497h-805q-4 -31 -4 -67q0 -158 91 -246.5t250 -88.5q192 0 350 114l34 -102q-84 -61 -189.5 -94.5t-213.5 -33.5
q-218 0 -342.5 119.5t-124.5 324.5q0 41 6 86q29 243 184.5 393t382.5 150q189 0 292 -111t103 -301q0 -76 -14 -143zM259 596h675q1 12 1 34q0 145 -75 226.5t-206 81.5q-145 0 -251.5 -92t-143.5 -250z" />
    <glyph glyph-name="uni0208" unicode="&#x208;" horiz-adv-x="597" 
d="M236 1604l-249 353h148l193 -353h-92zM542 1604l-237 353h148l179 -353h-90zM141 0l178 1456h150l-178 -1456h-150z" />
    <glyph glyph-name="uni0209" unicode="&#x209;" horiz-adv-x="503" 
d="M154 1174l-249 353h148l193 -353h-92zM460 1174l-237 353h148l179 -353h-90zM119 0l125 1026h143l-125 -1026h-143z" />
    <glyph glyph-name="uni020A" unicode="&#x20a;" horiz-adv-x="597" 
d="M156 1641q19 107 104.5 166.5t188.5 59.5q101 0 171.5 -55.5t70.5 -156.5v-14h-85q-1 63 -50 98.5t-117 35.5t-124 -35t-72 -99h-87zM141 0l178 1456h150l-178 -1456h-150z" />
    <glyph glyph-name="uni020B" unicode="&#x20b;" horiz-adv-x="503" 
d="M73 1211q19 107 104.5 166.5t188.5 59.5q101 0 171.5 -55.5t70.5 -156.5v-14h-85q-1 63 -50 98.5t-117 35.5t-124 -35t-72 -99h-87zM119 0l125 1026h143l-125 -1026h-143z" />
    <glyph glyph-name="uni020C" unicode="&#x20c;" horiz-adv-x="1599" 
d="M729 1604l-249 353h148l193 -353h-92zM1035 1604l-237 353h148l179 -353h-90zM724 102q251 0 411.5 168t195.5 456q8 69 8 124q0 236 -119.5 372t-340.5 136q-250 0 -414.5 -172.5t-199.5 -459.5q-8 -67 -8 -120q0 -235 122 -369.5t345 -134.5zM710 -21
q-287 0 -448.5 165t-161.5 451q0 71 8 131q42 343 254 549t533 206q282 0 442.5 -168.5t160.5 -455.5q0 -71 -8 -131q-41 -342 -251.5 -544.5t-528.5 -202.5z" />
    <glyph glyph-name="uni020D" unicode="&#x20d;" horiz-adv-x="1244" 
d="M526 1174l-249 353h148l193 -353h-92zM832 1174l-237 353h148l179 -353h-90zM1004 591q0 161 -85 253t-245 92q-179 0 -292.5 -115t-137.5 -310q-5 -43 -5 -76q0 -158 85.5 -249t246.5 -91q197 0 315 137t118 359zM557 -21q-220 0 -342.5 120.5t-122.5 324.5q0 42 6 87
q30 245 189.5 393t402.5 148q218 0 339.5 -121.5t121.5 -328.5q0 -44 -6 -91q-30 -240 -188 -386t-400 -146z" />
    <glyph glyph-name="uni020E" unicode="&#x20e;" horiz-adv-x="1599" 
d="M649 1641q19 107 104.5 166.5t188.5 59.5q101 0 171.5 -55.5t70.5 -156.5v-14h-85q-1 63 -50 98.5t-117 35.5t-124 -35t-72 -99h-87zM724 102q251 0 411.5 168t195.5 456q8 69 8 124q0 236 -119.5 372t-340.5 136q-250 0 -414.5 -172.5t-199.5 -459.5q-8 -67 -8 -120
q0 -235 122 -369.5t345 -134.5zM710 -21q-287 0 -448.5 165t-161.5 451q0 71 8 131q42 343 254 549t533 206q282 0 442.5 -168.5t160.5 -455.5q0 -71 -8 -131q-41 -342 -251.5 -544.5t-528.5 -202.5z" />
    <glyph glyph-name="uni020F" unicode="&#x20f;" horiz-adv-x="1244" 
d="M445 1211q19 107 104.5 166.5t188.5 59.5q101 0 171.5 -55.5t70.5 -156.5v-14h-85q-1 63 -50 98.5t-117 35.5t-124 -35t-72 -99h-87zM1004 591q0 161 -85 253t-245 92q-179 0 -292.5 -115t-137.5 -310q-5 -43 -5 -76q0 -158 85.5 -249t246.5 -91q197 0 315 137t118 359z
M557 -21q-220 0 -342.5 120.5t-122.5 324.5q0 42 6 87q30 245 189.5 393t402.5 148q218 0 339.5 -121.5t121.5 -328.5q0 -44 -6 -91q-30 -240 -188 -386t-400 -146z" />
    <glyph glyph-name="uni0210" unicode="&#x210;" horiz-adv-x="1367" 
d="M549 1604l-249 353h148l193 -353h-92zM855 1604l-237 353h148l179 -353h-90zM862 716q41 -10 71 -26.5t50 -36.5t36 -56t26 -69.5t25 -92.5l108 -435h-152l-101 418q-19 79 -34 119.5t-42.5 71.5t-66.5 41t-105 10h-323l-81 -660h-149l178 1456h450q223 0 336.5 -71.5
t113.5 -240.5q0 -177 -88 -290.5t-252 -137.5zM1049 1123q0 112 -68 160.5t-214 48.5h-27h-302l-68 -549h313q175 0 270.5 83.5t95.5 256.5z" />
    <glyph glyph-name="uni0211" unicode="&#x211;" horiz-adv-x="786" 
d="M398 1174l-249 353h148l193 -353h-92zM704 1174l-237 353h148l179 -353h-90zM128 0l95 775q6 46 11 108.5t7 102.5l2 40h147l-16 -175q51 100 133 149t180 49q54 0 101 -10l-18 -127q-55 12 -103 12q-130 0 -218 -89t-110 -270l-70 -565h-141z" />
    <glyph glyph-name="uni0212" unicode="&#x212;" horiz-adv-x="1367" 
d="M468 1641q19 107 104.5 166.5t188.5 59.5q101 0 171.5 -55.5t70.5 -156.5v-14h-85q-1 63 -50 98.5t-117 35.5t-124 -35t-72 -99h-87zM862 716q41 -10 71 -26.5t50 -36.5t36 -56t26 -69.5t25 -92.5l108 -435h-152l-101 418q-19 79 -34 119.5t-42.5 71.5t-66.5 41t-105 10
h-323l-81 -660h-149l178 1456h450q223 0 336.5 -71.5t113.5 -240.5q0 -177 -88 -290.5t-252 -137.5zM1049 1123q0 112 -68 160.5t-214 48.5h-27h-302l-68 -549h313q175 0 270.5 83.5t95.5 256.5z" />
    <glyph glyph-name="uni0213" unicode="&#x213;" horiz-adv-x="786" 
d="M318 1211q19 107 104.5 166.5t188.5 59.5q101 0 171.5 -55.5t70.5 -156.5v-14h-85q-1 63 -50 98.5t-117 35.5t-124 -35t-72 -99h-87zM128 0l95 775q6 46 11 108.5t7 102.5l2 40h147l-16 -175q51 100 133 149t180 49q54 0 101 -10l-18 -127q-55 12 -103 12
q-130 0 -218 -89t-110 -270l-70 -565h-141z" />
    <glyph glyph-name="uni0214" unicode="&#x214;" horiz-adv-x="1488" 
d="M676 1604l-249 353h148l193 -353h-92zM982 1604l-237 353h148l179 -353h-90zM647 -21q-257 0 -380 115.5t-123 330.5q0 57 7 112l113 919h149l-113 -925q-6 -48 -6 -91q0 -338 370 -338q204 0 323.5 107t145.5 320l114 927h149l-113 -918q-34 -268 -192 -413.5
t-444 -145.5z" />
    <glyph glyph-name="uni0215" unicode="&#x215;" 
d="M532 1174l-249 353h148l193 -353h-92zM838 1174l-237 353h148l179 -353h-90zM505 -24q-172 0 -258 87.5t-86 249.5q0 43 6 89l76 624h141l-77 -626q-5 -42 -5 -70q0 -238 232 -238q79 0 148.5 27t115.5 69.5t74.5 92.5t34.5 98l80 647h141l-97 -787q-15 -127 -22 -239
h-138l15 178q-145 -202 -381 -202z" />
    <glyph glyph-name="uni0216" unicode="&#x216;" horiz-adv-x="1488" 
d="M595 1641q19 107 104.5 166.5t188.5 59.5q101 0 171.5 -55.5t70.5 -156.5v-14h-85q-1 63 -50 98.5t-117 35.5t-124 -35t-72 -99h-87zM647 -21q-257 0 -380 115.5t-123 330.5q0 57 7 112l113 919h149l-113 -925q-6 -48 -6 -91q0 -338 370 -338q204 0 323.5 107t145.5 320
l114 927h149l-113 -918q-34 -268 -192 -413.5t-444 -145.5z" />
    <glyph glyph-name="uni0217" unicode="&#x217;" 
d="M452 1211q19 107 104.5 166.5t188.5 59.5q101 0 171.5 -55.5t70.5 -156.5v-14h-85q-1 63 -50 98.5t-117 35.5t-124 -35t-72 -99h-87zM505 -24q-172 0 -258 87.5t-86 249.5q0 43 6 89l76 624h141l-77 -626q-5 -42 -5 -70q0 -238 232 -238q79 0 148.5 27t115.5 69.5
t74.5 92.5t34.5 98l80 647h141l-97 -787q-15 -127 -22 -239h-138l15 178q-145 -202 -381 -202z" />
    <glyph glyph-name="Scommaaccent" unicode="&#x218;" horiz-adv-x="1172" 
d="M272 -582l163 453h163l-216 -453h-110zM883 439q0 89 -58 139.5t-210 95.5q-6 2 -115 32q-168 48 -247.5 123.5t-79.5 210.5q0 211 142.5 326t374.5 115q76 0 141.5 -11.5t105 -25.5t76 -37t50 -35t31.5 -31l-84 -102q-40 46 -121 82.5t-202 36.5q-169 0 -263.5 -78.5
t-94.5 -230.5q0 -83 48 -128t176 -83q5 -2 57.5 -16.5t55.5 -15.5q206 -58 287 -135.5t81 -206.5q0 -230 -146 -357.5t-383 -127.5q-92 0 -172 18.5t-134 48.5t-83.5 52t-51.5 44l80 106q159 -146 372 -146q172 0 269.5 89t97.5 248z" />
    <glyph glyph-name="scommaaccent" unicode="&#x219;" horiz-adv-x="957" 
d="M195 -582l163 453h163l-216 -453h-110zM698 295q0 59 -41.5 91.5t-143.5 67.5l-141 46q-110 38 -165 89t-55 144q0 83 33 146t90.5 100t129 55t156.5 18q195 0 314 -83l-54 -102q-118 69 -264 69q-263 0 -263 -184q0 -51 32 -77.5t119 -55.5q2 -1 146 -49
q61 -22 101.5 -42t75 -48.5t50.5 -66t16 -87.5q0 -90 -34.5 -159t-93 -109t-128 -59.5t-147.5 -19.5q-213 0 -359 120l58 107q138 -109 307 -109q49 0 91 8.5t82.5 29t64 61.5t23.5 99z" />
    <glyph glyph-name="uni021A" unicode="&#x21a;" horiz-adv-x="1121" 
d="M219 -582l163 453h163l-216 -453h-110zM395 0l164 1332h-476l15 124h1102l-15 -124h-477l-163 -1332h-150z" />
    <glyph glyph-name="uni021B" unicode="&#x21b;" horiz-adv-x="745" 
d="M146 -563l163 453h163l-216 -453h-110zM565 -1q-5 0 -33 0.5t-32 0.5q-118 3 -185 30t-91.5 72.5t-24.5 121.5q0 39 9 116l73 592h-200l12 94h201l34 279l145 41l-40 -320h256l-12 -94h-255l-73 -598q-8 -59 -8 -93q0 -78 48 -103t190 -25z" />
    <glyph glyph-name="uni021E" unicode="&#x21e;" horiz-adv-x="1558" 
d="M825 1615l-191 309h121l146 -226l206 226h128l-266 -309h-144zM124 0l178 1456h152l-80 -650h834l79 650h148l-178 -1456h-149l83 683h-833l-84 -683h-150z" />
    <glyph glyph-name="uni021F" unicode="&#x21f;" horiz-adv-x="1246" 
d="M89 0l184 1501h141l-80 -655q62 93 169.5 149.5t232.5 56.5q148 0 238.5 -84.5t90.5 -244.5q0 -30 -5 -73l-80 -650h-142l79 637q6 45 6 83q0 110 -51 163t-162 53q-143 0 -265.5 -95t-137.5 -216l-77 -625h-141zM686 1185l-191 309h121l146 -226l206 226h128l-266 -309
h-144z" />
    <glyph glyph-name="uni0226" unicode="&#x226;" horiz-adv-x="1364" 
d="M719 1677l19 154h155l-19 -154h-155zM-39 0l725 1456h169l371 -1456h-161l-98 394h-649l-193 -394h-164zM372 509h567q-97 428 -186 802q-127 -268 -381 -802z" />
    <glyph glyph-name="uni0227" unicode="&#x227;" horiz-adv-x="1263" 
d="M601 1247l19 154h155l-19 -154h-155zM651 1052q119 0 205 -58t119 -150l23 182h140l-126 -1026h-141l24 195q-59 -100 -157 -158t-221 -58q-201 0 -312.5 122.5t-111.5 323.5q0 273 158 450t400 177zM237 439q0 -158 80 -251t230 -93q163 0 265.5 115t126.5 312
q5 47 5 80q0 154 -77 244t-218 90q-185 0 -298.5 -139t-113.5 -358z" />
    <glyph glyph-name="uni0228" unicode="&#x228;" horiz-adv-x="1212" 
d="M378 -384l22 77q20 -10 64.5 -19t83.5 -9q114 0 114 78q0 32 -41 50.5t-117 18.5h-14l57 195h78l-38 -136q198 -16 198 -126q0 -58 -37.5 -96.5t-88.5 -52.5t-112 -14q-90 0 -169 34zM124 0l178 1456h841l-15 -124h-691l-64 -520h653l-15 -124h-654l-70 -564h722
l-14 -124h-871z" />
    <glyph glyph-name="uni0229" unicode="&#x229;" horiz-adv-x="1149" 
d="M1046 497h-805q-4 -31 -4 -67q0 -158 91 -246.5t250 -88.5q192 0 350 114l34 -102q-84 -61 -189.5 -94.5t-213.5 -33.5q-218 0 -342.5 119.5t-124.5 324.5q0 41 6 86q29 243 184.5 393t382.5 150q189 0 292 -111t103 -301q0 -76 -14 -143zM259 596h675q1 12 1 34
q0 145 -75 226.5t-206 81.5q-145 0 -251.5 -92t-143.5 -250zM342 -384l22 77q20 -10 64.5 -19t83.5 -9q114 0 114 78q0 32 -41 50.5t-117 18.5h-14l57 195h78l-38 -136q198 -16 198 -126q0 -58 -37.5 -96.5t-88.5 -52.5t-112 -14q-90 0 -169 34z" />
    <glyph glyph-name="uni022E" unicode="&#x22e;" horiz-adv-x="1599" 
d="M839 1677l19 154h155l-19 -154h-155zM724 102q251 0 411.5 168t195.5 456q8 69 8 124q0 236 -119.5 372t-340.5 136q-250 0 -414.5 -172.5t-199.5 -459.5q-8 -67 -8 -120q0 -235 122 -369.5t345 -134.5zM710 -21q-287 0 -448.5 165t-161.5 451q0 71 8 131q42 343 254 549
t533 206q282 0 442.5 -168.5t160.5 -455.5q0 -71 -8 -131q-41 -342 -251.5 -544.5t-528.5 -202.5z" />
    <glyph glyph-name="uni022F" unicode="&#x22f;" horiz-adv-x="1244" 
d="M1004 591q0 161 -85 253t-245 92q-179 0 -292.5 -115t-137.5 -310q-5 -43 -5 -76q0 -158 85.5 -249t246.5 -91q197 0 315 137t118 359zM557 -21q-220 0 -342.5 120.5t-122.5 324.5q0 42 6 87q30 245 189.5 393t402.5 148q218 0 339.5 -121.5t121.5 -328.5q0 -44 -6 -91
q-30 -240 -188 -386t-400 -146zM636 1247l19 154h155l-19 -154h-155z" />
    <glyph glyph-name="uni0232" unicode="&#x232;" horiz-adv-x="1237" 
d="M469 1669l12 99h557l-12 -99h-557zM452 0l71 583l-384 873h161l317 -743l504 743h159l-606 -870l-72 -586h-150z" />
    <glyph glyph-name="uni0233" unicode="&#x233;" horiz-adv-x="1024" 
d="M94 -425l-42 99q247 70 344 265l27 54l-282 1033h149l222 -875l433 875h141l-547 -1079q-70 -140 -181 -240t-264 -132zM377 1239l12 99h557l-12 -99h-557z" />
    <glyph glyph-name="uni0237" unicode="&#x237;" horiz-adv-x="503" 
d="M-70 -434q-69 0 -110 10l14 127q43 -8 74 -8q107 0 167 79t81 249l123 1003h144l-113 -917q-7 -58 -15 -104.5t-22.5 -105.5t-33 -103t-47.5 -89.5t-65 -74.5t-86.5 -47.5t-110.5 -18.5z" />
    <glyph glyph-name="afii57929" unicode="&#x2bc;" horiz-adv-x="600" 
d="M44 1213l118 563h169l-186 -563h-101z" />
    <glyph glyph-name="circumflex" unicode="&#x2c6;" horiz-adv-x="699" 
d="M56 1185l258 309h110l180 -309h-106l-146 201l-196 -201h-100z" />
    <glyph glyph-name="caron" unicode="&#x2c7;" horiz-adv-x="699" 
d="M259 1185l-191 309h121l146 -226l206 226h128l-266 -309h-144z" />
    <glyph glyph-name="uni02C9" unicode="&#x2c9;" horiz-adv-x="697" 
d="M64 1239l12 99h557l-12 -99h-557z" />
    <glyph glyph-name="breve" unicode="&#x2d8;" horiz-adv-x="559" 
d="M267 1171q-114 0 -167 52t-53 163v22h104q0 -4 -0.5 -10t-0.5 -9q0 -59 32 -86.5t97 -27.5q68 0 105 32.5t56 100.5h101q-46 -237 -274 -237z" />
    <glyph glyph-name="dotaccent" unicode="&#x2d9;" horiz-adv-x="524" 
d="M175 1247l19 154h155l-19 -154h-155z" />
    <glyph glyph-name="ring" unicode="&#x2da;" horiz-adv-x="581" 
d="M398 1332q0 42 -26 69.5t-68 27.5q-47 0 -83.5 -36t-36.5 -89q0 -42 26 -69.5t67 -27.5q48 0 84.5 36t36.5 89zM314 1500q73 0 120 -44.5t47 -113.5q0 -89 -63 -147.5t-149 -58.5q-74 0 -120.5 44.5t-46.5 114.5q0 88 63.5 146.5t148.5 58.5z" />
    <glyph glyph-name="ogonek" unicode="&#x2db;" horiz-adv-x="508" 
d="M278 -436q-91 0 -151 47t-60 124q0 14 1 22q9 70 70 136.5t152 116.5l93 -3q-78 -51 -127 -116t-55 -115q-1 -5 -1 -16q0 -42 29 -66.5t82 -24.5q47 0 108 18l-13 -104q-66 -19 -128 -19z" />
    <glyph glyph-name="tilde" unicode="&#x2dc;" horiz-adv-x="620" 
d="M169 1303q-62 0 -77 -87h-90q11 89 57 139t116 50q54 0 154.5 -49.5t133.5 -49.5q28 0 41 21.5t20 71.5h94q-11 -89 -51 -142t-110 -53q-49 0 -151.5 49.5t-136.5 49.5z" />
    <glyph glyph-name="hungarumlaut" unicode="&#x2dd;" horiz-adv-x="969" 
d="M99 1167l243 327h149l-290 -327h-102zM392 1167l255 327h161l-312 -327h-104z" />
    <glyph glyph-name="uni0307" unicode="&#x307;" horiz-adv-x="524" 
d="M167 1257l20 171h169l-19 -171h-170z" />
    <glyph glyph-name="uni030F" unicode="&#x30f;" horiz-adv-x="969" 
d="M411 1174l-249 353h148l193 -353h-92zM717 1174l-237 353h148l179 -353h-90z" />
    <glyph glyph-name="uni0311" unicode="&#x311;" horiz-adv-x="629" 
d="M33 1211q19 107 104.5 166.5t188.5 59.5q101 0 171.5 -55.5t70.5 -156.5v-14h-85q-1 63 -50 98.5t-117 35.5t-124 -35t-72 -99h-87z" />
    <glyph glyph-name="uni0312" unicode="&#x312;" horiz-adv-x="600" 
d="M501 1682l-163 -461h-163l215 461h111z" />
    <glyph glyph-name="uni0326" unicode="&#x326;" horiz-adv-x="540" 
d="M107 -582l163 453h163l-216 -453h-110z" />
    <glyph glyph-name="uni0358" unicode="&#x358;" horiz-adv-x="524" 
d="M167 1257l20 171h169l-19 -171h-170z" />
    <glyph glyph-name="uni0394" unicode="&#x394;" horiz-adv-x="1302" 
d="M-40 0l8 66l730 1387h92l382 -1387l-8 -66h-1204zM120 109h905l-307 1157z" />
    <glyph glyph-name="Sigma" unicode="&#x3a3;" horiz-adv-x="1148" 
d="M21 -105l9 73l593 720l-401 687l9 79h901l-14 -111h-720l376 -646l-573 -690h796l-14 -112h-962z" />
    <glyph glyph-name="uni03A9" unicode="&#x3a9;" horiz-adv-x="1603" 
d="M277 661q0 -172 75 -315t207 -236l-13 -110h-512l-1 117h362q-126 95 -199 238t-73 318q0 49 6 100q25 201 134 355.5t276.5 236.5t365.5 82q276 0 434.5 -160.5t158.5 -416.5q0 -49 -6 -100q-13 -106 -55 -206t-103.5 -181.5t-129 -146.5t-144.5 -119h356l-26 -117h-506
l12 110q177 109 295.5 275t142.5 366q6 47 6 92q0 101 -28.5 186t-83.5 150.5t-143.5 102.5t-201.5 37q-126 0 -237 -48t-192.5 -132.5t-129 -208.5t-47.5 -269z" />
    <glyph glyph-name="uni03BC" unicode="&#x3bc;" 
d="M238 -304l-141 2l163 1328h141l-77 -626q-5 -42 -5 -70q0 -238 233 -238q79 0 148.5 27t115.5 69.5t74.5 92t34.5 98.5l79 647h141l-96 -787q-15 -121 -23 -239h-138l15 178q-145 -202 -381 -202q-160 0 -240 81z" />
    <glyph glyph-name="pi" unicode="&#x3c0;" horiz-adv-x="1288" 
d="M119 0q62 74 106.5 160.5t76 201.5t50.5 210.5t46 256.5q3 18 4.5 28.5t4.5 26.5t5 29q-135 -2 -240 -60l-4 110q113 63 271 63h791l-14 -113h-185l-80 -646q-4 -38 -4 -55q0 -52 22 -80.5t77 -28.5q26 0 61 7l-9 -111q-62 -10 -109 -10q-86 0 -132.5 44.5t-46.5 150.5
q0 29 5 74l81 655h-349q-26 -157 -42.5 -245t-51.5 -238t-79.5 -256.5t-98.5 -173.5h-156z" />
    <glyph glyph-name="uni1E02" unicode="&#x1e02;" horiz-adv-x="1354" 
d="M685 1677l19 154h155l-19 -154h-155zM124 0l178 1456h399q508 0 508 -307q0 -23 -3 -49q-18 -139 -95 -224t-208 -109q139 -17 215.5 -97.5t76.5 -211.5q0 -32 -4 -59q-23 -184 -167 -291.5t-391 -107.5h-509zM1039 459q0 124 -87 180t-283 56h-310l-70 -571h343
q198 0 302.5 84t104.5 251zM374 817h301q171 0 264 65.5t111 206.5q2 13 2 37q0 108 -88 157t-264 49h-262z" />
    <glyph glyph-name="uni1E03" unicode="&#x1e03;" horiz-adv-x="1267" 
d="M674 1247l19 154h155l-19 -154h-155zM606 -21q-132 0 -226 63.5t-122 164.5l-29 -207h-143q3 19 18.5 122.5t21.5 146.5l151 1232h141l-83 -676q54 98 162.5 162.5t241.5 64.5q190 0 298 -116.5t108 -316.5q0 -141 -42.5 -262t-115 -203t-171.5 -128.5t-210 -46.5z
M1000 607q0 153 -75 241t-214 88q-184 0 -303 -138t-119 -357q0 -160 84.5 -253t234.5 -93q176 0 284 143t108 369z" />
    <glyph glyph-name="uni1E0A" unicode="&#x1e0a;" horiz-adv-x="1531" 
d="M755 1677l19 154h155l-19 -154h-155zM288 124h265q307 0 484 153t213 442q8 67 8 120q0 493 -596 493h-225zM124 0l178 1456h366q366 0 556.5 -151t190.5 -453q0 -62 -9 -133q-42 -349 -266 -534t-607 -185h-409z" />
    <glyph glyph-name="uni1E0B" unicode="&#x1e0b;" 
d="M550 1247l19 154h155l-19 -154h-155zM608 1052q127 0 218.5 -61.5t120.5 -155.5l81 666h142l-152 -1234q-12 -101 -25 -267h-143l21 207q-49 -100 -156 -164t-243 -64q-187 0 -297 118.5t-110 322.5q0 278 153 455t390 177zM915 598q0 155 -82 246.5t-229 91.5
q-177 0 -285.5 -141t-108.5 -364q0 -156 74.5 -246t214.5 -90q183 0 299.5 140t116.5 363z" />
    <glyph glyph-name="uni1E1E" unicode="&#x1e1e;" horiz-adv-x="1103" 
d="M671 1677l19 154h155l-19 -154h-155zM124 0l178 1456h808l-14 -124h-659l-65 -524h608l-15 -124h-608l-84 -684h-149z" />
    <glyph glyph-name="uni1E1F" unicode="&#x1e1f;" horiz-adv-x="665" 
d="M155 0l115 932h-179l12 94h178l15 121q10 78 24 129t41.5 95.5t71 69t110.5 38t162 13.5h41l-16 -113q-64 0 -107.5 -3.5t-75 -15.5t-49.5 -25t-30 -41t-17 -54t-11 -73l-18 -141h254l-11 -94h-254l-115 -932h-141zM355 1677l19 154h155l-19 -154h-155z" />
    <glyph glyph-name="uni1E40" unicode="&#x1e40;" horiz-adv-x="1886" 
d="M988 1677l19 154h155l-19 -154h-155zM124 0l178 1456h185q19 -60 168 -535t223 -727q137 252 407.5 727t304.5 535h172l-178 -1456h-143l149 1212l-81 -154l-606 -1058h-100l-335 1054l-48 182l-152 -1236h-144z" />
    <glyph glyph-name="uni1E41" unicode="&#x1e41;" horiz-adv-x="1913" 
d="M125 0l101 819q6 48 17 207h140l-17 -186q59 102 160.5 157t222.5 55t196.5 -62t94.5 -181q69 117 177.5 180t234.5 63q152 0 229 -85t77 -246q0 -45 -6 -96l-78 -625h-141l76 618q6 47 6 86q0 232 -186 232q-140 0 -243 -89t-139 -240l-75 -607h-142l78 626q5 45 5 78
q0 111 -47.5 171.5t-144.5 60.5q-134 0 -233.5 -77.5t-139.5 -206.5l-81 -652h-142zM1007 1247l19 154h155l-19 -154h-155z" />
    <glyph glyph-name="uni1E56" unicode="&#x1e56;" horiz-adv-x="1239" 
d="M685 1677l19 154h155l-19 -154h-155zM124 0l178 1456h425q247 0 368 -70.5t121 -244.5q0 -30 -5 -73q-25 -206 -162 -296.5t-397 -90.5h-295l-84 -681h-149zM372 804h294q194 0 286 60t110 203q3 28 3 52q0 116 -77 164.5t-242 48.5h-32h-277z" />
    <glyph glyph-name="uni1E57" unicode="&#x1e57;" horiz-adv-x="1263" 
d="M662 -24q-130 0 -224.5 59.5t-119.5 153.5l-80 -648h-140l147 1202q14 113 26 283h146l-24 -215q49 102 161 170t242 68q188 0 294.5 -119.5t106.5 -320.5q0 -276 -152 -454.5t-383 -178.5zM1052 599q0 155 -74 244.5t-213 89.5q-181 0 -299 -145t-118 -368
q0 -153 82 -240.5t231 -87.5q177 0 284 141.5t107 365.5zM729 1247l19 154h155l-19 -154h-155z" />
    <glyph glyph-name="uni1E60" unicode="&#x1e60;" horiz-adv-x="1172" 
d="M652 1677l19 154h155l-19 -154h-155zM883 439q0 89 -58 139.5t-210 95.5q-6 2 -115 32q-168 48 -247.5 123.5t-79.5 210.5q0 211 142.5 326t374.5 115q76 0 141.5 -11.5t105 -25.5t76 -37t50 -35t31.5 -31l-84 -102q-40 46 -121 82.5t-202 36.5q-169 0 -263.5 -78.5
t-94.5 -230.5q0 -83 48 -128t176 -83q5 -2 57.5 -16.5t55.5 -15.5q206 -58 287 -135.5t81 -206.5q0 -230 -146 -357.5t-383 -127.5q-92 0 -172 18.5t-134 48.5t-83.5 52t-51.5 44l80 106q159 -146 372 -146q172 0 269.5 89t97.5 248z" />
    <glyph glyph-name="uni1E61" unicode="&#x1e61;" horiz-adv-x="957" 
d="M698 295q0 59 -41.5 91.5t-143.5 67.5l-141 46q-110 38 -165 89t-55 144q0 83 33 146t90.5 100t129 55t156.5 18q195 0 314 -83l-54 -102q-118 69 -264 69q-263 0 -263 -184q0 -51 32 -77.5t119 -55.5q2 -1 146 -49q61 -22 101.5 -42t75 -48.5t50.5 -66t16 -87.5
q0 -90 -34.5 -159t-93 -109t-128 -59.5t-147.5 -19.5q-213 0 -359 120l58 107q138 -109 307 -109q49 0 91 8.5t82.5 29t64 61.5t23.5 99zM487 1247l19 154h155l-19 -154h-155z" />
    <glyph glyph-name="uni1E6A" unicode="&#x1e6a;" horiz-adv-x="1121" 
d="M597 1677l19 154h155l-19 -154h-155zM395 0l164 1332h-476l15 124h1102l-15 -124h-477l-163 -1332h-150z" />
    <glyph glyph-name="uni1E6B" unicode="&#x1e6b;" horiz-adv-x="745" 
d="M565 -1q-5 0 -33 0.5t-32 0.5q-118 3 -185 30t-91.5 72.5t-24.5 121.5q0 39 9 116l73 592h-200l12 94h201l34 279l145 41l-40 -320h256l-12 -94h-255l-73 -598q-8 -59 -8 -93q0 -78 48 -103t190 -25zM340 1550l19 154h155l-19 -154h-155z" />
    <glyph glyph-name="Wgrave" unicode="&#x1e80;" horiz-adv-x="2029" 
d="M1078 1604l-288 320h187l205 -320h-104zM388 0l-209 1456h160l146 -1123l15 -173l66 171l471 1125h149q22 -129 102 -583t120 -704q114 315 467 1287h153l-552 -1456h-176l-212 1260l-526 -1260h-174z" />
    <glyph glyph-name="wgrave" unicode="&#x1e81;" horiz-adv-x="1595" 
d="M294 0l-193 1026h150q15 -89 66.5 -395.5t81.5 -471.5q76 170 220.5 479.5t180.5 387.5h153q30 -144 90 -434t90 -434q57 145 171.5 434t171.5 434h143l-435 -1026h-151q-120 580 -179 871q-68 -146 -410 -871h-150zM842 1174l-288 320h187l205 -320h-104z" />
    <glyph glyph-name="Wacute" unicode="&#x1e82;" horiz-adv-x="2029" 
d="M1086 1603l255 321h185l-335 -321h-105zM388 0l-209 1456h160l146 -1123l15 -173l66 171l471 1125h149q22 -129 102 -583t120 -704q114 315 467 1287h153l-552 -1456h-176l-212 1260l-526 -1260h-174z" />
    <glyph glyph-name="wacute" unicode="&#x1e83;" horiz-adv-x="1595" 
d="M294 0l-193 1026h150q15 -89 66.5 -395.5t81.5 -471.5q76 170 220.5 479.5t180.5 387.5h153q30 -144 90 -434t90 -434q57 145 171.5 434t171.5 434h143l-435 -1026h-151q-120 580 -179 871q-68 -146 -410 -871h-150zM850 1173l255 321h185l-335 -321h-105z" />
    <glyph glyph-name="Wdieresis" unicode="&#x1e84;" horiz-adv-x="2029" 
d="M880 1626l19 148h142l-19 -148h-142zM1250 1626l18 148h143l-19 -148h-142zM388 0l-209 1456h160l146 -1123l15 -173l66 171l471 1125h149q22 -129 102 -583t120 -704q114 315 467 1287h153l-552 -1456h-176l-212 1260l-526 -1260h-174z" />
    <glyph glyph-name="wdieresis" unicode="&#x1e85;" horiz-adv-x="1595" 
d="M294 0l-193 1026h150q15 -89 66.5 -395.5t81.5 -471.5q76 170 220.5 479.5t180.5 387.5h153q30 -144 90 -434t90 -434q57 145 171.5 434t171.5 434h143l-435 -1026h-151q-120 580 -179 871q-68 -146 -410 -871h-150zM643 1196l19 148h142l-19 -148h-142zM1013 1196
l18 148h143l-19 -148h-142z" />
    <glyph glyph-name="uni1EBC" unicode="&#x1ebc;" horiz-adv-x="1212" 
d="M620 1733q-62 0 -77 -87h-90q11 89 57 139t116 50q54 0 154.5 -49.5t133.5 -49.5q28 0 41 21.5t20 71.5h94q-11 -89 -51 -142t-110 -53q-49 0 -151.5 49.5t-136.5 49.5zM124 0l178 1456h841l-15 -124h-691l-64 -520h653l-15 -124h-654l-70 -564h722l-14 -124h-871z" />
    <glyph glyph-name="uni1EBD" unicode="&#x1ebd;" horiz-adv-x="1149" 
d="M540 1303q-62 0 -77 -87h-90q11 89 57 139t116 50q54 0 154.5 -49.5t133.5 -49.5q28 0 41 21.5t20 71.5h94q-11 -89 -51 -142t-110 -53q-49 0 -151.5 49.5t-136.5 49.5zM1046 497h-805q-4 -31 -4 -67q0 -158 91 -246.5t250 -88.5q192 0 350 114l34 -102
q-84 -61 -189.5 -94.5t-213.5 -33.5q-218 0 -342.5 119.5t-124.5 324.5q0 41 6 86q29 243 184.5 393t382.5 150q189 0 292 -111t103 -301q0 -76 -14 -143zM259 596h675q1 12 1 34q0 145 -75 226.5t-206 81.5q-145 0 -251.5 -92t-143.5 -250z" />
    <glyph glyph-name="Ygrave" unicode="&#x1ef2;" horiz-adv-x="1237" 
d="M678 1604l-288 320h187l205 -320h-104zM452 0l71 583l-384 873h161l317 -743l504 743h159l-606 -870l-72 -586h-150z" />
    <glyph glyph-name="ygrave" unicode="&#x1ef3;" horiz-adv-x="1024" 
d="M94 -425l-42 99q247 70 344 265l27 54l-282 1033h149l222 -875l433 875h141l-547 -1079q-70 -140 -181 -240t-264 -132zM587 1174l-288 320h187l205 -320h-104z" />
    <glyph glyph-name="uni1EF8" unicode="&#x1ef8;" horiz-adv-x="1237" 
d="M605 1733q-62 0 -77 -87h-90q11 89 57 139t116 50q54 0 154.5 -49.5t133.5 -49.5q28 0 41 21.5t20 71.5h94q-11 -89 -51 -142t-110 -53q-49 0 -151.5 49.5t-136.5 49.5zM452 0l71 583l-384 873h161l317 -743l504 743h159l-606 -870l-72 -586h-150z" />
    <glyph glyph-name="uni1EF9" unicode="&#x1ef9;" horiz-adv-x="1024" 
d="M94 -425l-42 99q247 70 344 265l27 54l-282 1033h149l222 -875l433 875h141l-547 -1079q-70 -140 -181 -240t-264 -132zM513 1303q-62 0 -77 -87h-90q11 89 57 139t116 50q54 0 154.5 -49.5t133.5 -49.5q28 0 41 21.5t20 71.5h94q-11 -89 -51 -142t-110 -53
q-49 0 -151.5 49.5t-136.5 49.5z" />
    <glyph glyph-name="endash" unicode="&#x2013;" horiz-adv-x="1085" 
d="M-12 501l14 118h1086l-14 -118h-1086z" />
    <glyph glyph-name="emdash" unicode="&#x2014;" horiz-adv-x="2171" 
d="M-20 497l14 122h2179l-14 -122h-2179z" />
    <glyph glyph-name="afii00208" unicode="&#x2015;" horiz-adv-x="4096" 
d="M59 497l15 126h3963l-15 -126h-3963z" />
    <glyph glyph-name="quoteleft" unicode="&#x2018;" horiz-adv-x="463" 
d="M385 1456l-118 -563h-169l186 563h101z" />
    <glyph glyph-name="quoteright" unicode="&#x2019;" horiz-adv-x="463" 
d="M98 893l118 563h169l-186 -563h-101z" />
    <glyph glyph-name="quotesinglbase" unicode="&#x201a;" horiz-adv-x="516" 
d="M148 -348l92 535h154l-138 -535h-108z" />
    <glyph glyph-name="quotedblleft" unicode="&#x201c;" horiz-adv-x="1024" 
d="M154 893l187 563h108l-130 -563h-165zM520 893l184 563h108l-130 -563h-162z" />
    <glyph glyph-name="quotedblright" unicode="&#x201d;" horiz-adv-x="1024" 
d="M170 893l128 563h163l-183 -563h-108zM521 893l130 563h162l-183 -563h-109z" />
    <glyph glyph-name="quotedblbase" unicode="&#x201e;" horiz-adv-x="1024" 
d="M121 -321l128 563h163l-183 -563h-108zM472 -321l130 563h162l-183 -563h-109z" />
    <glyph glyph-name="dagger" unicode="&#x2020;" horiz-adv-x="1022" 
d="M359 0l116 946h-331l13 105h331l51 414h132l-50 -414h336l-14 -105h-338l-116 -946h-130z" />
    <glyph glyph-name="daggerdbl" unicode="&#x2021;" horiz-adv-x="1028" 
d="M147 1051h336l50 415h136l-50 -415h334l-12 -97h-335l-56 -457h332l-12 -95h-332l-48 -402h-136l48 402h-337l12 95h337l56 457h-335z" />
    <glyph glyph-name="bullet" unicode="&#x2022;" horiz-adv-x="990" 
d="M535 1010q123 0 203.5 -80.5t80.5 -196.5q0 -145 -107.5 -243.5t-252.5 -98.5q-124 0 -202.5 77t-78.5 191q0 145 107.5 248t249.5 103z" />
    <glyph glyph-name="ellipsis" unicode="&#x2026;" horiz-adv-x="1620" 
d="M158 -11l24 196h196l-25 -196h-195zM703 -11l24 196h195l-24 -196h-195zM1248 -11l24 196h196l-24 -196h-196z" />
    <glyph glyph-name="perthousand" unicode="&#x2030;" horiz-adv-x="2845" 
d="M2294 90q206 0 246 323q7 61 7 98q0 231 -173 231q-214 0 -255 -330q-6 -49 -6 -92q0 -230 181 -230zM2386 842q140 0 213 -87.5t73 -246.5q0 -233 -106.5 -375.5t-284.5 -142.5q-143 0 -218.5 86.5t-75.5 244.5q0 233 109.5 377t289.5 144zM479 714q206 0 246 324
q7 61 7 97q0 231 -173 231q-214 0 -255 -329q-6 -48 -6 -89q0 -234 181 -234zM571 1466q140 0 213 -86t73 -245q0 -236 -106 -378t-285 -142q-144 0 -219 85t-75 243q0 236 109 379.5t290 143.5zM508 0l871 1456h118l-871 -1456h-118zM1445 90q103 0 165 82.5t81 240.5
q7 61 7 98q0 231 -173 231q-214 0 -255 -330q-6 -48 -6 -89q0 -233 181 -233zM1538 842q139 0 212 -87.5t73 -246.5q0 -233 -106.5 -375.5t-284.5 -142.5q-143 0 -218.5 86.5t-75.5 244.5q0 233 110 377t290 144z" />
    <glyph glyph-name="guilsinglleft" unicode="&#x2039;" horiz-adv-x="660" 
d="M360 174l-222 367l317 371h139l-300 -370l201 -368h-135z" />
    <glyph glyph-name="guilsinglright" unicode="&#x203a;" horiz-adv-x="660" 
d="M78 174l300 371l-201 367h135l222 -367l-317 -371h-139z" />
    <glyph glyph-name="fraction" unicode="&#x2044;" horiz-adv-x="1034" 
d="M-77 0l1088 1456h124l-1086 -1456h-126z" />
    <glyph glyph-name="uni2074" unicode="&#x2074;" horiz-adv-x="1032" 
d="M552 664l23 186h-388l11 81l435 525h119l-64 -517h95l-12 -89h-97l-22 -186h-100zM311 939h273l48 390z" />
    <glyph glyph-name="Euro" unicode="&#x20ac;" horiz-adv-x="1407" 
d="M-40 532l16 88h169q2 47 7 89q7 64 23 129h-179l17 94h190q90 255 292 402t463 147q266 0 422 -144l-72 -99q-143 120 -357 120q-201 0 -356 -114.5t-232 -311.5h564l-19 -94h-576q-16 -62 -24 -129q-4 -31 -6 -89h551l-18 -88h-530q20 -202 149 -316t336 -114
q229 0 437 134l36 -113q-229 -145 -492 -145q-119 0 -227 37.5t-193 106.5t-139.5 175t-64.5 235h-187z" />
    <glyph glyph-name="afii61289" unicode="&#x2113;" horiz-adv-x="517" 
d="M99 0l184 1501h141l-184 -1501h-141z" />
    <glyph glyph-name="trademark" unicode="&#x2122;" horiz-adv-x="1869" 
d="M780 711l93 760h135l203 -620l376 620h121l-94 -760h-92l77 630l-375 -630h-65l-210 631l-77 -631h-92zM287 711l83 675h-265l11 85h639l-10 -85h-269l-83 -675h-106z" />
    <glyph glyph-name="Omega" unicode="&#x2126;" horiz-adv-x="1603" 
d="M277 661q0 -172 75 -315t207 -236l-13 -110h-512l-1 117h362q-126 95 -199 238t-73 318q0 49 6 100q25 201 134 355.5t276.5 236.5t365.5 82q276 0 434.5 -160.5t158.5 -416.5q0 -49 -6 -100q-13 -106 -55 -206t-103.5 -181.5t-129 -146.5t-144.5 -119h356l-26 -117h-506
l12 110q177 109 295.5 275t142.5 366q6 47 6 92q0 101 -28.5 186t-83.5 150.5t-143.5 102.5t-201.5 37q-126 0 -237 -48t-192.5 -132.5t-129 -208.5t-47.5 -269z" />
    <glyph glyph-name="estimated" unicode="&#x212e;" horiz-adv-x="1195" 
d="M1039 655h-743q-8 -56 -8 -117q0 -96 24.5 -167t68.5 -113t100 -62t124 -20q79 0 180 32t200 91l21 -52q-220 -133 -446 -133q-200 0 -320.5 113.5t-120.5 327.5q0 46 6 97q14 116 53 209.5t93 155.5t122.5 103.5t139 60t145.5 18.5q82 0 148 -20.5t119 -64.5t82 -121.5
t29 -182.5q0 -109 -17 -155zM303 713h606q8 67 8 116q0 165 -67.5 238.5t-181.5 73.5q-47 0 -91 -13t-89 -45t-81 -79.5t-64 -122t-40 -168.5z" />
    <glyph glyph-name="partialdiff" unicode="&#x2202;" horiz-adv-x="1166" 
d="M399 -24q-173 0 -264 100.5t-91 265.5q0 33 5 76q30 246 195.5 415t373.5 169q56 0 105 -14t81.5 -34.5t59 -49t41 -53t25.5 -50.5q22 143 22 230q0 186 -79 288.5t-223 102.5t-277 -86l4 118q148 87 313 87q197 0 303.5 -125t106.5 -379q0 -83 -12 -179
q-21 -167 -77.5 -322.5t-142 -281.5t-208 -202t-261.5 -76zM416 95q75 0 142 31.5t119 84.5t95 126t73 152.5t50 167.5q-19 97 -88.5 162t-177.5 65q-156 0 -282.5 -139t-150.5 -330q-4 -29 -4 -62q0 -119 59.5 -188.5t164.5 -69.5z" />
    <glyph glyph-name="emptyset" unicode="&#x2205;" horiz-adv-x="1678" 
d="M112 733q0 152 60.5 290.5t159.5 236.5t230.5 155.5t269.5 57.5q129 0 251 -49t221 -138l177 199l37 -29l-181 -202q101 -102 158 -236.5t57 -284.5q0 -152 -60.5 -290.5t-159.5 -236.5t-230.5 -155.5t-269.5 -57.5q-126 0 -245.5 47t-217.5 132l-192 -215l-32 29
l192 216q-105 103 -165 240t-60 291zM398 204q92 -80 204 -123.5t230 -43.5q130 0 253.5 54.5t217 146t150 222t56.5 273.5q0 141 -53.5 266.5t-147.5 222.5zM366 234l909 1020q-92 83 -207 129t-236 46q-130 0 -253.5 -54.5t-217 -146t-150 -222t-56.5 -273.5
q0 -145 56 -274t155 -225z" />
    <glyph glyph-name="Delta" unicode="&#x2206;" horiz-adv-x="1314" 
d="M-40 0l8 66l730 1387h92l382 -1387l-8 -66h-1204zM120 109h905l-307 1157z" />
    <glyph glyph-name="product" unicode="&#x220f;" horiz-adv-x="1540" 
d="M191 -66l172 1401h-174l15 121h1309l-16 -121h-166l-172 -1401h-147l172 1401h-675l-172 -1401h-146z" />
    <glyph glyph-name="summation" unicode="&#x2211;" horiz-adv-x="1148" 
d="M21 -105l9 73l593 720l-401 687l9 79h901l-14 -111h-720l376 -646l-573 -690h796l-14 -112h-962z" />
    <glyph glyph-name="minus" unicode="&#x2212;" horiz-adv-x="1147" 
d="M148 544l16 122h835l-15 -122h-836z" />
    <glyph glyph-name="uni2215" unicode="&#x2215;" horiz-adv-x="783" 
d="M45 0l656 1456h127l-660 -1456h-123z" />
    <glyph glyph-name="uni2219" unicode="&#x2219;" horiz-adv-x="564" 
d="M208 495l19 154h155l-19 -154h-155z" />
    <glyph glyph-name="radical" unicode="&#x221a;" horiz-adv-x="1314" 
d="M555 -155l-233 858l-179 -28l-2 97l282 49l203 -830l627 1615h105l-686 -1761h-117z" />
    <glyph glyph-name="infinity" unicode="&#x221e;" horiz-adv-x="1720" 
d="M496 937q116 0 206 -65t168 -186q107 121 210 186t220 65q147 0 232.5 -81t85.5 -213q0 -117 -59.5 -211.5t-152 -144.5t-194.5 -50q-108 0 -195 61.5t-173 190.5q-109 -121 -213 -186.5t-216 -65.5q-144 0 -231.5 92.5t-87.5 229.5q0 79 34 150.5t89.5 120.5t128 78
t148.5 29zM214 561q0 -88 59 -150.5t155 -62.5q91 0 179 63.5t182 174.5q-65 116 -139.5 180.5t-172.5 64.5q-111 0 -187 -79t-76 -191zM1230 348q108 0 175 74.5t81 193.5q2 18 2 27q0 80 -57 134t-147 54q-168 0 -362 -241q81 -127 150 -184.5t158 -57.5z" />
    <glyph glyph-name="integral" unicode="&#x222b;" horiz-adv-x="702" 
d="M29 -294q-36 0 -67 5t-44 10l-13 5l14 116q55 -15 105 -15q105 0 147.5 53.5t57.5 175.5l141 1154q8 69 21.5 122t38.5 102t59.5 81t86.5 50.5t118 18.5q37 0 65.5 -5t38.5 -10l9 -5l-14 -114q-34 13 -90 13q-54 0 -90 -14t-57 -46t-31 -69.5t-18 -99.5l-141 -1153
q-11 -85 -33 -150t-60.5 -117.5t-100 -80t-143.5 -27.5z" />
    <glyph glyph-name="approxequal" unicode="&#x2248;" horiz-adv-x="1351" 
d="M280 667l-89 23q41 115 124.5 180t194.5 65q59 0 113.5 -21.5t124.5 -65.5q126 -80 202 -80q129 0 204 166l86 -24q-37 -114 -116 -180t-194 -66q-57 0 -114.5 23.5t-140.5 74.5q-111 70 -182 70q-146 0 -213 -165zM233 269l-89 22q43 117 125.5 182t194.5 65
q60 0 115.5 -22.5t125.5 -63.5q45 -28 70 -42t61.5 -27.5t66.5 -13.5q66 0 114.5 41.5t90.5 124.5l85 -23q-38 -115 -116.5 -180.5t-192.5 -65.5q-57 0 -114 22.5t-140 74.5q-108 70 -183 70q-143 0 -214 -164z" />
    <glyph glyph-name="notequal" unicode="&#x2260;" horiz-adv-x="1343" 
d="M388 48l-101 15l165 267h-312l13 105h364l197 306h-524l13 105h572l173 278l103 -16l-162 -262h324l-13 -105h-374l-198 -306h534l-13 -105h-584z" />
    <glyph glyph-name="lessequal" unicode="&#x2264;" horiz-adv-x="1350" 
d="M1054 184l-799 461l10 84l912 412l-17 -137l-732 -323l643 -362zM143 0l12 103h912l-12 -103h-912z" />
    <glyph glyph-name="greaterequal" unicode="&#x2265;" horiz-adv-x="1350" 
d="M215 183l16 139l732 322l-643 362l16 135l800 -461l-11 -84zM179 0l13 103h911l-12 -103h-912z" />
    <glyph glyph-name="lozenge" unicode="&#x25ca;" horiz-adv-x="1248" 
d="M482 -45l-359 760l555 763h92l362 -762l-559 -761h-91zM541 70l464 645l-293 648l-465 -646z" />
    <glyph glyph-name="uniFB00" unicode="&#xfb00;" horiz-adv-x="1277" 
d="M1025 937l-115 -937h-135l115 937h-487l-115 -937h-135l115 937h-177l11 89h177l15 118q9 77 23 128.5t41.5 96.5t71 70t109.5 39t160 14h43l-10 -108q-77 0 -128 -8.5t-82.5 -22t-50 -42.5t-26.5 -58t-14 -80l-17 -147h487l15 118q9 77 23 128.5t41.5 96.5t71 70
t109.5 39t160 14h43l-10 -108q-77 0 -128 -8.5t-82.5 -22t-50 -42.5t-26.5 -58t-14 -80l-17 -147h255l-11 -89h-255z" />
    <glyph glyph-name="uniFB01" unicode="&#xfb01;" horiz-adv-x="1199" 
d="M154 0l115 933h-178l11 93h178l14 113q10 78 24 130t42 97.5t72 71t111 39.5t162 14h45l-12 -113q-76 0 -127 -8.5t-82 -22t-49 -42t-26 -58t-14 -81.5l-17 -140h521l-12 -93h-520l-115 -933h-143zM868 0l126 1026h141l-126 -1026h-141zM1031 1316l16 140h140l-17 -140
h-139z" />
    <glyph glyph-name="uniFB02" unicode="&#xfb02;" horiz-adv-x="1247" 
d="M182 0l115 937h-204l11 89h204l13 104q12 96 40 157t88 103t156 59.5t245 17.5h300l-180 -1467h-143l166 1356h-170q-145 0 -218 -20t-101 -61.5t-39 -127.5l-15 -121h254l-11 -89h-253l-116 -937h-142z" />
    <glyph glyph-name="uniFB03" unicode="&#xfb03;" horiz-adv-x="1763" 
d="M1484 0h-134l115 937h-449l-115 -937h-135l116 937h-479l-115 -937h-135l115 937h-177l11 89h177l15 117q9 77 23 128.5t41.5 97t71 70.5t109.5 39t160 14h43l-10 -109q-77 0 -128 -8.5t-82.5 -22t-50 -42.5t-26.5 -58t-14 -80l-17 -146h478l15 117q9 77 23 128.5
t41.5 97t70.5 70.5t109.5 39t159.5 14h44l-10 -109q-64 0 -110 -5t-78 -17.5t-51.5 -27t-32 -41.5t-18.5 -52.5t-11 -67.5l-17 -146h583zM1645 1320h-133l17 136h134z" />
    <glyph glyph-name="uniFB04" unicode="&#xfb04;" horiz-adv-x="1805" 
d="M154 0l115 937h-178l11 89h178l14 114q8 65 18.5 110.5t29.5 87.5t48 68.5t72 47t102.5 29.5t138.5 9h45l-12 -113q-76 0 -127 -8.5t-82 -22t-49 -42t-26 -58t-14 -81.5l-17 -141h254l-11 -89h-254l-115 -937h-141zM715 0l115 937h-204l11 89h204l13 104q12 96 40 157
t88 103t156 59.5t245 17.5h300l-180 -1467h-143l166 1356h-170q-145 0 -218 -20t-101 -61.5t-39 -127.5l-15 -121h254l-11 -89h-253l-116 -937h-142z" />
    <glyph glyph-name="NULL" horiz-adv-x="600" 
 />
    <glyph glyph-name="caron.alt" horiz-adv-x="600" 
d="M298 1038l162 453h163l-215 -453h-110z" />
    <glyph glyph-name="fj" horiz-adv-x="1168" 
d="M951 1312l18 144h140l-18 -144h-140zM595 -434q-69 0 -110 10l14 127q43 -8 74 -8q107 0 167 79t81 249l123 1003h144l-113 -917q-7 -58 -15 -104.5t-22.5 -105.5t-33 -103t-47.5 -89.5t-65 -74.5t-86.5 -47.5t-110.5 -18.5zM155 0l115 932h-179l12 94h178l15 121
q10 78 24 129t41.5 95.5t71 69t110.5 38t162 13.5h41l-16 -113q-64 0 -107.5 -3.5t-75 -15.5t-49.5 -25t-30 -41t-17 -54t-11 -73l-18 -141h254l-11 -94h-254l-115 -932h-141z" />
    <glyph glyph-name="foundryicon" horiz-adv-x="600" 
 />
    <glyph glyph-name="i.loclTRK" horiz-adv-x="503" 
d="M119 0l125 1026h143l-125 -1026h-143zM264 1247l19 154h155l-19 -154h-155z" />
    <glyph glyph-name="middot" horiz-adv-x="600" 
 />
    <glyph glyph-name="slashbar" horiz-adv-x="600" 
 />
  </font>
</defs>
</svg>
