<?xml version="1.0" standalone="no"?>
<!DOCTYPE svg PUBLIC "-//W3C//DTD SVG 1.1//EN" "http://www.w3.org/Graphics/SVG/1.1/DTD/svg11.dtd" >
<svg xmlns="http://www.w3.org/2000/svg" xmlns:xlink="http://www.w3.org/1999/xlink" version="1.1">
<metadata>
Created by FontForge 20170731 at Wed Feb 26 08:22:35 2014
 By Aleksey,,,
Digitized data Copyright (c) 2011-2014, vernon adams.
</metadata>
<defs>
<font id="Muli-SemiBold" horiz-adv-x="1283" >
  <font-face 
    font-family="Muli"
    font-weight="600"
    font-stretch="normal"
    units-per-em="2048"
    panose-1="2 0 7 3 0 0 0 0 0 0"
    ascent="1638"
    descent="-410"
    x-height="1026"
    cap-height="1456"
    bbox="-331 -631 4039 2414"
    underline-thickness="0"
    underline-position="0"
    unicode-range="U+000D-FB04"
  />
<missing-glyph horiz-adv-x="748" 
d="M68 0v1365h544v-1365h-544zM136 68h408v1229h-408v-1229z" />
    <glyph glyph-name=".notdef" horiz-adv-x="748" 
d="M68 0v1365h544v-1365h-544zM136 68h408v1229h-408v-1229z" />
    <glyph glyph-name=".null" horiz-adv-x="0" 
 />
    <glyph glyph-name="uni000D" unicode="&#xd;" horiz-adv-x="599" 
 />
    <glyph glyph-name="space" unicode=" " horiz-adv-x="597" 
 />
    <glyph glyph-name="exclam" unicode="!" horiz-adv-x="648" 
d="M263 383l-66 1073h265l-66 -1073h-133zM208 0v251h244v-251h-244z" />
    <glyph glyph-name="quotedbl" unicode="&#x22;" horiz-adv-x="737" 
d="M472 959l-49 497h222l-43 -497h-130zM143 959l-49 497h221l-43 -497h-129z" />
    <glyph glyph-name="numbersign" unicode="#" horiz-adv-x="1357" 
d="M544 608h228l52 266h-228zM228 10l89 449h-242l11 149h259l52 266h-265l11 150h284l83 426h199l-83 -426h228l82 426h199l-83 -426h227l-9 -150h-247l-52 -266h252l-9 -149h-272l-88 -449h-199l88 449h-228l-88 -449h-199z" />
    <glyph glyph-name="dollar" unicode="$" horiz-adv-x="1222" 
d="M590 1283q-99 -11 -158 -57t-59 -126q0 -89 41 -133t176 -92v408zM682 1482q158 -7 253.5 -47.5t170.5 -113.5l-118 -154q-114 109 -306 118v-439q11 -3 30.5 -10t25.5 -9q221 -75 305 -170.5t84 -269.5q0 -97 -35 -173.5t-97.5 -124.5t-141 -75.5t-171.5 -34.5v-190h-92
v188q-147 4 -275.5 52.5t-193.5 113.5l100 166q61 -50 167 -90.5t202 -44.5v472q-44 14 -80 26q-134 44 -214 94.5t-124 130.5t-44 194q0 181 128.5 282t333.5 109v146h92v-146zM682 179q201 29 201 211q0 43 -7 71t-28 55.5t-61 50.5t-105 47v-435z" />
    <glyph glyph-name="percent" unicode="%" horiz-adv-x="1845" 
d="M1392 -22q-164 0 -261 106t-97 271q0 161 97.5 269t261.5 108t260.5 -107.5t96.5 -269.5q0 -164 -97 -270.5t-261 -106.5zM1393 122q85 0 125.5 58t40.5 175q0 115 -39 174.5t-127 59.5q-167 0 -167 -235q0 -117 40.5 -174.5t126.5 -57.5zM372 0l925 1456h187l-927 -1456
h-185zM453 723q-167 0 -262.5 101t-95.5 276q0 170 96 274t262 104q167 0 262.5 -103t95.5 -275q0 -174 -95.5 -275.5t-262.5 -101.5zM453 867q167 0 167 234q0 233 -167 233t-167 -234q0 -117 40.5 -175t126.5 -58z" />
    <glyph glyph-name="ampersand" unicode="&#x26;" horiz-adv-x="1567" 
d="M606 944q172 110 172 217q0 65 -41 97t-96 32q-62 0 -101 -33.5t-39 -96.5q0 -109 105 -216zM629 168q96 0 170.5 36t141.5 102l-376 404q-50 -29 -85 -54.5t-68.5 -60.5t-50.5 -79t-17 -97q0 -110 80.5 -180.5t204.5 -70.5zM628 -26q-221 0 -365 120t-144 324
q0 78 25 143.5t73.5 118.5t99 91t122.5 81q-81 89 -119 158t-38 155q0 146 99.5 226.5t250.5 80.5q70 0 134 -18.5t115.5 -54t82.5 -95t31 -133.5q0 -197 -258 -360l322 -352q111 200 111 469l206 -41q-1 -154 -47.5 -311.5t-125.5 -275.5q124 -129 313 -183l-147 -132
q-90 15 -155 57t-140 121q-193 -189 -446 -189z" />
    <glyph glyph-name="quotesingle" unicode="'" horiz-adv-x="494" 
d="M182 926l-39 530h234l-33 -530h-162z" />
    <glyph glyph-name="parenleft" unicode="(" horiz-adv-x="669" 
d="M408 -171q-128 194 -205 410.5t-77 425.5q0 415 275 851h218q-130 -204 -199.5 -422.5t-69.5 -430.5q0 -193 73 -415t196 -419h-211z" />
    <glyph glyph-name="parenright" unicode=")" horiz-adv-x="669" 
d="M51 -191q130 204 199.5 422.5t69.5 429.5q0 193 -73 415t-196 420h210q128 -194 205.5 -410.5t77.5 -425.5q0 -415 -275 -851h-218z" />
    <glyph glyph-name="asterisk" unicode="*" horiz-adv-x="1076" 
d="M690 670l-165 254l-165 -253l-167 113l209 234l-275 100l74 165l247 -123l-30 296h209l-26 -296l242 123l78 -165l-274 -100l210 -237z" />
    <glyph glyph-name="plus" unicode="+" horiz-adv-x="1242" 
d="M516 87v401h-381v188h382v397h209v-397h382v-188h-383v-401h-209z" />
    <glyph glyph-name="comma" unicode="," horiz-adv-x="523" 
d="M60 -251l110 501h252l-175 -501h-187z" />
    <glyph glyph-name="hyphen" unicode="-" horiz-adv-x="717" 
d="M58 469v172h602v-172h-602z" />
    <glyph glyph-name="period" unicode="." horiz-adv-x="541" 
d="M127 0v253h268v-253h-268z" />
    <glyph glyph-name="slash" unicode="/" horiz-adv-x="838" 
d="M35 -101l593 1557h204l-598 -1557h-199z" />
    <glyph glyph-name="zero" unicode="0" horiz-adv-x="1256" 
d="M630 -23q-162 0 -277 96.5t-172 266.5t-57 397q0 354 130.5 550t377.5 196q164 0 277 -92.5t168 -258.5t55 -395q0 -228 -55 -397t-169 -266t-278 -97zM634 174q261 0 261 562q0 116 -13.5 210.5t-42.5 173.5t-81.5 122.5t-124.5 43.5q-74 0 -128.5 -44t-85 -122
t-45 -173t-14.5 -210q0 -563 274 -563z" />
    <glyph glyph-name="one" unicode="1" horiz-adv-x="1256" 
d="M289 0v182h269v1036q-112 -57 -293 -120v208q160 55 326 150h197v-1276h262v-180h-761z" />
    <glyph glyph-name="two" unicode="2" horiz-adv-x="1256" 
d="M602 1481q199 0 323 -121.5t124 -334.5q0 -78 -20 -149.5t-61 -138t-85 -120.5t-111 -124l-292 -303h561v-190h-842v173l427 456q109 116 155 200t46 180q0 134 -65 205.5t-178 71.5q-30 0 -61.5 -4.5t-60 -12t-56 -17t-51.5 -20t-45 -21t-37.5 -20t-28.5 -17t-18 -12.5
l-7 -4l-75 181q7 6 21.5 15.5t61 34t96.5 43t126 34t153 15.5z" />
    <glyph glyph-name="three" unicode="3" horiz-adv-x="1256" 
d="M606 -23q-89 0 -170.5 14.5t-139 39t-80 36t-43.5 24.5l-2 1l69 175q186 -93 335 -93q138 0 215.5 65t77.5 179q0 124 -99.5 184.5t-276.5 60.5h-22l-66 -2l-2 195h68q191 0 275 54t84 191q0 60 -39.5 103t-98 62.5t-126.5 19.5q-55 0 -103.5 -9.5t-91.5 -30.5t-62 -32.5
t-53 -35.5l-9 -6l-103 161q103 80 201.5 115t250.5 35q90 0 172 -24t148 -69.5t105.5 -119t39.5 -165.5q0 -125 -69 -220t-201 -120q143 -27 223.5 -123.5t80.5 -232.5q0 -131 -67.5 -231t-177.5 -150.5t-243 -50.5z" />
    <glyph glyph-name="four" unicode="4" horiz-adv-x="1256" 
d="M353 556h387v640q-24 -41 -387 -640zM738 0v383h-631v159l590 914h264v-900h225v-173h-222v-383h-226z" />
    <glyph glyph-name="five" unicode="5" horiz-adv-x="1256" 
d="M618 -23q-127 0 -246 47t-209 141l117 172q70 -82 157 -122.5t176 -40.5q124 0 203 80.5t79 220.5q0 115 -59.5 195.5t-161.5 80.5q-60 0 -112.5 -19.5t-78.5 -57.5l-225 24v758h799v-197h-593l-12 -399q80 96 259 96t299.5 -139t120.5 -346q0 -115 -41 -209.5
t-111.5 -156t-163.5 -95t-197 -33.5z" />
    <glyph glyph-name="six" unicode="6" horiz-adv-x="1256" 
d="M672 174q116 0 186 83.5t70 211.5q0 131 -64.5 214t-184.5 83q-124 0 -199.5 -80t-75.5 -205q0 -140 77.5 -223.5t190.5 -83.5zM675 -23q-174 0 -294 91.5t-176.5 250.5t-56.5 377q0 164 37.5 305.5t108 249.5t182.5 170t252 62q223 0 358 -124l-76 -171q-124 98 -280 98
q-103 0 -180 -68.5t-116 -178.5t-45 -249q113 164 314 164q208 0 335 -131t127 -351q0 -215 -134 -355t-356 -140z" />
    <glyph glyph-name="seven" unicode="7" horiz-adv-x="1256" 
d="M331 0l531 1266h-705v190h969v-174l-549 -1282h-246z" />
    <glyph glyph-name="eight" unicode="8" horiz-adv-x="1258" 
d="M630 852q109 29 170 95t61 160q0 86 -66.5 135.5t-165.5 49.5q-102 0 -166.5 -49.5t-64.5 -143.5q0 -90 62 -155.5t170 -91.5zM631 169q120 0 190.5 57.5t70.5 170.5q0 95 -74 174t-183 105q-116 -25 -189.5 -101t-73.5 -180q0 -108 70 -167t189 -59zM633 -23
q-212 0 -352 110.5t-140 301.5q0 125 71.5 223t197.5 152q-111 54 -174.5 139t-63.5 200q0 175 128 277.5t328 102.5q210 0 335.5 -103.5t125.5 -283.5q0 -117 -62.5 -202t-172.5 -133q118 -51 192.5 -153.5t74.5 -224.5q0 -95 -40 -173.5t-108.5 -128.5t-155.5 -77
t-184 -27z" />
    <glyph glyph-name="nine" unicode="9" horiz-adv-x="1256" 
d="M605 716q122 0 197 76.5t75 215.5q0 116 -69 197t-190 81t-192 -79t-71 -207q0 -127 63 -205.5t187 -78.5zM562 -24q-175 0 -369 97l80 186q138 -85 272 -85q151 0 245 116.5t94 346.5v38q-91 -150 -304 -150q-209 0 -333 130t-124 340q0 138 58.5 248.5t171 175
t260.5 64.5q243 0 371.5 -181.5t128.5 -530.5q0 -372 -147 -583.5t-404 -211.5z" />
    <glyph glyph-name="colon" unicode=":" horiz-adv-x="571" 
d="M158 858v253h266l1 -253h-267zM158 -7v254h267v-254h-267z" />
    <glyph glyph-name="semicolon" unicode=";" horiz-adv-x="541" 
d="M177 858v253h242v-253h-242zM78 -251l108 501h254l-174 -501h-188z" />
    <glyph glyph-name="less" unicode="&#x3c;" horiz-adv-x="1354" 
d="M1137 48l-1005 471v107l1009 473v-207l-717 -319l713 -322v-203z" />
    <glyph glyph-name="equal" unicode="=" horiz-adv-x="1407" 
d="M199 673v183h1007v-183h-1007zM200 273v182h1008v-182h-1008z" />
    <glyph glyph-name="greater" unicode="&#x3e;" horiz-adv-x="1356" 
d="M214 51v209l712 309l-707 330v206l1006 -489v-114z" />
    <glyph glyph-name="question" unicode="?" horiz-adv-x="1034" 
d="M305 0v251h245v-251h-245zM331 399v139q0 71 37 137.5t90 118.5t106 102.5t90 108t37 114.5q0 87 -61 128t-160 41q-79 0 -163.5 -23t-132.5 -47v195q144 70 319 70q121 0 216.5 -38t155 -120.5t59.5 -198.5q0 -61 -22.5 -116.5t-59 -98.5t-80.5 -84t-88 -80t-80.5 -79
t-59 -89.5t-22.5 -102.5v-77h-181z" />
    <glyph glyph-name="at" unicode="@" horiz-adv-x="1796" 
d="M840 432q70 0 128 56.5t90 145.5t32 187q0 71 -36.5 112.5t-98.5 41.5q-75 0 -135.5 -60.5t-91 -147t-30.5 -174.5q0 -72 39.5 -116.5t102.5 -44.5zM937 -97q-176 0 -328 54t-263.5 152t-175.5 243t-64 319q0 184 68 338.5t183.5 256.5t269.5 158.5t327 56.5
q154 0 290 -51t234 -140.5t155 -218t57 -276.5q0 -134 -50 -259t-137 -203.5t-185 -78.5q-102 0 -158.5 57t-56.5 151q-31 -89 -107 -145.5t-185 -56.5q-60 0 -117.5 23t-105.5 66.5t-77.5 114t-29.5 156.5q0 110 42 209t107.5 165.5t145 105t155.5 38.5q168 0 210 -124
l22 102h194l-97 -488q-22 -114 -22 -170q0 -33 16 -60t47 -27q36 0 77.5 32.5t77.5 87.5t60 137.5t24 171.5q0 103 -31.5 190.5t-86 150t-128.5 106t-158.5 64.5t-175.5 21q-138 0 -257.5 -42t-212 -122.5t-145.5 -208t-53 -288.5q0 -122 36 -225.5t98.5 -176t146.5 -123
t180 -74.5t199 -24q265 0 482 142l77 -104q-111 -90 -261.5 -136.5t-312.5 -46.5z" />
    <glyph glyph-name="A" unicode="A" horiz-adv-x="1434" 
d="M486 576h446q-92 263 -221 623q-150 -416 -225 -623zM18 0l579 1456h236l584 -1456h-257l-147 373h-600l-144 -373h-251z" />
    <glyph glyph-name="B" unicode="B" horiz-adv-x="1361" 
d="M424 852h223q59 0 107.5 10t91.5 32.5t67 65.5t24 103q0 115 -81 156t-248 41h-184v-408zM425 197h253q158 0 241.5 58.5t83.5 170.5q0 135 -76.5 185.5t-264.5 50.5h-237v-465zM194 0v1456h389q64 0 114.5 -2.5t115.5 -11t114 -23.5t99 -42.5t82 -64.5t52.5 -93
t20.5 -126q0 -107 -52.5 -189.5t-162.5 -125.5q137 -31 209.5 -127t72.5 -234q0 -84 -33 -158t-96.5 -132.5t-166.5 -92.5t-233 -34h-525z" />
    <glyph glyph-name="C" unicode="C" horiz-adv-x="1416" 
d="M831 -22q-114 0 -219.5 30t-197.5 91.5t-160.5 149t-108 209.5t-39.5 265q0 175 58 320.5t156.5 240.5t226 147t268.5 52q282 0 476 -155l-91 -159q-164 117 -366 117q-138 0 -249 -71.5t-174 -199.5t-63 -289q0 -252 139.5 -401.5t356.5 -149.5q216 0 406 147l77 -183
q-210 -161 -496 -161z" />
    <glyph glyph-name="D" unicode="D" horiz-adv-x="1555" 
d="M194 0v1456h376q433 0 656 -180.5t223 -542.5q0 -354 -210.5 -543.5t-607.5 -189.5h-437zM424 196h220q276 0 419 139.5t143 398.5q0 265 -150 395.5t-463 130.5h-169v-1064z" />
    <glyph glyph-name="E" unicode="E" horiz-adv-x="1221" 
d="M194 0v1456h901v-196h-671v-411h633v-197h-632v-456h699v-196h-930z" />
    <glyph glyph-name="F" unicode="F" horiz-adv-x="1133" 
d="M194 0v1456h869v-196h-639v-413h600v-197h-600v-650h-230z" />
    <glyph glyph-name="G" unicode="G" horiz-adv-x="1534" 
d="M849 -23q-358 0 -550 196t-192 531q0 162 54 304.5t151 247.5t241.5 166t317.5 61q172 0 284.5 -40.5t198.5 -104.5l-92 -162q-157 110 -388 110q-123 0 -224.5 -46t-167 -125t-101 -181.5t-35.5 -218.5q0 -248 130.5 -394.5t382.5 -146.5q147 0 275 42v370h-350v197h582
v-697q-240 -109 -517 -109z" />
    <glyph glyph-name="H" unicode="H" horiz-adv-x="1564" 
d="M194 0v1456h230v-611h717v611h230v-1456h-227v649h-717v-649h-233z" />
    <glyph glyph-name="I" unicode="I" horiz-adv-x="596" 
d="M190 0v1456h230v-1456h-230z" />
    <glyph glyph-name="J" unicode="J" horiz-adv-x="903" 
d="M329 -331q-132 0 -293 58l38 177q130 -40 217 -40q106 0 148.5 62.5t42.5 187.5v1342h230v-1336q0 -220 -99.5 -335.5t-283.5 -115.5z" />
    <glyph glyph-name="K" unicode="K" horiz-adv-x="1329" 
d="M194 0v1456h230v-644l585 644h287l-647 -703l696 -753h-296l-624 667v-667h-231z" />
    <glyph glyph-name="L" unicode="L" horiz-adv-x="1145" 
d="M194 0v1456h230v-1260h674v-196h-904z" />
    <glyph glyph-name="M" unicode="M" horiz-adv-x="1961" 
d="M194 0v1456h274q32 -72 222.5 -502.5t292.5 -657.5q95 216 512 1160h272v-1456h-216v1080q-99 -211 -281.5 -622.5t-203.5 -457.5h-169q-57 127 -224 499t-258 574v-1073h-221z" />
    <glyph glyph-name="N" unicode="N" horiz-adv-x="1616" 
d="M194 0v1456h245q88 -129 242.5 -354t283 -413.5t239.5 -356.5v1124h218v-1456h-246q-88 128 -244 352.5t-285 412.5t-240 357v-1122h-213z" />
    <glyph glyph-name="O" unicode="O" horiz-adv-x="1653" 
d="M830 -23q-338 0 -531 204.5t-193 551.5q0 222 85.5 391t251 264t390.5 95q217 0 379.5 -94.5t248.5 -264t86 -391.5q0 -347 -190.5 -551.5t-526.5 -204.5zM826 174q233 0 352 147t119 412q0 256 -119 404.5t-348 148.5q-230 0 -353 -149.5t-123 -403.5q0 -265 119.5 -412
t352.5 -147z" />
    <glyph glyph-name="P" unicode="P" 
d="M424 837h236q61 0 107 5t87 19t66.5 37t40.5 60t15 87q0 49 -10.5 85t-34 59.5t-50.5 37.5t-73 21t-86.5 9t-104.5 2h-193v-422zM194 0v1456h415q81 0 142 -3.5t127.5 -14t114 -28.5t91.5 -48.5t71.5 -73t43.5 -103.5t16 -138q0 -92 -25 -161.5t-71 -116t-115.5 -75.5
t-152 -41.5t-187.5 -12.5h-240v-640h-230z" />
    <glyph glyph-name="Q" unicode="Q" horiz-adv-x="1653" 
d="M1247 -439l131 140q-156 170 -252 327q202 78 311.5 261.5t109.5 443.5q0 222 -86 391.5t-248.5 264t-379.5 94.5q-225 0 -390.5 -95t-251 -264t-85.5 -391q0 -347 193 -551.5t531 -204.5q43 0 95 5q57 -98 137.5 -203t132.5 -161zM826 174q-233 0 -352.5 147t-119.5 412
q0 254 123 403.5t353 149.5q229 0 348 -148.5t119 -404.5q0 -265 -119 -412t-352 -147z" />
    <glyph glyph-name="R" unicode="R" horiz-adv-x="1372" 
d="M421 825h247q50 0 90.5 6t77 22t62 40.5t40 64t14.5 90.5q0 124 -60.5 168t-200.5 44h-270v-435zM194 0v1456h495q91 0 162 -9.5t138 -35.5t110.5 -69t70 -114t26.5 -166q0 -128 -70.5 -220.5t-214.5 -126.5q67 -30 116.5 -93t90.5 -163l185 -459h-249l-165 433
q-44 117 -92.5 157t-155.5 40h-217v-630h-230z" />
    <glyph glyph-name="S" unicode="S" horiz-adv-x="1244" 
d="M617 -23q-155 0 -292 49.5t-204 116.5l100 166q64 -52 175.5 -93.5t208.5 -41.5q278 0 278 216q0 46 -8 75.5t-33.5 59t-73.5 53.5t-128 51q-21 8 -67.5 22.5t-62.5 20.5q-134 44 -214 94.5t-124 130.5t-44 194q0 127 67 217t177 132.5t251 42.5q128 0 224 -22.5t151 -55
t108 -84.5l-118 -154q-61 59 -149.5 89t-183.5 30q-125 0 -203.5 -46.5t-78.5 -139.5q0 -62 16.5 -98t65 -66.5t148.5 -64.5q127 -41 135 -44q221 -75 305 -170.5t84 -269.5q0 -105 -41.5 -186t-113.5 -128.5t-161.5 -71.5t-193.5 -24z" />
    <glyph glyph-name="T" unicode="T" horiz-adv-x="1167" 
d="M466 0v1260h-455v196h1145v-196h-460v-1260h-230z" />
    <glyph glyph-name="U" unicode="U" horiz-adv-x="1503" 
d="M751 -23q-135 0 -238.5 32t-168.5 86t-105.5 133t-56.5 164.5t-16 190.5v873h230v-880q0 -213 92 -307.5t264 -94.5q170 0 262.5 94.5t92.5 306.5v881h230v-872q0 -105 -16.5 -192t-58.5 -166t-107 -132.5t-167.5 -85t-236.5 -31.5z" />
    <glyph glyph-name="V" unicode="V" horiz-adv-x="1363" 
d="M567 0l-552 1456h259q16 -44 172.5 -489.5t240.5 -673.5q47 128 418 1163h243l-549 -1456h-232z" />
    <glyph glyph-name="W" unicode="W" horiz-adv-x="2052" 
d="M424 0l-408 1456h246q33 -128 96.5 -370.5t114 -439t92.5 -374.5q49 180 107.5 375.5t134.5 439.5t114 369h224l278 -894l84 -293q40 178 89 376.5t109 438t93 372.5h238l-398 -1456h-267l-344 1141l-340 -1141h-263z" />
    <glyph glyph-name="X" unicode="X" horiz-adv-x="1345" 
d="M18 0l523 738l-493 718h283l354 -524l365 524h265l-500 -709l514 -747h-282l-375 554l-382 -554h-272z" />
    <glyph glyph-name="Y" unicode="Y" horiz-adv-x="1258" 
d="M509 0v567l-511 889h259l371 -685l372 685h264l-525 -886v-570h-230z" />
    <glyph glyph-name="Z" unicode="Z" horiz-adv-x="1192" 
d="M81 0v124l707 1136h-679v196h994v-120l-713 -1140h710v-196h-1019z" />
    <glyph glyph-name="bracketleft" unicode="[" horiz-adv-x="636" 
d="M152 -184v1674h417v-170h-193v-1334h194v-170h-418z" />
    <glyph glyph-name="backslash" unicode="\" horiz-adv-x="762" 
d="M583 -48l-639 1504h223l639 -1504h-223z" />
    <glyph glyph-name="bracketright" unicode="]" horiz-adv-x="636" 
d="M103 -184v170h188v1334h-189v170h414v-1674h-413z" />
    <glyph glyph-name="asciicircum" unicode="^" horiz-adv-x="1585" 
d="M217 544l501 912h143l507 -912h-223l-358 661l-343 -661h-227z" />
    <glyph glyph-name="underscore" unicode="_" horiz-adv-x="984" 
d="M-10 -260v177h1005v-177h-1005z" />
    <glyph glyph-name="grave" unicode="`" horiz-adv-x="604" 
d="M354 1170l-345 341h288l256 -341h-199z" />
    <glyph glyph-name="a" unicode="a" horiz-adv-x="1284" 
d="M632 159q147 0 219 97.5t72 260.5q0 160 -74.5 257t-219.5 97q-149 0 -225 -97.5t-76 -258.5q0 -158 76.5 -257t227.5 -99zM601 -23q-120 0 -217 44.5t-157 119.5t-91.5 168.5t-31.5 196.5q0 108 33.5 206t95.5 174t158.5 121t213.5 45q102 0 182 -43.5t128 -116.5v134
h219v-1026h-223v154q-46 -80 -126.5 -128.5t-183.5 -48.5z" />
    <glyph glyph-name="b" unicode="b" 
d="M668 159q136 0 206 100t70 260q0 155 -72 253.5t-202 98.5q-138 0 -218.5 -100.5t-80.5 -255.5t78.5 -255.5t218.5 -100.5zM704 -23q-111 0 -198.5 49t-126.5 119v-145h-228q7 209 7 272v1197h224v-597q11 27 35.5 55.5t63.5 57.5t100 48t132 19q214 0 340 -145.5
t126 -382.5q0 -243 -136.5 -395t-338.5 -152z" />
    <glyph glyph-name="c" unicode="c" horiz-adv-x="1073" 
d="M634 -23q-162 0 -284 72.5t-184 192.5t-62 268q0 156 64.5 279t186 193t280.5 70q229 0 356 -132l-79 -146q-109 96 -257 96q-147 0 -232.5 -95t-85.5 -264q0 -160 86 -256t234 -96q138 0 265 95l69 -164q-158 -113 -357 -113z" />
    <glyph glyph-name="d" unicode="d" horiz-adv-x="1267" 
d="M615 159q138 0 208 99.5t70 259.5q0 155 -71 254t-205 99q-135 0 -207 -99t-72 -258q0 -157 70 -256t207 -99zM574 -23q-203 0 -336.5 145.5t-133.5 385.5q0 114 32 212t91.5 172.5t152.5 117t209 42.5q110 0 189.5 -47t108.5 -103v567h224v-1199q0 -46 7 -270h-228
l-2 147q-27 -64 -107.5 -117t-206.5 -53z" />
    <glyph glyph-name="e" unicode="e" horiz-adv-x="1188" 
d="M343 628h530q-13 121 -77.5 185t-165.5 64q-113 0 -188.5 -66t-98.5 -183zM650 -23q-252 0 -399 147t-147 388q0 149 61 271t180 195.5t275 73.5q115 0 203.5 -40.5t142 -113t80.5 -167t27 -208.5q0 -21 -5 -46h-730q6 -158 95 -238t234 -80q175 0 322 112l63 -164
q-173 -130 -402 -130z" />
    <glyph glyph-name="f" unicode="f" horiz-adv-x="784" 
d="M257 0v876h-187v150h187v54q0 58 2.5 98.5t9.5 82.5t20 70t34 55t52 43.5t74 29.5t99 18.5t127 5.5h51l-7 -173q-58 0 -94.5 -3t-65 -13t-43 -23t-23.5 -41t-11 -58.5t-2 -82.5v-63h237v-150h-237v-876h-223z" />
    <glyph glyph-name="g" unicode="g" horiz-adv-x="1253" 
d="M612 183q74 0 129.5 27.5t87.5 76.5t47 109t15 132q0 155 -70 249t-200 94q-135 0 -209 -99.5t-74 -254.5q0 -159 69.5 -246.5t204.5 -87.5zM576 -414q-205 0 -388 82l37 194q163 -94 339 -94q151 0 234.5 73t83.5 218v97q-98 -144 -285 -144q-219 0 -356 136t-137 367
q0 113 30.5 209.5t89 170t151.5 115.5t211 42q105 0 179.5 -42.5t117.5 -109.5v126h235q-16 -156 -16 -318v-561q0 -88 -14 -164.5t-50.5 -151.5t-94.5 -127.5t-151.5 -85t-215.5 -32.5z" />
    <glyph glyph-name="h" unicode="h" horiz-adv-x="1227" 
d="M152 0v1469h224v-586q41 75 135.5 122t187.5 47q90 0 159.5 -29t111.5 -74t68.5 -108t36.5 -124t10 -128v-589h-224v593q0 147 -47.5 212.5t-148.5 65.5q-111 0 -200 -76t-89 -175v-620h-224z" />
    <glyph glyph-name="i" unicode="i" horiz-adv-x="526" 
d="M158 1256v200h218v-200h-218zM157 0v1026h219v-1026h-219z" />
    <glyph glyph-name="j" unicode="j" horiz-adv-x="544" 
d="M182 1246v210h222v-210h-222zM56 -394q-57 0 -157 19l12 167q72 -16 115 -16q80 0 119 58t39 198v994h217v-971q0 -76 -7.5 -136t-29.5 -121t-59 -101t-100.5 -65.5t-148.5 -25.5z" />
    <glyph glyph-name="k" unicode="k" horiz-adv-x="1106" 
d="M156 0v1469h224v-868l399 425h308l-501 -492l535 -534h-298l-443 460v-460h-224z" />
    <glyph glyph-name="l" unicode="l" horiz-adv-x="528" 
d="M158 0v1469h223v-1469h-223z" />
    <glyph glyph-name="m" unicode="m" horiz-adv-x="1853" 
d="M166 0v714q0 66 -3 126t-7 111.5t-5 74.5h235v-146q38 77 122.5 124.5t180.5 47.5q101 0 183 -52t124 -150q60 94 148 148t201 54q180 0 272.5 -112t92.5 -311v-629h-224v612q0 72 -14 127.5t-52 93.5t-96 38q-112 0 -192 -87.5t-80 -200.5v-583h-224v629q0 47 -8 86.5
t-26.5 76.5t-54.5 58t-86 21q-110 0 -186.5 -77t-76.5 -177v-617h-224z" />
    <glyph glyph-name="n" unicode="n" horiz-adv-x="1234" 
d="M166 0v677q0 93 -4 180t-8 128l-4 41h235v-145q53 82 144 126.5t183 44.5q190 0 285 -114t95 -363v-575h-224v582q0 152 -44.5 220.5t-156.5 68.5q-97 0 -187 -74.5t-90 -170.5v-626h-224z" />
    <glyph glyph-name="o" unicode="o" horiz-adv-x="1274" 
d="M640 -23q-129 0 -232.5 42t-169 115t-100 169.5t-34.5 209.5q0 154 60 274.5t183.5 192.5t293.5 72q130 0 232 -41t166 -114.5t97.5 -171t33.5 -214.5q0 -111 -34.5 -207t-99 -169.5t-167 -115.5t-229.5 -42zM639 159q148 0 222.5 99t74.5 256q0 159 -76 258t-222 99
t-223 -99t-77 -258q0 -157 76 -256t225 -99z" />
    <glyph glyph-name="p" unicode="p" horiz-adv-x="1267" 
d="M656 159q136 0 205 99.5t69 257.5t-70 256.5t-203 98.5q-135 0 -207 -100t-72 -260q0 -155 70.5 -253.5t207.5 -98.5zM166 -405v1108q0 58 -15 323h237v-159q19 68 110.5 126.5t212.5 58.5q137 0 241 -71.5t158 -190.5t54 -265q0 -148 -54 -271.5t-160.5 -200
t-246.5 -76.5q-119 0 -208.5 56.5t-106.5 115.5v-554h-222z" />
    <glyph glyph-name="q" unicode="q" horiz-adv-x="1256" 
d="M612 159q93 0 157 49t92.5 128t28.5 183q0 156 -71 254t-205 98q-135 0 -206 -99t-71 -258q0 -102 28 -180t91.5 -126.5t155.5 -48.5zM880 -405v513q-58 -59 -135 -95t-162 -36q-115 0 -207.5 44t-151 119.5t-90 173t-31.5 208.5q0 148 55.5 267t167 191t261.5 72
q83 0 160.5 -38t134.5 -110v122h229q-10 -127 -10 -272v-1159h-221z" />
    <glyph glyph-name="r" unicode="r" horiz-adv-x="798" 
d="M168 0v770q0 42 -4 106t-8 107l-4 43h238v-145q111 171 262 171q50 0 104 -15v-197q-58 20 -120 20q-109 0 -176 -73.5t-67 -209.5v-577h-225z" />
    <glyph glyph-name="s" unicode="s" horiz-adv-x="988" 
d="M530 -23q-134 0 -242 39t-170 88l58 164q61 -46 154 -79t182 -33q178 0 178 131q0 50 -37 77.5t-157 68.5l-96 33q-68 23 -111 44t-84 54t-60.5 81t-19.5 114q0 76 31 133.5t85 91t119 50t139 16.5q104 0 198 -26t160 -69l-60 -156q-53 28 -130.5 51t-145.5 23
q-177 0 -177 -106q0 -48 31.5 -72t138.5 -62q4 -1 49.5 -17t51.5 -18q58 -20 95 -36.5t76.5 -42.5t61.5 -56t36.5 -74t14.5 -101q0 -84 -32.5 -146.5t-87.5 -97t-117.5 -51t-131.5 -16.5z" />
    <glyph glyph-name="t" unicode="t" horiz-adv-x="820" 
d="M734 1h-96q-110 0 -181 14t-126 53t-79.5 112t-24.5 188v508h-204v150h210v250l217 65v-315h280v-150h-280v-521q0 -63 11 -97.5t46 -54.5t84 -25t143 -5v-172z" />
    <glyph glyph-name="u" unicode="u" horiz-adv-x="1206" 
d="M538 -23q-193 0 -294.5 110.5t-101.5 294.5v644h222v-642q0 -113 56.5 -169t160.5 -56q120 0 182 64t62 190v613h224v-758q0 -128 10 -268h-230l-4 156q-12 -28 -33 -56t-55 -57.5t-86 -47.5t-113 -18z" />
    <glyph glyph-name="v" unicode="v" horiz-adv-x="1102" 
d="M447 0l-432 1026h248l297 -783q41 117 88.5 247.5t106 289.5t90.5 246h241l-432 -1026h-207z" />
    <glyph glyph-name="w" unicode="w" horiz-adv-x="1669" 
d="M382 0l-360 1026h238q158 -504 238 -755q47 140 133.5 397t120.5 358h202q41 -126 122 -378.5t121 -378.5q79 253 239 757h211l-371 -1026h-193q-211 632 -245 738q-44 -123 -131.5 -369t-130.5 -369h-194z" />
    <glyph glyph-name="x" unicode="x" horiz-adv-x="1048" 
d="M29 0l372 504l-353 522h246l233 -351l256 351h232l-364 -496l368 -530h-245l-248 359l-262 -359h-235z" />
    <glyph glyph-name="y" unicode="y" horiz-adv-x="1098" 
d="M236 -441l-94 152q137 51 209 113.5t97 144.5l14 50l-428 1007h232l305 -768l272 768h227l-416 -1082q-58 -151 -168 -247.5t-250 -137.5z" />
    <glyph glyph-name="z" unicode="z" horiz-adv-x="987" 
d="M103 0v119l498 727h-479v180h769v-117l-500 -730h524v-179h-812z" />
    <glyph glyph-name="braceleft" unicode="{" horiz-adv-x="857" 
d="M550 1146v-241q0 -103 -53 -166.5t-151 -79.5q99 -19 151.5 -86.5t52.5 -172.5v-238q0 -49 8 -81.5t21.5 -52.5t42 -30t59.5 -13.5t83 -3.5v-175q-174 0 -270 36.5t-134 109.5t-38 202v234q0 105 -41 151t-142 47v149q97 1 139.5 45.5t42.5 144.5v233q0 97 19 160.5
t68.5 109t136 66t219.5 20.5v-175q-87 -1 -131 -16t-63.5 -55.5t-19.5 -121.5z" />
    <glyph glyph-name="bar" unicode="|" horiz-adv-x="607" 
d="M197 -465v1983h213v-1983h-213z" />
    <glyph glyph-name="braceright" unicode="}" horiz-adv-x="862" 
d="M108 -194v176q87 1 131 16t63.5 55.5t19.5 121.5v241q0 102 53 166t151 81q-99 19 -151.5 86.5t-52.5 171.5v238q0 49 -8 81.5t-21.5 52.5t-42 30t-59 13.5t-82.5 3.5v174q174 0 270 -36.5t134 -109t38 -201.5v-234q0 -105 41 -151t141 -47v-149q-97 -1 -139.5 -45.5
t-42.5 -144.5v-233q0 -97 -19 -160.5t-68.5 -109.5t-136 -66.5t-219.5 -20.5z" />
    <glyph glyph-name="asciitilde" unicode="~" horiz-adv-x="1410" 
d="M327 363l-155 74q70 278 300 278q94 0 281 -74q160 -59 210 -59q53 0 84.5 40t50.5 126l164 -61q-37 -153 -106.5 -223t-182.5 -70q-84 0 -275 72q-168 62 -215 62q-60 0 -95 -39t-61 -126z" />
    <glyph glyph-name="uni007F" horiz-adv-x="1521" 
d="M188 0v1456h1145v-1456h-1145zM360 124h801v1206h-801v-1206z" />
    <glyph glyph-name="uni00A0" unicode="&#xa0;" horiz-adv-x="599" 
 />
    <glyph glyph-name="exclamdown" unicode="&#xa1;" horiz-adv-x="690" 
d="M219 1152h244v-251h-244v251zM274 769h133l66 -1073h-265z" />
    <glyph glyph-name="cent" unicode="&#xa2;" horiz-adv-x="1058" 
d="M706 -19v-211h-108v208q-151 8 -265 82t-171.5 191t-57.5 259q0 228 134.5 378t359.5 163v199h108v-202q180 -18 285 -128l-79 -146q-86 78 -206 93v-705q109 13 216 92l69 -164q-131 -93 -285 -109zM598 163v703q-122 -18 -191.5 -110.5t-69.5 -244.5q0 -143 69.5 -236
t191.5 -112z" />
    <glyph glyph-name="sterling" unicode="&#xa3;" horiz-adv-x="1235" 
d="M824 1298q-138 0 -200.5 -79.5t-62.5 -257.5v-127h348v-161h-347v-67q0 -140 -31 -249t-80 -171h657v-186h-956v172q32 27 54 49t48.5 61t43 81.5t28 106.5t11.5 140v63h-187v161h184v76q0 101 11.5 181t43 155.5t83 125.5t136 80t196.5 30q186 0 308 -73l-57 -172
q-63 30 -115 45.5t-116 15.5z" />
    <glyph glyph-name="currency" unicode="&#xa4;" horiz-adv-x="1218" 
d="M609 710q130 0 216 90t86 222q0 131 -86 220t-216 89t-216 -89t-86 -220q0 -132 86 -222t216 -90zM171 543l-51 51l187 187q-88 106 -88 243q0 144 95 252l-195 195l51 51l197 -196q105 83 243 83q135 0 243 -82l195 195l51 -51l-193 -193q96 -109 96 -254
q0 -139 -89 -245l186 -185l-51 -51l-186 186q-109 -90 -252 -90t-252 91z" />
    <glyph glyph-name="yen" unicode="&#xa5;" horiz-adv-x="1258" 
d="M507 0h230v269h364v148h-364v132h363v154h-284l446 753h-264l-372 -685l-371 685h-259l433 -753h-270v-154h348v-132h-348v-148h348v-269z" />
    <glyph glyph-name="brokenbar" unicode="&#xa6;" horiz-adv-x="500" 
d="M150 597v921h207v-921h-207zM152 -465v874h207v-874h-207z" />
    <glyph glyph-name="section" unicode="&#xa7;" horiz-adv-x="1090" 
d="M631 564q63 59 63 127q0 19 -4 35t-16.5 30t-21.5 23t-32 22t-35 19t-43.5 20.5t-45.5 20.5q-33 -20 -64 -55t-31 -75q0 -13 2.5 -24t10 -21t14.5 -18t22 -17.5t25.5 -16t32.5 -16.5t35.5 -16t42.5 -18.5t45 -19.5zM514 -67q-163 0 -319 59v187q160 -67 307 -67
q86 0 137.5 34t51.5 98q0 40 -51 73t-215 110q-21 10 -32 15q-214 99 -214 270q0 71 44 134.5t114 104.5q-66 48 -100.5 104t-34.5 132q0 97 54 165t139.5 98.5t193.5 30.5q148 0 279 -44v-172q-168 49 -246 49q-80 0 -132.5 -29t-52.5 -86q0 -48 55 -92.5t171 -96.5
q64 -31 105 -55.5t83 -60t62 -78t20 -94.5q0 -133 -149 -243q142 -80 142 -229q0 -153 -117 -235t-295 -82z" />
    <glyph glyph-name="dieresis" unicode="&#xa8;" horiz-adv-x="743" 
d="M476 1165v215h225v-215h-225zM40 1165v215h225v-215h-225z" />
    <glyph glyph-name="copyright" unicode="&#xa9;" horiz-adv-x="1719" 
d="M859 -22q-152 0 -291.5 59.5t-240.5 160.5t-161 240.5t-60 291.5q0 153 60 292.5t161 240t240 160.5t292 60t292.5 -60t240.5 -160.5t161 -240t60 -292.5q0 -152 -60 -291.5t-161 -240.5t-240.5 -160.5t-292.5 -59.5zM859 87q128 0 244 51.5t199.5 137.5t133 204.5
t49.5 246.5q0 129 -49.5 247.5t-132.5 205.5t-199.5 139t-244.5 52t-244.5 -52t-200 -139t-132.5 -205.5t-49 -247.5q0 -172 83 -319t227.5 -234t315.5 -87zM880 287q-195 0 -316 125.5t-121 310.5q0 196 119.5 321t317.5 125q189 0 294 -108l-66 -121q-89 80 -212 80
q-120 0 -191 -79t-71 -218q0 -132 72.5 -209.5t192.5 -77.5q114 0 218 80l58 -133q-133 -96 -295 -96z" />
    <glyph glyph-name="ordfeminine" unicode="&#xaa;" horiz-adv-x="838" 
d="M357 858q74 0 132.5 49.5t58.5 137.5v18q-63 0 -97.5 -1t-73 -4t-56.5 -10t-35.5 -19.5t-23 -31t-5.5 -45.5q0 -43 29 -68.5t71 -25.5zM728 1202q0 -328 9 -436h-165l-13 98q-21 -51 -77.5 -89t-139.5 -38q-102 0 -171.5 57t-69.5 156q0 103 68.5 158.5t203.5 55.5h176
v40q0 135 -134 135q-48 0 -105.5 -13.5t-90.5 -26.5l-33 -13l-52 125q14 8 39 19.5t102.5 30.5t156.5 19q62 0 113.5 -14.5t93.5 -46t65.5 -87t23.5 -130.5z" />
    <glyph glyph-name="guillemotleft" unicode="&#xab;" horiz-adv-x="1155" 
d="M848 162l-275 379l281 379h186l-242 -379l234 -379h-184zM411 162l-275 379l281 379h186l-242 -379l234 -379h-184z" />
    <glyph glyph-name="logicalnot" unicode="&#xac;" horiz-adv-x="1459" 
d="M1027 226v397h-852v187h1061v-584h-209z" />
    <glyph glyph-name="uni00AD" unicode="&#xad;" horiz-adv-x="717" 
d="M58 469v172h602v-172h-602z" />
    <glyph glyph-name="registered" unicode="&#xae;" horiz-adv-x="1719" 
d="M859 -22q-152 0 -291.5 59.5t-240.5 160.5t-161 240.5t-60 291.5q0 153 60 292.5t161 240t240 160.5t292 60t292.5 -60t240.5 -160.5t161 -240t60 -292.5q0 -152 -60 -291.5t-161 -240.5t-240.5 -160.5t-292.5 -59.5zM859 87q128 0 244 51.5t199.5 137.5t133 204.5
t49.5 246.5q0 129 -49.5 247.5t-132.5 205.5t-199.5 139t-244.5 52t-244.5 -52t-200 -139t-132.5 -205.5t-49 -247.5q0 -172 83 -319t227.5 -234t315.5 -87zM723 784h102q109 0 159.5 25t50.5 94q0 79 -37 99.5t-163 20.5h-112v-239zM529 286v891h304q207 0 303.5 -66
t96.5 -196q0 -199 -189 -244l196 -385h-215l-164 356h-137v-356h-195z" />
    <glyph glyph-name="macron" unicode="&#xaf;" horiz-adv-x="742" 
d="M66 1202v145h610v-145h-610z" />
    <glyph glyph-name="degree" unicode="&#xb0;" horiz-adv-x="874" 
d="M437 851q-129 0 -219.5 88.5t-90.5 215.5t90.5 216t219.5 89t219.5 -89t90.5 -216t-90.5 -215.5t-219.5 -88.5zM437 978q76 0 124.5 51t48.5 127q0 75 -48.5 125.5t-124.5 50.5q-74 0 -123 -51t-49 -125q0 -76 48.5 -127t123.5 -51z" />
    <glyph glyph-name="plusminus" unicode="&#xb1;" horiz-adv-x="1256" 
d="M188 0v160h884v-160h-884zM521 277v315h-329v184h325v319h211v-319h334v-184h-326v-315h-215z" />
    <glyph glyph-name="uni00B2" unicode="&#xb2;" horiz-adv-x="1120" 
d="M289 615v140l267 243q139 127 139 213q0 47 -32 71.5t-86 24.5t-114 -25t-110 -67l-70 130q61 55 141.5 85t163.5 30q124 0 204 -63.5t80 -183.5q0 -83 -56 -163.5t-155 -167.5l-131 -113h333v-154h-574z" />
    <glyph glyph-name="uni00B3" unicode="&#xb3;" horiz-adv-x="1025" 
d="M544 602q-163 0 -281 95l60 118q112 -77 209 -77q67 0 106.5 35t39.5 93q0 56 -47.5 87t-131.5 31h-79v132h75q71 0 115.5 27.5t44.5 77.5q0 52 -33.5 78.5t-92.5 26.5q-103 0 -214 -71l-59 113q135 91 294 91q116 0 192 -57t76 -163q0 -136 -145 -178q88 -22 130 -75.5
t42 -122.5q0 -125 -86.5 -193t-214.5 -68z" />
    <glyph glyph-name="acute" unicode="&#xb4;" horiz-adv-x="607" 
d="M51 1170l254 340h288l-342 -340h-200z" />
    <glyph glyph-name="glyph120" unicode="&#xb5;" horiz-adv-x="1203" 
d="M365 -241h-226v1267h221l2 -604q0 -264 211 -264q122 0 185 62.5t63 198.5v607h225v-764q0 -148 13 -262h-232l-4 155q-34 -80 -111 -129t-174 -49q-107 0 -173 44v-262z" />
    <glyph glyph-name="paragraph" unicode="&#xb6;" horiz-adv-x="1220" 
d="M446 -178v977q-157 10 -247 96.5t-90 235.5q0 94 34 159t100.5 100t148 50t192.5 15h478v-172h-93v-1461h-174v1461h-174v-1461h-175z" />
    <glyph glyph-name="periodcentered" unicode="&#xb7;" horiz-adv-x="546" 
d="M247 533v242h254v-242h-254z" />
    <glyph glyph-name="cedilla" unicode="&#xb8;" horiz-adv-x="529" 
d="M232 -476q-112 0 -205 44l13 130q74 -31 158 -31q51 0 82 18.5t31 57.5q0 81 -155 91l-27 2l31 187h114l-19 -120q121 -11 181.5 -58t60.5 -119q0 -96 -74.5 -149t-190.5 -53z" />
    <glyph glyph-name="uni00B9" unicode="&#xb9;" horiz-adv-x="991" 
d="M263 617v145h179v508q-6 -3 -100 -30t-98 -28v153q221 74 230 79l138 4v-688h161v-143h-510z" />
    <glyph glyph-name="ordmasculine" unicode="&#xba;" horiz-adv-x="903" 
d="M456 727q-182 0 -281.5 102t-99.5 263q0 156 101.5 257.5t276.5 101.5t275 -103t100 -260q0 -155 -99 -258t-273 -103zM453 875q90 0 144 57.5t54 153.5q0 101 -53.5 159t-143.5 58t-145 -58.5t-55 -154.5q0 -101 52.5 -158t146.5 -57z" />
    <glyph glyph-name="guillemotright" unicode="&#xbb;" horiz-adv-x="1155" 
d="M575 162l241 379l-233 379h183l275 -379l-281 -379h-185zM138 162l241 379l-233 379h183l275 -379l-281 -379h-185z" />
    <glyph glyph-name="onequarter" unicode="&#xbc;" horiz-adv-x="2077" 
d="M1439 319h206v290zM575 0l891 1456h195l-890 -1456h-196zM1647 1v192h-371v107l367 508h168v-489h116v-126h-116v-192h-164zM229 623v143h187v517l-204 -57v149q11 3 122 40.5t116 40.5h142v-692h166v-141h-529z" />
    <glyph glyph-name="onehalf" unicode="&#xbd;" horiz-adv-x="2390" 
d="M216 623v143h187v517l-204 -57v149q11 3 122 40.5t116 40.5h142v-692h166v-141h-529zM564 0l891 1456h195l-890 -1456h-196zM1773 847q127 0 207.5 -67t80.5 -196q0 -92 -52.5 -161.5t-162.5 -159.5l-123 -102h328v-161h-578v153l270 230q78 66 106.5 106.5t28.5 85.5
q0 116 -116 116q-53 0 -114.5 -24.5t-114.5 -64.5l-68 136q65 52 146 80.5t162 28.5z" />
    <glyph glyph-name="threequarters" unicode="&#xbe;" horiz-adv-x="2376" 
d="M1452 319h206v290zM598 0l891 1456h195l-890 -1456h-196zM1660 1v192h-371v107l368 508h167v-489h117v-126h-117v-192h-164zM512 603q-161 0 -283 94l61 117q115 -76 209 -76q66 0 105.5 36.5t39.5 94.5q0 54 -46 84.5t-128 30.5h-82v131h78q68 0 112 29.5t44 77.5
q0 51 -35 79.5t-93 28.5q-98 0 -213 -70l-59 110q137 90 297 90q117 0 193.5 -56t76.5 -162q0 -130 -143 -178q87 -24 128.5 -77.5t41.5 -120.5q0 -127 -87.5 -195t-216.5 -68z" />
    <glyph glyph-name="questiondown" unicode="&#xbf;" horiz-adv-x="1032" 
d="M724 1152v-251h-245v251h245zM698 753v-139q0 -71 -37 -137.5t-90 -118.5t-106 -102.5t-90 -108t-37 -114.5q0 -87 61 -128t160 -41q79 0 163.5 23t132.5 47v-195q-144 -70 -319 -70q-121 0 -216.5 38t-155 120.5t-59.5 198.5q0 61 22.5 116.5t59 98.5t80.5 84t88 80
t80.5 79t59 89.5t22.5 102.5v77h181z" />
    <glyph glyph-name="Agrave" unicode="&#xc0;" horiz-adv-x="1434" 
d="M620 1600l-345 341h288l256 -341h-199zM486 576h446q-92 263 -221 623q-150 -416 -225 -623zM18 0l579 1456h236l584 -1456h-257l-147 373h-600l-144 -373h-251z" />
    <glyph glyph-name="Aacute" unicode="&#xc1;" horiz-adv-x="1434" 
d="M624 1600l254 340h288l-342 -340h-200zM486 576h446q-92 263 -221 623q-150 -416 -225 -623zM18 0l579 1456h236l584 -1456h-257l-147 373h-600l-144 -373h-251z" />
    <glyph glyph-name="Acircumflex" unicode="&#xc2;" horiz-adv-x="1434" 
d="M359 1589l249 368h216l253 -368h-204l-158 196l-159 -196h-197zM486 576h446q-92 263 -221 623q-150 -416 -225 -623zM18 0l579 1456h236l584 -1456h-257l-147 373h-600l-144 -373h-251z" />
    <glyph glyph-name="Atilde" unicode="&#xc3;" horiz-adv-x="1434" 
d="M831 1596q-50 0 -153.5 52.5t-133.5 52.5q-27 0 -46 -24.5t-24 -75.5h-144q0 121 56 196t148 75q51 0 109.5 -26t108 -52t78.5 -26t44 23t16 81h148q0 -134 -55 -205t-152 -71zM486 576h446q-92 263 -221 623q-150 -416 -225 -623zM18 0l579 1456h236l584 -1456h-257
l-147 373h-600l-144 -373h-251z" />
    <glyph glyph-name="Adieresis" unicode="&#xc4;" horiz-adv-x="1434" 
d="M820 1595v215h225v-215h-225zM384 1595v215h225v-215h-225zM486 576h446q-92 263 -221 623q-150 -416 -225 -623zM18 0l579 1456h236l584 -1456h-257l-147 373h-600l-144 -373h-251z" />
    <glyph glyph-name="Aring" unicode="&#xc5;" horiz-adv-x="1434" 
d="M715 1565q-89 0 -151.5 59.5t-62.5 147.5q0 89 62 148t152 59q89 0 151 -59t62 -148q0 -88 -62 -147.5t-151 -59.5zM714 1663q44 0 75.5 32t31.5 77t-31.5 76.5t-75.5 31.5t-75 -31.5t-31 -76.5t31 -77t75 -32zM486 576h446q-92 263 -221 623q-150 -416 -225 -623zM18 0
l579 1456h236l584 -1456h-257l-147 373h-600l-144 -373h-251z" />
    <glyph glyph-name="AE" unicode="&#xc6;" horiz-adv-x="2157" 
d="M602 554h487l-51 700h-38zM21 0l855 1456h1062v-202h-669l36 -410h619v-196h-595l41 -446h594v-202h-828l-31 373h-594l-212 -373h-278z" />
    <glyph glyph-name="Ccedilla" unicode="&#xc7;" horiz-adv-x="1416" 
d="M837 -476q-112 0 -205 44l13 130q74 -31 158 -31q51 0 82 18.5t31 57.5q0 81 -155 91l-27 2l31 187h114l-19 -120q121 -11 181.5 -58t60.5 -119q0 -96 -74.5 -149t-190.5 -53zM831 -22q-114 0 -219.5 30t-197.5 91.5t-160.5 149t-108 209.5t-39.5 265q0 175 58 320.5
t156.5 240.5t226 147t268.5 52q282 0 476 -155l-91 -159q-164 117 -366 117q-138 0 -249 -71.5t-174 -199.5t-63 -289q0 -252 139.5 -401.5t356.5 -149.5q216 0 406 147l77 -183q-210 -161 -496 -161z" />
    <glyph glyph-name="Egrave" unicode="&#xc8;" horiz-adv-x="1221" 
d="M559 1600l-345 341h288l256 -341h-199zM194 0v1456h901v-196h-671v-411h633v-197h-632v-456h699v-196h-930z" />
    <glyph glyph-name="Eacute" unicode="&#xc9;" horiz-adv-x="1221" 
d="M563 1600l254 340h288l-342 -340h-200zM194 0v1456h901v-196h-671v-411h633v-197h-632v-456h699v-196h-930z" />
    <glyph glyph-name="Ecircumflex" unicode="&#xca;" horiz-adv-x="1221" 
d="M299 1589l249 368h216l253 -368h-204l-158 196l-159 -196h-197zM194 0v1456h901v-196h-671v-411h633v-197h-632v-456h699v-196h-930z" />
    <glyph glyph-name="Edieresis" unicode="&#xcb;" horiz-adv-x="1221" 
d="M760 1595v215h225v-215h-225zM324 1595v215h225v-215h-225zM194 0v1456h901v-196h-671v-411h633v-197h-632v-456h699v-196h-930z" />
    <glyph glyph-name="Igrave" unicode="&#xcc;" horiz-adv-x="596" 
d="M212 1600l-345 341h288l256 -341h-199zM190 0v1456h230v-1456h-230z" />
    <glyph glyph-name="Iacute" unicode="&#xcd;" horiz-adv-x="596" 
d="M216 1600l254 340h288l-342 -340h-200zM190 0v1456h230v-1456h-230z" />
    <glyph glyph-name="Icircumflex" unicode="&#xce;" horiz-adv-x="596" 
d="M-48 1589l249 368h216l253 -368h-204l-158 196l-159 -196h-197zM190 0v1456h230v-1456h-230z" />
    <glyph glyph-name="Idieresis" unicode="&#xcf;" horiz-adv-x="596" 
d="M413 1595v215h225v-215h-225zM-23 1595v215h225v-215h-225zM190 0v1456h230v-1456h-230z" />
    <glyph glyph-name="Eth" unicode="&#xd0;" horiz-adv-x="1555" 
d="M31 678v172h602v-172h-602zM194 0v1456h376q433 0 656 -180.5t223 -542.5q0 -354 -210.5 -543.5t-607.5 -189.5h-437zM424 196h220q276 0 419 139.5t143 398.5q0 265 -150 395.5t-463 130.5h-169v-1064z" />
    <glyph glyph-name="Ntilde" unicode="&#xd1;" horiz-adv-x="1616" 
d="M934 1596q-50 0 -153.5 52.5t-133.5 52.5q-27 0 -46 -24.5t-24 -75.5h-144q0 121 56 196t148 75q51 0 109.5 -26t108 -52t78.5 -26t44 23t16 81h148q0 -134 -55 -205t-152 -71zM194 0v1456h245q88 -129 242.5 -354t283 -413.5t239.5 -356.5v1124h218v-1456h-246
q-88 128 -244 352.5t-285 412.5t-240 357v-1122h-213z" />
    <glyph glyph-name="Ograve" unicode="&#xd2;" horiz-adv-x="1653" 
d="M733 1600l-345 341h288l256 -341h-199zM830 -23q-338 0 -531 204.5t-193 551.5q0 222 85.5 391t251 264t390.5 95q217 0 379.5 -94.5t248.5 -264t86 -391.5q0 -347 -190.5 -551.5t-526.5 -204.5zM826 174q233 0 352 147t119 412q0 256 -119 404.5t-348 148.5
q-230 0 -353 -149.5t-123 -403.5q0 -265 119.5 -412t352.5 -147z" />
    <glyph glyph-name="Oacute" unicode="&#xd3;" horiz-adv-x="1653" 
d="M737 1600l254 340h288l-342 -340h-200zM830 -23q-338 0 -531 204.5t-193 551.5q0 222 85.5 391t251 264t390.5 95q217 0 379.5 -94.5t248.5 -264t86 -391.5q0 -347 -190.5 -551.5t-526.5 -204.5zM826 174q233 0 352 147t119 412q0 256 -119 404.5t-348 148.5
q-230 0 -353 -149.5t-123 -403.5q0 -265 119.5 -412t352.5 -147z" />
    <glyph glyph-name="Ocircumflex" unicode="&#xd4;" horiz-adv-x="1653" 
d="M472 1589l249 368h216l253 -368h-204l-158 196l-159 -196h-197zM830 -23q-338 0 -531 204.5t-193 551.5q0 222 85.5 391t251 264t390.5 95q217 0 379.5 -94.5t248.5 -264t86 -391.5q0 -347 -190.5 -551.5t-526.5 -204.5zM826 174q233 0 352 147t119 412q0 256 -119 404.5
t-348 148.5q-230 0 -353 -149.5t-123 -403.5q0 -265 119.5 -412t352.5 -147z" />
    <glyph glyph-name="Otilde" unicode="&#xd5;" horiz-adv-x="1653" 
d="M944 1596q-50 0 -153.5 52.5t-133.5 52.5q-27 0 -46 -24.5t-24 -75.5h-144q0 121 56 196t148 75q51 0 109.5 -26t108 -52t78.5 -26t44 23t16 81h148q0 -134 -55 -205t-152 -71zM830 -23q-338 0 -531 204.5t-193 551.5q0 222 85.5 391t251 264t390.5 95q217 0 379.5 -94.5
t248.5 -264t86 -391.5q0 -347 -190.5 -551.5t-526.5 -204.5zM826 174q233 0 352 147t119 412q0 256 -119 404.5t-348 148.5q-230 0 -353 -149.5t-123 -403.5q0 -265 119.5 -412t352.5 -147z" />
    <glyph glyph-name="Odieresis" unicode="&#xd6;" horiz-adv-x="1653" 
d="M933 1595v215h225v-215h-225zM497 1595v215h225v-215h-225zM830 -23q-338 0 -531 204.5t-193 551.5q0 222 85.5 391t251 264t390.5 95q217 0 379.5 -94.5t248.5 -264t86 -391.5q0 -347 -190.5 -551.5t-526.5 -204.5zM826 174q233 0 352 147t119 412q0 256 -119 404.5
t-348 148.5q-230 0 -353 -149.5t-123 -403.5q0 -265 119.5 -412t352.5 -147z" />
    <glyph glyph-name="multiply" unicode="&#xd7;" horiz-adv-x="1256" 
d="M356 128l-145 144l277 277l-277 277l145 145l277 -278l277 278l144 -144l-278 -278l278 -277l-144 -144l-277 276z" />
    <glyph glyph-name="Oslash" unicode="&#xd8;" horiz-adv-x="1653" 
d="M830 -23q336 0 526.5 204.5t190.5 551.5q0 211 -79.5 376t-225.5 261l78 147l-106 52l-77 -144q-140 58 -304 58q-225 0 -390.5 -95t-251 -264t-85.5 -391t81.5 -389t233.5 -261l-84 -158l107 -51l83 156q135 -53 303 -53zM1139 1178q158 -143 158 -445q0 -265 -119 -412
t-352 -147q-113 0 -202 37zM1041 1244l-519 -972q-168 142 -168 461q0 254 123 403.5t353 149.5q118 0 211 -42z" />
    <glyph glyph-name="Ugrave" unicode="&#xd9;" horiz-adv-x="1503" 
d="M649 1600l-345 341h288l256 -341h-199zM751 -23q-135 0 -238.5 32t-168.5 86t-105.5 133t-56.5 164.5t-16 190.5v873h230v-880q0 -213 92 -307.5t264 -94.5q170 0 262.5 94.5t92.5 306.5v881h230v-872q0 -105 -16.5 -192t-58.5 -166t-107 -132.5t-167.5 -85t-236.5 -31.5
z" />
    <glyph glyph-name="Uacute" unicode="&#xda;" horiz-adv-x="1503" 
d="M653 1600l254 340h288l-342 -340h-200zM751 -23q-135 0 -238.5 32t-168.5 86t-105.5 133t-56.5 164.5t-16 190.5v873h230v-880q0 -213 92 -307.5t264 -94.5q170 0 262.5 94.5t92.5 306.5v881h230v-872q0 -105 -16.5 -192t-58.5 -166t-107 -132.5t-167.5 -85t-236.5 -31.5
z" />
    <glyph glyph-name="Ucircumflex" unicode="&#xdb;" horiz-adv-x="1503" 
d="M388 1589l249 368h216l253 -368h-204l-158 196l-159 -196h-197zM751 -23q-135 0 -238.5 32t-168.5 86t-105.5 133t-56.5 164.5t-16 190.5v873h230v-880q0 -213 92 -307.5t264 -94.5q170 0 262.5 94.5t92.5 306.5v881h230v-872q0 -105 -16.5 -192t-58.5 -166t-107 -132.5
t-167.5 -85t-236.5 -31.5z" />
    <glyph glyph-name="Udieresis" unicode="&#xdc;" horiz-adv-x="1503" 
d="M849 1595v215h225v-215h-225zM413 1595v215h225v-215h-225zM751 -23q-135 0 -238.5 32t-168.5 86t-105.5 133t-56.5 164.5t-16 190.5v873h230v-880q0 -213 92 -307.5t264 -94.5q170 0 262.5 94.5t92.5 306.5v881h230v-872q0 -105 -16.5 -192t-58.5 -166t-107 -132.5
t-167.5 -85t-236.5 -31.5z" />
    <glyph glyph-name="Yacute" unicode="&#xdd;" horiz-adv-x="1257" 
d="M557 1600l254 340h288l-342 -340h-200zM509 0v567l-511 889h259l371 -685l372 685h264l-525 -886v-570h-230z" />
    <glyph glyph-name="Thorn" unicode="&#xde;" horiz-adv-x="1292" 
d="M422 531h235q147 0 229 60t82 183q0 75 -23 124.5t-71 76.5t-109 37.5t-149 10.5h-194v-492zM194 0v1456h229v-239h181q111 0 196 -10.5t166 -39.5t133.5 -77t84 -127.5t31.5 -187.5q0 -113 -46 -199t-127 -137.5t-184 -77t-226 -25.5h-210v-336h-228z" />
    <glyph glyph-name="germandbls" unicode="&#xdf;" horiz-adv-x="1259" 
d="M732 817q93 -22 172.5 -61t145 -95.5t103 -136.5t37.5 -174q0 -167 -107 -269.5t-263 -102.5q-80 0 -161.5 15t-122.5 29l-42 15l38 175q13 -6 36 -15.5t84.5 -25t110.5 -15.5q85 0 134 43.5t49 133.5q0 120 -90 208.5t-291 183.5v168q107 45 167 112.5t60 152.5
q0 70 -52.5 111t-133.5 41q-110 0 -171.5 -79.5t-61.5 -219.5v-1011h-218l-3 1010q-1 233 120 355.5t333 122.5q191 0 308.5 -88.5t117.5 -230.5q0 -101 -54 -183.5t-158 -133.5q-35 -18 -87 -35z" />
    <glyph glyph-name="agrave" unicode="&#xe0;" 
d="M538 1170l-345 341h288l256 -341h-199zM632 159q147 0 219 97.5t72 260.5q0 160 -74.5 257t-219.5 97q-149 0 -225 -97.5t-76 -258.5q0 -158 76.5 -257t227.5 -99zM601 -23q-120 0 -217 44.5t-157 119.5t-91.5 168.5t-31.5 196.5q0 108 33.5 206t95.5 174t158.5 121
t213.5 45q102 0 182 -43.5t128 -116.5v134h219v-1026h-223v154q-46 -80 -126.5 -128.5t-183.5 -48.5z" />
    <glyph glyph-name="aacute" unicode="&#xe1;" 
d="M543 1170l254 340h288l-342 -340h-200zM632 159q147 0 219 97.5t72 260.5q0 160 -74.5 257t-219.5 97q-149 0 -225 -97.5t-76 -258.5q0 -158 76.5 -257t227.5 -99zM601 -23q-120 0 -217 44.5t-157 119.5t-91.5 168.5t-31.5 196.5q0 108 33.5 206t95.5 174t158.5 121
t213.5 45q102 0 182 -43.5t128 -116.5v134h219v-1026h-223v154q-46 -80 -126.5 -128.5t-183.5 -48.5z" />
    <glyph glyph-name="acircumflex" unicode="&#xe2;" 
d="M278 1159l249 368h216l253 -368h-204l-158 196l-159 -196h-197zM632 159q147 0 219 97.5t72 260.5q0 160 -74.5 257t-219.5 97q-149 0 -225 -97.5t-76 -258.5q0 -158 76.5 -257t227.5 -99zM601 -23q-120 0 -217 44.5t-157 119.5t-91.5 168.5t-31.5 196.5q0 108 33.5 206
t95.5 174t158.5 121t213.5 45q102 0 182 -43.5t128 -116.5v134h219v-1026h-223v154q-46 -80 -126.5 -128.5t-183.5 -48.5z" />
    <glyph glyph-name="atilde" unicode="&#xe3;" 
d="M750 1166q-50 0 -153.5 52.5t-133.5 52.5q-27 0 -46 -24.5t-24 -75.5h-144q0 121 56 196t148 75q51 0 109.5 -26t108 -52t78.5 -26t44 23t16 81h148q0 -134 -55 -205t-152 -71zM632 159q147 0 219 97.5t72 260.5q0 160 -74.5 257t-219.5 97q-149 0 -225 -97.5t-76 -258.5
q0 -158 76.5 -257t227.5 -99zM601 -23q-120 0 -217 44.5t-157 119.5t-91.5 168.5t-31.5 196.5q0 108 33.5 206t95.5 174t158.5 121t213.5 45q102 0 182 -43.5t128 -116.5v134h219v-1026h-223v154q-46 -80 -126.5 -128.5t-183.5 -48.5z" />
    <glyph glyph-name="adieresis" unicode="&#xe4;" 
d="M739 1165v215h225v-215h-225zM303 1165v215h225v-215h-225zM632 159q147 0 219 97.5t72 260.5q0 160 -74.5 257t-219.5 97q-149 0 -225 -97.5t-76 -258.5q0 -158 76.5 -257t227.5 -99zM601 -23q-120 0 -217 44.5t-157 119.5t-91.5 168.5t-31.5 196.5q0 108 33.5 206
t95.5 174t158.5 121t213.5 45q102 0 182 -43.5t128 -116.5v134h219v-1026h-223v154q-46 -80 -126.5 -128.5t-183.5 -48.5z" />
    <glyph glyph-name="aring" unicode="&#xe5;" 
d="M634 1135q-89 0 -151.5 59.5t-62.5 147.5q0 89 62 148t152 59q89 0 151 -59t62 -148q0 -88 -62 -147.5t-151 -59.5zM633 1233q44 0 75.5 32t31.5 77t-31.5 76.5t-75.5 31.5t-75 -31.5t-31 -76.5t31 -77t75 -32zM632 159q147 0 219 97.5t72 260.5q0 160 -74.5 257
t-219.5 97q-149 0 -225 -97.5t-76 -258.5q0 -158 76.5 -257t227.5 -99zM601 -23q-120 0 -217 44.5t-157 119.5t-91.5 168.5t-31.5 196.5q0 108 33.5 206t95.5 174t158.5 121t213.5 45q102 0 182 -43.5t128 -116.5v134h219v-1026h-223v154q-46 -80 -126.5 -128.5
t-183.5 -48.5z" />
    <glyph glyph-name="ae" unicode="&#xe6;" horiz-adv-x="1782" 
d="M1477 626q-7 120 -72.5 188t-163.5 68q-106 0 -172 -71.5t-88 -184.5h496zM483 157q73 0 127.5 27.5t85.5 74.5t46.5 101t16.5 115h-120q-95 0 -167.5 -14.5t-123.5 -55.5t-51 -105q0 -73 52.5 -108t133.5 -35zM1264 -23q-138 0 -240 55t-157 164q-53 -106 -160.5 -163
t-236.5 -57q-178 0 -285 83t-107 231q0 83 28.5 143.5t79.5 98t133.5 60t177 30.5t224.5 8h37q0 110 -62 177.5t-175 67.5q-130 0 -302 -81l-64 152q21 13 48.5 26.5t81 34t127 33t152.5 12.5q94 0 188.5 -50.5t136.5 -141.5q54 90 148.5 141t200.5 51q110 0 194.5 -40.5
t136.5 -113t78.5 -168t26.5 -209.5l-5 -46h-691v-23q19 -293 296 -293q49 0 99.5 11.5t87.5 27.5t67 32t46 28l15 11l63 -163q-6 -5 -18 -14t-51 -31t-81 -39t-107 -31t-131 -14z" />
    <glyph glyph-name="ccedilla" unicode="&#xe7;" horiz-adv-x="1073" 
d="M643 -476q-112 0 -205 44l13 130q74 -31 158 -31q51 0 82 18.5t31 57.5q0 81 -155 91l-27 2l31 187h114l-19 -120q121 -11 181.5 -58t60.5 -119q0 -96 -74.5 -149t-190.5 -53zM634 -23q-162 0 -284 72.5t-184 192.5t-62 268q0 156 64.5 279t186 193t280.5 70
q229 0 356 -132l-79 -146q-109 96 -257 96q-147 0 -232.5 -95t-85.5 -264q0 -160 86 -256t234 -96q138 0 265 95l69 -164q-158 -113 -357 -113z" />
    <glyph glyph-name="egrave" unicode="&#xe8;" horiz-adv-x="1188" 
d="M532 1170l-345 341h288l256 -341h-199zM343 628h530q-13 121 -77.5 185t-165.5 64q-113 0 -188.5 -66t-98.5 -183zM650 -23q-252 0 -399 147t-147 388q0 149 61 271t180 195.5t275 73.5q115 0 203.5 -40.5t142 -113t80.5 -167t27 -208.5q0 -21 -5 -46h-730
q6 -158 95 -238t234 -80q175 0 322 112l63 -164q-173 -130 -402 -130z" />
    <glyph glyph-name="eacute" unicode="&#xe9;" horiz-adv-x="1188" 
d="M343 628h530q-13 121 -77.5 185t-165.5 64q-113 0 -188.5 -66t-98.5 -183zM650 -23q-252 0 -399 147t-147 388q0 149 61 271t180 195.5t275 73.5q115 0 203.5 -40.5t142 -113t80.5 -167t27 -208.5q0 -21 -5 -46h-730q6 -158 95 -238t234 -80q175 0 322 112l63 -164
q-173 -130 -402 -130zM536 1170l254 340h288l-342 -340h-200z" />
    <glyph glyph-name="ecircumflex" unicode="&#xea;" horiz-adv-x="1188" 
d="M343 628h530q-13 121 -77.5 185t-165.5 64q-113 0 -188.5 -66t-98.5 -183zM650 -23q-252 0 -399 147t-147 388q0 149 61 271t180 195.5t275 73.5q115 0 203.5 -40.5t142 -113t80.5 -167t27 -208.5q0 -21 -5 -46h-730q6 -158 95 -238t234 -80q175 0 322 112l63 -164
q-173 -130 -402 -130zM271 1159l249 368h216l253 -368h-204l-158 196l-159 -196h-197z" />
    <glyph glyph-name="edieresis" unicode="&#xeb;" horiz-adv-x="1188" 
d="M343 628h530q-13 121 -77.5 185t-165.5 64q-113 0 -188.5 -66t-98.5 -183zM650 -23q-252 0 -399 147t-147 388q0 149 61 271t180 195.5t275 73.5q115 0 203.5 -40.5t142 -113t80.5 -167t27 -208.5q0 -21 -5 -46h-730q6 -158 95 -238t234 -80q175 0 322 112l63 -164
q-173 -130 -402 -130zM732 1165v215h225v-215h-225zM296 1165v215h225v-215h-225z" />
    <glyph glyph-name="igrave" unicode="&#xec;" horiz-adv-x="521" 
d="M157 1170l-345 341h288l256 -341h-199zM143 0v1026h225v-1026h-225z" />
    <glyph glyph-name="iacute" unicode="&#xed;" horiz-adv-x="521" 
d="M143 0v1026h225v-1026h-225zM161 1170l254 340h288l-342 -340h-200z" />
    <glyph glyph-name="icircumflex" unicode="&#xee;" horiz-adv-x="521" 
d="M143 0v1026h225v-1026h-225zM-103 1159l249 368h216l253 -368h-204l-158 196l-159 -196h-197z" />
    <glyph glyph-name="idieresis" unicode="&#xef;" horiz-adv-x="521" 
d="M143 0v1026h225v-1026h-225zM358 1165v215h225v-215h-225zM-78 1165v215h225v-215h-225z" />
    <glyph glyph-name="eth" unicode="&#xf0;" horiz-adv-x="1219" 
d="M599 164q112 0 188 80t76 215q0 115 -83 187.5t-190 72.5q-110 0 -183.5 -69.5t-73.5 -196.5q0 -135 77.5 -212t188.5 -77zM587 -23q-145 0 -257.5 67t-170.5 177.5t-58 243.5q0 198 127.5 319.5t335.5 121.5q100 0 186 -43t142 -118q0 28 -7.5 66.5t-27 98t-67 126.5
t-115.5 123l-243 -138l-68 121l182 103q-120 70 -268 103l78 147q77 -13 174.5 -51t191.5 -100l240 136l68 -120l-191 -108q265 -249 265 -627q0 -324 -134 -486t-383 -162z" />
    <glyph glyph-name="ntilde" unicode="&#xf1;" horiz-adv-x="1234" 
d="M794 1166q-50 0 -153.5 52.5t-133.5 52.5q-27 0 -46 -24.5t-24 -75.5h-144q0 121 56 196t148 75q51 0 109.5 -26t108 -52t78.5 -26t44 23t16 81h148q0 -134 -55 -205t-152 -71zM166 0v677q0 93 -4 180t-8 128l-4 41h235v-145q53 82 144 126.5t183 44.5q190 0 285 -114
t95 -363v-575h-224v582q0 152 -44.5 220.5t-156.5 68.5q-97 0 -187 -74.5t-90 -170.5v-626h-224z" />
    <glyph glyph-name="ograve" unicode="&#xf2;" horiz-adv-x="1274" 
d="M640 -23q-129 0 -232.5 42t-169 115t-100 169.5t-34.5 209.5q0 154 60 274.5t183.5 192.5t293.5 72q130 0 232 -41t166 -114.5t97.5 -171t33.5 -214.5q0 -111 -34.5 -207t-99 -169.5t-167 -115.5t-229.5 -42zM639 159q148 0 222.5 99t74.5 256q0 159 -76 258t-222 99
t-223 -99t-77 -258q0 -157 76 -256t225 -99zM543 1170l-345 341h288l256 -341h-199z" />
    <glyph glyph-name="oacute" unicode="&#xf3;" horiz-adv-x="1274" 
d="M640 -23q-129 0 -232.5 42t-169 115t-100 169.5t-34.5 209.5q0 154 60 274.5t183.5 192.5t293.5 72q130 0 232 -41t166 -114.5t97.5 -171t33.5 -214.5q0 -111 -34.5 -207t-99 -169.5t-167 -115.5t-229.5 -42zM639 159q148 0 222.5 99t74.5 256q0 159 -76 258t-222 99
t-223 -99t-77 -258q0 -157 76 -256t225 -99zM547 1170l254 340h288l-342 -340h-200z" />
    <glyph glyph-name="ocircumflex" unicode="&#xf4;" horiz-adv-x="1274" 
d="M640 -23q-129 0 -232.5 42t-169 115t-100 169.5t-34.5 209.5q0 154 60 274.5t183.5 192.5t293.5 72q130 0 232 -41t166 -114.5t97.5 -171t33.5 -214.5q0 -111 -34.5 -207t-99 -169.5t-167 -115.5t-229.5 -42zM639 159q148 0 222.5 99t74.5 256q0 159 -76 258t-222 99
t-223 -99t-77 -258q0 -157 76 -256t225 -99zM283 1159l249 368h216l253 -368h-204l-158 196l-159 -196h-197z" />
    <glyph glyph-name="otilde" unicode="&#xf5;" horiz-adv-x="1274" 
d="M754 1166q-50 0 -153.5 52.5t-133.5 52.5q-27 0 -46 -24.5t-24 -75.5h-144q0 121 56 196t148 75q51 0 109.5 -26t108 -52t78.5 -26t44 23t16 81h148q0 -134 -55 -205t-152 -71zM640 -23q-129 0 -232.5 42t-169 115t-100 169.5t-34.5 209.5q0 154 60 274.5t183.5 192.5
t293.5 72q130 0 232 -41t166 -114.5t97.5 -171t33.5 -214.5q0 -111 -34.5 -207t-99 -169.5t-167 -115.5t-229.5 -42zM639 159q148 0 222.5 99t74.5 256q0 159 -76 258t-222 99t-223 -99t-77 -258q0 -157 76 -256t225 -99z" />
    <glyph glyph-name="odieresis" unicode="&#xf6;" horiz-adv-x="1274" 
d="M640 -23q-129 0 -232.5 42t-169 115t-100 169.5t-34.5 209.5q0 154 60 274.5t183.5 192.5t293.5 72q130 0 232 -41t166 -114.5t97.5 -171t33.5 -214.5q0 -111 -34.5 -207t-99 -169.5t-167 -115.5t-229.5 -42zM639 159q148 0 222.5 99t74.5 256q0 159 -76 258t-222 99
t-223 -99t-77 -258q0 -157 76 -256t225 -99zM744 1165v215h225v-215h-225zM308 1165v215h225v-215h-225z" />
    <glyph glyph-name="divide" unicode="&#xf7;" horiz-adv-x="1417" 
d="M573 850v253h233v-253h-233zM165 459v187h1040v-187h-1040zM576 -7v254h233v-254h-233z" />
    <glyph glyph-name="oslash" unicode="&#xf8;" horiz-adv-x="1265" 
d="M743 855l-293 -634q-112 93 -112 293q0 159 77 258t223 99q60 0 105 -16zM836 799q100 -94 100 -285q0 -157 -74.5 -256t-222.5 -99q-51 0 -93 12zM640 -23q127 0 229.5 42t167 115.5t99 169.5t34.5 207q0 161 -63 285.5t-184 190.5l83 180l-99 44l-84 -183
q-81 24 -182 24q-170 0 -293.5 -72t-183.5 -192.5t-60 -274.5q0 -159 67 -284.5t195 -190.5l-94 -204l99 -43l96 208q82 -22 173 -22z" />
    <glyph glyph-name="ugrave" unicode="&#xf9;" horiz-adv-x="1206" 
d="M538 -23q-193 0 -294.5 110.5t-101.5 294.5v644h222v-642q0 -113 56.5 -169t160.5 -56q120 0 182 64t62 190v613h224v-758q0 -128 10 -268h-230l-4 156q-12 -28 -33 -56t-55 -57.5t-86 -47.5t-113 -18zM501 1170l-345 341h288l256 -341h-199z" />
    <glyph glyph-name="uacute" unicode="&#xfa;" horiz-adv-x="1206" 
d="M538 -23q-193 0 -294.5 110.5t-101.5 294.5v644h222v-642q0 -113 56.5 -169t160.5 -56q120 0 182 64t62 190v613h224v-758q0 -128 10 -268h-230l-4 156q-12 -28 -33 -56t-55 -57.5t-86 -47.5t-113 -18zM506 1170l254 340h288l-342 -340h-200z" />
    <glyph glyph-name="ucircumflex" unicode="&#xfb;" horiz-adv-x="1206" 
d="M538 -23q-193 0 -294.5 110.5t-101.5 294.5v644h222v-642q0 -113 56.5 -169t160.5 -56q120 0 182 64t62 190v613h224v-758q0 -128 10 -268h-230l-4 156q-12 -28 -33 -56t-55 -57.5t-86 -47.5t-113 -18zM241 1159l249 368h216l253 -368h-204l-158 196l-159 -196h-197z" />
    <glyph glyph-name="udieresis" unicode="&#xfc;" horiz-adv-x="1206" 
d="M538 -23q-193 0 -294.5 110.5t-101.5 294.5v644h222v-642q0 -113 56.5 -169t160.5 -56q120 0 182 64t62 190v613h224v-758q0 -128 10 -268h-230l-4 156q-12 -28 -33 -56t-55 -57.5t-86 -47.5t-113 -18zM702 1165v215h225v-215h-225zM266 1165v215h225v-215h-225z" />
    <glyph glyph-name="yacute" unicode="&#xfd;" horiz-adv-x="1098" 
d="M236 -441l-94 152q137 51 209 113.5t97 144.5l14 50l-428 1007h232l305 -768l272 768h227l-416 -1082q-58 -151 -168 -247.5t-250 -137.5zM479 1170l254 340h288l-342 -340h-200z" />
    <glyph glyph-name="thorn" unicode="&#xfe;" horiz-adv-x="1231" 
d="M626 157q69 0 122 29.5t84.5 81t47.5 115.5t16 138q0 71 -13.5 131t-43 110t-82.5 78.5t-124 28.5q-60 0 -107 -20.5t-78 -55t-51.5 -83t-29 -102t-8.5 -114.5q0 -151 69.5 -244t197.5 -93zM146 -405v1867h216l-1 -546q43 61 127.5 98t167.5 37q93 0 171.5 -27.5t134 -76
t94.5 -115t57.5 -144t18.5 -163.5q0 -109 -30 -206t-87.5 -174.5t-150 -122.5t-208.5 -45q-87 0 -167 31.5t-129 87.5l-1 -501h-213z" />
    <glyph glyph-name="ydieresis" unicode="&#xff;" horiz-adv-x="1098" 
d="M236 -441l-94 152q137 51 209 113.5t97 144.5l14 50l-428 1007h232l305 -768l272 768h227l-416 -1082q-58 -151 -168 -247.5t-250 -137.5zM676 1165v215h225v-215h-225zM240 1165v215h225v-215h-225z" />
    <glyph glyph-name="Amacron" unicode="&#x100;" horiz-adv-x="1434" 
d="M413 1632v145h610v-145h-610zM486 576h446q-92 263 -221 623q-150 -416 -225 -623zM18 0l579 1456h236l584 -1456h-257l-147 373h-600l-144 -373h-251z" />
    <glyph glyph-name="amacron" unicode="&#x101;" 
d="M332 1202v145h610v-145h-610zM632 159q147 0 219 97.5t72 260.5q0 160 -74.5 257t-219.5 97q-149 0 -225 -97.5t-76 -258.5q0 -158 76.5 -257t227.5 -99zM601 -23q-120 0 -217 44.5t-157 119.5t-91.5 168.5t-31.5 196.5q0 108 33.5 206t95.5 174t158.5 121t213.5 45
q102 0 182 -43.5t128 -116.5v134h219v-1026h-223v154q-46 -80 -126.5 -128.5t-183.5 -48.5z" />
    <glyph glyph-name="Abreve" unicode="&#x102;" horiz-adv-x="1434" 
d="M716 1604q-286 0 -306 282h158q6 -71 44.5 -97.5t103.5 -26.5q63 0 101 26.5t45 97.5h155q-18 -282 -301 -282zM486 576h446q-92 263 -221 623q-150 -416 -225 -623zM18 0l579 1456h236l584 -1456h-257l-147 373h-600l-144 -373h-251z" />
    <glyph glyph-name="abreve" unicode="&#x103;" 
d="M635 1174q-286 0 -306 282h158q6 -71 44.5 -97.5t103.5 -26.5q63 0 101 26.5t45 97.5h155q-18 -282 -301 -282zM632 159q147 0 219 97.5t72 260.5q0 160 -74.5 257t-219.5 97q-149 0 -225 -97.5t-76 -258.5q0 -158 76.5 -257t227.5 -99zM601 -23q-120 0 -217 44.5
t-157 119.5t-91.5 168.5t-31.5 196.5q0 108 33.5 206t95.5 174t158.5 121t213.5 45q102 0 182 -43.5t128 -116.5v134h219v-1026h-223v154q-46 -80 -126.5 -128.5t-183.5 -48.5z" />
    <glyph glyph-name="Aogonek" unicode="&#x104;" horiz-adv-x="1434" 
d="M1237 -392q-100 0 -162 37.5t-62 111.5q0 48 23 90.5t64 76t74 54t75 41.5l121 -2q-68 -41 -113.5 -102t-45.5 -108q0 -63 89 -63q45 0 159 31v-130q-121 -37 -222 -37zM486 576h446q-92 263 -221 623q-150 -416 -225 -623zM18 0l579 1456h236l584 -1456h-257l-147 373
h-600l-144 -373h-251z" />
    <glyph glyph-name="aogonek" unicode="&#x105;" 
d="M970 -392q-100 0 -162 37.5t-62 111.5q0 48 23 90.5t64 76t74 54t75 41.5l121 -2q-68 -41 -113.5 -102t-45.5 -108q0 -63 89 -63q45 0 159 31v-130q-121 -37 -222 -37zM632 159q147 0 219 97.5t72 260.5q0 160 -74.5 257t-219.5 97q-149 0 -225 -97.5t-76 -258.5
q0 -158 76.5 -257t227.5 -99zM601 -23q-120 0 -217 44.5t-157 119.5t-91.5 168.5t-31.5 196.5q0 108 33.5 206t95.5 174t158.5 121t213.5 45q102 0 182 -43.5t128 -116.5v134h219v-1026h-223v154q-46 -80 -126.5 -128.5t-183.5 -48.5z" />
    <glyph glyph-name="Cacute" unicode="&#x106;" horiz-adv-x="1416" 
d="M728 1600l254 340h288l-342 -340h-200zM831 -22q-114 0 -219.5 30t-197.5 91.5t-160.5 149t-108 209.5t-39.5 265q0 175 58 320.5t156.5 240.5t226 147t268.5 52q282 0 476 -155l-91 -159q-164 117 -366 117q-138 0 -249 -71.5t-174 -199.5t-63 -289q0 -252 139.5 -401.5
t356.5 -149.5q216 0 406 147l77 -183q-210 -161 -496 -161z" />
    <glyph glyph-name="cacute" unicode="&#x107;" horiz-adv-x="1073" 
d="M634 -23q-162 0 -284 72.5t-184 192.5t-62 268q0 156 64.5 279t186 193t280.5 70q229 0 356 -132l-79 -146q-109 96 -257 96q-147 0 -232.5 -95t-85.5 -264q0 -160 86 -256t234 -96q138 0 265 95l69 -164q-158 -113 -357 -113zM531 1170l254 340h288l-342 -340h-200z" />
    <glyph glyph-name="Ccircumflex" unicode="&#x108;" horiz-adv-x="1416" 
d="M463 1589l249 368h216l253 -368h-204l-158 196l-159 -196h-197zM831 -22q-114 0 -219.5 30t-197.5 91.5t-160.5 149t-108 209.5t-39.5 265q0 175 58 320.5t156.5 240.5t226 147t268.5 52q282 0 476 -155l-91 -159q-164 117 -366 117q-138 0 -249 -71.5t-174 -199.5
t-63 -289q0 -252 139.5 -401.5t356.5 -149.5q216 0 406 147l77 -183q-210 -161 -496 -161z" />
    <glyph glyph-name="ccircumflex" unicode="&#x109;" horiz-adv-x="1073" 
d="M266 1159l249 368h216l253 -368h-204l-158 196l-159 -196h-197zM634 -23q-162 0 -284 72.5t-184 192.5t-62 268q0 156 64.5 279t186 193t280.5 70q229 0 356 -132l-79 -146q-109 96 -257 96q-147 0 -232.5 -95t-85.5 -264q0 -160 86 -256t234 -96q138 0 265 95l69 -164
q-158 -113 -357 -113z" />
    <glyph glyph-name="Cdotaccent" unicode="&#x10a;" horiz-adv-x="1416" 
d="M712 1650v210h222v-210h-222zM831 -22q-114 0 -219.5 30t-197.5 91.5t-160.5 149t-108 209.5t-39.5 265q0 175 58 320.5t156.5 240.5t226 147t268.5 52q282 0 476 -155l-91 -159q-164 117 -366 117q-138 0 -249 -71.5t-174 -199.5t-63 -289q0 -252 139.5 -401.5
t356.5 -149.5q216 0 406 147l77 -183q-210 -161 -496 -161z" />
    <glyph glyph-name="cdotaccent" unicode="&#x10b;" horiz-adv-x="1073" 
d="M514 1220v210h222v-210h-222zM634 -23q-162 0 -284 72.5t-184 192.5t-62 268q0 156 64.5 279t186 193t280.5 70q229 0 356 -132l-79 -146q-109 96 -257 96q-147 0 -232.5 -95t-85.5 -264q0 -160 86 -256t234 -96q138 0 265 95l69 -164q-158 -113 -357 -113z" />
    <glyph glyph-name="Ccaron" unicode="&#x10c;" horiz-adv-x="1416" 
d="M721 1589l-267 369h214l141 -195l141 195h222l-265 -369h-186zM831 -22q-114 0 -219.5 30t-197.5 91.5t-160.5 149t-108 209.5t-39.5 265q0 175 58 320.5t156.5 240.5t226 147t268.5 52q282 0 476 -155l-91 -159q-164 117 -366 117q-138 0 -249 -71.5t-174 -199.5
t-63 -289q0 -252 139.5 -401.5t356.5 -149.5q216 0 406 147l77 -183q-210 -161 -496 -161z" />
    <glyph glyph-name="ccaron" unicode="&#x10d;" horiz-adv-x="1073" 
d="M524 1159l-267 369h214l141 -195l141 195h222l-265 -369h-186zM634 -23q-162 0 -284 72.5t-184 192.5t-62 268q0 156 64.5 279t186 193t280.5 70q229 0 356 -132l-79 -146q-109 96 -257 96q-147 0 -232.5 -95t-85.5 -264q0 -160 86 -256t234 -96q138 0 265 95l69 -164
q-158 -113 -357 -113z" />
    <glyph glyph-name="Dcaron" unicode="&#x10e;" horiz-adv-x="1555" 
d="M609 1589l-267 369h214l141 -195l141 195h222l-265 -369h-186zM194 0v1456h376q433 0 656 -180.5t223 -542.5q0 -354 -210.5 -543.5t-607.5 -189.5h-437zM424 196h220q276 0 419 139.5t143 398.5q0 265 -150 395.5t-463 130.5h-169v-1064z" />
    <glyph glyph-name="dcaron" unicode="&#x10f;" horiz-adv-x="1267" 
d="M615 159q138 0 208 99.5t70 259.5q0 155 -71 254t-205 99q-135 0 -207 -99t-72 -258q0 -157 70 -256t207 -99zM574 -23q-203 0 -336.5 145.5t-133.5 385.5q0 114 32 212t91.5 172.5t152.5 117t209 42.5q110 0 189.5 -47t108.5 -103v567h224v-1199q0 -46 7 -270h-228
l-2 147q-27 -64 -107.5 -117t-206.5 -53zM1210 963l111 493h252l-175 -493h-188z" />
    <glyph glyph-name="Dcroat" unicode="&#x110;" horiz-adv-x="1555" 
d="M31 678v172h602v-172h-602zM194 0v1456h376q433 0 656 -180.5t223 -542.5q0 -354 -210.5 -543.5t-607.5 -189.5h-437zM424 196h220q276 0 419 139.5t143 398.5q0 265 -150 395.5t-463 130.5h-169v-1064z" />
    <glyph glyph-name="dcroat" unicode="&#x111;" horiz-adv-x="1267" 
d="M663 1169v145h610v-145h-610zM615 159q138 0 208 99.5t70 259.5q0 155 -71 254t-205 99q-135 0 -207 -99t-72 -258q0 -157 70 -256t207 -99zM574 -23q-203 0 -336.5 145.5t-133.5 385.5q0 114 32 212t91.5 172.5t152.5 117t209 42.5q110 0 189.5 -47t108.5 -103v567h224
v-1199q0 -46 7 -270h-228l-2 147q-27 -64 -107.5 -117t-206.5 -53z" />
    <glyph glyph-name="Emacron" unicode="&#x112;" horiz-adv-x="1221" 
d="M353 1632v145h610v-145h-610zM194 0v1456h901v-196h-671v-411h633v-197h-632v-456h699v-196h-930z" />
    <glyph glyph-name="emacron" unicode="&#x113;" horiz-adv-x="1188" 
d="M325 1202v145h610v-145h-610zM343 628h530q-13 121 -77.5 185t-165.5 64q-113 0 -188.5 -66t-98.5 -183zM650 -23q-252 0 -399 147t-147 388q0 149 61 271t180 195.5t275 73.5q115 0 203.5 -40.5t142 -113t80.5 -167t27 -208.5q0 -21 -5 -46h-730q6 -158 95 -238t234 -80
q175 0 322 112l63 -164q-173 -130 -402 -130z" />
    <glyph glyph-name="Ebreve" unicode="&#x114;" horiz-adv-x="1221" 
d="M655 1604q-286 0 -306 282h158q6 -71 44.5 -97.5t103.5 -26.5q63 0 101 26.5t45 97.5h155q-18 -282 -301 -282zM194 0v1456h901v-196h-671v-411h633v-197h-632v-456h699v-196h-930z" />
    <glyph glyph-name="ebreve" unicode="&#x115;" horiz-adv-x="1188" 
d="M343 628h530q-13 121 -77.5 185t-165.5 64q-113 0 -188.5 -66t-98.5 -183zM650 -23q-252 0 -399 147t-147 388q0 149 61 271t180 195.5t275 73.5q115 0 203.5 -40.5t142 -113t80.5 -167t27 -208.5q0 -21 -5 -46h-730q6 -158 95 -238t234 -80q175 0 322 112l63 -164
q-173 -130 -402 -130zM628 1174q-286 0 -306 282h158q6 -71 44.5 -97.5t103.5 -26.5q63 0 101 26.5t45 97.5h155q-18 -282 -301 -282z" />
    <glyph glyph-name="Edotaccent" unicode="&#x116;" horiz-adv-x="1221" 
d="M547 1650v210h222v-210h-222zM194 0v1456h901v-196h-671v-411h633v-197h-632v-456h699v-196h-930z" />
    <glyph glyph-name="edotaccent" unicode="&#x117;" horiz-adv-x="1188" 
d="M343 628h530q-13 121 -77.5 185t-165.5 64q-113 0 -188.5 -66t-98.5 -183zM650 -23q-252 0 -399 147t-147 388q0 149 61 271t180 195.5t275 73.5q115 0 203.5 -40.5t142 -113t80.5 -167t27 -208.5q0 -21 -5 -46h-730q6 -158 95 -238t234 -80q175 0 322 112l63 -164
q-173 -130 -402 -130zM520 1220v210h222v-210h-222z" />
    <glyph glyph-name="Eogonek" unicode="&#x118;" horiz-adv-x="1221" 
d="M793 -392q-100 0 -162 37.5t-62 111.5q0 48 23 90.5t64 76t74 54t75 41.5l121 -2q-68 -41 -113.5 -102t-45.5 -108q0 -63 89 -63q45 0 159 31v-130q-121 -37 -222 -37zM194 0v1456h901v-196h-671v-411h633v-197h-632v-456h699v-196h-930z" />
    <glyph glyph-name="eogonek" unicode="&#x119;" horiz-adv-x="1188" 
d="M732 -392q-100 0 -162 37.5t-62 111.5q0 48 23 90.5t64 76t74 54t75 41.5l121 -2q-68 -41 -113.5 -102t-45.5 -108q0 -63 89 -63q45 0 159 31v-130q-121 -37 -222 -37zM343 628h530q-13 121 -77.5 185t-165.5 64q-113 0 -188.5 -66t-98.5 -183zM650 -23q-252 0 -399 147
t-147 388q0 149 61 271t180 195.5t275 73.5q115 0 203.5 -40.5t142 -113t80.5 -167t27 -208.5q0 -21 -5 -46h-730q6 -158 95 -238t234 -80q175 0 322 112l63 -164q-173 -130 -402 -130z" />
    <glyph glyph-name="Ecaron" unicode="&#x11a;" horiz-adv-x="1221" 
d="M557 1589l-267 369h214l141 -195l141 195h222l-265 -369h-186zM194 0v1456h901v-196h-671v-411h633v-197h-632v-456h699v-196h-930z" />
    <glyph glyph-name="ecaron" unicode="&#x11b;" horiz-adv-x="1188" 
d="M343 628h530q-13 121 -77.5 185t-165.5 64q-113 0 -188.5 -66t-98.5 -183zM650 -23q-252 0 -399 147t-147 388q0 149 61 271t180 195.5t275 73.5q115 0 203.5 -40.5t142 -113t80.5 -167t27 -208.5q0 -21 -5 -46h-730q6 -158 95 -238t234 -80q175 0 322 112l63 -164
q-173 -130 -402 -130zM529 1159l-267 369h214l141 -195l141 195h222l-265 -369h-186z" />
    <glyph glyph-name="Gcircumflex" unicode="&#x11c;" horiz-adv-x="1534" 
d="M473 1589l249 368h216l253 -368h-204l-158 196l-159 -196h-197zM849 -23q-358 0 -550 196t-192 531q0 162 54 304.5t151 247.5t241.5 166t317.5 61q172 0 284.5 -40.5t198.5 -104.5l-92 -162q-157 110 -388 110q-123 0 -224.5 -46t-167 -125t-101 -181.5t-35.5 -218.5
q0 -248 130.5 -394.5t382.5 -146.5q147 0 275 42v370h-350v197h582v-697q-240 -109 -517 -109z" />
    <glyph glyph-name="gcircumflex" unicode="&#x11d;" horiz-adv-x="1253" 
d="M612 183q74 0 129.5 27.5t87.5 76.5t47 109t15 132q0 155 -70 249t-200 94q-135 0 -209 -99.5t-74 -254.5q0 -159 69.5 -246.5t204.5 -87.5zM576 -414q-205 0 -388 82l37 194q163 -94 339 -94q151 0 234.5 73t83.5 218v97q-98 -144 -285 -144q-219 0 -356 136t-137 367
q0 113 30.5 209.5t89 170t151.5 115.5t211 42q105 0 179.5 -42.5t117.5 -109.5v126h235q-16 -156 -16 -318v-561q0 -88 -14 -164.5t-50.5 -151.5t-94.5 -127.5t-151.5 -85t-215.5 -32.5zM219 1159l249 368h216l253 -368h-204l-158 196l-159 -196h-197z" />
    <glyph glyph-name="Gbreve" unicode="&#x11e;" horiz-adv-x="1534" 
d="M830 1604q-286 0 -306 282h158q6 -71 44.5 -97.5t103.5 -26.5q63 0 101 26.5t45 97.5h155q-18 -282 -301 -282zM849 -23q-358 0 -550 196t-192 531q0 162 54 304.5t151 247.5t241.5 166t317.5 61q172 0 284.5 -40.5t198.5 -104.5l-92 -162q-157 110 -388 110
q-123 0 -224.5 -46t-167 -125t-101 -181.5t-35.5 -218.5q0 -248 130.5 -394.5t382.5 -146.5q147 0 275 42v370h-350v197h582v-697q-240 -109 -517 -109z" />
    <glyph glyph-name="gbreve" unicode="&#x11f;" horiz-adv-x="1253" 
d="M612 183q74 0 129.5 27.5t87.5 76.5t47 109t15 132q0 155 -70 249t-200 94q-135 0 -209 -99.5t-74 -254.5q0 -159 69.5 -246.5t204.5 -87.5zM576 -414q-205 0 -388 82l37 194q163 -94 339 -94q151 0 234.5 73t83.5 218v97q-98 -144 -285 -144q-219 0 -356 136t-137 367
q0 113 30.5 209.5t89 170t151.5 115.5t211 42q105 0 179.5 -42.5t117.5 -109.5v126h235q-16 -156 -16 -318v-561q0 -88 -14 -164.5t-50.5 -151.5t-94.5 -127.5t-151.5 -85t-215.5 -32.5zM576 1174q-286 0 -306 282h158q6 -71 44.5 -97.5t103.5 -26.5q63 0 101 26.5t45 97.5
h155q-18 -282 -301 -282z" />
    <glyph glyph-name="Gdotaccent" unicode="&#x120;" horiz-adv-x="1534" 
d="M722 1650v210h222v-210h-222zM849 -23q-358 0 -550 196t-192 531q0 162 54 304.5t151 247.5t241.5 166t317.5 61q172 0 284.5 -40.5t198.5 -104.5l-92 -162q-157 110 -388 110q-123 0 -224.5 -46t-167 -125t-101 -181.5t-35.5 -218.5q0 -248 130.5 -394.5t382.5 -146.5
q147 0 275 42v370h-350v197h582v-697q-240 -109 -517 -109z" />
    <glyph glyph-name="gdotaccent" unicode="&#x121;" horiz-adv-x="1253" 
d="M612 183q74 0 129.5 27.5t87.5 76.5t47 109t15 132q0 155 -70 249t-200 94q-135 0 -209 -99.5t-74 -254.5q0 -159 69.5 -246.5t204.5 -87.5zM576 -414q-205 0 -388 82l37 194q163 -94 339 -94q151 0 234.5 73t83.5 218v97q-98 -144 -285 -144q-219 0 -356 136t-137 367
q0 113 30.5 209.5t89 170t151.5 115.5t211 42q105 0 179.5 -42.5t117.5 -109.5v126h235q-16 -156 -16 -318v-561q0 -88 -14 -164.5t-50.5 -151.5t-94.5 -127.5t-151.5 -85t-215.5 -32.5zM467 1220v210h222v-210h-222z" />
    <glyph glyph-name="Gcommaaccent" unicode="&#x122;" horiz-adv-x="1534" 
d="M597 -631l111 493h253l-176 -493h-188zM849 -23q-358 0 -550 196t-192 531q0 162 54 304.5t151 247.5t241.5 166t317.5 61q172 0 284.5 -40.5t198.5 -104.5l-92 -162q-157 110 -388 110q-123 0 -224.5 -46t-167 -125t-101 -181.5t-35.5 -218.5q0 -248 130.5 -394.5
t382.5 -146.5q147 0 275 42v370h-350v197h582v-697q-240 -109 -517 -109z" />
    <glyph glyph-name="gcommaaccent" unicode="&#x123;" horiz-adv-x="1253" 
d="M832 1704l-110 -501h-252l174 501h188zM612 183q74 0 129.5 27.5t87.5 76.5t47 109t15 132q0 155 -70 249t-200 94q-135 0 -209 -99.5t-74 -254.5q0 -159 69.5 -246.5t204.5 -87.5zM576 -414q-205 0 -388 82l37 194q163 -94 339 -94q151 0 234.5 73t83.5 218v97
q-98 -144 -285 -144q-219 0 -356 136t-137 367q0 113 30.5 209.5t89 170t151.5 115.5t211 42q105 0 179.5 -42.5t117.5 -109.5v126h235q-16 -156 -16 -318v-561q0 -88 -14 -164.5t-50.5 -151.5t-94.5 -127.5t-151.5 -85t-215.5 -32.5z" />
    <glyph glyph-name="Hcircumflex" unicode="&#x124;" horiz-adv-x="1564" 
d="M417 1589l249 368h216l253 -368h-204l-158 196l-159 -196h-197zM194 0v1456h230v-611h717v611h230v-1456h-227v649h-717v-649h-233z" />
    <glyph glyph-name="hcircumflex" unicode="&#x125;" horiz-adv-x="1227" 
d="M152 0v1469h224v-586q41 75 135.5 122t187.5 47q90 0 159.5 -29t111.5 -74t68.5 -108t36.5 -124t10 -128v-589h-224v593q0 147 -47.5 212.5t-148.5 65.5q-111 0 -200 -76t-89 -175v-620h-224zM379 1159l249 368h216l253 -368h-204l-158 196l-159 -196h-197z" />
    <glyph glyph-name="Hbar" unicode="&#x126;" horiz-adv-x="1564" 
d="M91 1110v133h1371v-133h-1371zM194 0v1456h230v-611h717v611h230v-1456h-227v649h-717v-649h-233z" />
    <glyph glyph-name="hbar" unicode="&#x127;" horiz-adv-x="1227" 
d="M-26 1169v145h610v-145h-610zM152 0v1469h224v-586q41 75 135.5 122t187.5 47q90 0 159.5 -29t111.5 -74t68.5 -108t36.5 -124t10 -128v-589h-224v593q0 147 -47.5 212.5t-148.5 65.5q-111 0 -200 -76t-89 -175v-620h-224z" />
    <glyph glyph-name="Itilde" unicode="&#x128;" horiz-adv-x="596" 
d="M423 1596q-50 0 -153.5 52.5t-133.5 52.5q-27 0 -46 -24.5t-24 -75.5h-144q0 121 56 196t148 75q51 0 109.5 -26t108 -52t78.5 -26t44 23t16 81h148q0 -134 -55 -205t-152 -71zM190 0v1456h230v-1456h-230z" />
    <glyph glyph-name="itilde" unicode="&#x129;" horiz-adv-x="521" 
d="M368 1166q-50 0 -153.5 52.5t-133.5 52.5q-27 0 -46 -24.5t-24 -75.5h-144q0 121 56 196t148 75q51 0 109.5 -26t108 -52t78.5 -26t44 23t16 81h148q0 -134 -55 -205t-152 -71zM143 0v1026h225v-1026h-225z" />
    <glyph glyph-name="Imacron" unicode="&#x12a;" horiz-adv-x="596" 
d="M6 1632v145h610v-145h-610zM190 0v1456h230v-1456h-230z" />
    <glyph glyph-name="imacron" unicode="&#x12b;" horiz-adv-x="521" 
d="M-49 1202v145h610v-145h-610zM143 0v1026h225v-1026h-225z" />
    <glyph glyph-name="Ibreve" unicode="&#x12c;" horiz-adv-x="596" 
d="M308 1604q-286 0 -306 282h158q6 -71 44.5 -97.5t103.5 -26.5q63 0 101 26.5t45 97.5h155q-18 -282 -301 -282zM190 0v1456h230v-1456h-230z" />
    <glyph glyph-name="ibreve" unicode="&#x12d;" horiz-adv-x="521" 
d="M143 0v1026h225v-1026h-225zM253 1174q-286 0 -306 282h158q6 -71 44.5 -97.5t103.5 -26.5q63 0 101 26.5t45 97.5h155q-18 -282 -301 -282z" />
    <glyph glyph-name="Iogonek" unicode="&#x12e;" horiz-adv-x="596" 
d="M285 -392q-100 0 -162 37.5t-62 111.5q0 48 23 90.5t64 76t74 54t75 41.5l121 -2q-68 -41 -113.5 -102t-45.5 -108q0 -63 89 -63q45 0 159 31v-130q-121 -37 -222 -37zM190 0v1456h230v-1456h-230z" />
    <glyph glyph-name="iogonek" unicode="&#x12f;" horiz-adv-x="521" 
d="M237 -392q-100 0 -162 37.5t-62 111.5q0 48 23 90.5t64 76t74 54t75 41.5l121 -2q-68 -41 -113.5 -102t-45.5 -108q0 -63 89 -63q45 0 159 31v-130q-121 -37 -222 -37zM143 0v1026h225v-1026h-225zM145 1220v210h222v-210h-222z" />
    <glyph glyph-name="Idotaccent" unicode="&#x130;" horiz-adv-x="596" 
d="M200 1650v210h222v-210h-222zM190 0v1456h230v-1456h-230z" />
    <glyph glyph-name="dotlessi" unicode="&#x131;" horiz-adv-x="521" 
d="M143 0v1026h225v-1026h-225z" />
    <glyph glyph-name="IJ" unicode="&#x132;" horiz-adv-x="1499" 
d="M925 -331q-132 0 -293 58l38 177q130 -40 217 -40q106 0 148.5 62.5t42.5 187.5v1342h230v-1336q0 -220 -99.5 -335.5t-283.5 -115.5zM190 0v1456h230v-1456h-230z" />
    <glyph glyph-name="ij" unicode="&#x133;" horiz-adv-x="1070" 
d="M708 1246v210h222v-210h-222zM582 -394q-57 0 -157 19l12 167q72 -16 115 -16q80 0 119 58t39 198v994h217v-971q0 -76 -7.5 -136t-29.5 -121t-59 -101t-100.5 -65.5t-148.5 -25.5zM158 1256v200h218v-200h-218zM157 0v1026h219v-1026h-219z" />
    <glyph glyph-name="Jcircumflex" unicode="&#x134;" horiz-adv-x="903" 
d="M245 1589l249 368h216l253 -368h-204l-158 196l-159 -196h-197zM329 -331q-132 0 -293 58l38 177q130 -40 217 -40q106 0 148.5 62.5t42.5 187.5v1342h230v-1336q0 -220 -99.5 -335.5t-283.5 -115.5z" />
    <glyph glyph-name="jcircumflex" unicode="&#x135;" horiz-adv-x="544" 
d="M56 -394q-57 0 -157 19l12 167q72 -16 115 -16q80 0 119 58t39 198v994h217v-971q0 -76 -7.5 -136t-29.5 -121t-59 -101t-100.5 -65.5t-148.5 -25.5zM-67 1159l249 368h216l253 -368h-204l-158 196l-159 -196h-197z" />
    <glyph glyph-name="Kcommaaccent" unicode="&#x136;" horiz-adv-x="1328" 
d="M501 -631l111 493h253l-176 -493h-188zM194 0v1456h230v-644l585 644h287l-647 -703l696 -753h-296l-624 667v-667h-231z" />
    <glyph glyph-name="kcommaaccent" unicode="&#x137;" horiz-adv-x="1106" 
d="M358 -631l111 493h253l-176 -493h-188zM156 0v1469h224v-868l399 425h308l-501 -492l535 -534h-298l-443 460v-460h-224z" />
    <glyph glyph-name="kgreenlandic" unicode="&#x138;" horiz-adv-x="1082" 
d="M155 0v1026h223v-422l387 422h300l-512 -513q82 -75 257 -241t291 -272h-293l-430 415v-415h-223z" />
    <glyph glyph-name="Lacute" unicode="&#x139;" horiz-adv-x="1145" 
d="M253 1600l254 340h288l-342 -340h-200zM194 0v1456h230v-1260h674v-196h-904z" />
    <glyph glyph-name="lacute" unicode="&#x13a;" horiz-adv-x="528" 
d="M158 0v1469h223v-1469h-223zM180 1600l254 340h288l-342 -340h-200z" />
    <glyph glyph-name="Lcommaaccent" unicode="&#x13b;" horiz-adv-x="1145" 
d="M424 -631l111 493h253l-176 -493h-188zM194 0v1456h230v-1260h674v-196h-904z" />
    <glyph glyph-name="lcommaaccent" unicode="&#x13c;" horiz-adv-x="528" 
d="M37 -631l111 493h253l-176 -493h-188zM158 0v1469h223v-1469h-223z" />
    <glyph glyph-name="Lcaron" unicode="&#x13d;" horiz-adv-x="1145" 
d="M606 963l111 493h252l-175 -493h-188zM194 0v1456h230v-1260h674v-196h-904z" />
    <glyph glyph-name="lcaron" unicode="&#x13e;" horiz-adv-x="528" 
d="M158 0v1469h223v-1469h-223zM521 963l111 493h252l-175 -493h-188z" />
    <glyph glyph-name="Ldot" unicode="&#x13f;" horiz-adv-x="1145" 
d="M599 635v242h254v-242h-254zM194 0v1456h230v-1260h674v-196h-904z" />
    <glyph glyph-name="ldot" unicode="&#x140;" horiz-adv-x="528" 
d="M494 640v242h254v-242h-254zM158 0v1469h223v-1469h-223z" />
    <glyph glyph-name="Lslash" unicode="&#x141;" horiz-adv-x="1152" 
d="M43 441v199l623 436v-199zM194 0v1456h230v-1260h674v-196h-904z" />
    <glyph glyph-name="lslash" unicode="&#x142;" horiz-adv-x="503" 
d="M132 0v715l-127 -100v196l127 100v557h224v-398l122 98v-197l-121 -101v-870h-225z" />
    <glyph glyph-name="Nacute" unicode="&#x143;" horiz-adv-x="1616" 
d="M727 1600l254 340h288l-342 -340h-200zM194 0v1456h245q88 -129 242.5 -354t283 -413.5t239.5 -356.5v1124h218v-1456h-246q-88 128 -244 352.5t-285 412.5t-240 357v-1122h-213z" />
    <glyph glyph-name="nacute" unicode="&#x144;" horiz-adv-x="1234" 
d="M166 0v677q0 93 -4 180t-8 128l-4 41h235v-145q53 82 144 126.5t183 44.5q190 0 285 -114t95 -363v-575h-224v582q0 152 -44.5 220.5t-156.5 68.5q-97 0 -187 -74.5t-90 -170.5v-626h-224zM587 1170l254 340h288l-342 -340h-200z" />
    <glyph glyph-name="Ncommaaccent" unicode="&#x145;" horiz-adv-x="1616" 
d="M612 -631l111 493h253l-176 -493h-188zM194 0v1456h245q88 -129 242.5 -354t283 -413.5t239.5 -356.5v1124h218v-1456h-246q-88 128 -244 352.5t-285 412.5t-240 357v-1122h-213z" />
    <glyph glyph-name="ncommaaccent" unicode="&#x146;" horiz-adv-x="1234" 
d="M417 -631l111 493h253l-176 -493h-188zM166 0v677q0 93 -4 180t-8 128l-4 41h235v-145q53 82 144 126.5t183 44.5q190 0 285 -114t95 -363v-575h-224v582q0 152 -44.5 220.5t-156.5 68.5q-97 0 -187 -74.5t-90 -170.5v-626h-224z" />
    <glyph glyph-name="Ncaron" unicode="&#x147;" horiz-adv-x="1616" 
d="M720 1589l-267 369h214l141 -195l141 195h222l-265 -369h-186zM194 0v1456h245q88 -129 242.5 -354t283 -413.5t239.5 -356.5v1124h218v-1456h-246q-88 128 -244 352.5t-285 412.5t-240 357v-1122h-213z" />
    <glyph glyph-name="ncaron" unicode="&#x148;" horiz-adv-x="1234" 
d="M166 0v677q0 93 -4 180t-8 128l-4 41h235v-145q53 82 144 126.5t183 44.5q190 0 285 -114t95 -363v-575h-224v582q0 152 -44.5 220.5t-156.5 68.5q-97 0 -187 -74.5t-90 -170.5v-626h-224zM581 1159l-267 369h214l141 -195l141 195h222l-265 -369h-186z" />
    <glyph glyph-name="napostrophe" unicode="&#x149;" horiz-adv-x="1237" 
d="M166 0v677q0 93 -4 180t-8 128l-4 41h235v-145q53 82 144 126.5t183 44.5q190 0 285 -114t95 -363v-575h-224v582q0 152 -44.5 220.5t-156.5 68.5q-97 0 -187 -74.5t-90 -170.5v-626h-224zM38 1221l86 584h260l-182 -584h-164z" />
    <glyph glyph-name="Eng" unicode="&#x14a;" horiz-adv-x="1602" 
d="M1410 1456v-1415q0 -495 -510 -495v177q139 0 214.5 55.5t75.5 196.5v107l-670 907l-113 169v-1158h-216v1456h247l639 -883l113 -167v1050h220z" />
    <glyph glyph-name="eng" unicode="&#x14b;" horiz-adv-x="1207" 
d="M554 -406v173q143 0 217.5 71.5t74.5 231.5v512q0 155 -40 221.5t-152 66.5q-96 0 -181 -73.5t-85 -170.5v-626h-224v677q0 93 -4 180t-8 128l-4 41h235v-146q46 82 135 127t181 45q189 0 280 -113.5t91 -363.5v-457q0 -257 -133 -390.5t-383 -133.5z" />
    <glyph glyph-name="Omacron" unicode="&#x14c;" horiz-adv-x="1653" 
d="M526 1632v145h610v-145h-610zM830 -23q-338 0 -531 204.5t-193 551.5q0 222 85.5 391t251 264t390.5 95q217 0 379.5 -94.5t248.5 -264t86 -391.5q0 -347 -190.5 -551.5t-526.5 -204.5zM826 174q233 0 352 147t119 412q0 256 -119 404.5t-348 148.5q-230 0 -353 -149.5
t-123 -403.5q0 -265 119.5 -412t352.5 -147z" />
    <glyph glyph-name="omacron" unicode="&#x14d;" horiz-adv-x="1274" 
d="M640 -23q-129 0 -232.5 42t-169 115t-100 169.5t-34.5 209.5q0 154 60 274.5t183.5 192.5t293.5 72q130 0 232 -41t166 -114.5t97.5 -171t33.5 -214.5q0 -111 -34.5 -207t-99 -169.5t-167 -115.5t-229.5 -42zM639 159q148 0 222.5 99t74.5 256q0 159 -76 258t-222 99
t-223 -99t-77 -258q0 -157 76 -256t225 -99zM337 1202v145h610v-145h-610z" />
    <glyph glyph-name="Obreve" unicode="&#x14e;" horiz-adv-x="1653" 
d="M829 1604q-286 0 -306 282h158q6 -71 44.5 -97.5t103.5 -26.5q63 0 101 26.5t45 97.5h155q-18 -282 -301 -282zM830 -23q-338 0 -531 204.5t-193 551.5q0 222 85.5 391t251 264t390.5 95q217 0 379.5 -94.5t248.5 -264t86 -391.5q0 -347 -190.5 -551.5t-526.5 -204.5z
M826 174q233 0 352 147t119 412q0 256 -119 404.5t-348 148.5q-230 0 -353 -149.5t-123 -403.5q0 -265 119.5 -412t352.5 -147z" />
    <glyph glyph-name="obreve" unicode="&#x14f;" horiz-adv-x="1274" 
d="M640 -23q-129 0 -232.5 42t-169 115t-100 169.5t-34.5 209.5q0 154 60 274.5t183.5 192.5t293.5 72q130 0 232 -41t166 -114.5t97.5 -171t33.5 -214.5q0 -111 -34.5 -207t-99 -169.5t-167 -115.5t-229.5 -42zM639 159q148 0 222.5 99t74.5 256q0 159 -76 258t-222 99
t-223 -99t-77 -258q0 -157 76 -256t225 -99zM639 1174q-286 0 -306 282h158q6 -71 44.5 -97.5t103.5 -26.5q63 0 101 26.5t45 97.5h155q-18 -282 -301 -282z" />
    <glyph glyph-name="Ohungarumlaut" unicode="&#x150;" horiz-adv-x="1653" 
d="M944 1568l243 372h264l-340 -372h-167zM618 1568l207 372h250l-296 -372h-161zM830 -23q-338 0 -531 204.5t-193 551.5q0 222 85.5 391t251 264t390.5 95q217 0 379.5 -94.5t248.5 -264t86 -391.5q0 -347 -190.5 -551.5t-526.5 -204.5zM826 174q233 0 352 147t119 412
q0 256 -119 404.5t-348 148.5q-230 0 -353 -149.5t-123 -403.5q0 -265 119.5 -412t352.5 -147z" />
    <glyph glyph-name="ohungarumlaut" unicode="&#x151;" horiz-adv-x="1274" 
d="M640 -23q-129 0 -232.5 42t-169 115t-100 169.5t-34.5 209.5q0 154 60 274.5t183.5 192.5t293.5 72q130 0 232 -41t166 -114.5t97.5 -171t33.5 -214.5q0 -111 -34.5 -207t-99 -169.5t-167 -115.5t-229.5 -42zM639 159q148 0 222.5 99t74.5 256q0 159 -76 258t-222 99
t-223 -99t-77 -258q0 -157 76 -256t225 -99zM754 1138l243 372h264l-340 -372h-167zM428 1138l207 372h250l-296 -372h-161z" />
    <glyph glyph-name="OE" unicode="&#x152;" horiz-adv-x="2053" 
d="M816 160q67 0 122.5 12t89 31t48 30t24.5 22v944q-97 88 -263 88q-15 0 -47 -2q-92 -6 -170 -43t-138 -104.5t-94 -173.5t-34 -239q0 -265 123.5 -415t338.5 -150zM106 731q0 171 53 313t145.5 237.5t220 148t274.5 52.5q58 0 109.5 -8.5t82.5 -19t58.5 -26t35 -21.5
t15.5 -13v62h826v-197h-595v-415h558v-198h-557v-449h624v-197h-856v75q-12 -13 -42.5 -32.5t-99 -42t-144.5 -24.5h-27q-147 0 -270.5 48.5t-215.5 141t-143.5 237.5t-51.5 328z" />
    <glyph glyph-name="oe" unicode="&#x153;" horiz-adv-x="1993" 
d="M1136 631h510v13q-4 103 -74.5 166t-172.5 63q-106 0 -178 -67.5t-85 -174.5zM636 159q90 0 153 49.5t91 127t28 175.5q0 106 -27.5 184.5t-91.5 127t-160 48.5q-140 0 -218 -102t-79 -261q0 -153 77 -251t227 -98zM1134 449q0 -138 86.5 -214t235.5 -76q53 0 105 11
t89 26.5t66.5 31.5t43.5 27l15 11l64 -163q-6 -5 -17 -13.5t-50.5 -30t-83 -38t-113.5 -30t-144 -13.5q-126 0 -241 56t-168 147q-49 -91 -157.5 -147t-232.5 -56q-247 0 -390 149t-143 384q0 153 60 274t181.5 194t287.5 73q267 0 394 -199q61 100 151.5 151t226.5 51
q217 0 338.5 -149t121.5 -397v-60h-726z" />
    <glyph glyph-name="Racute" unicode="&#x154;" horiz-adv-x="1372" 
d="M571 1600l254 340h288l-342 -340h-200zM421 825h247q50 0 90.5 6t77 22t62 40.5t40 64t14.5 90.5q0 124 -60.5 168t-200.5 44h-270v-435zM194 0v1456h495q91 0 162 -9.5t138 -35.5t110.5 -69t70 -114t26.5 -166q0 -128 -70.5 -220.5t-214.5 -126.5q67 -30 116.5 -93
t90.5 -163l185 -459h-249l-165 433q-44 117 -92.5 157t-155.5 40h-217v-630h-230z" />
    <glyph glyph-name="racute" unicode="&#x155;" horiz-adv-x="798" 
d="M168 0v770q0 42 -4 106t-8 107l-4 43h238v-145q111 171 262 171q50 0 104 -15v-197q-58 20 -120 20q-109 0 -176 -73.5t-67 -209.5v-577h-225zM396 1170l254 340h288l-342 -340h-200z" />
    <glyph glyph-name="Rcommaaccent" unicode="&#x156;" horiz-adv-x="1372" 
d="M497 -631l111 493h253l-176 -493h-188zM421 825h247q50 0 90.5 6t77 22t62 40.5t40 64t14.5 90.5q0 124 -60.5 168t-200.5 44h-270v-435zM194 0v1456h495q91 0 162 -9.5t138 -35.5t110.5 -69t70 -114t26.5 -166q0 -128 -70.5 -220.5t-214.5 -126.5q67 -30 116.5 -93
t90.5 -163l185 -459h-249l-165 433q-44 117 -92.5 157t-155.5 40h-217v-630h-230z" />
    <glyph glyph-name="rcommaaccent" unicode="&#x157;" horiz-adv-x="798" 
d="M79 -631l111 493h253l-176 -493h-188zM168 0v770q0 42 -4 106t-8 107l-4 43h238v-145q111 171 262 171q50 0 104 -15v-197q-58 20 -120 20q-109 0 -176 -73.5t-67 -209.5v-577h-225z" />
    <glyph glyph-name="Rcaron" unicode="&#x158;" horiz-adv-x="1372" 
d="M565 1589l-267 369h214l141 -195l141 195h222l-265 -369h-186zM421 825h247q50 0 90.5 6t77 22t62 40.5t40 64t14.5 90.5q0 124 -60.5 168t-200.5 44h-270v-435zM194 0v1456h495q91 0 162 -9.5t138 -35.5t110.5 -69t70 -114t26.5 -166q0 -128 -70.5 -220.5t-214.5 -126.5
q67 -30 116.5 -93t90.5 -163l185 -459h-249l-165 433q-44 117 -92.5 157t-155.5 40h-217v-630h-230z" />
    <glyph glyph-name="rcaron" unicode="&#x159;" horiz-adv-x="798" 
d="M168 0v770q0 42 -4 106t-8 107l-4 43h238v-145q111 171 262 171q50 0 104 -15v-197q-58 20 -120 20q-109 0 -176 -73.5t-67 -209.5v-577h-225zM389 1159l-267 369h214l141 -195l141 195h222l-265 -369h-186z" />
    <glyph glyph-name="Sacute" unicode="&#x15a;" horiz-adv-x="1244" 
d="M526 1600l254 340h288l-342 -340h-200zM617 -23q-155 0 -292 49.5t-204 116.5l100 166q64 -52 175.5 -93.5t208.5 -41.5q278 0 278 216q0 46 -8 75.5t-33.5 59t-73.5 53.5t-128 51q-21 8 -67.5 22.5t-62.5 20.5q-134 44 -214 94.5t-124 130.5t-44 194q0 127 67 217
t177 132.5t251 42.5q128 0 224 -22.5t151 -55t108 -84.5l-118 -154q-61 59 -149.5 89t-183.5 30q-125 0 -203.5 -46.5t-78.5 -139.5q0 -62 16.5 -98t65 -66.5t148.5 -64.5q127 -41 135 -44q221 -75 305 -170.5t84 -269.5q0 -105 -41.5 -186t-113.5 -128.5t-161.5 -71.5
t-193.5 -24z" />
    <glyph glyph-name="sacute" unicode="&#x15b;" horiz-adv-x="988" 
d="M530 -23q-134 0 -242 39t-170 88l58 164q61 -46 154 -79t182 -33q178 0 178 131q0 50 -37 77.5t-157 68.5l-96 33q-68 23 -111 44t-84 54t-60.5 81t-19.5 114q0 76 31 133.5t85 91t119 50t139 16.5q104 0 198 -26t160 -69l-60 -156q-53 28 -130.5 51t-145.5 23
q-177 0 -177 -106q0 -48 31.5 -72t138.5 -62q4 -1 49.5 -17t51.5 -18q58 -20 95 -36.5t76.5 -42.5t61.5 -56t36.5 -74t14.5 -101q0 -84 -32.5 -146.5t-87.5 -97t-117.5 -51t-131.5 -16.5zM402 1170l254 340h288l-342 -340h-200z" />
    <glyph glyph-name="Scircumflex" unicode="&#x15c;" horiz-adv-x="1244" 
d="M261 1589l249 368h216l253 -368h-204l-158 196l-159 -196h-197zM617 -23q-155 0 -292 49.5t-204 116.5l100 166q64 -52 175.5 -93.5t208.5 -41.5q278 0 278 216q0 46 -8 75.5t-33.5 59t-73.5 53.5t-128 51q-21 8 -67.5 22.5t-62.5 20.5q-134 44 -214 94.5t-124 130.5
t-44 194q0 127 67 217t177 132.5t251 42.5q128 0 224 -22.5t151 -55t108 -84.5l-118 -154q-61 59 -149.5 89t-183.5 30q-125 0 -203.5 -46.5t-78.5 -139.5q0 -62 16.5 -98t65 -66.5t148.5 -64.5q127 -41 135 -44q221 -75 305 -170.5t84 -269.5q0 -105 -41.5 -186
t-113.5 -128.5t-161.5 -71.5t-193.5 -24z" />
    <glyph glyph-name="scircumflex" unicode="&#x15d;" horiz-adv-x="988" 
d="M530 -23q-134 0 -242 39t-170 88l58 164q61 -46 154 -79t182 -33q178 0 178 131q0 50 -37 77.5t-157 68.5l-96 33q-68 23 -111 44t-84 54t-60.5 81t-19.5 114q0 76 31 133.5t85 91t119 50t139 16.5q104 0 198 -26t160 -69l-60 -156q-53 28 -130.5 51t-145.5 23
q-177 0 -177 -106q0 -48 31.5 -72t138.5 -62q4 -1 49.5 -17t51.5 -18q58 -20 95 -36.5t76.5 -42.5t61.5 -56t36.5 -74t14.5 -101q0 -84 -32.5 -146.5t-87.5 -97t-117.5 -51t-131.5 -16.5zM138 1159l249 368h216l253 -368h-204l-158 196l-159 -196h-197z" />
    <glyph glyph-name="Scedilla" unicode="&#x15e;" horiz-adv-x="1244" 
d="M659 -476q-112 0 -205 44l13 130q74 -31 158 -31q51 0 82 18.5t31 57.5q0 81 -155 91l-27 2l31 187h114l-19 -120q121 -11 181.5 -58t60.5 -119q0 -96 -74.5 -149t-190.5 -53zM617 -23q-155 0 -292 49.5t-204 116.5l100 166q64 -52 175.5 -93.5t208.5 -41.5
q278 0 278 216q0 46 -8 75.5t-33.5 59t-73.5 53.5t-128 51q-21 8 -67.5 22.5t-62.5 20.5q-134 44 -214 94.5t-124 130.5t-44 194q0 127 67 217t177 132.5t251 42.5q128 0 224 -22.5t151 -55t108 -84.5l-118 -154q-61 59 -149.5 89t-183.5 30q-125 0 -203.5 -46.5
t-78.5 -139.5q0 -62 16.5 -98t65 -66.5t148.5 -64.5q127 -41 135 -44q221 -75 305 -170.5t84 -269.5q0 -105 -41.5 -186t-113.5 -128.5t-161.5 -71.5t-193.5 -24z" />
    <glyph glyph-name="scedilla" unicode="&#x15f;" horiz-adv-x="988" 
d="M530 -23q-134 0 -242 39t-170 88l58 164q61 -46 154 -79t182 -33q178 0 178 131q0 50 -37 77.5t-157 68.5l-96 33q-68 23 -111 44t-84 54t-60.5 81t-19.5 114q0 76 31 133.5t85 91t119 50t139 16.5q104 0 198 -26t160 -69l-60 -156q-53 28 -130.5 51t-145.5 23
q-177 0 -177 -106q0 -48 31.5 -72t138.5 -62q4 -1 49.5 -17t51.5 -18q58 -20 95 -36.5t76.5 -42.5t61.5 -56t36.5 -74t14.5 -101q0 -84 -32.5 -146.5t-87.5 -97t-117.5 -51t-131.5 -16.5zM545 -476q-112 0 -205 44l13 130q74 -31 158 -31q51 0 82 18.5t31 57.5q0 81 -155 91
l-27 2l31 187h114l-19 -120q121 -11 181.5 -58t60.5 -119q0 -96 -74.5 -149t-190.5 -53z" />
    <glyph glyph-name="Scaron" unicode="&#x160;" horiz-adv-x="1244" 
d="M519 1589l-267 369h214l141 -195l141 195h222l-265 -369h-186zM617 -23q-155 0 -292 49.5t-204 116.5l100 166q64 -52 175.5 -93.5t208.5 -41.5q278 0 278 216q0 46 -8 75.5t-33.5 59t-73.5 53.5t-128 51q-21 8 -67.5 22.5t-62.5 20.5q-134 44 -214 94.5t-124 130.5
t-44 194q0 127 67 217t177 132.5t251 42.5q128 0 224 -22.5t151 -55t108 -84.5l-118 -154q-61 59 -149.5 89t-183.5 30q-125 0 -203.5 -46.5t-78.5 -139.5q0 -62 16.5 -98t65 -66.5t148.5 -64.5q127 -41 135 -44q221 -75 305 -170.5t84 -269.5q0 -105 -41.5 -186
t-113.5 -128.5t-161.5 -71.5t-193.5 -24z" />
    <glyph glyph-name="scaron" unicode="&#x161;" horiz-adv-x="988" 
d="M530 -23q-134 0 -242 39t-170 88l58 164q61 -46 154 -79t182 -33q178 0 178 131q0 50 -37 77.5t-157 68.5l-96 33q-68 23 -111 44t-84 54t-60.5 81t-19.5 114q0 76 31 133.5t85 91t119 50t139 16.5q104 0 198 -26t160 -69l-60 -156q-53 28 -130.5 51t-145.5 23
q-177 0 -177 -106q0 -48 31.5 -72t138.5 -62q4 -1 49.5 -17t51.5 -18q58 -20 95 -36.5t76.5 -42.5t61.5 -56t36.5 -74t14.5 -101q0 -84 -32.5 -146.5t-87.5 -97t-117.5 -51t-131.5 -16.5zM396 1159l-267 369h214l141 -195l141 195h222l-265 -369h-186z" />
    <glyph glyph-name="Tcommaaccent" unicode="&#x162;" horiz-adv-x="1167" 
d="M608 -476q-112 0 -205 44l13 130q74 -31 158 -31q51 0 82 18.5t31 57.5q0 81 -155 91l-27 2l31 187h114l-19 -120q121 -11 181.5 -58t60.5 -119q0 -96 -74.5 -149t-190.5 -53zM466 0v1260h-455v196h1145v-196h-460v-1260h-230z" />
    <glyph glyph-name="tcommaaccent" unicode="&#x163;" horiz-adv-x="820" 
d="M734 1h-96q-110 0 -181 14t-126 53t-79.5 112t-24.5 188v508h-204v150h210v250l217 65v-315h280v-150h-280v-521q0 -63 11 -97.5t46 -54.5t84 -25t143 -5v-172zM525 -476q-112 0 -205 44l13 130q74 -31 158 -31q51 0 82 18.5t31 57.5q0 81 -155 91l-27 2l31 187h114
l-19 -120q121 -11 181.5 -58t60.5 -119q0 -96 -74.5 -149t-190.5 -53z" />
    <glyph glyph-name="Tcaron" unicode="&#x164;" horiz-adv-x="1167" 
d="M487 1589l-267 369h214l141 -195l141 195h222l-265 -369h-186zM466 0v1260h-455v196h1145v-196h-460v-1260h-230z" />
    <glyph glyph-name="tcaron" unicode="&#x165;" horiz-adv-x="820" 
d="M734 1h-96q-110 0 -181 14t-126 53t-79.5 112t-24.5 188v508h-204v150h210v250l217 65v-315h280v-150h-280v-521q0 -63 11 -97.5t46 -54.5t84 -25t143 -5v-172zM543 1253l111 493h252l-175 -493h-188z" />
    <glyph glyph-name="Tbar" unicode="&#x166;" horiz-adv-x="1167" 
d="M272 668v145h610v-145h-610zM466 0v1260h-455v196h1145v-196h-460v-1260h-230z" />
    <glyph glyph-name="tbar" unicode="&#x167;" horiz-adv-x="820" 
d="M734 1h-96q-110 0 -181 14t-126 53t-79.5 112t-24.5 188v508h-204v150h210v250l217 65v-315h280v-150h-280v-521q0 -63 11 -97.5t46 -54.5t84 -25t143 -5v-172zM44 530v145h610v-145h-610z" />
    <glyph glyph-name="Utilde" unicode="&#x168;" horiz-adv-x="1503" 
d="M860 1596q-50 0 -153.5 52.5t-133.5 52.5q-27 0 -46 -24.5t-24 -75.5h-144q0 121 56 196t148 75q51 0 109.5 -26t108 -52t78.5 -26t44 23t16 81h148q0 -134 -55 -205t-152 -71zM751 -23q-135 0 -238.5 32t-168.5 86t-105.5 133t-56.5 164.5t-16 190.5v873h230v-880
q0 -213 92 -307.5t264 -94.5q170 0 262.5 94.5t92.5 306.5v881h230v-872q0 -105 -16.5 -192t-58.5 -166t-107 -132.5t-167.5 -85t-236.5 -31.5z" />
    <glyph glyph-name="utilde" unicode="&#x169;" horiz-adv-x="1206" 
d="M538 -23q-193 0 -294.5 110.5t-101.5 294.5v644h222v-642q0 -113 56.5 -169t160.5 -56q120 0 182 64t62 190v613h224v-758q0 -128 10 -268h-230l-4 156q-12 -28 -33 -56t-55 -57.5t-86 -47.5t-113 -18zM713 1166q-50 0 -153.5 52.5t-133.5 52.5q-27 0 -46 -24.5
t-24 -75.5h-144q0 121 56 196t148 75q51 0 109.5 -26t108 -52t78.5 -26t44 23t16 81h148q0 -134 -55 -205t-152 -71z" />
    <glyph glyph-name="Umacron" unicode="&#x16a;" horiz-adv-x="1503" 
d="M442 1632v145h610v-145h-610zM751 -23q-135 0 -238.5 32t-168.5 86t-105.5 133t-56.5 164.5t-16 190.5v873h230v-880q0 -213 92 -307.5t264 -94.5q170 0 262.5 94.5t92.5 306.5v881h230v-872q0 -105 -16.5 -192t-58.5 -166t-107 -132.5t-167.5 -85t-236.5 -31.5z" />
    <glyph glyph-name="umacron" unicode="&#x16b;" horiz-adv-x="1206" 
d="M538 -23q-193 0 -294.5 110.5t-101.5 294.5v644h222v-642q0 -113 56.5 -169t160.5 -56q120 0 182 64t62 190v613h224v-758q0 -128 10 -268h-230l-4 156q-12 -28 -33 -56t-55 -57.5t-86 -47.5t-113 -18zM295 1202v145h610v-145h-610z" />
    <glyph glyph-name="Ubreve" unicode="&#x16c;" horiz-adv-x="1503" 
d="M745 1604q-286 0 -306 282h158q6 -71 44.5 -97.5t103.5 -26.5q63 0 101 26.5t45 97.5h155q-18 -282 -301 -282zM751 -23q-135 0 -238.5 32t-168.5 86t-105.5 133t-56.5 164.5t-16 190.5v873h230v-880q0 -213 92 -307.5t264 -94.5q170 0 262.5 94.5t92.5 306.5v881h230
v-872q0 -105 -16.5 -192t-58.5 -166t-107 -132.5t-167.5 -85t-236.5 -31.5z" />
    <glyph glyph-name="ubreve" unicode="&#x16d;" horiz-adv-x="1206" 
d="M538 -23q-193 0 -294.5 110.5t-101.5 294.5v644h222v-642q0 -113 56.5 -169t160.5 -56q120 0 182 64t62 190v613h224v-758q0 -128 10 -268h-230l-4 156q-12 -28 -33 -56t-55 -57.5t-86 -47.5t-113 -18zM598 1174q-286 0 -306 282h158q6 -71 44.5 -97.5t103.5 -26.5
q63 0 101 26.5t45 97.5h155q-18 -282 -301 -282z" />
    <glyph glyph-name="Uring" unicode="&#x16e;" horiz-adv-x="1503" 
d="M744 1565q-89 0 -151.5 59.5t-62.5 147.5q0 89 62 148t152 59q89 0 151 -59t62 -148q0 -88 -62 -147.5t-151 -59.5zM743 1663q44 0 75.5 32t31.5 77t-31.5 76.5t-75.5 31.5t-75 -31.5t-31 -76.5t31 -77t75 -32zM751 -23q-135 0 -238.5 32t-168.5 86t-105.5 133
t-56.5 164.5t-16 190.5v873h230v-880q0 -213 92 -307.5t264 -94.5q170 0 262.5 94.5t92.5 306.5v881h230v-872q0 -105 -16.5 -192t-58.5 -166t-107 -132.5t-167.5 -85t-236.5 -31.5z" />
    <glyph glyph-name="uring" unicode="&#x16f;" horiz-adv-x="1206" 
d="M538 -23q-193 0 -294.5 110.5t-101.5 294.5v644h222v-642q0 -113 56.5 -169t160.5 -56q120 0 182 64t62 190v613h224v-758q0 -128 10 -268h-230l-4 156q-12 -28 -33 -56t-55 -57.5t-86 -47.5t-113 -18zM597 1135q-89 0 -151.5 59.5t-62.5 147.5q0 89 62 148t152 59
q89 0 151 -59t62 -148q0 -88 -62 -147.5t-151 -59.5zM596 1233q44 0 75.5 32t31.5 77t-31.5 76.5t-75.5 31.5t-75 -31.5t-31 -76.5t31 -77t75 -32z" />
    <glyph glyph-name="Uhungarumlaut" unicode="&#x170;" horiz-adv-x="1503" 
d="M860 1568l243 372h264l-340 -372h-167zM534 1568l207 372h250l-296 -372h-161zM751 -23q-135 0 -238.5 32t-168.5 86t-105.5 133t-56.5 164.5t-16 190.5v873h230v-880q0 -213 92 -307.5t264 -94.5q170 0 262.5 94.5t92.5 306.5v881h230v-872q0 -105 -16.5 -192
t-58.5 -166t-107 -132.5t-167.5 -85t-236.5 -31.5z" />
    <glyph glyph-name="uhungarumlaut" unicode="&#x171;" horiz-adv-x="1206" 
d="M538 -23q-193 0 -294.5 110.5t-101.5 294.5v644h222v-642q0 -113 56.5 -169t160.5 -56q120 0 182 64t62 190v613h224v-758q0 -128 10 -268h-230l-4 156q-12 -28 -33 -56t-55 -57.5t-86 -47.5t-113 -18zM713 1138l243 372h264l-340 -372h-167zM387 1138l207 372h250
l-296 -372h-161z" />
    <glyph glyph-name="Uogonek" unicode="&#x172;" horiz-adv-x="1503" 
d="M792 -392q-100 0 -162 37.5t-62 111.5q0 48 23 90.5t64 76t74 54t75 41.5l121 -2q-68 -41 -113.5 -102t-45.5 -108q0 -63 89 -63q45 0 159 31v-130q-121 -37 -222 -37zM751 -23q-135 0 -238.5 32t-168.5 86t-105.5 133t-56.5 164.5t-16 190.5v873h230v-880
q0 -213 92 -307.5t264 -94.5q170 0 262.5 94.5t92.5 306.5v881h230v-872q0 -105 -16.5 -192t-58.5 -166t-107 -132.5t-167.5 -85t-236.5 -31.5z" />
    <glyph glyph-name="uogonek" unicode="&#x173;" horiz-adv-x="1206" 
d="M538 -23q-193 0 -294.5 110.5t-101.5 294.5v644h222v-642q0 -113 56.5 -169t160.5 -56q120 0 182 64t62 190v613h224v-758q0 -128 10 -268h-230l-4 156q-12 -28 -33 -56t-55 -57.5t-86 -47.5t-113 -18zM902 -392q-100 0 -162 37.5t-62 111.5q0 48 23 90.5t64 76t74 54
t75 41.5l121 -2q-68 -41 -113.5 -102t-45.5 -108q0 -63 89 -63q45 0 159 31v-130q-121 -37 -222 -37z" />
    <glyph glyph-name="Wcircumflex" unicode="&#x174;" horiz-adv-x="2052" 
d="M673 1589l249 368h216l253 -368h-204l-158 196l-159 -196h-197zM424 0l-408 1456h246q33 -128 96.5 -370.5t114 -439t92.5 -374.5q49 180 107.5 375.5t134.5 439.5t114 369h224l278 -894l84 -293q40 178 89 376.5t109 438t93 372.5h238l-398 -1456h-267l-344 1141
l-340 -1141h-263z" />
    <glyph glyph-name="wcircumflex" unicode="&#x175;" horiz-adv-x="1669" 
d="M382 0l-360 1026h238q158 -504 238 -755q47 140 133.5 397t120.5 358h202q41 -126 122 -378.5t121 -378.5q79 253 239 757h211l-371 -1026h-193q-211 632 -245 738q-44 -123 -131.5 -369t-130.5 -369h-194zM497 1159l249 368h216l253 -368h-204l-158 196l-159 -196h-197z
" />
    <glyph glyph-name="Ycircumflex" unicode="&#x176;" horiz-adv-x="1257" 
d="M293 1589l249 368h216l253 -368h-204l-158 196l-159 -196h-197zM509 0v567l-511 889h259l371 -685l372 685h264l-525 -886v-570h-230z" />
    <glyph glyph-name="ycircumflex" unicode="&#x177;" horiz-adv-x="1098" 
d="M236 -441l-94 152q137 51 209 113.5t97 144.5l14 50l-428 1007h232l305 -768l272 768h227l-416 -1082q-58 -151 -168 -247.5t-250 -137.5zM215 1159l249 368h216l253 -368h-204l-158 196l-159 -196h-197z" />
    <glyph glyph-name="Ydieresis" unicode="&#x178;" horiz-adv-x="1257" 
d="M754 1595v215h225v-215h-225zM318 1595v215h225v-215h-225zM509 0v567l-511 889h259l371 -685l372 685h264l-525 -886v-570h-230z" />
    <glyph glyph-name="Zacute" unicode="&#x179;" horiz-adv-x="1192" 
d="M524 1600l254 340h288l-342 -340h-200zM81 0v124l707 1136h-679v196h994v-120l-713 -1140h710v-196h-1019z" />
    <glyph glyph-name="zacute" unicode="&#x17a;" horiz-adv-x="986" 
d="M103 0v119l498 727h-479v180h769v-117l-500 -730h524v-179h-812zM439 1170l254 340h288l-342 -340h-200z" />
    <glyph glyph-name="Zdotaccent" unicode="&#x17b;" horiz-adv-x="1192" 
d="M508 1650v210h222v-210h-222zM81 0v124l707 1136h-679v196h994v-120l-713 -1140h710v-196h-1019z" />
    <glyph glyph-name="zdotaccent" unicode="&#x17c;" horiz-adv-x="986" 
d="M103 0v119l498 727h-479v180h769v-117l-500 -730h524v-179h-812zM423 1220v210h222v-210h-222z" />
    <glyph glyph-name="Zcaron" unicode="&#x17d;" horiz-adv-x="1192" 
d="M517 1589l-267 369h214l141 -195l141 195h222l-265 -369h-186zM81 0v124l707 1136h-679v196h994v-120l-713 -1140h710v-196h-1019z" />
    <glyph glyph-name="zcaron" unicode="&#x17e;" horiz-adv-x="986" 
d="M103 0v119l498 727h-479v180h769v-117l-500 -730h524v-179h-812zM432 1159l-267 369h214l141 -195l141 195h222l-265 -369h-186z" />
    <glyph glyph-name="longs" unicode="&#x17f;" horiz-adv-x="988" 
d="M530 -23q-134 0 -242 39t-170 88l58 164q61 -46 154 -79t182 -33q178 0 178 131q0 50 -37 77.5t-157 68.5l-96 33q-68 23 -111 44t-84 54t-60.5 81t-19.5 114q0 76 31 133.5t85 91t119 50t139 16.5q104 0 198 -26t160 -69l-60 -156q-53 28 -130.5 51t-145.5 23
q-177 0 -177 -106q0 -48 31.5 -72t138.5 -62q4 -1 49.5 -17t51.5 -18q58 -20 95 -36.5t76.5 -42.5t61.5 -56t36.5 -74t14.5 -101q0 -84 -32.5 -146.5t-87.5 -97t-117.5 -51t-131.5 -16.5z" />
    <glyph glyph-name="florin" unicode="&#x192;" horiz-adv-x="1095" 
d="M203 -309q-46 0 -108 18l17 165q45 -10 83 -10q57 0 99 42.5t63 160.5l116 638h-145l33 145h138l49 265q10 53 22 94t38 90.5t61.5 81.5t94 54.5t133.5 22.5q51 0 95.5 -10t63.5 -20l19 -11l-17 -160q-72 20 -117 20q-129 0 -160 -158l-52 -269h182l-29 -145h-184
l-116 -644q-36 -199 -124.5 -284.5t-254.5 -85.5z" />
    <glyph glyph-name="uni01C4" unicode="&#x1c4;" horiz-adv-x="2747" 
d="M2072 1589l-267 369h214l141 -195l141 195h222l-265 -369h-186zM1636 0v124l707 1136h-679v196h994v-120l-713 -1140h710v-196h-1019zM194 0v1456h376q433 0 656 -180.5t223 -542.5q0 -354 -210.5 -543.5t-607.5 -189.5h-437zM424 196h220q276 0 419 139.5t143 398.5
q0 265 -150 395.5t-463 130.5h-169v-1064z" />
    <glyph glyph-name="uni01C5" unicode="&#x1c5;" horiz-adv-x="2541" 
d="M1658 0v119l498 727h-479v180h769v-117l-500 -730h524v-179h-812zM1987 1159l-267 369h214l141 -195l141 195h222l-265 -369h-186zM194 0v1456h376q433 0 656 -180.5t223 -542.5q0 -354 -210.5 -543.5t-607.5 -189.5h-437zM424 196h220q276 0 419 139.5t143 398.5
q0 265 -150 395.5t-463 130.5h-169v-1064z" />
    <glyph glyph-name="uni01C6" unicode="&#x1c6;" horiz-adv-x="2253" 
d="M1370 0v119l498 727h-479v180h769v-117l-500 -730h524v-179h-812zM1699 1159l-267 369h214l141 -195l141 195h222l-265 -369h-186zM615 159q138 0 208 99.5t70 259.5q0 155 -71 254t-205 99q-135 0 -207 -99t-72 -258q0 -157 70 -256t207 -99zM574 -23
q-203 0 -336.5 145.5t-133.5 385.5q0 114 32 212t91.5 172.5t152.5 117t209 42.5q110 0 189.5 -47t108.5 -103v567h224v-1199q0 -46 7 -270h-228l-2 147q-27 -64 -107.5 -117t-206.5 -53z" />
    <glyph glyph-name="uni01C7" unicode="&#x1c7;" horiz-adv-x="2048" 
d="M194 0v1456h230v-1260h674v-196h-904zM1474 -331q-132 0 -293 58l38 177q130 -40 217 -40q106 0 148.5 62.5t42.5 187.5v1342h230v-1336q0 -220 -99.5 -335.5t-283.5 -115.5z" />
    <glyph glyph-name="uni01C8" unicode="&#x1c8;" horiz-adv-x="1689" 
d="M1327 1246v210h222v-210h-222zM1201 -394q-57 0 -157 19l12 167q72 -16 115 -16q80 0 119 58t39 198v994h217v-971q0 -76 -7.5 -136t-29.5 -121t-59 -101t-100.5 -65.5t-148.5 -25.5zM194 0v1456h230v-1260h674v-196h-904z" />
    <glyph glyph-name="uni01C9" unicode="&#x1c9;" horiz-adv-x="1072" 
d="M158 0v1469h223v-1469h-223zM710 1246v210h222v-210h-222zM584 -394q-57 0 -157 19l12 167q72 -16 115 -16q80 0 119 58t39 198v994h217v-971q0 -76 -7.5 -136t-29.5 -121t-59 -101t-100.5 -65.5t-148.5 -25.5z" />
    <glyph glyph-name="uni01CA" unicode="&#x1ca;" horiz-adv-x="2519" 
d="M194 0v1456h245q88 -129 242.5 -354t283 -413.5t239.5 -356.5v1124h218v-1456h-246q-88 128 -244 352.5t-285 412.5t-240 357v-1122h-213zM1945 -331q-132 0 -293 58l38 177q130 -40 217 -40q106 0 148.5 62.5t42.5 187.5v1342h230v-1336q0 -220 -99.5 -335.5
t-283.5 -115.5z" />
    <glyph glyph-name="uni01CB" unicode="&#x1cb;" horiz-adv-x="2160" 
d="M1798 1246v210h222v-210h-222zM1672 -394q-57 0 -157 19l12 167q72 -16 115 -16q80 0 119 58t39 198v994h217v-971q0 -76 -7.5 -136t-29.5 -121t-59 -101t-100.5 -65.5t-148.5 -25.5zM194 0v1456h245q88 -129 242.5 -354t283 -413.5t239.5 -356.5v1124h218v-1456h-246
q-88 128 -244 352.5t-285 412.5t-240 357v-1122h-213z" />
    <glyph glyph-name="uni01CC" unicode="&#x1cc;" horiz-adv-x="1778" 
d="M166 0v677q0 93 -4 180t-8 128l-4 41h235v-145q53 82 144 126.5t183 44.5q190 0 285 -114t95 -363v-575h-224v582q0 152 -44.5 220.5t-156.5 68.5q-97 0 -187 -74.5t-90 -170.5v-626h-224zM1416 1246v210h222v-210h-222zM1290 -394q-57 0 -157 19l12 167q72 -16 115 -16
q80 0 119 58t39 198v994h217v-971q0 -76 -7.5 -136t-29.5 -121t-59 -101t-100.5 -65.5t-148.5 -25.5z" />
    <glyph glyph-name="uni01CD" unicode="&#x1cd;" horiz-adv-x="1434" 
d="M617 1589l-267 369h214l141 -195l141 195h222l-265 -369h-186zM486 576h446q-92 263 -221 623q-150 -416 -225 -623zM18 0l579 1456h236l584 -1456h-257l-147 373h-600l-144 -373h-251z" />
    <glyph glyph-name="uni01CE" unicode="&#x1ce;" 
d="M536 1159l-267 369h214l141 -195l141 195h222l-265 -369h-186zM632 159q147 0 219 97.5t72 260.5q0 160 -74.5 257t-219.5 97q-149 0 -225 -97.5t-76 -258.5q0 -158 76.5 -257t227.5 -99zM601 -23q-120 0 -217 44.5t-157 119.5t-91.5 168.5t-31.5 196.5q0 108 33.5 206
t95.5 174t158.5 121t213.5 45q102 0 182 -43.5t128 -116.5v134h219v-1026h-223v154q-46 -80 -126.5 -128.5t-183.5 -48.5z" />
    <glyph glyph-name="uni01CF" unicode="&#x1cf;" horiz-adv-x="596" 
d="M210 1589l-267 369h214l141 -195l141 195h222l-265 -369h-186zM190 0v1456h230v-1456h-230z" />
    <glyph glyph-name="uni01D0" unicode="&#x1d0;" horiz-adv-x="521" 
d="M143 0v1026h225v-1026h-225zM155 1159l-267 369h214l141 -195l141 195h222l-265 -369h-186z" />
    <glyph glyph-name="uni01D1" unicode="&#x1d1;" horiz-adv-x="1653" 
d="M731 1589l-267 369h214l141 -195l141 195h222l-265 -369h-186zM830 -23q-338 0 -531 204.5t-193 551.5q0 222 85.5 391t251 264t390.5 95q217 0 379.5 -94.5t248.5 -264t86 -391.5q0 -347 -190.5 -551.5t-526.5 -204.5zM826 174q233 0 352 147t119 412q0 256 -119 404.5
t-348 148.5q-230 0 -353 -149.5t-123 -403.5q0 -265 119.5 -412t352.5 -147z" />
    <glyph glyph-name="uni01D2" unicode="&#x1d2;" horiz-adv-x="1274" 
d="M640 -23q-129 0 -232.5 42t-169 115t-100 169.5t-34.5 209.5q0 154 60 274.5t183.5 192.5t293.5 72q130 0 232 -41t166 -114.5t97.5 -171t33.5 -214.5q0 -111 -34.5 -207t-99 -169.5t-167 -115.5t-229.5 -42zM639 159q148 0 222.5 99t74.5 256q0 159 -76 258t-222 99
t-223 -99t-77 -258q0 -157 76 -256t225 -99zM541 1159l-267 369h214l141 -195l141 195h222l-265 -369h-186z" />
    <glyph glyph-name="uni01D3" unicode="&#x1d3;" horiz-adv-x="1503" 
d="M647 1589l-267 369h214l141 -195l141 195h222l-265 -369h-186zM751 -23q-135 0 -238.5 32t-168.5 86t-105.5 133t-56.5 164.5t-16 190.5v873h230v-880q0 -213 92 -307.5t264 -94.5q170 0 262.5 94.5t92.5 306.5v881h230v-872q0 -105 -16.5 -192t-58.5 -166t-107 -132.5
t-167.5 -85t-236.5 -31.5z" />
    <glyph glyph-name="uni01D4" unicode="&#x1d4;" horiz-adv-x="1206" 
d="M538 -23q-193 0 -294.5 110.5t-101.5 294.5v644h222v-642q0 -113 56.5 -169t160.5 -56q120 0 182 64t62 190v613h224v-758q0 -128 10 -268h-230l-4 156q-12 -28 -33 -56t-55 -57.5t-86 -47.5t-113 -18zM499 1159l-267 369h214l141 -195l141 195h222l-265 -369h-186z" />
    <glyph glyph-name="uni01E2" unicode="&#x1e2;" horiz-adv-x="2157" 
d="M1038 1632v145h610v-145h-610zM602 554h487l-51 700h-38zM21 0l855 1456h1062v-202h-669l36 -410h619v-196h-595l41 -446h594v-202h-828l-31 373h-594l-212 -373h-278z" />
    <glyph glyph-name="uni01E3" unicode="&#x1e3;" horiz-adv-x="1782" 
d="M589 1202v145h610v-145h-610zM1477 626q-7 120 -72.5 188t-163.5 68q-106 0 -172 -71.5t-88 -184.5h496zM483 157q73 0 127.5 27.5t85.5 74.5t46.5 101t16.5 115h-120q-95 0 -167.5 -14.5t-123.5 -55.5t-51 -105q0 -73 52.5 -108t133.5 -35zM1264 -23q-138 0 -240 55
t-157 164q-53 -106 -160.5 -163t-236.5 -57q-178 0 -285 83t-107 231q0 83 28.5 143.5t79.5 98t133.5 60t177 30.5t224.5 8h37q0 110 -62 177.5t-175 67.5q-130 0 -302 -81l-64 152q21 13 48.5 26.5t81 34t127 33t152.5 12.5q94 0 188.5 -50.5t136.5 -141.5q54 90 148.5 141
t200.5 51q110 0 194.5 -40.5t136.5 -113t78.5 -168t26.5 -209.5l-5 -46h-691v-23q19 -293 296 -293q49 0 99.5 11.5t87.5 27.5t67 32t46 28l15 11l63 -163q-6 -5 -18 -14t-51 -31t-81 -39t-107 -31t-131 -14z" />
    <glyph glyph-name="Gcaron" unicode="&#x1e6;" horiz-adv-x="1534" 
d="M731 1589l-267 369h214l141 -195l141 195h222l-265 -369h-186zM849 -23q-358 0 -550 196t-192 531q0 162 54 304.5t151 247.5t241.5 166t317.5 61q172 0 284.5 -40.5t198.5 -104.5l-92 -162q-157 110 -388 110q-123 0 -224.5 -46t-167 -125t-101 -181.5t-35.5 -218.5
q0 -248 130.5 -394.5t382.5 -146.5q147 0 275 42v370h-350v197h582v-697q-240 -109 -517 -109z" />
    <glyph glyph-name="gcaron" unicode="&#x1e7;" horiz-adv-x="1253" 
d="M612 183q74 0 129.5 27.5t87.5 76.5t47 109t15 132q0 155 -70 249t-200 94q-135 0 -209 -99.5t-74 -254.5q0 -159 69.5 -246.5t204.5 -87.5zM576 -414q-205 0 -388 82l37 194q163 -94 339 -94q151 0 234.5 73t83.5 218v97q-98 -144 -285 -144q-219 0 -356 136t-137 367
q0 113 30.5 209.5t89 170t151.5 115.5t211 42q105 0 179.5 -42.5t117.5 -109.5v126h235q-16 -156 -16 -318v-561q0 -88 -14 -164.5t-50.5 -151.5t-94.5 -127.5t-151.5 -85t-215.5 -32.5zM477 1159l-267 369h214l141 -195l141 195h222l-265 -369h-186z" />
    <glyph glyph-name="uni01E8" unicode="&#x1e8;" horiz-adv-x="1328" 
d="M587 1589l-267 369h214l141 -195l141 195h222l-265 -369h-186zM194 0v1456h230v-644l585 644h287l-647 -703l696 -753h-296l-624 667v-667h-231z" />
    <glyph glyph-name="uni01E9" unicode="&#x1e9;" horiz-adv-x="1106" 
d="M156 0v1469h224v-868l399 425h308l-501 -492l535 -534h-298l-443 460v-460h-224zM581 1159l-267 369h214l141 -195l141 195h222l-265 -369h-186z" />
    <glyph glyph-name="uni01EA" unicode="&#x1ea;" horiz-adv-x="1653" 
d="M813 -392q-100 0 -162 37.5t-62 111.5q0 48 23 90.5t64 76t74 54t75 41.5l121 -2q-68 -41 -113.5 -102t-45.5 -108q0 -63 89 -63q45 0 159 31v-130q-121 -37 -222 -37zM830 -23q-338 0 -531 204.5t-193 551.5q0 222 85.5 391t251 264t390.5 95q217 0 379.5 -94.5
t248.5 -264t86 -391.5q0 -347 -190.5 -551.5t-526.5 -204.5zM826 174q233 0 352 147t119 412q0 256 -119 404.5t-348 148.5q-230 0 -353 -149.5t-123 -403.5q0 -265 119.5 -412t352.5 -147z" />
    <glyph glyph-name="uni01EB" unicode="&#x1eb;" horiz-adv-x="1274" 
d="M600 -392q-100 0 -162 37.5t-62 111.5q0 48 23 90.5t64 76t74 54t75 41.5l121 -2q-68 -41 -113.5 -102t-45.5 -108q0 -63 89 -63q45 0 159 31v-130q-121 -37 -222 -37zM640 -23q-129 0 -232.5 42t-169 115t-100 169.5t-34.5 209.5q0 154 60 274.5t183.5 192.5t293.5 72
q130 0 232 -41t166 -114.5t97.5 -171t33.5 -214.5q0 -111 -34.5 -207t-99 -169.5t-167 -115.5t-229.5 -42zM639 159q148 0 222.5 99t74.5 256q0 159 -76 258t-222 99t-223 -99t-77 -258q0 -157 76 -256t225 -99z" />
    <glyph glyph-name="uni01F0" unicode="&#x1f0;" horiz-adv-x="544" 
d="M56 -394q-57 0 -157 19l12 167q72 -16 115 -16q80 0 119 58t39 198v994h217v-971q0 -76 -7.5 -136t-29.5 -121t-59 -101t-100.5 -65.5t-148.5 -25.5zM192 1159l-267 369h214l141 -195l141 195h222l-265 -369h-186z" />
    <glyph glyph-name="uni01F1" unicode="&#x1f1;" horiz-adv-x="2747" 
d="M1636 0v124l707 1136h-679v196h994v-120l-713 -1140h710v-196h-1019zM194 0v1456h376q433 0 656 -180.5t223 -542.5q0 -354 -210.5 -543.5t-607.5 -189.5h-437zM424 196h220q276 0 419 139.5t143 398.5q0 265 -150 395.5t-463 130.5h-169v-1064z" />
    <glyph glyph-name="uni01F2" unicode="&#x1f2;" horiz-adv-x="2542" 
d="M1658 0v119l498 727h-479v180h769v-117l-500 -730h524v-179h-812zM194 0v1456h376q433 0 656 -180.5t223 -542.5q0 -354 -210.5 -543.5t-607.5 -189.5h-437zM424 196h220q276 0 419 139.5t143 398.5q0 265 -150 395.5t-463 130.5h-169v-1064z" />
    <glyph glyph-name="uni01F3" unicode="&#x1f3;" horiz-adv-x="2254" 
d="M1370 0v119l498 727h-479v180h769v-117l-500 -730h524v-179h-812zM615 159q138 0 208 99.5t70 259.5q0 155 -71 254t-205 99q-135 0 -207 -99t-72 -258q0 -157 70 -256t207 -99zM574 -23q-203 0 -336.5 145.5t-133.5 385.5q0 114 32 212t91.5 172.5t152.5 117t209 42.5
q110 0 189.5 -47t108.5 -103v567h224v-1199q0 -46 7 -270h-228l-2 147q-27 -64 -107.5 -117t-206.5 -53z" />
    <glyph glyph-name="uni01F4" unicode="&#x1f4;" horiz-adv-x="1534" 
d="M738 1600l254 340h288l-342 -340h-200zM849 -23q-358 0 -550 196t-192 531q0 162 54 304.5t151 247.5t241.5 166t317.5 61q172 0 284.5 -40.5t198.5 -104.5l-92 -162q-157 110 -388 110q-123 0 -224.5 -46t-167 -125t-101 -181.5t-35.5 -218.5q0 -248 130.5 -394.5
t382.5 -146.5q147 0 275 42v370h-350v197h582v-697q-240 -109 -517 -109z" />
    <glyph glyph-name="uni01F5" unicode="&#x1f5;" horiz-adv-x="1253" 
d="M612 183q74 0 129.5 27.5t87.5 76.5t47 109t15 132q0 155 -70 249t-200 94q-135 0 -209 -99.5t-74 -254.5q0 -159 69.5 -246.5t204.5 -87.5zM576 -414q-205 0 -388 82l37 194q163 -94 339 -94q151 0 234.5 73t83.5 218v97q-98 -144 -285 -144q-219 0 -356 136t-137 367
q0 113 30.5 209.5t89 170t151.5 115.5t211 42q105 0 179.5 -42.5t117.5 -109.5v126h235q-16 -156 -16 -318v-561q0 -88 -14 -164.5t-50.5 -151.5t-94.5 -127.5t-151.5 -85t-215.5 -32.5zM484 1170l254 340h288l-342 -340h-200z" />
    <glyph glyph-name="uni01F8" unicode="&#x1f8;" horiz-adv-x="1616" 
d="M723 1600l-345 341h288l256 -341h-199zM194 0v1456h245q88 -129 242.5 -354t283 -413.5t239.5 -356.5v1124h218v-1456h-246q-88 128 -244 352.5t-285 412.5t-240 357v-1122h-213z" />
    <glyph glyph-name="uni01F9" unicode="&#x1f9;" horiz-adv-x="1234" 
d="M166 0v677q0 93 -4 180t-8 128l-4 41h235v-145q53 82 144 126.5t183 44.5q190 0 285 -114t95 -363v-575h-224v582q0 152 -44.5 220.5t-156.5 68.5q-97 0 -187 -74.5t-90 -170.5v-626h-224zM583 1170l-345 341h288l256 -341h-199z" />
    <glyph glyph-name="Aringacute" unicode="&#x1fa;" horiz-adv-x="1434" 
d="M715 1565q-89 0 -151.5 59.5t-62.5 147.5q0 89 62 148t152 59q89 0 151 -59t62 -148q0 -88 -62 -147.5t-151 -59.5zM714 1663q44 0 75.5 32t31.5 77t-31.5 76.5t-75.5 31.5t-75 -31.5t-31 -76.5t31 -77t75 -32zM618 2074l254 340h288l-342 -340h-200zM486 576h446
q-92 263 -221 623q-150 -416 -225 -623zM18 0l579 1456h236l584 -1456h-257l-147 373h-600l-144 -373h-251z" />
    <glyph glyph-name="aringacute" unicode="&#x1fb;" 
d="M634 1135q-89 0 -151.5 59.5t-62.5 147.5q0 89 62 148t152 59q89 0 151 -59t62 -148q0 -88 -62 -147.5t-151 -59.5zM633 1233q44 0 75.5 32t31.5 77t-31.5 76.5t-75.5 31.5t-75 -31.5t-31 -76.5t31 -77t75 -32zM537 1644l254 340h288l-342 -340h-200zM632 159
q147 0 219 97.5t72 260.5q0 160 -74.5 257t-219.5 97q-149 0 -225 -97.5t-76 -258.5q0 -158 76.5 -257t227.5 -99zM601 -23q-120 0 -217 44.5t-157 119.5t-91.5 168.5t-31.5 196.5q0 108 33.5 206t95.5 174t158.5 121t213.5 45q102 0 182 -43.5t128 -116.5v134h219v-1026
h-223v154q-46 -80 -126.5 -128.5t-183.5 -48.5z" />
    <glyph glyph-name="AEacute" unicode="&#x1fc;" horiz-adv-x="2157" 
d="M1248 1600l254 340h288l-342 -340h-200zM602 554h487l-51 700h-38zM21 0l855 1456h1062v-202h-669l36 -410h619v-196h-595l41 -446h594v-202h-828l-31 373h-594l-212 -373h-278z" />
    <glyph glyph-name="aeacute" unicode="&#x1fd;" horiz-adv-x="1782" 
d="M1477 626q-7 120 -72.5 188t-163.5 68q-106 0 -172 -71.5t-88 -184.5h496zM483 157q73 0 127.5 27.5t85.5 74.5t46.5 101t16.5 115h-120q-95 0 -167.5 -14.5t-123.5 -55.5t-51 -105q0 -73 52.5 -108t133.5 -35zM1264 -23q-138 0 -240 55t-157 164q-53 -106 -160.5 -163
t-236.5 -57q-178 0 -285 83t-107 231q0 83 28.5 143.5t79.5 98t133.5 60t177 30.5t224.5 8h37q0 110 -62 177.5t-175 67.5q-130 0 -302 -81l-64 152q21 13 48.5 26.5t81 34t127 33t152.5 12.5q94 0 188.5 -50.5t136.5 -141.5q54 90 148.5 141t200.5 51q110 0 194.5 -40.5
t136.5 -113t78.5 -168t26.5 -209.5l-5 -46h-691v-23q19 -293 296 -293q49 0 99.5 11.5t87.5 27.5t67 32t46 28l15 11l63 -163q-6 -5 -18 -14t-51 -31t-81 -39t-107 -31t-131 -14zM799 1170l254 340h288l-342 -340h-200z" />
    <glyph glyph-name="Oslashacute" unicode="&#x1fe;" horiz-adv-x="1653" 
d="M737 1600l254 340h288l-342 -340h-200zM830 -23q336 0 526.5 204.5t190.5 551.5q0 211 -79.5 376t-225.5 261l78 147l-106 52l-77 -144q-140 58 -304 58q-225 0 -390.5 -95t-251 -264t-85.5 -391t81.5 -389t233.5 -261l-84 -158l107 -51l83 156q135 -53 303 -53z
M1139 1178q158 -143 158 -445q0 -265 -119 -412t-352 -147q-113 0 -202 37zM1041 1244l-519 -972q-168 142 -168 461q0 254 123 403.5t353 149.5q118 0 211 -42z" />
    <glyph glyph-name="oslashacute" unicode="&#x1ff;" horiz-adv-x="1265" 
d="M743 855l-293 -634q-112 93 -112 293q0 159 77 258t223 99q60 0 105 -16zM836 799q100 -94 100 -285q0 -157 -74.5 -256t-222.5 -99q-51 0 -93 12zM640 -23q127 0 229.5 42t167 115.5t99 169.5t34.5 207q0 161 -63 285.5t-184 190.5l83 180l-99 44l-84 -183
q-81 24 -182 24q-170 0 -293.5 -72t-183.5 -192.5t-60 -274.5q0 -159 67 -284.5t195 -190.5l-94 -204l99 -43l96 208q82 -22 173 -22zM547 1170l254 340h288l-342 -340h-200z" />
    <glyph glyph-name="uni0200" unicode="&#x200;" horiz-adv-x="1434" 
d="M803 1600l-293 380h240l210 -380h-157zM465 1600l-333 380h249l246 -380h-162zM486 576h446q-92 263 -221 623q-150 -416 -225 -623zM18 0l579 1456h236l584 -1456h-257l-147 373h-600l-144 -373h-251z" />
    <glyph glyph-name="uni0201" unicode="&#x201;" 
d="M722 1170l-293 380h240l210 -380h-157zM384 1170l-333 380h249l246 -380h-162zM632 159q147 0 219 97.5t72 260.5q0 160 -74.5 257t-219.5 97q-149 0 -225 -97.5t-76 -258.5q0 -158 76.5 -257t227.5 -99zM601 -23q-120 0 -217 44.5t-157 119.5t-91.5 168.5t-31.5 196.5
q0 108 33.5 206t95.5 174t158.5 121t213.5 45q102 0 182 -43.5t128 -116.5v134h219v-1026h-223v154q-46 -80 -126.5 -128.5t-183.5 -48.5z" />
    <glyph glyph-name="uni0202" unicode="&#x202;" horiz-adv-x="1434" 
d="M422 1603q10 131 89.5 199t206.5 68t206.5 -67.5t89.5 -199.5h-141q-8 63 -52 92.5t-101 29.5q-58 0 -102.5 -30t-52.5 -92h-143zM486 576h446q-92 263 -221 623q-150 -416 -225 -623zM18 0l579 1456h236l584 -1456h-257l-147 373h-600l-144 -373h-251z" />
    <glyph glyph-name="uni0203" unicode="&#x203;" 
d="M341 1173q10 131 89.5 199t206.5 68t206.5 -67.5t89.5 -199.5h-141q-8 63 -52 92.5t-101 29.5q-58 0 -102.5 -30t-52.5 -92h-143zM632 159q147 0 219 97.5t72 260.5q0 160 -74.5 257t-219.5 97q-149 0 -225 -97.5t-76 -258.5q0 -158 76.5 -257t227.5 -99zM601 -23
q-120 0 -217 44.5t-157 119.5t-91.5 168.5t-31.5 196.5q0 108 33.5 206t95.5 174t158.5 121t213.5 45q102 0 182 -43.5t128 -116.5v134h219v-1026h-223v154q-46 -80 -126.5 -128.5t-183.5 -48.5z" />
    <glyph glyph-name="uni0204" unicode="&#x204;" horiz-adv-x="1221" 
d="M742 1600l-293 380h240l210 -380h-157zM404 1600l-333 380h249l246 -380h-162zM194 0v1456h901v-196h-671v-411h633v-197h-632v-456h699v-196h-930z" />
    <glyph glyph-name="uni0205" unicode="&#x205;" horiz-adv-x="1188" 
d="M715 1170l-293 380h240l210 -380h-157zM377 1170l-333 380h249l246 -380h-162zM343 628h530q-13 121 -77.5 185t-165.5 64q-113 0 -188.5 -66t-98.5 -183zM650 -23q-252 0 -399 147t-147 388q0 149 61 271t180 195.5t275 73.5q115 0 203.5 -40.5t142 -113t80.5 -167
t27 -208.5q0 -21 -5 -46h-730q6 -158 95 -238t234 -80q175 0 322 112l63 -164q-173 -130 -402 -130z" />
    <glyph glyph-name="uni0206" unicode="&#x206;" horiz-adv-x="1221" 
d="M362 1603q10 131 89.5 199t206.5 68t206.5 -67.5t89.5 -199.5h-141q-8 63 -52 92.5t-101 29.5q-58 0 -102.5 -30t-52.5 -92h-143zM194 0v1456h901v-196h-671v-411h633v-197h-632v-456h699v-196h-930z" />
    <glyph glyph-name="uni0207" unicode="&#x207;" horiz-adv-x="1188" 
d="M334 1173q10 131 89.5 199t206.5 68t206.5 -67.5t89.5 -199.5h-141q-8 63 -52 92.5t-101 29.5q-58 0 -102.5 -30t-52.5 -92h-143zM343 628h530q-13 121 -77.5 185t-165.5 64q-113 0 -188.5 -66t-98.5 -183zM650 -23q-252 0 -399 147t-147 388q0 149 61 271t180 195.5
t275 73.5q115 0 203.5 -40.5t142 -113t80.5 -167t27 -208.5q0 -21 -5 -46h-730q6 -158 95 -238t234 -80q175 0 322 112l63 -164q-173 -130 -402 -130z" />
    <glyph glyph-name="uni0208" unicode="&#x208;" horiz-adv-x="596" 
d="M395 1600l-293 380h240l210 -380h-157zM57 1600l-333 380h249l246 -380h-162zM190 0v1456h230v-1456h-230z" />
    <glyph glyph-name="uni0209" unicode="&#x209;" horiz-adv-x="521" 
d="M340 1170l-293 380h240l210 -380h-157zM2 1170l-333 380h249l246 -380h-162zM143 0v1026h225v-1026h-225z" />
    <glyph glyph-name="uni020A" unicode="&#x20a;" horiz-adv-x="596" 
d="M15 1603q10 131 89.5 199t206.5 68t206.5 -67.5t89.5 -199.5h-141q-8 63 -52 92.5t-101 29.5q-58 0 -102.5 -30t-52.5 -92h-143zM190 0v1456h230v-1456h-230z" />
    <glyph glyph-name="uni020B" unicode="&#x20b;" horiz-adv-x="521" 
d="M-40 1173q10 131 89.5 199t206.5 68t206.5 -67.5t89.5 -199.5h-141q-8 63 -52 92.5t-101 29.5q-58 0 -102.5 -30t-52.5 -92h-143zM143 0v1026h225v-1026h-225z" />
    <glyph glyph-name="uni020C" unicode="&#x20c;" horiz-adv-x="1653" 
d="M916 1600l-293 380h240l210 -380h-157zM578 1600l-333 380h249l246 -380h-162zM830 -23q-338 0 -531 204.5t-193 551.5q0 222 85.5 391t251 264t390.5 95q217 0 379.5 -94.5t248.5 -264t86 -391.5q0 -347 -190.5 -551.5t-526.5 -204.5zM826 174q233 0 352 147t119 412
q0 256 -119 404.5t-348 148.5q-230 0 -353 -149.5t-123 -403.5q0 -265 119.5 -412t352.5 -147z" />
    <glyph glyph-name="uni020D" unicode="&#x20d;" horiz-adv-x="1274" 
d="M726 1170l-293 380h240l210 -380h-157zM388 1170l-333 380h249l246 -380h-162zM640 -23q-129 0 -232.5 42t-169 115t-100 169.5t-34.5 209.5q0 154 60 274.5t183.5 192.5t293.5 72q130 0 232 -41t166 -114.5t97.5 -171t33.5 -214.5q0 -111 -34.5 -207t-99 -169.5
t-167 -115.5t-229.5 -42zM639 159q148 0 222.5 99t74.5 256q0 159 -76 258t-222 99t-223 -99t-77 -258q0 -157 76 -256t225 -99z" />
    <glyph glyph-name="uni020E" unicode="&#x20e;" horiz-adv-x="1653" 
d="M535 1603q10 131 89.5 199t206.5 68t206.5 -67.5t89.5 -199.5h-141q-8 63 -52 92.5t-101 29.5q-58 0 -102.5 -30t-52.5 -92h-143zM830 -23q-338 0 -531 204.5t-193 551.5q0 222 85.5 391t251 264t390.5 95q217 0 379.5 -94.5t248.5 -264t86 -391.5q0 -347 -190.5 -551.5
t-526.5 -204.5zM826 174q233 0 352 147t119 412q0 256 -119 404.5t-348 148.5q-230 0 -353 -149.5t-123 -403.5q0 -265 119.5 -412t352.5 -147z" />
    <glyph glyph-name="uni020F" unicode="&#x20f;" horiz-adv-x="1274" 
d="M346 1173q10 131 89.5 199t206.5 68t206.5 -67.5t89.5 -199.5h-141q-8 63 -52 92.5t-101 29.5q-58 0 -102.5 -30t-52.5 -92h-143zM640 -23q-129 0 -232.5 42t-169 115t-100 169.5t-34.5 209.5q0 154 60 274.5t183.5 192.5t293.5 72q130 0 232 -41t166 -114.5t97.5 -171
t33.5 -214.5q0 -111 -34.5 -207t-99 -169.5t-167 -115.5t-229.5 -42zM639 159q148 0 222.5 99t74.5 256q0 159 -76 258t-222 99t-223 -99t-77 -258q0 -157 76 -256t225 -99z" />
    <glyph glyph-name="uni0210" unicode="&#x210;" horiz-adv-x="1372" 
d="M750 1600l-293 380h240l210 -380h-157zM412 1600l-333 380h249l246 -380h-162zM421 825h247q50 0 90.5 6t77 22t62 40.5t40 64t14.5 90.5q0 124 -60.5 168t-200.5 44h-270v-435zM194 0v1456h495q91 0 162 -9.5t138 -35.5t110.5 -69t70 -114t26.5 -166
q0 -128 -70.5 -220.5t-214.5 -126.5q67 -30 116.5 -93t90.5 -163l185 -459h-249l-165 433q-44 117 -92.5 157t-155.5 40h-217v-630h-230z" />
    <glyph glyph-name="uni0211" unicode="&#x211;" horiz-adv-x="798" 
d="M575 1170l-293 380h240l210 -380h-157zM237 1170l-333 380h249l246 -380h-162zM168 0v770q0 42 -4 106t-8 107l-4 43h238v-145q111 171 262 171q50 0 104 -15v-197q-58 20 -120 20q-109 0 -176 -73.5t-67 -209.5v-577h-225z" />
    <glyph glyph-name="uni0212" unicode="&#x212;" horiz-adv-x="1372" 
d="M370 1603q10 131 89.5 199t206.5 68t206.5 -67.5t89.5 -199.5h-141q-8 63 -52 92.5t-101 29.5q-58 0 -102.5 -30t-52.5 -92h-143zM421 825h247q50 0 90.5 6t77 22t62 40.5t40 64t14.5 90.5q0 124 -60.5 168t-200.5 44h-270v-435zM194 0v1456h495q91 0 162 -9.5t138 -35.5
t110.5 -69t70 -114t26.5 -166q0 -128 -70.5 -220.5t-214.5 -126.5q67 -30 116.5 -93t90.5 -163l185 -459h-249l-165 433q-44 117 -92.5 157t-155.5 40h-217v-630h-230z" />
    <glyph glyph-name="uni0213" unicode="&#x213;" horiz-adv-x="798" 
d="M194 1173q10 131 89.5 199t206.5 68t206.5 -67.5t89.5 -199.5h-141q-8 63 -52 92.5t-101 29.5q-58 0 -102.5 -30t-52.5 -92h-143zM168 0v770q0 42 -4 106t-8 107l-4 43h238v-145q111 171 262 171q50 0 104 -15v-197q-58 20 -120 20q-109 0 -176 -73.5t-67 -209.5v-577
h-225z" />
    <glyph glyph-name="uni0214" unicode="&#x214;" horiz-adv-x="1503" 
d="M832 1600l-293 380h240l210 -380h-157zM494 1600l-333 380h249l246 -380h-162zM751 -23q-135 0 -238.5 32t-168.5 86t-105.5 133t-56.5 164.5t-16 190.5v873h230v-880q0 -213 92 -307.5t264 -94.5q170 0 262.5 94.5t92.5 306.5v881h230v-872q0 -105 -16.5 -192
t-58.5 -166t-107 -132.5t-167.5 -85t-236.5 -31.5z" />
    <glyph glyph-name="uni0215" unicode="&#x215;" horiz-adv-x="1206" 
d="M685 1170l-293 380h240l210 -380h-157zM347 1170l-333 380h249l246 -380h-162zM538 -23q-193 0 -294.5 110.5t-101.5 294.5v644h222v-642q0 -113 56.5 -169t160.5 -56q120 0 182 64t62 190v613h224v-758q0 -128 10 -268h-230l-4 156q-12 -28 -33 -56t-55 -57.5t-86 -47.5
t-113 -18z" />
    <glyph glyph-name="uni0216" unicode="&#x216;" horiz-adv-x="1503" 
d="M451 1603q10 131 89.5 199t206.5 68t206.5 -67.5t89.5 -199.5h-141q-8 63 -52 92.5t-101 29.5q-58 0 -102.5 -30t-52.5 -92h-143zM751 -23q-135 0 -238.5 32t-168.5 86t-105.5 133t-56.5 164.5t-16 190.5v873h230v-880q0 -213 92 -307.5t264 -94.5q170 0 262.5 94.5
t92.5 306.5v881h230v-872q0 -105 -16.5 -192t-58.5 -166t-107 -132.5t-167.5 -85t-236.5 -31.5z" />
    <glyph glyph-name="uni0217" unicode="&#x217;" horiz-adv-x="1206" 
d="M304 1173q10 131 89.5 199t206.5 68t206.5 -67.5t89.5 -199.5h-141q-8 63 -52 92.5t-101 29.5q-58 0 -102.5 -30t-52.5 -92h-143zM538 -23q-193 0 -294.5 110.5t-101.5 294.5v644h222v-642q0 -113 56.5 -169t160.5 -56q120 0 182 64t62 190v613h224v-758q0 -128 10 -268
h-230l-4 156q-12 -28 -33 -56t-55 -57.5t-86 -47.5t-113 -18z" />
    <glyph glyph-name="Scommaaccent" unicode="&#x218;" horiz-adv-x="1244" 
d="M407 -631l111 493h253l-176 -493h-188zM617 -23q-155 0 -292 49.5t-204 116.5l100 166q64 -52 175.5 -93.5t208.5 -41.5q278 0 278 216q0 46 -8 75.5t-33.5 59t-73.5 53.5t-128 51q-21 8 -67.5 22.5t-62.5 20.5q-134 44 -214 94.5t-124 130.5t-44 194q0 127 67 217
t177 132.5t251 42.5q128 0 224 -22.5t151 -55t108 -84.5l-118 -154q-61 59 -149.5 89t-183.5 30q-125 0 -203.5 -46.5t-78.5 -139.5q0 -62 16.5 -98t65 -66.5t148.5 -64.5q127 -41 135 -44q221 -75 305 -170.5t84 -269.5q0 -105 -41.5 -186t-113.5 -128.5t-161.5 -71.5
t-193.5 -24z" />
    <glyph glyph-name="scommaaccent" unicode="&#x219;" horiz-adv-x="988" 
d="M293 -631l111 493h253l-176 -493h-188zM530 -23q-134 0 -242 39t-170 88l58 164q61 -46 154 -79t182 -33q178 0 178 131q0 50 -37 77.5t-157 68.5l-96 33q-68 23 -111 44t-84 54t-60.5 81t-19.5 114q0 76 31 133.5t85 91t119 50t139 16.5q104 0 198 -26t160 -69l-60 -156
q-53 28 -130.5 51t-145.5 23q-177 0 -177 -106q0 -48 31.5 -72t138.5 -62q4 -1 49.5 -17t51.5 -18q58 -20 95 -36.5t76.5 -42.5t61.5 -56t36.5 -74t14.5 -101q0 -84 -32.5 -146.5t-87.5 -97t-117.5 -51t-131.5 -16.5z" />
    <glyph glyph-name="uni021A" unicode="&#x21a;" horiz-adv-x="1167" 
d="M356 -631l111 493h253l-176 -493h-188zM466 0v1260h-455v196h1145v-196h-460v-1260h-230z" />
    <glyph glyph-name="uni021B" unicode="&#x21b;" horiz-adv-x="820" 
d="M273 -631l111 493h253l-176 -493h-188zM734 1h-96q-110 0 -181 14t-126 53t-79.5 112t-24.5 188v508h-204v150h210v250l217 65v-315h280v-150h-280v-521q0 -63 11 -97.5t46 -54.5t84 -25t143 -5v-172z" />
    <glyph glyph-name="uni021E" unicode="&#x21e;" horiz-adv-x="1564" 
d="M675 1589l-267 369h214l141 -195l141 195h222l-265 -369h-186zM194 0v1456h230v-611h717v611h230v-1456h-227v649h-717v-649h-233z" />
    <glyph glyph-name="uni021F" unicode="&#x21f;" horiz-adv-x="1227" 
d="M152 0v1469h224v-586q41 75 135.5 122t187.5 47q90 0 159.5 -29t111.5 -74t68.5 -108t36.5 -124t10 -128v-589h-224v593q0 147 -47.5 212.5t-148.5 65.5q-111 0 -200 -76t-89 -175v-620h-224zM637 1159l-267 369h214l141 -195l141 195h222l-265 -369h-186z" />
    <glyph glyph-name="uni0226" unicode="&#x226;" horiz-adv-x="1434" 
d="M608 1650v210h222v-210h-222zM486 576h446q-92 263 -221 623q-150 -416 -225 -623zM18 0l579 1456h236l584 -1456h-257l-147 373h-600l-144 -373h-251z" />
    <glyph glyph-name="uni0227" unicode="&#x227;" 
d="M527 1220v210h222v-210h-222zM632 159q147 0 219 97.5t72 260.5q0 160 -74.5 257t-219.5 97q-149 0 -225 -97.5t-76 -258.5q0 -158 76.5 -257t227.5 -99zM601 -23q-120 0 -217 44.5t-157 119.5t-91.5 168.5t-31.5 196.5q0 108 33.5 206t95.5 174t158.5 121t213.5 45
q102 0 182 -43.5t128 -116.5v134h219v-1026h-223v154q-46 -80 -126.5 -128.5t-183.5 -48.5z" />
    <glyph glyph-name="uni0228" unicode="&#x228;" horiz-adv-x="1221" 
d="M674 -476q-112 0 -205 44l13 130q74 -31 158 -31q51 0 82 18.5t31 57.5q0 81 -155 91l-27 2l31 187h114l-19 -120q121 -11 181.5 -58t60.5 -119q0 -96 -74.5 -149t-190.5 -53zM194 0v1456h901v-196h-671v-411h633v-197h-632v-456h699v-196h-930z" />
    <glyph glyph-name="uni0229" unicode="&#x229;" horiz-adv-x="1188" 
d="M343 628h530q-13 121 -77.5 185t-165.5 64q-113 0 -188.5 -66t-98.5 -183zM650 -23q-252 0 -399 147t-147 388q0 149 61 271t180 195.5t275 73.5q115 0 203.5 -40.5t142 -113t80.5 -167t27 -208.5q0 -21 -5 -46h-730q6 -158 95 -238t234 -80q175 0 322 112l63 -164
q-173 -130 -402 -130zM663 -476q-112 0 -205 44l13 130q74 -31 158 -31q51 0 82 18.5t31 57.5q0 81 -155 91l-27 2l31 187h114l-19 -120q121 -11 181.5 -58t60.5 -119q0 -96 -74.5 -149t-190.5 -53z" />
    <glyph glyph-name="uni022E" unicode="&#x22e;" horiz-adv-x="1653" 
d="M721 1650v210h222v-210h-222zM830 -23q-338 0 -531 204.5t-193 551.5q0 222 85.5 391t251 264t390.5 95q217 0 379.5 -94.5t248.5 -264t86 -391.5q0 -347 -190.5 -551.5t-526.5 -204.5zM826 174q233 0 352 147t119 412q0 256 -119 404.5t-348 148.5q-230 0 -353 -149.5
t-123 -403.5q0 -265 119.5 -412t352.5 -147z" />
    <glyph glyph-name="uni022F" unicode="&#x22f;" horiz-adv-x="1274" 
d="M640 -23q-129 0 -232.5 42t-169 115t-100 169.5t-34.5 209.5q0 154 60 274.5t183.5 192.5t293.5 72q130 0 232 -41t166 -114.5t97.5 -171t33.5 -214.5q0 -111 -34.5 -207t-99 -169.5t-167 -115.5t-229.5 -42zM639 159q148 0 222.5 99t74.5 256q0 159 -76 258t-222 99
t-223 -99t-77 -258q0 -157 76 -256t225 -99zM531 1220v210h222v-210h-222z" />
    <glyph glyph-name="uni0232" unicode="&#x232;" horiz-adv-x="1257" 
d="M347 1632v145h610v-145h-610zM509 0v567l-511 889h259l371 -685l372 685h264l-525 -886v-570h-230z" />
    <glyph glyph-name="uni0233" unicode="&#x233;" horiz-adv-x="1098" 
d="M236 -441l-94 152q137 51 209 113.5t97 144.5l14 50l-428 1007h232l305 -768l272 768h227l-416 -1082q-58 -151 -168 -247.5t-250 -137.5zM269 1202v145h610v-145h-610z" />
    <glyph glyph-name="uni0237" unicode="&#x237;" horiz-adv-x="544" 
d="M56 -394q-57 0 -157 19l12 167q72 -16 115 -16q80 0 119 58t39 198v994h217v-971q0 -76 -7.5 -136t-29.5 -121t-59 -101t-100.5 -65.5t-148.5 -25.5z" />
    <glyph glyph-name="afii57929" unicode="&#x2bc;" horiz-adv-x="600" 
d="M38 1221l86 584h260l-182 -584h-164z" />
    <glyph glyph-name="circumflex" unicode="&#x2c6;" horiz-adv-x="699" 
d="M-9 1159l249 368h216l253 -368h-204l-158 196l-159 -196h-197z" />
    <glyph glyph-name="caron" unicode="&#x2c7;" horiz-adv-x="699" 
d="M258 1159l-267 369h214l141 -195l141 195h222l-265 -369h-186z" />
    <glyph glyph-name="uni02C9" unicode="&#x2c9;" horiz-adv-x="600" 
d="M-38 1333h664v156h-664v-156z" />
    <glyph glyph-name="breve" unicode="&#x2d8;" horiz-adv-x="668" 
d="M336 1174q-286 0 -306 282h158q6 -71 44.5 -97.5t103.5 -26.5q63 0 101 26.5t45 97.5h155q-18 -282 -301 -282z" />
    <glyph glyph-name="dotaccent" unicode="&#x2d9;" horiz-adv-x="524" 
d="M146 1220v210h222v-210h-222z" />
    <glyph glyph-name="ring" unicode="&#x2da;" horiz-adv-x="672" 
d="M332 1135q-89 0 -151.5 59.5t-62.5 147.5q0 89 62 148t152 59q89 0 151 -59t62 -148q0 -88 -62 -147.5t-151 -59.5zM331 1233q44 0 75.5 32t31.5 77t-31.5 76.5t-75.5 31.5t-75 -31.5t-31 -76.5t31 -77t75 -32z" />
    <glyph glyph-name="ogonek" unicode="&#x2db;" horiz-adv-x="508" 
d="M254 -392q-100 0 -162 37.5t-62 111.5q0 48 23 90.5t64 76t74 54t75 41.5l121 -2q-68 -41 -113.5 -102t-45.5 -108q0 -63 89 -63q45 0 159 31v-130q-121 -37 -222 -37z" />
    <glyph glyph-name="tilde" unicode="&#x2dc;" horiz-adv-x="711" 
d="M503 1166q-50 0 -153.5 52.5t-133.5 52.5q-27 0 -46 -24.5t-24 -75.5h-144q0 121 56 196t148 75q51 0 109.5 -26t108 -52t78.5 -26t44 23t16 81h148q0 -134 -55 -205t-152 -71z" />
    <glyph glyph-name="hungarumlaut" unicode="&#x2dd;" horiz-adv-x="969" 
d="M393 1138l243 372h264l-340 -372h-167zM67 1138l207 372h250l-296 -372h-161z" />
    <glyph glyph-name="uni0307" unicode="&#x307;" horiz-adv-x="524" 
d="M154 1221v205h216v-205h-216z" />
    <glyph glyph-name="uni030F" unicode="&#x30f;" horiz-adv-x="969" 
d="M703 1170l-293 380h240l210 -380h-157zM365 1170l-333 380h249l246 -380h-162z" />
    <glyph glyph-name="uni0311" unicode="&#x311;" horiz-adv-x="629" 
d="M18 1173q10 131 89.5 199t206.5 68t206.5 -67.5t89.5 -199.5h-141q-8 63 -52 92.5t-101 29.5q-58 0 -102.5 -30t-52.5 -92h-143z" />
    <glyph glyph-name="uni0312" unicode="&#x312;" horiz-adv-x="600" 
d="M544 1704l-110 -501h-252l174 501h188z" />
    <glyph glyph-name="uni0326" unicode="&#x326;" horiz-adv-x="540" 
d="M88 -631l111 493h253l-176 -493h-188z" />
    <glyph glyph-name="uni0358" unicode="&#x358;" horiz-adv-x="524" 
d="M154 1221v205h216v-205h-216z" />
    <glyph glyph-name="uni0394" unicode="&#x394;" horiz-adv-x="1390" 
d="M300 183h764l-382 1012zM61 0v147l528 1309h221l518 -1302v-154h-1267z" />
    <glyph glyph-name="Sigma" unicode="&#x3a3;" horiz-adv-x="1236" 
d="M114 -179v119l505 706l-483 694v116h972v-182h-667l435 -624l-454 -641h728v-188h-1036z" />
    <glyph glyph-name="uni03A9" unicode="&#x3a9;" horiz-adv-x="1603" 
d="M82 0l-22 181l317 -1q-137 110 -209 273t-72 358q0 200 91 353.5t250 235t359 81.5q306 0 498.5 -187t192.5 -486q0 -194 -74.5 -356t-209.5 -272l307 1l-19 -181h-580v156q149 99 242.5 266.5t93.5 358.5q0 72 -14 140.5t-48 136.5t-84.5 118.5t-129.5 82t-177 31.5
q-95 0 -173.5 -30t-130.5 -80t-87.5 -116.5t-51 -137t-15.5 -144.5q0 -192 92.5 -361t241.5 -265v-156h-588z" />
    <glyph glyph-name="uni03BC" unicode="&#x3bc;" horiz-adv-x="1221" 
d="M818 277q-89 -116 -229 -116q-98 0 -141.5 64t-43.5 206v651h-271v-1390h271v299q50 -11 109 -11q116 0 196.5 45t132.5 123l14 -148h233v1082h-271v-805z" />
    <glyph glyph-name="pi" unicode="&#x3c0;" horiz-adv-x="1468" 
d="M1146 -13q119 0 178 57v129q-56 -20 -107 -20q-112 0 -112 141q0 292 23 580h238v208h-894q-172 0 -242.5 -84t-70.5 -256h96q10 61 42.5 96t89.5 36h95l-64 -483q-10 -77 -37.5 -134.5t-64.5 -87.5t-73.5 -43.5t-71.5 -13.5v-108q104 0 177.5 13t121 36.5t75.5 64.5
t39.5 89.5t15.5 118.5l26 548h348q-28 -162 -49 -351.5t-21 -291.5q0 -130 62 -187t180 -57z" />
    <glyph glyph-name="uni1E02" unicode="&#x1e02;" horiz-adv-x="1361" 
d="M538 1650v210h222v-210h-222zM424 852h223q59 0 107.5 10t91.5 32.5t67 65.5t24 103q0 115 -81 156t-248 41h-184v-408zM425 197h253q158 0 241.5 58.5t83.5 170.5q0 135 -76.5 185.5t-264.5 50.5h-237v-465zM194 0v1456h389q64 0 114.5 -2.5t115.5 -11t114 -23.5
t99 -42.5t82 -64.5t52.5 -93t20.5 -126q0 -107 -52.5 -189.5t-162.5 -125.5q137 -31 209.5 -127t72.5 -234q0 -84 -33 -158t-96.5 -132.5t-166.5 -92.5t-233 -34h-525z" />
    <glyph glyph-name="uni1E03" unicode="&#x1e03;" 
d="M623 1220v210h222v-210h-222zM668 159q136 0 206 100t70 260q0 155 -72 253.5t-202 98.5q-138 0 -218.5 -100.5t-80.5 -255.5t78.5 -255.5t218.5 -100.5zM704 -23q-111 0 -198.5 49t-126.5 119v-145h-228q7 209 7 272v1197h224v-597q11 27 35.5 55.5t63.5 57.5t100 48
t132 19q214 0 340 -145.5t126 -382.5q0 -243 -136.5 -395t-338.5 -152z" />
    <glyph glyph-name="uni1E0A" unicode="&#x1e0a;" horiz-adv-x="1555" 
d="M600 1650v210h222v-210h-222zM194 0v1456h376q433 0 656 -180.5t223 -542.5q0 -354 -210.5 -543.5t-607.5 -189.5h-437zM424 196h220q276 0 419 139.5t143 398.5q0 265 -150 395.5t-463 130.5h-169v-1064z" />
    <glyph glyph-name="uni1E0B" unicode="&#x1e0b;" horiz-adv-x="1267" 
d="M447 1220v210h222v-210h-222zM615 159q138 0 208 99.5t70 259.5q0 155 -71 254t-205 99q-135 0 -207 -99t-72 -258q0 -157 70 -256t207 -99zM574 -23q-203 0 -336.5 145.5t-133.5 385.5q0 114 32 212t91.5 172.5t152.5 117t209 42.5q110 0 189.5 -47t108.5 -103v567h224
v-1199q0 -46 7 -270h-228l-2 147q-27 -64 -107.5 -117t-206.5 -53z" />
    <glyph glyph-name="uni1E1E" unicode="&#x1e1e;" horiz-adv-x="1133" 
d="M534 1650v210h222v-210h-222zM194 0v1456h869v-196h-639v-413h600v-197h-600v-650h-230z" />
    <glyph glyph-name="uni1E1F" unicode="&#x1e1f;" horiz-adv-x="784" 
d="M257 0v876h-187v150h187v54q0 58 2.5 98.5t9.5 82.5t20 70t34 55t52 43.5t74 29.5t99 18.5t127 5.5h51l-7 -173q-58 0 -94.5 -3t-65 -13t-43 -23t-23.5 -41t-11 -58.5t-2 -82.5v-63h237v-150h-237v-876h-223zM266 1650v210h222v-210h-222z" />
    <glyph glyph-name="uni1E40" unicode="&#x1e40;" horiz-adv-x="1961" 
d="M873 1650v210h222v-210h-222zM194 0v1456h274q32 -72 222.5 -502.5t292.5 -657.5q95 216 512 1160h272v-1456h-216v1080q-99 -211 -281.5 -622.5t-203.5 -457.5h-169q-57 127 -224 499t-258 574v-1073h-221z" />
    <glyph glyph-name="uni1E41" unicode="&#x1e41;" horiz-adv-x="1853" 
d="M166 0v714q0 66 -3 126t-7 111.5t-5 74.5h235v-146q38 77 122.5 124.5t180.5 47.5q101 0 183 -52t124 -150q60 94 148 148t201 54q180 0 272.5 -112t92.5 -311v-629h-224v612q0 72 -14 127.5t-52 93.5t-96 38q-112 0 -192 -87.5t-80 -200.5v-583h-224v629q0 47 -8 86.5
t-26.5 76.5t-54.5 58t-86 21q-110 0 -186.5 -77t-76.5 -177v-617h-224zM874 1220v210h222v-210h-222z" />
    <glyph glyph-name="uni1E56" unicode="&#x1e56;" 
d="M548 1650v210h222v-210h-222zM424 837h236q61 0 107 5t87 19t66.5 37t40.5 60t15 87q0 49 -10.5 85t-34 59.5t-50.5 37.5t-73 21t-86.5 9t-104.5 2h-193v-422zM194 0v1456h415q81 0 142 -3.5t127.5 -14t114 -28.5t91.5 -48.5t71.5 -73t43.5 -103.5t16 -138
q0 -92 -25 -161.5t-71 -116t-115.5 -75.5t-152 -41.5t-187.5 -12.5h-240v-640h-230z" />
    <glyph glyph-name="uni1E57" unicode="&#x1e57;" horiz-adv-x="1267" 
d="M656 159q136 0 205 99.5t69 257.5t-70 256.5t-203 98.5q-135 0 -207 -100t-72 -260q0 -155 70.5 -253.5t207.5 -98.5zM166 -405v1108q0 58 -15 323h237v-159q19 68 110.5 126.5t212.5 58.5q137 0 241 -71.5t158 -190.5t54 -265q0 -148 -54 -271.5t-160.5 -200
t-246.5 -76.5q-119 0 -208.5 56.5t-106.5 115.5v-554h-222zM569 1220v210h222v-210h-222z" />
    <glyph glyph-name="uni1E60" unicode="&#x1e60;" horiz-adv-x="1244" 
d="M510 1650v210h222v-210h-222zM617 -23q-155 0 -292 49.5t-204 116.5l100 166q64 -52 175.5 -93.5t208.5 -41.5q278 0 278 216q0 46 -8 75.5t-33.5 59t-73.5 53.5t-128 51q-21 8 -67.5 22.5t-62.5 20.5q-134 44 -214 94.5t-124 130.5t-44 194q0 127 67 217t177 132.5
t251 42.5q128 0 224 -22.5t151 -55t108 -84.5l-118 -154q-61 59 -149.5 89t-183.5 30q-125 0 -203.5 -46.5t-78.5 -139.5q0 -62 16.5 -98t65 -66.5t148.5 -64.5q127 -41 135 -44q221 -75 305 -170.5t84 -269.5q0 -105 -41.5 -186t-113.5 -128.5t-161.5 -71.5t-193.5 -24z
" />
    <glyph glyph-name="uni1E61" unicode="&#x1e61;" horiz-adv-x="988" 
d="M530 -23q-134 0 -242 39t-170 88l58 164q61 -46 154 -79t182 -33q178 0 178 131q0 50 -37 77.5t-157 68.5l-96 33q-68 23 -111 44t-84 54t-60.5 81t-19.5 114q0 76 31 133.5t85 91t119 50t139 16.5q104 0 198 -26t160 -69l-60 -156q-53 28 -130.5 51t-145.5 23
q-177 0 -177 -106q0 -48 31.5 -72t138.5 -62q4 -1 49.5 -17t51.5 -18q58 -20 95 -36.5t76.5 -42.5t61.5 -56t36.5 -74t14.5 -101q0 -84 -32.5 -146.5t-87.5 -97t-117.5 -51t-131.5 -16.5zM386 1220v210h222v-210h-222z" />
    <glyph glyph-name="uni1E6A" unicode="&#x1e6a;" horiz-adv-x="1167" 
d="M478 1650v210h222v-210h-222zM466 0v1260h-455v196h1145v-196h-460v-1260h-230z" />
    <glyph glyph-name="uni1E6B" unicode="&#x1e6b;" horiz-adv-x="820" 
d="M734 1h-96q-110 0 -181 14t-126 53t-79.5 112t-24.5 188v508h-204v150h210v250l217 65v-315h280v-150h-280v-521q0 -63 11 -97.5t46 -54.5t84 -25t143 -5v-172zM238 1514v210h222v-210h-222z" />
    <glyph glyph-name="Wgrave" unicode="&#x1e80;" horiz-adv-x="2052" 
d="M933 1600l-345 341h288l256 -341h-199zM424 0l-408 1456h246q33 -128 96.5 -370.5t114 -439t92.5 -374.5q49 180 107.5 375.5t134.5 439.5t114 369h224l278 -894l84 -293q40 178 89 376.5t109 438t93 372.5h238l-398 -1456h-267l-344 1141l-340 -1141h-263z" />
    <glyph glyph-name="wgrave" unicode="&#x1e81;" horiz-adv-x="1669" 
d="M382 0l-360 1026h238q158 -504 238 -755q47 140 133.5 397t120.5 358h202q41 -126 122 -378.5t121 -378.5q79 253 239 757h211l-371 -1026h-193q-211 632 -245 738q-44 -123 -131.5 -369t-130.5 -369h-194zM758 1170l-345 341h288l256 -341h-199z" />
    <glyph glyph-name="Wacute" unicode="&#x1e82;" horiz-adv-x="2052" 
d="M938 1600l254 340h288l-342 -340h-200zM424 0l-408 1456h246q33 -128 96.5 -370.5t114 -439t92.5 -374.5q49 180 107.5 375.5t134.5 439.5t114 369h224l278 -894l84 -293q40 178 89 376.5t109 438t93 372.5h238l-398 -1456h-267l-344 1141l-340 -1141h-263z" />
    <glyph glyph-name="wacute" unicode="&#x1e83;" horiz-adv-x="1669" 
d="M382 0l-360 1026h238q158 -504 238 -755q47 140 133.5 397t120.5 358h202q41 -126 122 -378.5t121 -378.5q79 253 239 757h211l-371 -1026h-193q-211 632 -245 738q-44 -123 -131.5 -369t-130.5 -369h-194zM762 1170l254 340h288l-342 -340h-200z" />
    <glyph glyph-name="Wdieresis" unicode="&#x1e84;" horiz-adv-x="2052" 
d="M1134 1595v215h225v-215h-225zM698 1595v215h225v-215h-225zM424 0l-408 1456h246q33 -128 96.5 -370.5t114 -439t92.5 -374.5q49 180 107.5 375.5t134.5 439.5t114 369h224l278 -894l84 -293q40 178 89 376.5t109 438t93 372.5h238l-398 -1456h-267l-344 1141
l-340 -1141h-263z" />
    <glyph glyph-name="wdieresis" unicode="&#x1e85;" horiz-adv-x="1669" 
d="M382 0l-360 1026h238q158 -504 238 -755q47 140 133.5 397t120.5 358h202q41 -126 122 -378.5t121 -378.5q79 253 239 757h211l-371 -1026h-193q-211 632 -245 738q-44 -123 -131.5 -369t-130.5 -369h-194zM958 1165v215h225v-215h-225zM522 1165v215h225v-215h-225z" />
    <glyph glyph-name="uni1EBC" unicode="&#x1ebc;" horiz-adv-x="1221" 
d="M770 1596q-50 0 -153.5 52.5t-133.5 52.5q-27 0 -46 -24.5t-24 -75.5h-144q0 121 56 196t148 75q51 0 109.5 -26t108 -52t78.5 -26t44 23t16 81h148q0 -134 -55 -205t-152 -71zM194 0v1456h901v-196h-671v-411h633v-197h-632v-456h699v-196h-930z" />
    <glyph glyph-name="uni1EBD" unicode="&#x1ebd;" horiz-adv-x="1188" 
d="M743 1166q-50 0 -153.5 52.5t-133.5 52.5q-27 0 -46 -24.5t-24 -75.5h-144q0 121 56 196t148 75q51 0 109.5 -26t108 -52t78.5 -26t44 23t16 81h148q0 -134 -55 -205t-152 -71zM343 628h530q-13 121 -77.5 185t-165.5 64q-113 0 -188.5 -66t-98.5 -183zM650 -23
q-252 0 -399 147t-147 388q0 149 61 271t180 195.5t275 73.5q115 0 203.5 -40.5t142 -113t80.5 -167t27 -208.5q0 -21 -5 -46h-730q6 -158 95 -238t234 -80q175 0 322 112l63 -164q-173 -130 -402 -130z" />
    <glyph glyph-name="Ygrave" unicode="&#x1ef2;" horiz-adv-x="1257" 
d="M553 1600l-345 341h288l256 -341h-199zM509 0v567l-511 889h259l371 -685l372 685h264l-525 -886v-570h-230z" />
    <glyph glyph-name="ygrave" unicode="&#x1ef3;" horiz-adv-x="1098" 
d="M236 -441l-94 152q137 51 209 113.5t97 144.5l14 50l-428 1007h232l305 -768l272 768h227l-416 -1082q-58 -151 -168 -247.5t-250 -137.5zM475 1170l-345 341h288l256 -341h-199z" />
    <glyph glyph-name="uni1EF8" unicode="&#x1ef8;" horiz-adv-x="1257" 
d="M764 1596q-50 0 -153.5 52.5t-133.5 52.5q-27 0 -46 -24.5t-24 -75.5h-144q0 121 56 196t148 75q51 0 109.5 -26t108 -52t78.5 -26t44 23t16 81h148q0 -134 -55 -205t-152 -71zM509 0v567l-511 889h259l371 -685l372 685h264l-525 -886v-570h-230z" />
    <glyph glyph-name="uni1EF9" unicode="&#x1ef9;" horiz-adv-x="1098" 
d="M236 -441l-94 152q137 51 209 113.5t97 144.5l14 50l-428 1007h232l305 -768l272 768h227l-416 -1082q-58 -151 -168 -247.5t-250 -137.5zM686 1166q-50 0 -153.5 52.5t-133.5 52.5q-27 0 -46 -24.5t-24 -75.5h-144q0 121 56 196t148 75q51 0 109.5 -26t108 -52t78.5 -26
t44 23t16 81h148q0 -134 -55 -205t-152 -71z" />
    <glyph glyph-name="endash" unicode="&#x2013;" horiz-adv-x="1096" 
d="M-3 467v181h1101v-181h-1101z" />
    <glyph glyph-name="emdash" unicode="&#x2014;" horiz-adv-x="2171" 
d="M30 463v185h2111v-185h-2111z" />
    <glyph glyph-name="afii00208" unicode="&#x2015;" horiz-adv-x="4097" 
d="M58 463v174h3981v-174h-3981z" />
    <glyph glyph-name="quoteleft" unicode="&#x2018;" horiz-adv-x="552" 
d="M292 871l-162 585h264l42 -585h-144z" />
    <glyph glyph-name="quoteright" unicode="&#x2019;" horiz-adv-x="593" 
d="M116 872l86 584h260l-182 -584h-164z" />
    <glyph glyph-name="quotesinglbase" unicode="&#x201a;" horiz-adv-x="654" 
d="M149 -321l113 565h243l-162 -565h-194z" />
    <glyph glyph-name="quotedblleft" unicode="&#x201c;" horiz-adv-x="1024" 
d="M574 871l171 585h188l-111 -585h-248zM144 871l181 585h187l-112 -585h-256z" />
    <glyph glyph-name="quotedblright" unicode="&#x201d;" horiz-adv-x="1024" 
d="M576 871l110 585h246l-165 -585h-191zM186 871l108 585h248l-165 -585h-191z" />
    <glyph glyph-name="quotedblbase" unicode="&#x201e;" horiz-adv-x="1024" 
d="M501 -226l110 470h247l-165 -470h-192zM113 -226l109 470h247l-160 -470h-196z" />
    <glyph glyph-name="dagger" unicode="&#x2020;" horiz-adv-x="1022" 
d="M416 64v814h-326v171h326v387h182v-387h333v-171h-336v-814h-179z" />
    <glyph glyph-name="daggerdbl" unicode="&#x2021;" horiz-adv-x="1140" 
d="M141 1051h336v405h196v-405h331v-152h-331v-375h322v-146h-322v-426h-196v426h-340v146h340v375h-336v152z" />
    <glyph glyph-name="bullet" unicode="&#x2022;" horiz-adv-x="989" 
d="M497 366q-147 0 -240.5 94t-93.5 226q0 133 97 228.5t237 95.5q144 0 241 -96t97 -228t-98 -226t-240 -94z" />
    <glyph glyph-name="ellipsis" unicode="&#x2026;" horiz-adv-x="1620" 
d="M1181 -11v253h275v-253h-275zM654 -11v253h277l1 -253h-278zM127 -11v253h277l1 -253h-278z" />
    <glyph glyph-name="perthousand" unicode="&#x2030;" horiz-adv-x="2683" 
d="M2230 -22q-165 0 -261.5 106t-96.5 271q0 161 97.5 269t261.5 108t261 -107.5t97 -269.5q0 -164 -97.5 -270.5t-261.5 -106.5zM2230 122q167 0 167 233q0 115 -39 174.5t-127 59.5q-167 0 -167 -235q0 -117 40.5 -174.5t125.5 -57.5zM1392 -22q-164 0 -261 106t-97 271
q0 161 97.5 269t261.5 108t260.5 -107.5t96.5 -269.5q0 -164 -97 -270.5t-261 -106.5zM1393 122q85 0 125.5 58t40.5 175q0 115 -39 174.5t-127 59.5q-167 0 -167 -235q0 -117 40.5 -174.5t126.5 -57.5zM372 0l925 1456h187l-927 -1456h-185zM453 723q-167 0 -262.5 101
t-95.5 276q0 170 96 274t262 104q167 0 262.5 -103t95.5 -275q0 -174 -95.5 -275.5t-262.5 -101.5zM453 867q167 0 167 234q0 233 -167 233t-167 -234q0 -117 40.5 -175t126.5 -58z" />
    <glyph glyph-name="guilsinglleft" unicode="&#x2039;" horiz-adv-x="709" 
d="M413 162l-275 379l281 379h186l-242 -380l234 -378h-184z" />
    <glyph glyph-name="guilsinglright" unicode="&#x203a;" horiz-adv-x="709" 
d="M117 161l242 380l-234 378h184l274 -379l-280 -379h-186z" />
    <glyph glyph-name="fraction" unicode="&#x2044;" horiz-adv-x="1110" 
d="M12 0l891 1456h219l-889 -1456h-221z" />
    <glyph glyph-name="uni2074" unicode="&#x2074;" horiz-adv-x="1032" 
d="M376 965h204v288zM582 650v191h-373v105l368 510h163v-491h115v-124h-115v-191h-158z" />
    <glyph glyph-name="Euro" unicode="&#x20ac;" horiz-adv-x="1492" 
d="M90 512l5 112h161q-5 53 -5 99q0 57 6 109h-168l5 118h184q64 249 253 391t429 142q282 0 476 -155l-91 -159q-164 117 -366 117q-156 0 -276 -91t-174 -245h479l-7 -118h-500q-8 -54 -8 -106q0 -44 7 -102h472l-7 -112h-440q52 -159 176 -248t288 -89q216 0 406 147
l77 -183q-210 -161 -496 -161q-162 0 -303.5 59t-249 181.5t-148.5 293.5h-185z" />
    <glyph glyph-name="afii61289" unicode="&#x2113;" horiz-adv-x="528" 
d="M158 0v1469h223v-1469h-223z" />
    <glyph glyph-name="trademark" unicode="&#x2122;" horiz-adv-x="1869" 
d="M303 658v628h-230v150h634v-150h-230v-628h-174zM819 658v778h198l239 -532l239 532h197v-778h-166v503l-218 -503h-108l-220 494v-494h-161z" />
    <glyph glyph-name="Omega" unicode="&#x2126;" horiz-adv-x="1603" 
d="M82 0l-22 181l317 -1q-137 110 -209 273t-72 358q0 200 91 353.5t250 235t359 81.5q306 0 498.5 -187t192.5 -486q0 -194 -74.5 -356t-209.5 -272l307 1l-19 -181h-580v156q149 99 242.5 266.5t93.5 358.5q0 72 -14 140.5t-48 136.5t-84.5 118.5t-129.5 82t-177 31.5
q-95 0 -173.5 -30t-130.5 -80t-87.5 -116.5t-51 -137t-15.5 -144.5q0 -192 92.5 -361t241.5 -265v-156h-588z" />
    <glyph glyph-name="estimated" unicode="&#x212e;" horiz-adv-x="1203" 
d="M339 713h533q0 117 -22.5 203t-61 133.5t-83 69.5t-96.5 22t-97.5 -22.5t-85.5 -69.5t-63.5 -133.5t-23.5 -202.5zM627 114q-108 0 -203 34.5t-169 99.5t-116.5 169.5t-42.5 234.5q0 116 29.5 209.5t79 155.5t116.5 104t139 60t151 18q73 0 138.5 -15.5t126 -52.5
t103.5 -93t69 -142.5t26 -195.5q0 -25 -5 -45h-732q-1 -234 94 -356.5t251 -122.5q157 0 347 123l27 -52q-203 -133 -429 -133z" />
    <glyph glyph-name="partialdiff" unicode="&#x2202;" horiz-adv-x="1162" 
d="M482 159q270 0 336 489q-30 72 -91.5 124t-135.5 52q-127 0 -216 -119.5t-89 -282.5q0 -119 53 -191t143 -72zM482 -24q-203 0 -314 126t-111 324q0 158 70 291t189 209t260 76q96 0 166.5 -41t92.5 -95q0 80 -1 88q-7 172 -83 272.5t-200 100.5q-143 0 -294 -86l-14 165
q66 47 152 74t173 27q238 0 368 -167t130 -508q0 -129 -22.5 -251.5t-70 -232.5t-115 -192.5t-164.5 -131t-212 -48.5z" />
    <glyph glyph-name="emptyset" unicode="&#x2205;" horiz-adv-x="1678" 
d="M82 733q0 159 62.5 303t166 245.5t240.5 161.5t281 60q85 0 169 -21t159 -60t141 -94l176 198l85 -66l-184 -205q96 -105 150 -239t54 -283q0 -159 -62.5 -303t-166 -245.5t-240.5 -161.5t-281 -60q-124 0 -242.5 44t-217.5 123l-193 -216l-76 70l193 217
q-101 106 -157.5 242.5t-56.5 289.5zM441 207q178 -140 391 -140q124 0 242 52t207 140t143.5 212.5t54.5 261.5q0 126 -45 240t-126 205zM365 278l867 973q-86 71 -189 109.5t-211 38.5q-124 0 -242 -52t-207 -140t-143.5 -212.5t-54.5 -261.5q0 -130 48 -247t132 -208z
" />
    <glyph glyph-name="Delta" unicode="&#x2206;" horiz-adv-x="1390" 
d="M300 183h764l-382 1012zM61 0v147l528 1309h221l518 -1302v-154h-1267z" />
    <glyph glyph-name="product" unicode="&#x220f;" horiz-adv-x="1568" 
d="M239 -100v1371h-159v185h1360l1 -185h-133v-1371h-247v1371h-581v-1371h-241z" />
    <glyph glyph-name="summation" unicode="&#x2211;" horiz-adv-x="1236" 
d="M114 -179v119l505 706l-483 694v116h972v-182h-667l435 -624l-454 -641h728v-188h-1036z" />
    <glyph glyph-name="minus" unicode="&#x2212;" horiz-adv-x="1417" 
d="M191 346v182h1036v-182h-1036z" />
    <glyph glyph-name="uni2215" unicode="&#x2215;" horiz-adv-x="783" 
d="M35 -101l593 1557h204l-598 -1557h-199z" />
    <glyph glyph-name="uni2219" unicode="&#x2219;" horiz-adv-x="564" 
d="M177 525v210h222v-210h-222z" />
    <glyph glyph-name="radical" unicode="&#x221a;" horiz-adv-x="1314" 
d="M607 -146l-313 797l-164 -30l-37 160l348 58l239 -640l368 1367h200l-456 -1712h-185z" />
    <glyph glyph-name="infinity" unicode="&#x221e;" horiz-adv-x="1736" 
d="M1276 377q104 0 154 68t50 180q0 82 -58 139.5t-151 57.5q-166 0 -322 -223q93 -116 167 -169t160 -53zM478 377q158 0 320 220q-158 225 -330 225q-101 0 -157.5 -63.5t-56.5 -159.5q0 -89 62 -155.5t162 -66.5zM465 233q-161 0 -265 114t-104 275q0 142 109 243
t255 101q119 0 219 -65t193 -190q91 125 187 190t217 65q165 0 264 -101.5t99 -261.5q0 -161 -107 -265.5t-258 -104.5q-110 0 -206 61t-198 192q-93 -122 -191.5 -187.5t-213.5 -65.5z" />
    <glyph glyph-name="integral" unicode="&#x222b;" horiz-adv-x="792" 
d="M199 -316q-44 0 -84.5 6t-58.5 12l-18 6v171q83 -16 141 -16q71 0 94.5 42.5t23.5 138.5v1126q0 382 307 382q40 0 80.5 -6t61.5 -12l20 -6v-177q-70 20 -127 20q-73 0 -99 -42.5t-26 -137.5v-1126q0 -115 -29.5 -197.5t-101.5 -133t-184 -50.5z" />
    <glyph glyph-name="approxequal" unicode="&#x2248;" horiz-adv-x="1351" 
d="M282 185l-155 61q39 148 114.5 214.5t188.5 66.5q96 0 276 -76q62 -25 87 -34.5t63 -20t61 -10.5q52 0 82.5 36t54.5 125l157 -55q-37 -152 -104.5 -219t-182.5 -67q-103 0 -292 81q-138 58 -194 58q-59 0 -94 -36.5t-62 -123.5zM282 674l-156 58q38 148 113.5 215
t189.5 67q106 0 273 -77q142 -64 214 -64q53 0 83.5 36t53.5 125l157 -54q-36 -152 -104 -219.5t-183 -67.5q-109 0 -292 80q-138 60 -194 60q-58 0 -92.5 -36.5t-62.5 -122.5z" />
    <glyph glyph-name="notequal" unicode="&#x2260;" horiz-adv-x="1377" 
d="M499 39l-173 27l115 242h-276v168h362l111 213h-473v169h555l129 264l179 -26l-118 -238h310v-169h-390l-114 -213h504v-168h-588z" />
    <glyph glyph-name="lessequal" unicode="&#x2264;" horiz-adv-x="1351" 
d="M127 0v163h1033v-163h-1033zM1141 244l-1005 470v108l1009 472v-206l-717 -320l713 -322v-202z" />
    <glyph glyph-name="greaterequal" unicode="&#x2265;" horiz-adv-x="1351" 
d="M132 0v163h1033v-163h-1033zM139 243v206l717 320l-713 322v203l1005 -471v-107z" />
    <glyph glyph-name="lozenge" unicode="&#x25ca;" horiz-adv-x="1248" 
d="M599 190l307 513l-299 501l-307 -501zM526 -40l-443 743l449 745h147l445 -744l-453 -744h-145z" />
    <glyph glyph-name="uniFB00" unicode="&#xfb00;" horiz-adv-x="1516" 
d="M1215 881v-881h-217v881h-525v-881h-217v881h-186v145h186v58q0 65 3 109.5t13 90t28.5 74.5t48.5 55t74.5 40t105 22t141.5 8h50l-6 -168q-58 0 -95.5 -3t-66 -13.5t-43 -23.5t-23.5 -41t-11 -57.5t-2 -81.5v-69h525v58q0 65 3 109.5t13 90t28.5 74.5t48.5 55t74.5 40
t105 22t141.5 8h50l-6 -168q-58 0 -95.5 -3t-66 -13.5t-43 -23.5t-23.5 -41t-11 -57.5t-2 -81.5v-69h238v-145h-238z" />
    <glyph glyph-name="uniFB01" unicode="&#xfb01;" horiz-adv-x="1260" 
d="M256 0v881h-186v145h186v58q0 65 3 109.5t13 90t28.5 74.5t48.5 55t74.5 40t105 22t141.5 8h50l-6 -168q-58 0 -95.5 -3t-66 -13.5t-43 -23.5t-23.5 -41t-11 -57.5t-2 -81.5v-69h447v-145h-447v-881h-217zM892 1256v200h218v-200h-218zM891 0v1026h219v-1026h-219z" />
    <glyph glyph-name="uniFB02" unicode="&#xfb02;" horiz-adv-x="1270" 
d="M262 0v881h-192v145h192v43q0 109 18 179.5t66.5 121t134.5 72.5t220 22h417v-1464h-216v1296h-169q-107 0 -161.5 -18t-74 -55.5t-19.5 -111.5v-85h238v-145h-238v-881h-216z" />
    <glyph glyph-name="uniFB03" unicode="&#xfb03;" horiz-adv-x="2023" 
d="M1869 1261h-213v195h213v-195zM1869 0h-213v881h-450v-881h-217v881h-516v-881h-217v881h-186v145h186v58q0 65 3 109.5t13 90t28.5 74.5t48.5 55t74.5 40t105 22t141.5 8h50l-6 -169q-58 0 -95.5 -3t-66 -13.5t-43 -23.5t-23.5 -41t-11 -57.5t-2 -81.5v-68h516v58
q0 65 3 109.5t13 90t28.5 74.5t48.5 55t74.5 40t105 22t141.5 8h50l-6 -169q-58 0 -95.5 -3t-66 -13.5t-43 -23.5t-23.5 -41t-11 -57.5t-2 -81.5v-68h663v-1026z" />
    <glyph glyph-name="uniFB04" unicode="&#xfb04;" horiz-adv-x="2055" 
d="M257 0v881h-187v145h187v54q0 58 2.5 98.5t9.5 82.5t20 70t34 55t52 43.5t74 29.5t99 18.5t127 5.5h51l-7 -173q-58 0 -94.5 -3t-65 -13t-43 -23t-23.5 -41t-11 -58.5t-2 -82.5v-63h310v-145h-310v-881h-223zM907 0v881h-192v145h192v43q0 109 18 179.5t66.5 121
t134.5 72.5t220 22h417v-1464h-216v1296h-169q-107 0 -161.5 -18t-74 -55.5t-19.5 -111.5v-85h238v-145h-238v-881h-216z" />
    <glyph glyph-name="NULL" horiz-adv-x="240" 
 />
    <glyph glyph-name="caron.alt" horiz-adv-x="600" 
d="M302 963l111 493h252l-175 -493h-188z" />
    <glyph glyph-name="fj" horiz-adv-x="1328" 
d="M966 1246v210h222v-210h-222zM840 -394q-57 0 -157 19l12 167q72 -16 115 -16q80 0 119 58t39 198v994h217v-971q0 -76 -7.5 -136t-29.5 -121t-59 -101t-100.5 -65.5t-148.5 -25.5zM257 0v876h-187v150h187v54q0 58 2.5 98.5t9.5 82.5t20 70t34 55t52 43.5t74 29.5
t99 18.5t127 5.5h51l-7 -173q-58 0 -94.5 -3t-65 -13t-43 -23t-23.5 -41t-11 -58.5t-2 -82.5v-63h237v-150h-237v-876h-223z" />
    <glyph glyph-name="foundryicon" horiz-adv-x="1347" 
d="M485 405h106v147l170 -147h106v267h-106v-149l-170 149h-106v-267zM280 2l143 459l-389 294h485l150 460l159 -460h485l-391 -294l144 -459l-397 276z" />
    <glyph glyph-name="i.loclTRK" horiz-adv-x="521" 
d="M143 0v1026h225v-1026h-225zM145 1220v210h222v-210h-222z" />
    <glyph glyph-name="middot" horiz-adv-x="600" 
 />
    <glyph glyph-name="slashbar" horiz-adv-x="600" 
 />
    <glyph glyph-name="mu" horiz-adv-x="1203" 
d="M365 -241h-226v1267h221l2 -604q0 -264 211 -264q122 0 185 62.5t63 198.5v607h225v-764q0 -148 13 -262h-232l-4 155q-34 -80 -111 -129t-174 -49q-107 0 -173 44v-262z" />
    </font>
</defs>
</svg>
